osu file format v14

[General]
AudioFilename: audio.ogg
AudioLeadIn: 0
PreviewTime: 6421
Countdown: 0
SampleSet: Normal
StackLeniency: 0.7
Mode: 1
LetterboxInBreaks: 0
WidescreenStoryboard: 0

[Editor]
Bookmarks: 6406,18273,41958,144199
DistanceSpacing: 0.6
BeatDivisor: 12
GridSize: 4
TimelineZoom: 2.3

[Metadata]
Title:Shoutoku Densetsu ~ True Administrator
TitleUnicode:聖徳伝説 ~ True Administrator
Artist:CROW'SCLAW
ArtistUnicode:CROW'SCLAW
Creator:CallMeLyra
Version:Ten Conversations
Source:東方深秘録 ~ Urban Legend in Limbo.
Tags:jarvisgaming video game metal instrumental th14.5 th15.5 東方憑依華 ~ Antinomy of Common Flowers. 豊聡耳 神子 Toyosatomimi no Miko ZUN Twilight Frontier Tasofro 黄昏フロンティア Team Shanghai Alice 上海アリス幻樂団 Taka 鷹 Shinpiroku ulil aocf 東方project touhou deep secret record crowsclaw legend 東方神霊廟 ~ Ten Desires. shinreibyou divine spirit mausoleum td possession bloom hyouibana
BeatmapID:2598358
BeatmapSetID:1250189

[Difficulty]
HPDrainRate:6
CircleSize:5
OverallDifficulty:6
ApproachRate:5
SliderMultiplier:1.4
SliderTickRate:1

[Events]
//Background and Video events
0,0,"Miko.jpg",0,-100
//Break Periods
//Storyboard Layer 0 (Background)
//Storyboard Layer 1 (Fail)
//Storyboard Layer 2 (Pass)
//Storyboard Layer 3 (Foreground)
//Storyboard Layer 4 (Overlay)
//Storyboard Sound Samples

[TimingPoints]
568,370.37037037037,4,1,0,70,1,0
568,-111.111111111111,4,1,0,70,0,0
4966,-106.382978723404,4,1,0,70,0,0
5151,-103.092783505155,4,1,0,70,0,0
5336,-100,4,1,0,70,0,0
5429,-99.009900990099,4,1,0,70,0,0
5521,-98.0392156862745,4,1,0,70,0,0
5614,-97.0873786407767,4,1,0,70,0,0
5706,-96.1538461538461,4,1,0,70,0,0
5799,-95.2380952380952,4,1,0,70,0,0
5892,-94.3396226415094,4,1,0,70,0,0
5984,-93.4579439252336,4,1,0,70,0,0
6077,-92.5925925925926,4,1,0,70,0,0
6308,-89.2857142857143,4,1,0,70,0,0
6493,-86.9565217391304,4,1,0,80,0,0
28855,-89.2857142857143,4,1,0,80,0,0
29040,-91.743119266055,4,1,0,80,0,0
29225,-94.3396226415094,4,1,0,80,0,0
29317,-95.6937799043062,4,1,0,80,0,0
29410,-97.0873786407767,4,1,0,80,0,0
29503,-98.5221674876847,4,1,0,80,0,0
29595,-100,4,1,0,80,0,0
29827,-100,4,1,0,80,0,0
30197,-95.2380952380952,4,1,0,60,0,0
30521,-111.111111111111,4,1,0,70,0,0
36123,-95.2380952380952,4,1,0,70,0,0
36447,-111.111111111111,4,1,0,70,0,0
41632,-100,4,1,0,70,0,0
42003,-90.9090909090909,4,1,0,80,0,0
47558,-83.3333333333333,4,1,0,80,0,0
47929,-76.9230769230769,4,1,0,80,0,0
48299,-90.9090909090909,4,1,0,80,0,0
52836,-89.6860986547085,4,1,0,80,0,0
52929,-88.4955752212389,4,1,0,80,0,0
53021,-87.719298245614,4,1,0,80,0,0
53114,-86.9565217391304,4,1,0,80,0,0
53206,-86.2068965517241,4,1,0,80,0,0
53299,-85.4700854700855,4,1,0,80,0,0
53392,-84.7457627118644,4,1,0,80,0,0
53484,-84.0336134453781,4,1,0,80,0,0
53577,-83.3333333333333,4,1,0,80,0,0
53669,-82.6446280991736,4,1,0,80,0,0
53762,-81.9672131147541,4,1,0,80,0,0
53855,-81.3008130081301,4,1,0,80,0,0
54225,-100,4,1,0,80,0,0
56447,-86.9565217391304,4,1,0,80,0,0
57095,-100,4,1,0,80,0,0
59410,-86.9565217391304,4,1,0,80,0,0
60058,-100,4,1,0,80,0,0
61262,-86.9565217391304,4,1,0,80,0,0
61540,-97.5609756097561,4,1,0,80,0,0
62743,-86.9565217391304,4,1,0,80,0,0
63021,-95.2380952380952,4,1,0,80,0,0
64240,-86.9565217391304,4,1,0,80,0,0
64503,-94.3396226415094,4,1,0,80,0,0
64595,-93.4579439252336,4,1,0,80,0,0
64780,-91.743119266055,4,1,0,80,0,0
64966,-90.0900900900901,4,1,0,80,0,0
65151,-88.4955752212389,4,1,0,80,0,0
65336,-86.9565217391304,4,1,0,80,0,0
65706,-95.2380952380952,4,1,0,80,0,0
65969,-105.263157894737,4,1,0,80,0,0
66092,-108.108108108108,4,1,0,80,0,0
66216,-111.111111111111,4,1,0,80,0,0
66447,-95.2380952380952,4,1,0,80,0,0
66710,-105.263157894737,4,1,0,80,0,0
66833,-108.108108108108,4,1,0,80,0,0
66957,-111.111111111111,4,1,0,80,0,0
67188,-95.2380952380952,4,1,0,80,0,0
67451,-105.263157894737,4,1,0,80,0,0
67574,-108.108108108108,4,1,0,80,0,0
67698,-111.111111111111,4,1,0,80,0,0
67929,-95.2380952380952,4,1,0,80,0,0
68192,-105.263157894737,4,1,0,80,0,0
68315,-108.108108108108,4,1,0,80,0,0
68439,-111.111111111111,4,1,0,80,0,0
68669,-95.2380952380952,4,1,0,80,0,0
68932,-105.263157894737,4,1,0,80,0,0
69055,-108.108108108108,4,1,0,80,0,0
69179,-111.111111111111,4,1,0,80,0,0
69410,-95.2380952380952,4,1,0,80,0,0
69673,-105.263157894737,4,1,0,80,0,0
69796,-108.108108108108,4,1,0,80,0,0
69920,-111.111111111111,4,1,0,80,0,0
70151,-95.2380952380952,4,1,0,80,0,0
70413,-105.263157894737,4,1,0,80,0,0
70537,-106.951871657754,4,1,0,80,0,0
70660,-108.695652173913,4,1,0,80,0,0
70784,-110.497237569061,4,1,0,80,0,0
70907,-112.359550561798,4,1,0,80,0,0
71154,-116.279069767442,4,1,0,80,0,0
71401,-120.481927710843,4,1,0,80,0,0
71632,-100,4,1,0,80,0,0
72373,-62.5,4,1,0,80,0,0
72466,-64.5161290322581,4,1,0,80,0,0
72559,-66.6666666666667,4,1,0,80,0,0
72651,-68.9655172413793,4,1,0,80,0,0
72744,-71.4285714285714,4,1,0,80,0,0
72836,-74.0740740740741,4,1,0,80,0,0
72929,-76.9230769230769,4,1,0,80,0,0
73022,-80,4,1,0,80,0,0
73160,-83.3333333333333,4,1,0,80,0,1
73299,-86.9565217391304,4,1,0,80,0,1
96077,-86.2068965517241,4,1,0,80,0,1
96170,-85.8369098712446,4,1,0,80,0,1
96263,-85.4700854700855,4,1,0,80,0,1
96355,-85.1063829787234,4,1,0,80,0,1
96493,-84.7457627118644,4,1,0,80,0,1
96586,-84.3881856540084,4,1,0,80,0,1
96679,-84.0336134453781,4,1,0,80,0,1
96771,-83.6820083682008,4,1,0,80,0,1
96864,-83.3333333333333,4,1,0,80,0,1
107234,-83.3333333333333,4,1,0,80,0,0
108716,-83.3333333333333,4,1,0,80,0,1
119225,-84.7457627118644,4,1,0,80,0,1
119317,-86.2068965517241,4,1,0,80,0,1
119410,-87.719298245614,4,1,0,80,0,1
119595,-90.9090909090909,4,1,0,80,0,1
119688,-92.5925925925926,4,1,0,80,0,1
119780,-94.3396226415094,4,1,0,80,0,1
119966,-98.0392156862745,4,1,0,80,0,1
120058,-99.502487562189,4,1,0,80,0,1
120197,-101.010101010101,4,1,0,80,0,1
120290,-102.564102564103,4,1,0,80,0,1
120382,-104.166666666667,4,1,0,80,0,1
120567,-107.52688172043,4,1,0,50,0,0
120614,-200,4,1,0,50,0,0
123484,-222.222222222222,4,1,0,50,0,0
124966,-250,4,1,0,50,0,0
125706,-277.777777777778,4,1,0,50,0,0
126447,-312.5,4,1,0,50,0,0
127929,-344.827586206897,4,1,0,50,0,0
129410,-384.615384615385,4,1,0,50,0,0
130706,-166.666666666667,4,1,0,50,0,0
130799,-163.934426229508,4,1,0,50,0,0
130892,-161.290322580645,4,1,0,50,0,0
131077,-156.25,4,1,0,50,0,0
131262,-151.515151515152,4,1,0,50,0,0
131447,-147.058823529412,4,1,0,50,0,0
131632,-142.857142857143,4,1,0,50,0,0
131817,-137.931034482759,4,1,0,50,0,0
132003,-133.333333333333,4,1,0,50,0,0
132373,-111.111111111111,4,1,0,70,0,0
142743,-106.382978723404,4,1,0,70,0,0
142928,-103.092783505155,4,1,0,70,0,0
143113,-100,4,1,0,70,0,0
143206,-99.009900990099,4,1,0,70,0,0
143298,-98.0392156862745,4,1,0,70,0,0
143391,-97.0873786407767,4,1,0,70,0,0
143483,-96.1538461538461,4,1,0,70,0,0
143576,-95.2380952380952,4,1,0,70,0,0
143669,-94.3396226415094,4,1,0,70,0,0
143761,-93.4579439252336,4,1,0,70,0,0
143854,-92.5925925925926,4,1,0,70,0,0
144085,-89.2857142857143,4,1,0,70,0,0
144270,-86.9565217391304,4,1,0,80,0,0

[HitObjects]
256,192,568,5,0,0:0:0:0:
256,192,753,1,0,0:0:0:0:
256,192,938,1,8,0:0:0:0:
256,192,1123,1,8,0:0:0:0:
256,192,1216,1,0,0:0:0:0:
256,192,1308,1,0,0:0:0:0:
256,192,1493,1,0,0:0:0:0:
256,192,1679,1,8,0:0:0:0:
256,192,2049,1,0,0:0:0:0:
256,192,2234,1,0,0:0:0:0:
256,192,2419,1,8,0:0:0:0:
256,192,2605,1,8,0:0:0:0:
256,192,2697,1,0,0:0:0:0:
256,192,2790,1,0,0:0:0:0:
256,192,2975,1,0,0:0:0:0:
256,192,3160,1,8,0:0:0:0:
256,192,3530,1,0,0:0:0:0:
256,192,3716,1,0,0:0:0:0:
256,192,3901,1,8,0:0:0:0:
256,192,4086,1,8,0:0:0:0:
256,192,4179,1,0,0:0:0:0:
256,192,4271,1,0,0:0:0:0:
256,192,4456,1,0,0:0:0:0:
256,192,4642,1,8,0:0:0:0:
256,192,5012,1,8,0:0:0:0:
256,192,5197,1,8,0:0:0:0:
256,192,5382,1,0,0:0:0:0:
256,192,5475,1,8,0:0:0:0:
256,192,5567,1,0,0:0:0:0:
256,192,5660,1,0,0:0:0:0:
256,192,5753,1,8,0:0:0:0:
256,192,5845,1,8,0:0:0:0:
256,192,5938,1,0,0:0:0:0:
256,192,6123,1,12,0:0:0:0:
256,192,6308,1,0,0:0:0:0:
256,192,6493,5,4,0:0:0:0:
256,192,6679,1,0,0:0:0:0:
256,192,6864,1,8,0:0:0:0:
256,192,7049,1,0,0:0:0:0:
256,192,7142,1,8,0:0:0:0:
256,192,7234,1,8,0:0:0:0:
256,192,7419,1,8,0:0:0:0:
256,192,7605,1,0,0:0:0:0:
256,192,7790,1,8,0:0:0:0:
256,192,7882,1,8,0:0:0:0:
256,192,7975,1,0,0:0:0:0:
256,192,8067,1,0,0:0:0:0:
256,192,8160,1,8,0:0:0:0:
256,192,8345,1,0,0:0:0:0:
256,192,8530,1,8,0:0:0:0:
256,192,8623,1,0,0:0:0:0:
256,192,8716,1,8,0:0:0:0:
256,192,8901,1,0,0:0:0:0:
256,192,8993,1,0,0:0:0:0:
256,192,9086,1,8,0:0:0:0:
256,192,9271,1,0,0:0:0:0:
256,192,9364,1,8,0:0:0:0:
256,192,9456,1,0,0:0:0:0:
256,192,9642,1,8,0:0:0:0:
256,192,9827,1,0,0:0:0:0:
256,192,10012,1,0,0:0:0:0:
256,192,10105,1,8,0:0:0:0:
256,192,10197,1,8,0:0:0:0:
256,192,10382,1,8,0:0:0:0:
256,192,10567,1,0,0:0:0:0:
256,192,10753,1,8,0:0:0:0:
256,192,10845,1,8,0:0:0:0:
256,192,10938,1,0,0:0:0:0:
256,192,11030,1,8,0:0:0:0:
256,192,11123,1,0,0:0:0:0:
256,192,11308,1,0,0:0:0:0:
256,192,11493,1,8,0:0:0:0:
256,192,11586,1,0,0:0:0:0:
256,192,11679,1,8,0:0:0:0:
256,192,11771,1,8,0:0:0:0:
256,192,11864,1,0,0:0:0:0:
256,192,11956,1,0,0:0:0:0:
256,192,12049,1,8,0:0:0:0:
256,192,12142,1,0,0:0:0:0:
256,192,12234,1,8,0:0:0:0:
256,192,12419,1,4,0:0:0:0:
256,192,12605,1,0,0:0:0:0:
256,192,12790,1,8,0:0:0:0:
256,192,12975,1,0,0:0:0:0:
256,192,13067,1,8,0:0:0:0:
256,192,13160,1,8,0:0:0:0:
256,192,13345,1,8,0:0:0:0:
256,192,13530,1,0,0:0:0:0:
256,192,13716,1,8,0:0:0:0:
256,192,13808,1,8,0:0:0:0:
256,192,13901,1,0,0:0:0:0:
256,192,13993,1,0,0:0:0:0:
256,192,14086,1,8,0:0:0:0:
256,192,14271,1,0,0:0:0:0:
256,192,14456,1,8,0:0:0:0:
256,192,14549,1,0,0:0:0:0:
256,192,14642,1,8,0:0:0:0:
256,192,14827,1,0,0:0:0:0:
256,192,14919,1,0,0:0:0:0:
256,192,15012,1,8,0:0:0:0:
256,192,15197,1,0,0:0:0:0:
256,192,15290,1,8,0:0:0:0:
256,192,15382,1,0,0:0:0:0:
256,192,15567,1,8,0:0:0:0:
256,192,15753,1,0,0:0:0:0:
256,192,15938,1,0,0:0:0:0:
256,192,16030,1,8,0:0:0:0:
256,192,16123,1,8,0:0:0:0:
256,192,16308,1,8,0:0:0:0:
256,192,16493,1,0,0:0:0:0:
256,192,16679,1,8,0:0:0:0:
256,192,16771,1,8,0:0:0:0:
256,192,16864,1,0,0:0:0:0:
256,192,16956,1,8,0:0:0:0:
256,192,17049,1,0,0:0:0:0:
256,192,17234,1,0,0:0:0:0:
256,192,17419,1,0,0:0:0:0:
256,192,17512,1,0,0:0:0:0:
256,192,17605,1,8,0:0:0:0:
256,192,17697,1,8,0:0:0:0:
256,192,17790,1,0,0:0:0:0:
256,192,17882,1,8,0:0:0:0:
256,192,17975,1,0,0:0:0:0:
256,192,18067,1,0,0:0:0:0:
256,192,18160,1,8,0:0:0:0:
256,192,18345,5,4,0:0:0:0:
256,192,18530,1,8,0:0:0:0:
256,192,18716,1,0,0:0:0:0:
256,192,18901,1,0,0:0:0:0:
256,192,18993,1,0,0:0:0:0:
256,192,19086,1,8,0:0:0:0:
256,192,19271,1,8,0:0:0:0:
256,192,19456,1,0,0:0:0:0:
256,192,19642,1,8,0:0:0:0:
256,192,19734,1,8,0:0:0:0:
256,192,19827,1,0,0:0:0:0:
256,192,19919,1,0,0:0:0:0:
256,192,20012,1,8,0:0:0:0:
256,192,20197,1,0,0:0:0:0:
256,192,20382,1,0,0:0:0:0:
256,192,20475,1,0,0:0:0:0:
256,192,20567,1,8,0:0:0:0:
256,192,20753,1,8,0:0:0:0:
256,192,20845,1,8,0:0:0:0:
256,192,20938,1,0,0:0:0:0:
256,192,21123,1,0,0:0:0:0:
256,192,21216,1,8,0:0:0:0:
256,192,21308,1,0,0:0:0:0:
256,192,21493,1,8,0:0:0:0:
256,192,21679,1,0,0:0:0:0:
256,192,21864,1,0,0:0:0:0:
256,192,21956,1,8,0:0:0:0:
256,192,22049,1,8,0:0:0:0:
256,192,22234,1,8,0:0:0:0:
256,192,22419,1,0,0:0:0:0:
256,192,22605,1,8,0:0:0:0:
256,192,22697,1,8,0:0:0:0:
256,192,22790,1,0,0:0:0:0:
256,192,22882,1,8,0:0:0:0:
256,192,22975,1,0,0:0:0:0:
256,192,23160,1,0,0:0:0:0:
256,192,23345,1,8,0:0:0:0:
256,192,23438,1,0,0:0:0:0:
256,192,23530,1,8,0:0:0:0:
256,192,23623,1,8,0:0:0:0:
256,192,23716,1,0,0:0:0:0:
256,192,23808,1,8,0:0:0:0:
256,192,23901,1,0,0:0:0:0:
256,192,23993,1,0,0:0:0:0:
256,192,24086,1,8,0:0:0:0:
256,192,24271,1,4,0:0:0:0:
256,192,24456,1,8,0:0:0:0:
256,192,24642,1,0,0:0:0:0:
256,192,24827,1,0,0:0:0:0:
256,192,24919,1,0,0:0:0:0:
256,192,25012,1,8,0:0:0:0:
256,192,25197,1,8,0:0:0:0:
256,192,25382,1,0,0:0:0:0:
256,192,25567,1,8,0:0:0:0:
256,192,25660,1,8,0:0:0:0:
256,192,25753,1,0,0:0:0:0:
256,192,25845,1,0,0:0:0:0:
256,192,25938,1,8,0:0:0:0:
256,192,26123,1,0,0:0:0:0:
256,192,26308,1,0,0:0:0:0:
256,192,26401,1,0,0:0:0:0:
256,192,26493,1,8,0:0:0:0:
256,192,26679,1,8,0:0:0:0:
256,192,26771,1,8,0:0:0:0:
256,192,26864,1,0,0:0:0:0:
256,192,27049,1,0,0:0:0:0:
256,192,27234,1,12,0:0:0:0:
256,192,27419,1,8,0:0:0:0:
256,192,27605,1,0,0:0:0:0:
256,192,27790,1,0,0:0:0:0:
256,192,27882,1,8,0:0:0:0:
256,192,27975,1,8,0:0:0:0:
256,192,28160,1,8,0:0:0:0:
256,192,28345,1,0,0:0:0:0:
256,192,28530,1,8,0:0:0:0:
256,192,28623,1,8,0:0:0:0:
256,192,28716,1,0,0:0:0:0:
256,192,28901,1,0,0:0:0:0:
256,192,29086,1,0,0:0:0:0:
256,192,29271,1,0,0:0:0:0:
256,192,29364,1,0,0:0:0:0:
256,192,29456,1,8,0:0:0:0:
256,192,29549,1,0,0:0:0:0:
256,192,29642,1,8,0:0:0:0:
256,192,29827,1,12,0:0:0:0:
256,192,30197,5,12,0:0:0:0:
256,192,30567,1,0,0:0:0:0:
256,192,30753,1,0,0:0:0:0:
256,192,30845,1,8,0:0:0:0:
256,192,30938,1,8,0:0:0:0:
256,192,31123,1,0,0:0:0:0:
256,192,31308,1,8,0:0:0:0:
256,192,31401,1,0,0:0:0:0:
256,192,31679,1,0,0:0:0:0:
256,192,31864,1,0,0:0:0:0:
256,192,32049,1,8,0:0:0:0:
256,192,32234,1,8,0:0:0:0:
256,192,32327,1,0,0:0:0:0:
256,192,32419,1,8,0:0:0:0:
256,192,32605,1,0,0:0:0:0:
256,192,32697,1,0,0:0:0:0:
256,192,32790,1,8,0:0:0:0:
256,192,32975,1,8,0:0:0:0:
256,192,33160,1,0,0:0:0:0:
256,192,33345,1,0,0:0:0:0:
256,192,33530,1,8,0:0:0:0:
256,192,33716,1,0,0:0:0:0:
256,192,33808,1,0,0:0:0:0:
256,192,33901,1,8,0:0:0:0:
256,192,34086,1,8,0:0:0:0:
256,192,34179,1,0,0:0:0:0:
256,192,34271,1,8,0:0:0:0:
256,192,34456,1,0,0:0:0:0:
256,192,34549,1,8,0:0:0:0:
256,192,34642,1,0,0:0:0:0:
256,192,35012,1,8,0:0:0:0:
256,192,35197,1,0,0:0:0:0:
256,192,35290,1,8,0:0:0:0:
256,192,35382,1,0,0:0:0:0:
256,192,35567,1,0,0:0:0:0:
256,192,35753,1,8,0:0:0:0:
256,192,36123,1,12,0:0:0:0:
256,192,36493,1,0,0:0:0:0:
256,192,36679,1,0,0:0:0:0:
256,192,36771,1,8,0:0:0:0:
256,192,36864,1,8,0:0:0:0:
256,192,37049,1,0,0:0:0:0:
256,192,37234,1,8,0:0:0:0:
256,192,37327,1,0,0:0:0:0:
256,192,37605,1,0,0:0:0:0:
256,192,37790,1,0,0:0:0:0:
256,192,37975,1,8,0:0:0:0:
256,192,38160,1,8,0:0:0:0:
256,192,38253,1,8,0:0:0:0:
256,192,38345,1,0,0:0:0:0:
256,192,38530,1,0,0:0:0:0:
256,192,38623,1,0,0:0:0:0:
256,192,38716,1,8,0:0:0:0:
256,192,38901,1,8,0:0:0:0:
256,192,39086,1,0,0:0:0:0:
256,192,39271,1,8,0:0:0:0:
256,192,39456,1,8,0:0:0:0:
256,192,39642,1,8,0:0:0:0:
256,192,39734,1,8,0:0:0:0:
256,192,39827,1,0,0:0:0:0:
256,192,40012,1,0,0:0:0:0:
256,192,40105,1,0,0:0:0:0:
256,192,40197,1,8,0:0:0:0:
256,192,40567,1,0,0:0:0:0:
256,192,40753,1,0,0:0:0:0:
256,192,40938,1,8,0:0:0:0:
256,192,41123,1,0,0:0:0:0:
256,192,41216,1,8,0:0:0:0:
256,192,41308,1,0,0:0:0:0:
256,192,41401,1,8,0:0:0:0:
256,192,41493,1,0,0:0:0:0:
256,192,41679,1,12,0:0:0:0:
256,192,42049,5,4,0:0:0:0:
256,192,42419,1,8,0:0:0:0:
256,192,42605,1,0,0:0:0:0:
256,192,42697,1,8,0:0:0:0:
256,192,42790,1,8,0:0:0:0:
256,192,42975,1,0,0:0:0:0:
256,192,43160,1,0,0:0:0:0:
256,192,43253,1,0,0:0:0:0:
256,192,43345,1,8,0:0:0:0:
256,192,43438,1,8,0:0:0:0:
256,192,43530,1,0,0:0:0:0:
256,192,43716,1,0,0:0:0:0:
256,192,43901,1,8,0:0:0:0:
256,192,43993,1,0,0:0:0:0:
256,192,44086,1,8,0:0:0:0:
256,192,44271,1,8,0:0:0:0:
256,192,44456,1,0,0:0:0:0:
256,192,44549,1,0,0:0:0:0:
256,192,44642,1,8,0:0:0:0:
256,192,44827,1,8,0:0:0:0:
256,192,45012,1,0,0:0:0:0:
256,192,45105,1,8,0:0:0:0:
256,192,45197,1,0,0:0:0:0:
256,192,45290,1,0,0:0:0:0:
256,192,45382,1,8,0:0:0:0:
256,192,45567,1,0,0:0:0:0:
256,192,45660,1,8,0:0:0:0:
256,192,45753,1,8,0:0:0:0:
256,192,45938,1,0,0:0:0:0:
256,192,46030,1,0,0:0:0:0:
256,192,46123,1,8,0:0:0:0:
256,192,46308,1,8,0:0:0:0:
256,192,46401,1,0,0:0:0:0:
256,192,46493,1,8,0:0:0:0:
256,192,46586,1,8,0:0:0:0:
256,192,46679,1,0,0:0:0:0:
256,192,46864,1,8,0:0:0:0:
256,192,46956,1,0,0:0:0:0:
256,192,47049,1,0,0:0:0:0:
256,192,47142,1,8,0:0:0:0:
256,192,47234,1,0,0:0:0:0:
256,192,47327,1,8,0:0:0:0:
256,192,47419,1,0,0:0:0:0:
256,192,47605,1,12,0:0:0:0:
256,192,47975,1,4,0:0:0:0:
256,192,48345,1,8,0:0:0:0:
256,192,48530,1,0,0:0:0:0:
256,192,48623,1,8,0:0:0:0:
256,192,48716,1,8,0:0:0:0:
256,192,48901,1,0,0:0:0:0:
256,192,49086,1,0,0:0:0:0:
256,192,49179,1,0,0:0:0:0:
256,192,49271,1,8,0:0:0:0:
256,192,49364,1,8,0:0:0:0:
256,192,49456,1,0,0:0:0:0:
256,192,49642,1,0,0:0:0:0:
256,192,49827,1,8,0:0:0:0:
256,192,49919,1,0,0:0:0:0:
256,192,50012,1,8,0:0:0:0:
256,192,50197,1,0,0:0:0:0:
256,192,50382,1,0,0:0:0:0:
256,192,50475,1,0,0:0:0:0:
256,192,50567,1,8,0:0:0:0:
256,192,50753,1,8,0:0:0:0:
256,192,50938,1,0,0:0:0:0:
256,192,51030,1,0,0:0:0:0:
256,192,51123,1,8,0:0:0:0:
256,192,51216,1,0,0:0:0:0:
256,192,51308,1,8,0:0:0:0:
256,192,51493,1,8,0:0:0:0:
256,192,51586,1,8,0:0:0:0:
256,192,51679,1,0,0:0:0:0:
256,192,51864,1,0,0:0:0:0:
256,192,51956,1,0,0:0:0:0:
256,192,52049,1,8,0:0:0:0:
256,192,52234,1,0,0:0:0:0:
256,192,52327,1,0,0:0:0:0:
256,192,52419,1,8,0:0:0:0:
256,192,52512,1,0,0:0:0:0:
256,192,52605,1,0,0:0:0:0:
256,192,52790,1,8,0:0:0:0:
256,192,52882,1,8,0:0:0:0:
256,192,52975,1,0,0:0:0:0:
256,192,53067,1,8,0:0:0:0:
256,192,53160,1,8,0:0:0:0:
256,192,53253,1,8,0:0:0:0:
256,192,53345,1,0,0:0:0:0:
256,192,53438,1,0,0:0:0:0:
256,192,53530,1,8,0:0:0:0:
256,192,53623,1,8,0:0:0:0:
256,192,53716,1,0,0:0:0:0:
256,192,53808,1,0,0:0:0:0:
256,192,53901,5,12,0:0:0:0:
256,192,54271,1,8,0:0:0:0:
256,192,54456,1,0,0:0:0:0:
256,192,54549,1,8,0:0:0:0:
256,192,54642,1,0,0:0:0:0:
256,192,54827,1,0,0:0:0:0:
256,192,55012,1,8,0:0:0:0:
256,192,55197,1,0,0:0:0:0:
256,192,55382,1,8,0:0:0:0:
256,192,55567,1,0,0:0:0:0:
256,192,55660,1,0,0:0:0:0:
256,192,55753,1,8,0:0:0:0:
256,192,55938,1,0,0:0:0:0:
256,192,56123,1,8,0:0:0:0:
256,192,56216,1,8,0:0:0:0:
256,192,56308,1,0,0:0:0:0:
256,192,56493,1,12,0:0:0:0:
256,192,56864,1,12,0:0:0:0:
256,192,57142,1,0,0:0:0:0:
256,192,57234,1,8,0:0:0:0:
256,192,57419,1,0,0:0:0:0:
256,192,57512,1,0,0:0:0:0:
256,192,57605,1,8,0:0:0:0:
256,192,57790,1,8,0:0:0:0:
256,192,57975,1,0,0:0:0:0:
256,192,58160,1,0,0:0:0:0:
256,192,58253,1,8,0:0:0:0:
256,192,58345,1,8,0:0:0:0:
256,192,58530,1,0,0:0:0:0:
256,192,58623,1,0,0:0:0:0:
256,192,58716,1,8,0:0:0:0:
256,192,58901,1,8,0:0:0:0:
256,192,59086,1,8,0:0:0:0:
256,192,59179,1,0,0:0:0:0:
256,192,59271,1,0,0:0:0:0:
256,192,59456,1,12,0:0:0:0:
256,192,59827,1,12,0:0:0:0:
256,192,60105,1,0,0:0:0:0:
256,192,60197,1,8,0:0:0:0:
256,192,60382,1,0,0:0:0:0:
256,192,60567,1,8,0:0:0:0:
256,192,60753,1,0,0:0:0:0:
256,192,60845,1,0,0:0:0:0:
256,192,60938,1,8,0:0:0:0:
256,192,61123,1,8,0:0:0:0:
256,192,61308,1,4,0:0:0:0:
256,192,61586,1,0,0:0:0:0:
256,192,61679,1,8,0:0:0:0:
256,192,61864,1,0,0:0:0:0:
256,192,62049,1,8,0:0:0:0:
256,192,62234,1,0,0:0:0:0:
256,192,62327,1,8,0:0:0:0:
256,192,62419,1,8,0:0:0:0:
256,192,62605,1,8,0:0:0:0:
256,192,62790,1,4,0:0:0:0:
256,192,63067,1,8,0:0:0:0:
256,192,63160,1,8,0:0:0:0:
256,192,63345,1,0,0:0:0:0:
256,192,63530,1,8,0:0:0:0:
256,192,63716,1,0,0:0:0:0:
256,192,63808,1,8,0:0:0:0:
256,192,63901,1,8,0:0:0:0:
256,192,64086,1,8,0:0:0:0:
256,192,64271,1,4,0:0:0:0:
256,192,64549,1,0,0:0:0:0:
256,192,64642,1,8,0:0:0:0:
256,192,64827,1,12,0:0:0:0:
256,192,65012,1,0,0:0:0:0:
256,192,65197,1,0,0:0:0:0:
256,192,65382,1,12,0:0:0:0:
256,192,65753,5,4,0:0:0:0:
256,192,66000,1,0,0:0:0:0:
256,192,66123,1,0,0:0:0:0:
256,192,66247,1,0,0:0:0:0:
256,192,66493,1,12,0:0:0:0:
256,192,66740,1,8,0:0:0:0:
256,192,66864,1,8,0:0:0:0:
256,192,66987,1,8,0:0:0:0:
256,192,67234,1,4,0:0:0:0:
256,192,67481,1,0,0:0:0:0:
256,192,67605,1,8,0:0:0:0:
256,192,67728,1,0,0:0:0:0:
256,192,67975,1,12,0:0:0:0:
256,192,68222,1,8,0:0:0:0:
256,192,68345,1,0,0:0:0:0:
256,192,68469,1,8,0:0:0:0:
256,192,68716,1,4,0:0:0:0:
256,192,68963,1,0,0:0:0:0:
256,192,69086,1,0,0:0:0:0:
256,192,69209,1,8,0:0:0:0:
256,192,69456,1,12,0:0:0:0:
256,192,69703,1,8,0:0:0:0:
256,192,69827,1,8,0:0:0:0:
256,192,69950,1,0,0:0:0:0:
256,192,70197,1,8,0:0:0:0:
256,192,70444,1,0,0:0:0:0:
256,192,70567,1,8,0:0:0:0:
256,192,70691,1,0,0:0:0:0:
256,192,70814,1,0,0:0:0:0:
256,192,70938,1,8,0:0:0:0:
256,192,71185,1,0,0:0:0:0:
256,192,71432,1,0,0:0:0:0:
256,192,71679,1,12,0:0:0:0:
256,192,72419,1,8,0:0:0:0:
256,192,72512,1,8,0:0:0:0:
256,192,72605,1,0,0:0:0:0:
256,192,72697,1,0,0:0:0:0:
256,192,72790,1,8,0:0:0:0:
256,192,72882,1,8,0:0:0:0:
256,192,72975,1,0,0:0:0:0:
256,192,73067,1,0,0:0:0:0:
256,192,73160,5,12,0:0:0:0:
256,192,73530,1,8,0:0:0:0:
256,192,73716,1,0,0:0:0:0:
256,192,73808,1,0,0:0:0:0:
256,192,73901,1,0,0:0:0:0:
256,192,74086,1,0,0:0:0:0:
256,192,74179,1,0,0:0:0:0:
256,192,74271,1,8,0:0:0:0:
256,192,74456,1,0,0:0:0:0:
256,192,74549,1,0,0:0:0:0:
256,192,74642,1,8,0:0:0:0:
256,192,74734,1,8,0:0:0:0:
256,192,74827,1,0,0:0:0:0:
256,192,75012,1,0,0:0:0:0:
256,192,75197,1,8,0:0:0:0:
256,192,75290,1,8,0:0:0:0:
256,192,75382,1,0,0:0:0:0:
256,192,75567,1,0,0:0:0:0:
256,192,75753,1,8,0:0:0:0:
256,192,75845,1,0,0:0:0:0:
256,192,75938,1,0,0:0:0:0:
256,192,76123,1,8,0:0:0:0:
256,192,76308,1,0,0:0:0:0:
256,192,76493,1,8,0:0:0:0:
256,192,76586,1,8,0:0:0:0:
256,192,76679,1,0,0:0:0:0:
256,192,76771,1,0,0:0:0:0:
256,192,76864,1,0,0:0:0:0:
256,192,77049,1,0,0:0:0:0:
256,192,77142,1,0,0:0:0:0:
256,192,77234,1,8,0:0:0:0:
256,192,77419,1,8,0:0:0:0:
256,192,77512,1,8,0:0:0:0:
256,192,77605,1,0,0:0:0:0:
256,192,77790,1,0,0:0:0:0:
256,192,77882,1,8,0:0:0:0:
256,192,77975,1,0,0:0:0:0:
256,192,78067,1,0,0:0:0:0:
256,192,78160,1,8,0:0:0:0:
256,192,78345,1,0,0:0:0:0:
256,192,78438,1,0,0:0:0:0:
256,192,78530,1,0,0:0:0:0:
256,192,78716,1,8,0:0:0:0:
256,192,78808,1,0,0:0:0:0:
256,192,78901,1,0,0:0:0:0:
256,192,79086,1,0,0:0:0:0:
256,192,79179,1,0,0:0:0:0:
256,192,79271,1,0,0:0:0:0:
256,192,79364,1,0,0:0:0:0:
256,192,79456,1,8,0:0:0:0:
256,192,79642,1,0,0:0:0:0:
256,192,79734,1,8,0:0:0:0:
256,192,79827,1,0,0:0:0:0:
256,192,79919,1,0,0:0:0:0:
256,192,80012,1,0,0:0:0:0:
256,192,80197,1,8,0:0:0:0:
256,192,80290,1,8,0:0:0:0:
256,192,80382,1,0,0:0:0:0:
256,192,80567,1,0,0:0:0:0:
256,192,80660,1,8,0:0:0:0:
256,192,80753,1,0,0:0:0:0:
256,192,80845,1,8,0:0:0:0:
256,192,80938,1,8,0:0:0:0:
256,192,81123,1,0,0:0:0:0:
256,192,81216,1,0,0:0:0:0:
256,192,81308,1,0,0:0:0:0:
256,192,81493,1,0,0:0:0:0:
256,192,81679,1,8,0:0:0:0:
256,192,81864,1,0,0:0:0:0:
256,192,81956,1,8,0:0:0:0:
256,192,82049,1,0,0:0:0:0:
256,192,82234,1,8,0:0:0:0:
256,192,82327,1,0,0:0:0:0:
256,192,82419,1,8,0:0:0:0:
256,192,82605,1,0,0:0:0:0:
256,192,82790,1,8,0:0:0:0:
256,192,82975,1,8,0:0:0:0:
256,192,83067,1,8,0:0:0:0:
256,192,83160,1,0,0:0:0:0:
256,192,83345,1,0,0:0:0:0:
256,192,83530,1,0,0:0:0:0:
256,192,83623,1,0,0:0:0:0:
256,192,83716,1,8,0:0:0:0:
256,192,83901,1,0,0:0:0:0:
256,192,83993,1,0,0:0:0:0:
256,192,84086,1,8,0:0:0:0:
256,192,84271,1,8,0:0:0:0:
256,192,84364,1,8,0:0:0:0:
256,192,84456,1,0,0:0:0:0:
256,192,84549,1,8,0:0:0:0:
256,192,84642,1,0,0:0:0:0:
256,192,84827,1,0,0:0:0:0:
256,192,85012,5,12,0:0:0:0:
256,192,85197,1,0,0:0:0:0:
256,192,85290,1,0,0:0:0:0:
256,192,85382,1,8,0:0:0:0:
256,192,85567,1,0,0:0:0:0:
256,192,85660,1,0,0:0:0:0:
256,192,85753,1,0,0:0:0:0:
256,192,85938,1,0,0:0:0:0:
256,192,86030,1,0,0:0:0:0:
256,192,86123,1,8,0:0:0:0:
256,192,86308,1,0,0:0:0:0:
256,192,86401,1,8,0:0:0:0:
256,192,86493,1,8,0:0:0:0:
256,192,86586,1,8,0:0:0:0:
256,192,86679,1,0,0:0:0:0:
256,192,86864,1,0,0:0:0:0:
256,192,87049,1,8,0:0:0:0:
256,192,87142,1,8,0:0:0:0:
256,192,87234,1,8,0:0:0:0:
256,192,87419,1,0,0:0:0:0:
256,192,87605,1,8,0:0:0:0:
256,192,87697,1,0,0:0:0:0:
256,192,87790,1,0,0:0:0:0:
256,192,87975,1,8,0:0:0:0:
256,192,88160,1,0,0:0:0:0:
256,192,88253,1,8,0:0:0:0:
256,192,88345,1,0,0:0:0:0:
256,192,88438,1,0,0:0:0:0:
256,192,88530,1,8,0:0:0:0:
256,192,88623,1,8,0:0:0:0:
256,192,88716,1,0,0:0:0:0:
256,192,88901,1,0,0:0:0:0:
256,192,88993,1,0,0:0:0:0:
256,192,89086,1,8,0:0:0:0:
256,192,89179,1,0,0:0:0:0:
256,192,89271,1,8,0:0:0:0:
256,192,89364,1,8,0:0:0:0:
256,192,89456,1,0,0:0:0:0:
256,192,89642,1,0,0:0:0:0:
256,192,89734,1,8,0:0:0:0:
256,192,89827,1,0,0:0:0:0:
256,192,89919,1,0,0:0:0:0:
256,192,90012,1,8,0:0:0:0:
256,192,90197,1,8,0:0:0:0:
256,192,90290,1,8,0:0:0:0:
256,192,90382,1,0,0:0:0:0:
256,192,90567,1,8,0:0:0:0:
256,192,90660,1,0,0:0:0:0:
256,192,90753,1,8,0:0:0:0:
256,192,90938,1,0,0:0:0:0:
256,192,91030,1,0,0:0:0:0:
256,192,91123,1,0,0:0:0:0:
256,192,91216,1,0,0:0:0:0:
256,192,91308,1,8,0:0:0:0:
256,192,91493,1,0,0:0:0:0:
256,192,91586,1,0,0:0:0:0:
256,192,91679,1,8,0:0:0:0:
256,192,91771,1,8,0:0:0:0:
256,192,91864,1,0,0:0:0:0:
256,192,92049,1,8,0:0:0:0:
256,192,92142,1,0,0:0:0:0:
256,192,92234,1,8,0:0:0:0:
256,192,92327,1,8,0:0:0:0:
256,192,92419,1,0,0:0:0:0:
256,192,92512,1,0,0:0:0:0:
256,192,92605,1,0,0:0:0:0:
256,192,92697,1,0,0:0:0:0:
256,192,92790,1,8,0:0:0:0:
256,192,92975,1,8,0:0:0:0:
256,192,93067,1,8,0:0:0:0:
256,192,93160,1,0,0:0:0:0:
256,192,93253,1,0,0:0:0:0:
256,192,93345,1,0,0:0:0:0:
256,192,93530,1,8,0:0:0:0:
256,192,93623,1,8,0:0:0:0:
256,192,93716,1,0,0:0:0:0:
256,192,93901,1,0,0:0:0:0:
256,192,93993,1,0,0:0:0:0:
256,192,94086,1,8,0:0:0:0:
256,192,94179,1,0,0:0:0:0:
256,192,94271,1,8,0:0:0:0:
256,192,94364,1,8,0:0:0:0:
256,192,94456,1,0,0:0:0:0:
256,192,94549,1,0,0:0:0:0:
256,192,94642,1,8,0:0:0:0:
256,192,94734,1,0,0:0:0:0:
256,192,94827,1,8,0:0:0:0:
256,192,94919,1,8,0:0:0:0:
256,192,95012,1,0,0:0:0:0:
256,192,95197,1,8,0:0:0:0:
256,192,95290,1,8,0:0:0:0:
256,192,95382,1,0,0:0:0:0:
256,192,95475,1,0,0:0:0:0:
256,192,95567,1,8,0:0:0:0:
256,192,95753,1,0,0:0:0:0:
256,192,95845,1,0,0:0:0:0:
256,192,95938,1,8,0:0:0:0:
256,192,96123,1,8,0:0:0:0:
256,192,96216,1,8,0:0:0:0:
256,192,96308,1,0,0:0:0:0:
256,192,96401,1,0,0:0:0:0:
256,192,96493,1,8,0:0:0:0:
256,192,96586,1,8,0:0:0:0:
256,192,96679,1,0,0:0:0:0:
256,192,96771,1,0,0:0:0:0:
256,192,96864,5,12,0:0:0:0:
256,192,97049,1,0,0:0:0:0:
256,192,97142,1,0,0:0:0:0:
256,192,97234,1,8,0:0:0:0:
256,192,97419,1,0,0:0:0:0:
256,192,97512,1,0,0:0:0:0:
256,192,97605,1,8,0:0:0:0:
256,192,97697,1,8,0:0:0:0:
256,192,97790,1,0,0:0:0:0:
256,192,97882,1,0,0:0:0:0:
256,192,97975,1,8,0:0:0:0:
256,192,98067,1,8,0:0:0:0:
256,192,98160,1,0,0:0:0:0:
256,192,98253,1,0,0:0:0:0:
256,192,98345,1,8,0:0:0:0:
256,192,98438,1,8,0:0:0:0:
256,192,98530,1,0,0:0:0:0:
256,192,98623,1,8,0:0:0:0:
256,192,98716,1,8,0:0:0:0:
256,192,98808,1,8,0:0:0:0:
256,192,98901,1,0,0:0:0:0:
256,192,98993,1,8,0:0:0:0:
256,192,99086,1,8,0:0:0:0:
256,192,99179,1,8,0:0:0:0:
256,192,99271,1,0,0:0:0:0:
256,192,99364,1,0,0:0:0:0:
256,192,99456,1,8,0:0:0:0:
256,192,99549,1,8,0:0:0:0:
256,192,99642,1,0,0:0:0:0:
256,192,99734,1,0,0:0:0:0:
256,192,99827,1,8,0:0:0:0:
256,192,99919,1,0,0:0:0:0:
256,192,100012,1,0,0:0:0:0:
256,192,100197,1,8,0:0:0:0:
256,192,100290,1,8,0:0:0:0:
256,192,100382,1,0,0:0:0:0:
256,192,100475,1,8,0:0:0:0:
256,192,100567,1,8,0:0:0:0:
256,192,100660,1,0,0:0:0:0:
256,192,100753,1,0,0:0:0:0:
256,192,100845,1,0,0:0:0:0:
256,192,100938,1,8,0:0:0:0:
256,192,101030,1,8,0:0:0:0:
256,192,101123,1,0,0:0:0:0:
256,192,101216,1,0,0:0:0:0:
256,192,101308,1,8,0:0:0:0:
256,192,101401,1,8,0:0:0:0:
256,192,101493,1,0,0:0:0:0:
256,192,101586,1,0,0:0:0:0:
256,192,101679,1,8,0:0:0:0:
256,192,101771,1,8,0:0:0:0:
256,192,101864,1,0,0:0:0:0:
256,192,101956,1,8,0:0:0:0:
256,192,102049,1,0,0:0:0:0:
256,192,102234,1,8,0:0:0:0:
256,192,102327,1,0,0:0:0:0:
256,192,102419,1,0,0:0:0:0:
256,192,102790,1,4,0:0:0:0:
256,192,103067,1,0,0:0:0:0:
256,192,103160,1,8,0:0:0:0:
256,192,103345,1,0,0:0:0:0:
256,192,103438,1,8,0:0:0:0:
256,192,103530,1,0,0:0:0:0:
256,192,103716,1,0,0:0:0:0:
256,192,103808,1,0,0:0:0:0:
256,192,103901,1,8,0:0:0:0:
256,192,103993,1,8,0:0:0:0:
256,192,104086,1,0,0:0:0:0:
256,192,104271,1,0,0:0:0:0:
256,192,104549,1,0,0:0:0:0:
256,192,104642,1,8,0:0:0:0:
256,192,104827,1,0,0:0:0:0:
256,192,104919,1,8,0:0:0:0:
256,192,105012,1,0,0:0:0:0:
256,192,105197,1,8,0:0:0:0:
256,192,105290,1,0,0:0:0:0:
256,192,105382,1,8,0:0:0:0:
256,192,105475,1,8,0:0:0:0:
256,192,105567,1,0,0:0:0:0:
256,192,105753,1,0,0:0:0:0:
256,192,105938,1,0,0:0:0:0:
256,192,106030,1,0,0:0:0:0:
256,192,106123,1,8,0:0:0:0:
256,192,106308,1,8,0:0:0:0:
256,192,106401,1,8,0:0:0:0:
256,192,106493,1,0,0:0:0:0:
256,192,106586,1,0,0:0:0:0:
256,192,106679,1,8,0:0:0:0:
256,192,106771,1,8,0:0:0:0:
256,192,106864,1,0,0:0:0:0:
256,192,106956,1,0,0:0:0:0:
256,192,107049,1,0,0:0:0:0:
256,192,107142,1,0,0:0:0:0:
256,192,107234,1,8,0:0:0:0:
256,192,107327,1,0,0:0:0:0:
256,192,107419,1,8,0:0:0:0:
256,192,107512,1,8,0:0:0:0:
256,192,107605,1,0,0:0:0:0:
256,192,107697,1,8,0:0:0:0:
256,192,107790,1,8,0:0:0:0:
256,192,107882,1,8,0:0:0:0:
256,192,107975,1,0,0:0:0:0:
256,192,108067,1,0,0:0:0:0:
256,192,108160,1,8,0:0:0:0:
256,192,108253,1,8,0:0:0:0:
256,192,108345,1,0,0:0:0:0:
256,192,108438,1,0,0:0:0:0:
256,192,108530,1,8,0:0:0:0:
256,192,108623,1,8,0:0:0:0:
256,192,108716,5,4,0:0:0:0:
256,192,108901,1,0,0:0:0:0:
256,192,108993,1,0,0:0:0:0:
256,192,109086,1,8,0:0:0:0:
256,192,109179,1,8,0:0:0:0:
256,192,109271,1,0,0:0:0:0:
256,192,109456,1,8,0:0:0:0:
256,192,109549,1,8,0:0:0:0:
256,192,109642,1,0,0:0:0:0:
256,192,109734,1,8,0:0:0:0:
256,192,109827,1,8,0:0:0:0:
256,192,109919,1,0,0:0:0:0:
256,192,110012,1,0,0:0:0:0:
256,192,110105,1,0,0:0:0:0:
256,192,110197,1,8,0:0:0:0:
256,192,110290,1,8,0:0:0:0:
256,192,110382,1,0,0:0:0:0:
256,192,110475,1,0,0:0:0:0:
256,192,110567,1,8,0:0:0:0:
256,192,110660,1,8,0:0:0:0:
256,192,110753,1,8,0:0:0:0:
256,192,110845,1,0,0:0:0:0:
256,192,110938,1,8,0:0:0:0:
256,192,111030,1,8,0:0:0:0:
256,192,111123,1,0,0:0:0:0:
256,192,111216,1,8,0:0:0:0:
256,192,111308,1,8,0:0:0:0:
256,192,111401,1,0,0:0:0:0:
256,192,111493,1,0,0:0:0:0:
256,192,111586,1,8,0:0:0:0:
256,192,111679,1,0,0:0:0:0:
256,192,111771,1,8,0:0:0:0:
256,192,111864,1,0,0:0:0:0:
256,192,111956,1,0,0:0:0:0:
256,192,112049,1,8,0:0:0:0:
256,192,112142,1,0,0:0:0:0:
256,192,112234,1,8,0:0:0:0:
256,192,112327,1,8,0:0:0:0:
256,192,112419,1,0,0:0:0:0:
256,192,112512,1,8,0:0:0:0:
256,192,112605,1,0,0:0:0:0:
256,192,112697,1,0,0:0:0:0:
256,192,112790,1,8,0:0:0:0:
256,192,112882,1,8,0:0:0:0:
256,192,112975,1,0,0:0:0:0:
256,192,113067,1,8,0:0:0:0:
256,192,113160,1,0,0:0:0:0:
256,192,113253,1,8,0:0:0:0:
256,192,113345,1,0,0:0:0:0:
256,192,113438,1,0,0:0:0:0:
256,192,113530,1,8,0:0:0:0:
256,192,113716,1,0,0:0:0:0:
256,192,113808,1,0,0:0:0:0:
256,192,113901,1,8,0:0:0:0:
256,192,113993,1,8,0:0:0:0:
256,192,114086,1,0,0:0:0:0:
256,192,114179,1,0,0:0:0:0:
256,192,114271,1,8,0:0:0:0:
256,192,114456,1,0,0:0:0:0:
256,192,114642,1,12,0:0:0:0:
256,192,114827,1,8,0:0:0:0:
256,192,114919,1,0,0:0:0:0:
256,192,115012,1,8,0:0:0:0:
256,192,115105,1,0,0:0:0:0:
256,192,115197,1,8,0:0:0:0:
256,192,115290,1,8,0:0:0:0:
256,192,115382,1,0,0:0:0:0:
256,192,115475,1,0,0:0:0:0:
256,192,115567,1,8,0:0:0:0:
256,192,115660,1,8,0:0:0:0:
256,192,115753,1,0,0:0:0:0:
256,192,115845,1,0,0:0:0:0:
256,192,115938,1,8,0:0:0:0:
256,192,116030,1,8,0:0:0:0:
256,192,116123,1,0,0:0:0:0:
256,192,116216,1,8,0:0:0:0:
256,192,116308,1,0,0:0:0:0:
256,192,116401,1,8,0:0:0:0:
256,192,116493,1,0,0:0:0:0:
256,192,116586,1,0,0:0:0:0:
256,192,116679,1,8,0:0:0:0:
256,192,116771,1,8,0:0:0:0:
256,192,116864,1,0,0:0:0:0:
256,192,116956,1,0,0:0:0:0:
256,192,117049,1,8,0:0:0:0:
256,192,117142,1,8,0:0:0:0:
256,192,117234,1,0,0:0:0:0:
256,192,117419,1,0,0:0:0:0:
256,192,117605,1,12,0:0:0:0:
256,192,117790,1,0,0:0:0:0:
256,192,117882,1,8,0:0:0:0:
256,192,117975,1,8,0:0:0:0:
256,192,118067,1,8,0:0:0:0:
256,192,118160,1,0,0:0:0:0:
256,192,118345,1,8,0:0:0:0:
256,192,118530,1,8,0:0:0:0:
256,192,118623,1,8,0:0:0:0:
256,192,118716,1,0,0:0:0:0:
256,192,118808,1,0,0:0:0:0:
256,192,118901,1,8,0:0:0:0:
256,192,118993,1,8,0:0:0:0:
256,192,119086,1,0,0:0:0:0:
256,192,119271,1,8,0:0:0:0:
256,192,119364,1,8,0:0:0:0:
256,192,119456,1,0,0:0:0:0:
256,192,119642,1,0,0:0:0:0:
256,192,119734,1,0,0:0:0:0:
256,192,119827,1,8,0:0:0:0:
256,192,120012,1,8,0:0:0:0:
256,192,120105,1,8,0:0:0:0:
256,192,120197,1,0,0:0:0:0:
256,192,120290,1,0,0:0:0:0:
256,192,120382,1,0,0:0:0:0:
256,192,120567,5,12,0:0:0:0:
256,192,122049,1,8,0:0:0:0:
256,192,125012,1,0,0:0:0:0:
256,192,125753,1,8,0:0:0:0:
256,192,126493,1,0,0:0:0:0:
256,192,130753,1,8,0:0:0:0:
256,192,130845,1,8,0:0:0:0:
256,192,130938,1,0,0:0:0:0:
256,192,131123,1,0,0:0:0:0:
256,192,131308,1,0,0:0:0:0:
256,192,131493,1,8,0:0:0:0:
256,192,131679,1,0,0:0:0:0:
256,192,131864,1,0,0:0:0:0:
256,192,132049,1,8,0:0:0:0:
256,192,132419,5,4,0:0:0:0:
256,192,132605,1,0,0:0:0:0:
256,192,132790,1,8,0:0:0:0:
256,192,132975,1,8,0:0:0:0:
256,192,133067,1,0,0:0:0:0:
256,192,133160,1,0,0:0:0:0:
256,192,133345,1,0,0:0:0:0:
256,192,133530,1,8,0:0:0:0:
256,192,133901,1,0,0:0:0:0:
256,192,134086,1,0,0:0:0:0:
256,192,134271,1,8,0:0:0:0:
256,192,134456,1,8,0:0:0:0:
256,192,134549,1,0,0:0:0:0:
256,192,134642,1,0,0:0:0:0:
256,192,134827,1,0,0:0:0:0:
256,192,135012,1,8,0:0:0:0:
256,192,135382,1,0,0:0:0:0:
256,192,135567,1,0,0:0:0:0:
256,192,135753,1,8,0:0:0:0:
256,192,135938,1,8,0:0:0:0:
256,192,136030,1,0,0:0:0:0:
256,192,136123,1,0,0:0:0:0:
256,192,136308,1,0,0:0:0:0:
256,192,136493,1,8,0:0:0:0:
256,192,136864,1,0,0:0:0:0:
256,192,137049,1,0,0:0:0:0:
256,192,137234,1,8,0:0:0:0:
256,192,137419,1,8,0:0:0:0:
256,192,137512,1,8,0:0:0:0:
256,192,137605,1,0,0:0:0:0:
256,192,137697,1,8,0:0:0:0:
256,192,137790,1,0,0:0:0:0:
256,192,137975,1,0,0:0:0:0:
256,192,138160,1,8,0:0:0:0:
256,192,138345,1,4,0:0:0:0:
256,192,138530,1,0,0:0:0:0:
256,192,138716,1,8,0:0:0:0:
256,192,138901,1,8,0:0:0:0:
256,192,138993,1,0,0:0:0:0:
256,192,139086,1,0,0:0:0:0:
256,192,139271,1,0,0:0:0:0:
256,192,139456,1,8,0:0:0:0:
256,192,139642,1,0,0:0:0:0:
256,192,139734,1,8,0:0:0:0:
256,192,139827,1,0,0:0:0:0:
256,192,140012,1,0,0:0:0:0:
256,192,140197,1,8,0:0:0:0:
256,192,140382,1,8,0:0:0:0:
256,192,140475,1,0,0:0:0:0:
256,192,140567,1,0,0:0:0:0:
256,192,140753,1,0,0:0:0:0:
256,192,140938,1,8,0:0:0:0:
256,192,141123,1,0,0:0:0:0:
256,192,141308,1,0,0:0:0:0:
256,192,141493,1,0,0:0:0:0:
256,192,141679,1,8,0:0:0:0:
256,192,141864,1,8,0:0:0:0:
256,192,141956,1,0,0:0:0:0:
256,192,142049,1,0,0:0:0:0:
256,192,142234,1,0,0:0:0:0:
256,192,142419,1,8,0:0:0:0:
256,192,142790,1,8,0:0:0:0:
256,192,142975,1,8,0:0:0:0:
256,192,143160,1,0,0:0:0:0:
256,192,143253,1,8,0:0:0:0:
256,192,143345,1,0,0:0:0:0:
256,192,143438,1,0,0:0:0:0:
256,192,143530,1,8,0:0:0:0:
256,192,143623,1,8,0:0:0:0:
256,192,143716,1,0,0:0:0:0:
256,192,143901,1,12,0:0:0:0:
256,192,144086,1,0,0:0:0:0:
256,192,144271,1,4,0:0:0:0:
