osu file format v14

[General]
AudioFilename: audio.ogg
AudioLeadIn: 0
PreviewTime: 6421
Countdown: 0
SampleSet: Normal
StackLeniency: 0.7
Mode: 1
LetterboxInBreaks: 0
WidescreenStoryboard: 1

[Editor]
Bookmarks: 6406,18273,41958,144199
DistanceSpacing: 0.6
BeatDivisor: 4
GridSize: 4
TimelineZoom: 1.5

[Metadata]
Title:Shoutoku Densetsu ~ True Administrator
TitleUnicode:聖徳伝説 ~ True Administrator
Artist:CROW'SCLAW
ArtistUnicode:CROW'SCLAW
Creator:CallMeLyra
Version:Kantan
Source:東方深秘録 ~ Urban Legend in Limbo.
Tags:jarvisgaming video game metal instrumental th14.5 th15.5 東方憑依華 ~ Antinomy of Common Flowers. 豊聡耳 神子 Toyosatomimi no Miko ZUN Twilight Frontier Tasofro 黄昏フロンティア Team Shanghai Alice 上海アリス幻樂団 Taka 鷹 Shinpiroku ulil aocf 東方project touhou deep secret record crowsclaw legend 東方神霊廟 ~ Ten Desires. shinreibyou divine spirit mausoleum td possession bloom hyouibana
BeatmapID:3046647
BeatmapSetID:1250189

[Difficulty]
HPDrainRate:8
CircleSize:5
OverallDifficulty:3
ApproachRate:5
SliderMultiplier:1.4
SliderTickRate:1

[Events]
//Background and Video events
0,0,"Miko.jpg",0,-100
//Break Periods
//Storyboard Layer 0 (Background)
//Storyboard Layer 1 (Fail)
//Storyboard Layer 2 (Pass)
//Storyboard Layer 3 (Foreground)
//Storyboard Layer 4 (Overlay)
//Storyboard Sound Samples

[TimingPoints]
568,370.37037037037,4,1,0,70,1,0
6447,-100,4,1,0,80,0,0
30151,-100,4,1,0,70,0,0
42003,-100,4,1,0,80,0,0
73160,-100,4,1,0,80,0,1
107234,-100,4,1,0,80,0,0
108716,-100,4,1,0,80,0,1
120567,-100,4,1,0,70,0,0
121956,-100,4,1,0,50,0,0
130567,-100,4,1,0,70,0,0

[HitObjects]
256,192,568,5,0,0:0:0:0:
256,192,1679,1,8,0:0:0:0:
256,192,2049,1,0,0:0:0:0:
256,192,3160,1,8,0:0:0:0:
256,192,3530,1,0,0:0:0:0:
256,192,4642,1,8,0:0:0:0:
256,192,5012,1,8,0:0:0:0:
256,192,6123,1,12,0:0:0:0:
256,192,6493,5,4,0:0:0:0:
256,192,7234,1,8,0:0:0:0:
256,192,7605,1,0,0:0:0:0:
256,192,7975,1,0,0:0:0:0:
256,192,8716,1,8,0:0:0:0:
256,192,9086,1,8,0:0:0:0:
256,192,9456,1,0,0:0:0:0:
256,192,10197,1,8,0:0:0:0:
256,192,10567,1,0,0:0:0:0:
256,192,10938,1,0,0:0:0:0:
256,192,12049,1,0,0:0:0:0:
256,192,12419,1,12,0:0:0:0:
256,192,13160,1,8,0:0:0:0:
256,192,13530,1,8,0:0:0:0:
256,192,13901,1,0,0:0:0:0:
256,192,14642,1,8,0:0:0:0:
256,192,15012,1,0,0:0:0:0:
256,192,15382,1,0,0:0:0:0:
256,192,16123,1,8,0:0:0:0:
256,192,16493,1,8,0:0:0:0:
256,192,16864,1,0,0:0:0:0:
256,192,17975,1,8,0:0:0:0:
256,192,18345,5,12,0:0:0:0:
256,192,19086,1,8,0:0:0:0:
256,192,19456,1,0,0:0:0:0:
256,192,19827,1,0,0:0:0:0:
256,192,20567,1,8,0:0:0:0:
256,192,20938,1,8,0:0:0:0:
256,192,21308,1,0,0:0:0:0:
256,192,22049,1,8,0:0:0:0:
256,192,22419,1,0,0:0:0:0:
256,192,22790,1,0,0:0:0:0:
256,192,23901,1,0,0:0:0:0:
256,192,24271,1,12,0:0:0:0:
256,192,25012,1,8,0:0:0:0:
256,192,25382,1,0,0:0:0:0:
256,192,25753,1,0,0:0:0:0:
256,192,26493,1,8,0:0:0:0:
256,192,26864,1,8,0:0:0:0:
256,192,27234,1,4,0:0:0:0:
256,192,27975,5,8,0:0:0:0:
256,192,28345,1,0,0:0:0:0:
256,192,28716,1,0,0:0:0:0:
256,192,29827,1,4,0:0:0:0:
256,192,30197,5,12,0:0:0:0:
256,192,30938,1,8,0:0:0:0:
256,192,31679,1,0,0:0:0:0:
256,192,32049,1,8,0:0:0:0:
256,192,32419,1,0,0:0:0:0:
256,192,33160,1,0,0:0:0:0:
256,192,33530,1,8,0:0:0:0:
256,192,33901,1,8,0:0:0:0:
256,192,34642,1,0,0:0:0:0:
256,192,35753,1,8,0:0:0:0:
256,192,36123,1,4,0:0:0:0:
256,192,36864,1,8,0:0:0:0:
256,192,37605,1,0,0:0:0:0:
256,192,37975,1,8,0:0:0:0:
256,192,38345,1,0,0:0:0:0:
256,192,39086,1,0,0:0:0:0:
256,192,39456,1,8,0:0:0:0:
256,192,39827,1,0,0:0:0:0:
256,192,40197,1,8,0:0:0:0:
256,192,40567,1,8,0:0:0:0:
256,192,41679,1,12,0:0:0:0:
256,192,42049,5,4,0:0:0:0:
256,192,42790,1,8,0:0:0:0:
256,192,43160,1,0,0:0:0:0:
256,192,43530,1,8,0:0:0:0:
256,192,43901,1,8,0:0:0:0:
256,192,44271,1,0,0:0:0:0:
256,192,45012,1,0,0:0:0:0:
256,192,45382,1,8,0:0:0:0:
256,192,45753,1,8,0:0:0:0:
256,192,46123,1,8,0:0:0:0:
256,192,46493,1,0,0:0:0:0:
256,192,47605,1,12,0:0:0:0:
256,192,47975,1,4,0:0:0:0:
256,192,48716,1,8,0:0:0:0:
256,192,49086,1,0,0:0:0:0:
256,192,49456,1,8,0:0:0:0:
256,192,49827,1,8,0:0:0:0:
256,192,50197,1,0,0:0:0:0:
256,192,50938,1,0,0:0:0:0:
256,192,51308,1,8,0:0:0:0:
256,192,51679,1,0,0:0:0:0:
256,192,52049,1,8,0:0:0:0:
256,192,52419,1,0,0:0:0:0:
256,192,53901,5,12,0:0:0:0:
256,192,55012,1,8,0:0:0:0:
256,192,55382,1,8,0:0:0:0:
256,192,55753,1,0,0:0:0:0:
256,192,56493,1,12,0:0:0:0:
256,192,56864,1,12,0:0:0:0:
256,192,57605,1,8,0:0:0:0:
256,192,58345,1,8,0:0:0:0:
256,192,59086,1,0,0:0:0:0:
256,192,59456,1,12,0:0:0:0:
256,192,59827,1,12,0:0:0:0:
256,192,60938,1,0,0:0:0:0:
256,192,61308,1,12,0:0:0:0:
256,192,62049,1,8,0:0:0:0:
256,192,62419,1,0,0:0:0:0:
256,192,62790,1,12,0:0:0:0:
256,192,63530,1,8,0:0:0:0:
256,192,64271,1,4,0:0:0:0:
256,192,65382,1,12,0:0:0:0:
256,192,65753,5,4,0:0:0:0:
256,192,66493,1,12,0:0:0:0:
256,192,67234,1,4,0:0:0:0:
256,192,67975,1,12,0:0:0:0:
256,192,68716,1,4,0:0:0:0:
256,192,69456,1,12,0:0:0:0:
256,192,70197,1,0,0:0:0:0:
256,192,70938,1,0,0:0:0:0:
256,192,71679,1,12,0:0:0:0:
256,192,73160,5,12,0:0:0:0:
256,192,74271,1,0,0:0:0:0:
256,192,74642,1,8,0:0:0:0:
256,192,75197,1,0,0:0:0:0:
256,192,75753,1,8,0:0:0:0:
256,192,76123,1,8,0:0:0:0:
256,192,76679,1,0,0:0:0:0:
256,192,77234,1,8,0:0:0:0:
256,192,77605,1,0,0:0:0:0:
256,192,78160,1,8,0:0:0:0:
256,192,79086,1,4,0:0:0:0:
256,192,80197,1,8,0:0:0:0:
256,192,80567,1,0,0:0:0:0:
256,192,81123,1,8,0:0:0:0:
256,192,81679,1,8,0:0:0:0:
256,192,82049,1,0,0:0:0:0:
256,192,82790,1,8,0:0:0:0:
256,192,83160,1,0,0:0:0:0:
256,192,83716,1,8,0:0:0:0:
256,192,84086,1,8,0:0:0:0:
256,192,85012,5,12,0:0:0:0:
256,192,86123,1,0,0:0:0:0:
256,192,86493,1,8,0:0:0:0:
256,192,87049,1,0,0:0:0:0:
256,192,87605,1,8,0:0:0:0:
256,192,87975,1,8,0:0:0:0:
256,192,88530,1,0,0:0:0:0:
256,192,89086,1,8,0:0:0:0:
256,192,89456,1,0,0:0:0:0:
256,192,90012,1,8,0:0:0:0:
256,192,90938,5,4,0:0:0:0:
256,192,91679,1,8,0:0:0:0:
256,192,92049,1,8,0:0:0:0:
256,192,92419,1,0,0:0:0:0:
256,192,92790,1,0,0:0:0:0:
256,192,93530,1,8,0:0:0:0:
256,192,93901,1,0,0:0:0:0:
256,192,94271,1,8,0:0:0:0:
256,192,94642,1,8,0:0:0:0:
256,192,95012,5,0,0:0:0:0:
256,192,95567,1,8,0:0:0:0:
256,192,95938,1,8,0:0:0:0:
256,192,96864,5,12,0:0:0:0:
256,192,97975,1,0,0:0:0:0:
256,192,98345,1,8,0:0:0:0:
256,192,98716,1,0,0:0:0:0:
256,192,99086,1,0,0:0:0:0:
256,192,99456,1,8,0:0:0:0:
256,192,99827,1,8,0:0:0:0:
256,192,100567,1,0,0:0:0:0:
256,192,100938,1,8,0:0:0:0:
256,192,101308,1,8,0:0:0:0:
256,192,101679,1,8,0:0:0:0:
256,192,102049,1,0,0:0:0:0:
256,192,102790,1,4,0:0:0:0:
256,192,103530,1,8,0:0:0:0:
256,192,103901,1,8,0:0:0:0:
256,192,104271,1,0,0:0:0:0:
256,192,105012,1,0,0:0:0:0:
256,192,105382,1,8,0:0:0:0:
256,192,105753,1,0,0:0:0:0:
256,192,106864,1,0,0:0:0:0:
256,192,107234,1,8,0:0:0:0:
256,192,107975,1,0,0:0:0:0:
256,192,108716,5,4,0:0:0:0:
256,192,109456,1,8,0:0:0:0:
256,192,109827,1,8,0:0:0:0:
256,192,110197,1,0,0:0:0:0:
256,192,110938,1,8,0:0:0:0:
256,192,111308,1,0,0:0:0:0:
256,192,111679,1,8,0:0:0:0:
256,192,112234,1,8,0:0:0:0:
256,192,112790,1,0,0:0:0:0:
256,192,113160,1,0,0:0:0:0:
256,192,113530,1,8,0:0:0:0:
256,192,113901,1,8,0:0:0:0:
256,192,114642,1,4,0:0:0:0:
256,192,115753,1,0,0:0:0:0:
256,192,116123,1,0,0:0:0:0:
256,192,116493,1,8,0:0:0:0:
256,192,116864,1,0,0:0:0:0:
256,192,117234,1,8,0:0:0:0:
256,192,117605,1,4,0:0:0:0:
256,192,118345,1,8,0:0:0:0:
256,192,119086,1,0,0:0:0:0:
256,192,119827,1,8,0:0:0:0:
256,192,120197,1,0,0:0:0:0:
256,192,120567,5,12,0:0:0:0:
256,192,122049,1,8,0:0:0:0:
256,192,125012,1,0,0:0:0:0:
256,192,125753,1,8,0:0:0:0:
256,192,126493,1,0,0:0:0:0:
256,192,130938,1,0,0:0:0:0:
256,192,131679,1,0,0:0:0:0:
256,192,132049,1,8,0:0:0:0:
256,192,132419,1,0,0:0:0:0:
256,192,133530,1,8,0:0:0:0:
256,192,133901,1,0,0:0:0:0:
256,192,135012,1,8,0:0:0:0:
256,192,135382,1,0,0:0:0:0:
256,192,136493,1,8,0:0:0:0:
256,192,136864,1,0,0:0:0:0:
256,192,137419,1,8,0:0:0:0:
256,192,137975,5,8,0:0:0:0:
256,192,138345,1,4,0:0:0:0:
256,192,139086,1,0,0:0:0:0:
256,192,139456,1,8,0:0:0:0:
256,192,139827,1,0,0:0:0:0:
256,192,140567,1,8,0:0:0:0:
256,192,140938,1,8,0:0:0:0:
256,192,141308,1,0,0:0:0:0:
256,192,142049,1,0,0:0:0:0:
256,192,142419,1,8,0:0:0:0:
256,192,142790,1,8,0:0:0:0:
256,192,143901,1,12,0:0:0:0:
256,192,144271,1,4,0:0:0:0:
