osu file format v14

[General]
AudioFilename: audio.ogg
AudioLeadIn: 0
PreviewTime: 6421
Countdown: 0
SampleSet: Normal
StackLeniency: 0.7
Mode: 1
LetterboxInBreaks: 0
WidescreenStoryboard: 1

[Editor]
Bookmarks: 6406,18273,41958,73078,144199
DistanceSpacing: 0.6
BeatDivisor: 4
GridSize: 4
TimelineZoom: 2.6

[Metadata]
Title:Shoutoku Densetsu ~ True Administrator
TitleUnicode:聖徳伝説 ~ True Administrator
Artist:CROW'SCLAW
ArtistUnicode:CROW'SCLAW
Creator:CallMeLyra
Version:Jarvis' Oni
Source:東方深秘録 ~ Urban Legend in Limbo.
Tags:jarvisgaming video game metal instrumental th14.5 th15.5 東方憑依華 ~ Antinomy of Common Flowers. 豊聡耳 神子 Toyosatomimi no Miko ZUN Twilight Frontier Tasofro 黄昏フロンティア Team Shanghai Alice 上海アリス幻樂団 Taka 鷹 Shinpiroku ulil aocf 東方project touhou deep secret record crowsclaw legend 東方神霊廟 ~ Ten Desires. shinreibyou divine spirit mausoleum td possession bloom hyouibana
BeatmapID:2598713
BeatmapSetID:1250189

[Difficulty]
HPDrainRate:5.5
CircleSize:5
OverallDifficulty:5.5
ApproachRate:5
SliderMultiplier:1.4
SliderTickRate:1

[Events]
//Background and Video events
0,0,"Miko.jpg",0,-100
//Break Periods
//Storyboard Layer 0 (Background)
//Storyboard Layer 1 (Fail)
//Storyboard Layer 2 (Pass)
//Storyboard Layer 3 (Foreground)
//Storyboard Layer 4 (Overlay)
//Storyboard Sound Samples

[TimingPoints]
568,370.37037037037,4,1,0,80,1,0
95753,-100,4,1,0,80,0,0
95938,-98.3606234883202,4,1,0,80,0,0
96030,-97.5609756097561,4,1,0,80,0,0
96123,-96.774224765879,4,1,0,80,0,0
96216,-95.9999692800098,4,1,0,80,0,0
96308,-95.2380952380952,4,1,0,80,0,0
96401,-94.4882187364469,4,1,0,80,0,0
96493,-93.7499707031342,4,1,0,80,0,0
96679,-92.3077207100679,4,1,0,80,0,0
96771,-91.6030254647251,4,1,0,80,0,0
96864,-90.9090909090909,4,1,0,80,0,1
120567,-90.9090909090909,4,1,0,80,0,0
122049,-100,4,1,0,80,0,0

[HitObjects]
230,139,568,5,0,0:0:0:0:
230,139,753,1,8,0:0:0:0:
230,139,938,1,0,0:0:0:0:
230,139,1123,1,0,0:0:0:0:
230,139,1308,1,8,0:0:0:0:
230,139,1493,1,8,0:0:0:0:
230,139,1679,1,0,0:0:0:0:
230,139,1864,1,8,0:0:0:0:
230,139,2049,1,0,0:0:0:0:
230,139,2234,1,8,0:0:0:0:
230,139,2419,1,0,0:0:0:0:
230,139,2605,1,0,0:0:0:0:
230,139,2790,1,8,0:0:0:0:
230,139,2975,1,8,0:0:0:0:
230,139,3160,1,0,0:0:0:0:
230,139,3345,1,8,0:0:0:0:
230,139,3530,1,0,0:0:0:0:
230,139,3716,1,8,0:0:0:0:
230,139,3901,1,0,0:0:0:0:
230,139,4086,1,0,0:0:0:0:
230,139,4271,1,8,0:0:0:0:
230,139,4456,1,8,0:0:0:0:
230,139,4642,1,0,0:0:0:0:
230,139,4827,1,8,0:0:0:0:
234,132,5012,1,4,0:0:0:0:
234,132,5197,1,4,0:0:0:0:
234,132,5382,1,8,0:0:0:0:
234,132,5475,1,8,0:0:0:0:
234,132,5567,1,0,0:0:0:0:
234,132,5660,1,0,0:0:0:0:
234,132,5753,1,8,0:0:0:0:
234,132,5938,1,0,0:0:0:0:
234,132,6123,1,12,0:0:0:0:
251,130,6493,1,12,0:0:0:0:
247,125,6679,1,8,0:0:0:0:
247,125,6864,1,0,0:0:0:0:
196,117,7049,1,0,0:0:0:0:
196,117,7142,1,0,0:0:0:0:
196,117,7234,1,8,0:0:0:0:
196,117,7419,1,0,0:0:0:0:
196,117,7605,1,8,0:0:0:0:
196,117,7697,1,0,0:0:0:0:
196,117,7790,1,8,0:0:0:0:
204,103,7975,1,0,0:0:0:0:
204,103,8160,1,8,0:0:0:0:
204,103,8345,1,0,0:0:0:0:
204,103,8530,1,0,0:0:0:0:
204,103,8623,1,8,0:0:0:0:
204,103,8716,1,8,0:0:0:0:
160,91,8901,1,8,0:0:0:0:
160,91,9086,1,0,0:0:0:0:
235,113,9179,1,0,0:0:0:0:
160,91,9271,1,8,0:0:0:0:
251,130,9456,1,8,0:0:0:0:
247,125,9642,1,8,0:0:0:0:
247,125,9827,1,0,0:0:0:0:
196,117,10012,1,0,0:0:0:0:
196,117,10105,1,0,0:0:0:0:
196,117,10197,1,8,0:0:0:0:
196,117,10382,1,0,0:0:0:0:
196,117,10567,1,8,0:0:0:0:
201,120,10660,1,0,0:0:0:0:
196,117,10753,1,8,0:0:0:0:
204,103,10938,1,0,0:0:0:0:
204,103,11123,1,8,0:0:0:0:
204,103,11308,1,0,0:0:0:0:
193,85,11493,1,8,0:0:0:0:
193,85,11586,1,0,0:0:0:0:
193,85,11679,1,8,0:0:0:0:
193,85,11771,1,8,0:0:0:0:
193,85,11864,1,0,0:0:0:0:
209,93,12049,1,12,0:0:0:0:
219,94,12419,1,12,0:0:0:0:
216,90,12605,1,8,0:0:0:0:
216,90,12790,1,0,0:0:0:0:
185,85,12975,1,0,0:0:0:0:
188,87,13067,1,8,0:0:0:0:
185,85,13160,1,8,0:0:0:0:
191,88,13345,1,0,0:0:0:0:
191,88,13530,1,0,0:0:0:0:
191,88,13623,1,0,0:0:0:0:
191,88,13716,1,8,0:0:0:0:
196,92,13901,1,0,0:0:0:0:
196,92,14086,1,8,0:0:0:0:
196,92,14271,1,0,0:0:0:0:
190,99,14456,1,8,0:0:0:0:
190,99,14549,1,0,0:0:0:0:
190,99,14642,1,8,0:0:0:0:
190,99,14827,1,8,0:0:0:0:
190,99,15012,1,0,0:0:0:0:
190,99,15105,1,0,0:0:0:0:
190,99,15197,1,8,0:0:0:0:
219,94,15382,1,8,0:0:0:0:
216,90,15567,1,8,0:0:0:0:
216,90,15753,1,0,0:0:0:0:
185,85,15938,1,0,0:0:0:0:
188,87,16030,1,8,0:0:0:0:
185,85,16123,1,8,0:0:0:0:
191,88,16308,1,0,0:0:0:0:
191,88,16493,1,0,0:0:0:0:
191,88,16586,1,0,0:0:0:0:
191,88,16679,1,8,0:0:0:0:
196,92,16864,1,0,0:0:0:0:
196,92,17049,1,8,0:0:0:0:
196,92,17234,1,0,0:0:0:0:
190,99,17419,1,0,0:0:0:0:
190,99,17512,1,0,0:0:0:0:
190,99,17605,1,8,0:0:0:0:
216,90,17697,1,8,0:0:0:0:
190,99,17790,1,8,0:0:0:0:
190,99,17975,1,0,0:0:0:0:
190,99,18067,1,0,0:0:0:0:
190,99,18160,1,8,0:0:0:0:
200,97,18253,1,0,0:0:0:0:
200,97,18345,1,12,0:0:0:0:
208,110,18716,1,0,0:0:0:0:
205,108,18901,1,8,0:0:0:0:
205,108,18993,1,0,0:0:0:0:
205,108,19086,1,8,0:0:0:0:
205,108,19271,1,0,0:0:0:0:
208,110,19456,1,0,0:0:0:0:
208,110,19549,1,0,0:0:0:0:
208,110,19642,1,8,0:0:0:0:
208,110,19734,1,8,0:0:0:0:
205,108,19827,1,0,0:0:0:0:
218,98,20012,1,8,0:0:0:0:
218,101,20197,1,0,0:0:0:0:
221,108,20382,1,0,0:0:0:0:
221,108,20475,1,0,0:0:0:0:
221,108,20567,1,8,0:0:0:0:
221,108,20753,1,0,0:0:0:0:
221,108,20938,1,8,0:0:0:0:
221,108,21030,1,0,0:0:0:0:
221,108,21123,1,8,0:0:0:0:
221,108,21216,1,8,0:0:0:0:
212,98,21308,1,0,0:0:0:0:
208,110,21493,1,8,0:0:0:0:
200,90,21679,1,0,0:0:0:0:
205,108,21864,1,8,0:0:0:0:
205,108,21956,1,0,0:0:0:0:
205,108,22049,1,8,0:0:0:0:
205,108,22234,1,0,0:0:0:0:
208,110,22419,1,0,0:0:0:0:
208,110,22512,1,0,0:0:0:0:
208,110,22605,1,8,0:0:0:0:
208,110,22697,1,8,0:0:0:0:
205,108,22790,1,0,0:0:0:0:
218,98,22975,1,8,0:0:0:0:
218,101,23160,1,0,0:0:0:0:
221,108,23345,1,8,0:0:0:0:
221,108,23438,1,0,0:0:0:0:
221,108,23530,1,8,0:0:0:0:
221,108,23716,1,0,0:0:0:0:
211,101,23808,1,0,0:0:0:0:
221,108,23901,1,12,0:0:0:0:
211,105,24086,1,0,0:0:0:0:
221,108,24271,1,12,0:0:0:0:
195,89,24642,1,0,0:0:0:0:
204,98,24827,1,0,0:0:0:0:
204,98,24919,1,8,0:0:0:0:
204,98,25012,1,8,0:0:0:0:
204,98,25197,1,0,0:0:0:0:
204,98,25382,1,0,0:0:0:0:
204,98,25475,1,0,0:0:0:0:
204,98,25567,1,8,0:0:0:0:
204,98,25660,1,8,0:0:0:0:
204,98,25753,1,8,0:0:0:0:
204,98,25938,1,8,0:0:0:0:
204,98,26123,1,0,0:0:0:0:
204,98,26308,1,0,0:0:0:0:
204,98,26401,1,0,0:0:0:0:
204,98,26493,1,8,0:0:0:0:
204,98,26679,1,0,0:0:0:0:
204,98,26864,1,0,0:0:0:0:
204,98,26956,1,0,0:0:0:0:
204,98,27049,1,8,0:0:0:0:
204,98,27142,1,0,0:0:0:0:
204,98,27234,1,12,0:0:0:0:
204,98,27419,1,8,0:0:0:0:
204,98,27605,1,0,0:0:0:0:
204,98,27790,1,0,0:0:0:0:
204,98,27882,1,8,0:0:0:0:
204,98,27975,1,8,0:0:0:0:
204,98,28160,1,0,0:0:0:0:
204,98,28345,1,8,0:0:0:0:
204,98,28438,1,0,0:0:0:0:
204,98,28530,1,8,0:0:0:0:
204,98,28623,1,8,0:0:0:0:
204,98,28716,1,4,0:0:0:0:
204,98,28901,1,8,0:0:0:0:
204,98,29086,1,0,0:0:0:0:
196,94,29271,1,0,0:0:0:0:
196,94,29456,1,0,0:0:0:0:
196,94,29642,1,0,0:0:0:0:
209,86,29827,1,12,0:0:0:0:
210,85,30012,1,0,0:0:0:0:
210,85,30197,1,12,0:0:0:0:
210,81,30567,1,8,0:0:0:0:
226,83,30753,1,0,0:0:0:0:
225,85,30845,1,8,0:0:0:0:
225,85,30938,1,8,0:0:0:0:
180,92,31123,1,0,0:0:0:0:
207,98,31308,1,8,0:0:0:0:
229,93,31679,1,8,0:0:0:0:
233,88,31864,1,0,0:0:0:0:
233,88,32049,1,8,0:0:0:0:
232,86,32234,1,8,0:0:0:0:
201,68,32327,1,0,0:0:0:0:
232,86,32419,1,8,0:0:0:0:
220,79,32605,1,0,0:0:0:0:
232,86,32790,1,8,0:0:0:0:
244,83,32975,1,0,0:0:0:0:
244,83,33160,1,8,0:0:0:0:
232,86,33345,1,8,0:0:0:0:
232,86,33530,1,8,0:0:0:0:
229,71,33716,1,0,0:0:0:0:
230,72,33808,1,0,0:0:0:0:
216,92,33901,1,8,0:0:0:0:
237,104,34179,1,8,0:0:0:0:
231,101,34456,1,8,0:0:0:0:
231,101,34642,1,0,0:0:0:0:
210,63,35012,1,8,0:0:0:0:
216,95,35197,1,8,0:0:0:0:
216,95,35290,1,8,0:0:0:0:
216,97,35382,1,0,0:0:0:0:
236,71,35567,1,0,0:0:0:0:
203,95,35753,1,8,0:0:0:0:
194,57,36123,1,12,0:0:0:0:
236,71,36493,1,8,0:0:0:0:
219,71,36679,1,0,0:0:0:0:
219,71,36771,1,8,0:0:0:0:
219,71,36864,1,8,0:0:0:0:
213,68,37049,1,0,0:0:0:0:
213,98,37234,1,8,0:0:0:0:
193,86,37605,1,8,0:0:0:0:
193,86,37790,1,0,0:0:0:0:
193,87,37975,1,8,0:0:0:0:
193,87,38160,1,8,0:0:0:0:
206,78,38253,1,0,0:0:0:0:
193,86,38345,1,0,0:0:0:0:
232,73,38530,1,0,0:0:0:0:
214,80,38716,1,8,0:0:0:0:
214,80,38901,1,8,0:0:0:0:
214,80,39086,1,0,0:0:0:0:
214,80,39271,1,0,0:0:0:0:
214,80,39456,1,8,0:0:0:0:
216,86,39642,1,8,0:0:0:0:
163,74,39734,1,8,0:0:0:0:
216,86,39827,1,0,0:0:0:0:
220,89,40012,1,0,0:0:0:0:
216,91,40197,1,8,0:0:0:0:
216,91,40567,1,0,0:0:0:0:
227,85,40753,1,0,0:0:0:0:
210,89,40938,1,8,0:0:0:0:
215,85,41123,1,0,0:0:0:0:
215,85,41216,1,0,0:0:0:0:
215,85,41308,1,8,0:0:0:0:
215,85,41401,1,8,0:0:0:0:
215,85,41493,1,0,0:0:0:0:
215,85,41679,1,12,0:0:0:0:
183,86,42049,1,12,0:0:0:0:
217,155,42419,1,8,0:0:0:0:
221,125,42605,1,0,0:0:0:0:
221,125,42697,1,0,0:0:0:0:
221,125,42790,1,8,0:0:0:0:
226,119,42975,1,8,0:0:0:0:
226,119,43160,1,8,0:0:0:0:
228,118,43345,1,0,0:0:0:0:
208,110,43530,1,8,0:0:0:0:
208,110,43716,1,0,0:0:0:0:
208,110,43808,1,8,0:0:0:0:
208,110,43901,1,8,0:0:0:0:
191,100,44086,1,8,0:0:0:0:
196,102,44271,1,0,0:0:0:0:
208,110,44642,1,8,0:0:0:0:
208,110,44827,1,8,0:0:0:0:
208,110,44919,1,8,0:0:0:0:
210,113,45012,1,0,0:0:0:0:
210,113,45197,1,0,0:0:0:0:
208,110,45382,1,8,0:0:0:0:
212,105,45567,1,0,0:0:0:0:
209,103,45753,1,8,0:0:0:0:
219,98,45938,1,8,0:0:0:0:
219,98,46030,1,0,0:0:0:0:
219,98,46216,1,0,0:0:0:0:
219,98,46308,1,0,0:0:0:0:
218,98,46493,1,8,0:0:0:0:
196,97,46864,1,8,0:0:0:0:
212,85,47049,1,8,0:0:0:0:
212,85,47142,1,8,0:0:0:0:
212,85,47234,1,0,0:0:0:0:
216,88,47327,1,8,0:0:0:0:
216,88,47419,1,0,0:0:0:0:
217,98,47605,1,12,0:0:0:0:
217,108,47975,1,12,0:0:0:0:
217,155,48345,1,8,0:0:0:0:
221,125,48530,1,0,0:0:0:0:
221,125,48623,1,8,0:0:0:0:
221,125,48716,1,8,0:0:0:0:
226,119,48901,1,0,0:0:0:0:
226,119,49086,1,8,0:0:0:0:
228,118,49271,1,0,0:0:0:0:
208,110,49456,1,8,0:0:0:0:
208,110,49642,1,8,0:0:0:0:
208,110,49734,1,0,0:0:0:0:
208,110,49827,1,8,0:0:0:0:
191,100,50012,1,8,0:0:0:0:
196,102,50197,1,0,0:0:0:0:
208,110,50567,1,8,0:0:0:0:
208,110,50753,1,0,0:0:0:0:
208,110,50845,1,0,0:0:0:0:
210,113,50938,1,8,0:0:0:0:
210,113,51123,1,0,0:0:0:0:
208,110,51308,1,8,0:0:0:0:
228,87,51401,1,0,0:0:0:0:
212,105,51493,1,8,0:0:0:0:
209,103,51679,1,8,0:0:0:0:
184,93,51864,1,0,0:0:0:0:
184,93,52049,1,8,0:0:0:0:
207,77,52234,1,0,0:0:0:0:
207,77,52419,1,8,0:0:0:0:
226,76,52605,1,0,0:0:0:0:
226,76,52790,1,8,0:0:0:0:
226,76,52882,1,8,0:0:0:0:
226,76,52975,1,0,0:0:0:0:
226,76,53067,1,0,0:0:0:0:
226,76,53160,1,8,0:0:0:0:
215,81,53253,1,8,0:0:0:0:
215,81,53345,1,0,0:0:0:0:
206,76,53530,1,8,0:0:0:0:
206,76,53716,1,8,0:0:0:0:
206,76,53808,1,0,0:0:0:0:
206,76,53901,1,12,0:0:0:0:
215,81,54271,1,8,0:0:0:0:
211,81,54549,1,0,0:0:0:0:
211,81,54642,1,8,0:0:0:0:
211,81,54827,1,0,0:0:0:0:
215,81,55012,1,8,0:0:0:0:
219,78,55382,1,8,0:0:0:0:
218,79,55753,1,8,0:0:0:0:
215,81,56030,1,0,0:0:0:0:
219,78,56123,1,8,0:0:0:0:
219,78,56308,1,0,0:0:0:0:
218,79,56493,1,12,0:0:0:0:
173,63,56864,1,12,0:0:0:0:
219,78,57142,1,0,0:0:0:0:
220,57,57234,1,0,0:0:0:0:
218,79,57419,1,8,0:0:0:0:
218,135,57512,1,0,0:0:0:0:
219,78,57605,1,8,0:0:0:0:
219,78,57882,1,8,0:0:0:0:
225,57,57975,1,0,0:0:0:0:
219,78,58160,1,8,0:0:0:0:
173,94,58253,1,8,0:0:0:0:
218,79,58345,1,0,0:0:0:0:
219,69,58623,1,0,0:0:0:0:
219,78,58716,1,0,0:0:0:0:
219,69,58901,1,8,0:0:0:0:
209,78,58993,1,8,0:0:0:0:
219,78,59086,1,0,0:0:0:0:
209,78,59179,1,8,0:0:0:0:
209,78,59271,1,0,0:0:0:0:
226,74,59456,1,12,0:0:0:0:
225,74,59827,1,12,0:0:0:0:
242,107,60012,1,0,0:0:0:0:
236,70,60105,1,0,0:0:0:0:
250,89,60290,1,0,0:0:0:0:
237,71,60382,1,0,0:0:0:0:
237,71,60567,1,8,0:0:0:0:
232,76,60845,1,8,0:0:0:0:
237,76,61123,1,0,0:0:0:0:
247,97,61308,1,12,0:0:0:0:
202,98,61493,1,0,0:0:0:0:
247,97,61586,1,8,0:0:0:0:
202,98,61771,1,0,0:0:0:0:
247,97,61864,1,0,0:0:0:0:
235,97,62049,1,8,0:0:0:0:
235,97,62327,1,8,0:0:0:0:
236,96,62605,1,8,0:0:0:0:
231,97,62790,1,12,0:0:0:0:
206,83,62975,1,0,0:0:0:0:
222,80,63067,1,8,0:0:0:0:
210,83,63253,1,8,0:0:0:0:
229,83,63345,1,0,0:0:0:0:
242,79,63530,1,8,0:0:0:0:
242,79,63808,1,0,0:0:0:0:
242,79,64086,1,8,0:0:0:0:
241,79,64271,1,12,0:0:0:0:
209,74,64549,1,0,0:0:0:0:
216,86,64827,1,12,0:0:0:0:
194,88,65012,1,8,0:0:0:0:
186,69,65197,1,0,0:0:0:0:
121,117,65382,1,12,0:0:0:0:
193,73,65753,1,12,0:0:0:0:
187,73,66000,1,0,0:0:0:0:
187,73,66123,1,8,0:0:0:0:
187,73,66247,1,0,0:0:0:0:
199,86,66493,1,8,0:0:0:0:
199,86,66740,1,0,0:0:0:0:
199,86,66987,1,8,0:0:0:0:
221,93,67234,1,0,0:0:0:0:
221,93,67481,1,8,0:0:0:0:
221,93,67605,1,8,0:0:0:0:
221,93,67728,1,0,0:0:0:0:
221,93,67975,1,8,0:0:0:0:
221,93,68222,1,8,0:0:0:0:
221,93,68469,1,0,0:0:0:0:
196,90,68716,1,12,0:0:0:0:
208,84,68963,1,8,0:0:0:0:
208,84,69086,1,0,0:0:0:0:
209,86,69209,1,8,0:0:0:0:
231,93,69456,1,0,0:0:0:0:
231,93,69703,1,8,0:0:0:0:
231,93,69950,1,8,0:0:0:0:
226,93,70197,1,0,0:0:0:0:
203,81,70444,1,8,0:0:0:0:
203,81,70567,1,8,0:0:0:0:
203,81,70691,1,0,0:0:0:0:
203,81,70814,1,0,0:0:0:0:
203,81,70938,1,8,0:0:0:0:
187,77,71185,1,0,0:0:0:0:
187,77,71308,1,0,0:0:0:0:
187,77,71432,1,0,0:0:0:0:
187,77,71679,1,12,0:0:0:0:
226,110,73160,1,12,0:0:0:0:
195,97,73530,1,8,0:0:0:0:
188,102,73808,1,0,0:0:0:0:
188,99,73901,1,8,0:0:0:0:
188,99,74086,1,0,0:0:0:0:
185,127,74179,1,0,0:0:0:0:
188,99,74271,1,8,0:0:0:0:
191,87,74456,1,8,0:0:0:0:
191,87,74549,1,0,0:0:0:0:
191,87,74642,1,8,0:0:0:0:
196,80,74827,1,8,0:0:0:0:
196,80,74919,1,8,0:0:0:0:
196,80,75012,1,0,0:0:0:0:
149,86,75197,1,8,0:0:0:0:
194,82,75567,1,0,0:0:0:0:
187,82,75753,1,8,0:0:0:0:
187,82,75845,1,8,0:0:0:0:
187,82,75938,1,0,0:0:0:0:
208,64,76030,1,0,0:0:0:0:
191,92,76123,1,8,0:0:0:0:
210,80,76308,1,8,0:0:0:0:
210,80,76493,1,0,0:0:0:0:
210,80,76586,1,0,0:0:0:0:
210,80,76679,1,8,0:0:0:0:
205,82,77049,1,0,0:0:0:0:
205,82,77142,1,8,0:0:0:0:
205,82,77234,1,8,0:0:0:0:
217,75,77419,1,0,0:0:0:0:
217,75,77512,1,0,0:0:0:0:
217,75,77605,1,8,0:0:0:0:
244,83,77790,1,8,0:0:0:0:
244,83,77975,1,0,0:0:0:0:
244,83,78160,1,8,0:0:0:0:
256,83,78530,1,0,0:0:0:0:
256,83,78716,1,8,0:0:0:0:
253,99,79086,1,0,0:0:0:0:
253,99,79179,1,0,0:0:0:0:
253,99,79271,1,0,0:0:0:0:
253,99,79364,1,0,0:0:0:0:
253,99,79456,1,8,0:0:0:0:
253,99,79642,1,0,0:0:0:0:
253,99,79734,1,0,0:0:0:0:
253,99,79827,1,0,0:0:0:0:
253,99,80012,1,8,0:0:0:0:
234,88,80197,1,0,0:0:0:0:
234,88,80290,1,0,0:0:0:0:
234,88,80382,1,8,0:0:0:0:
234,88,80567,1,8,0:0:0:0:
234,88,80753,1,0,0:0:0:0:
234,88,80845,1,8,0:0:0:0:
234,88,80938,1,8,0:0:0:0:
234,88,81123,1,8,0:0:0:0:
220,88,81308,1,8,0:0:0:0:
220,88,81401,1,8,0:0:0:0:
220,88,81493,1,8,0:0:0:0:
220,88,81679,1,8,0:0:0:0:
216,90,81864,1,0,0:0:0:0:
227,83,82049,1,8,0:0:0:0:
226,82,82234,1,0,0:0:0:0:
226,82,82327,1,0,0:0:0:0:
226,82,82419,1,8,0:0:0:0:
246,73,82512,1,0,0:0:0:0:
224,78,82605,1,8,0:0:0:0:
224,78,82790,1,8,0:0:0:0:
242,87,82975,1,0,0:0:0:0:
242,87,83160,1,8,0:0:0:0:
242,87,83345,1,8,0:0:0:0:
232,80,83530,1,0,0:0:0:0:
232,80,83623,1,0,0:0:0:0:
232,80,83716,1,8,0:0:0:0:
206,96,84086,1,8,0:0:0:0:
234,93,84271,1,0,0:0:0:0:
234,93,84364,1,0,0:0:0:0:
240,103,84456,1,8,0:0:0:0:
234,100,84549,1,8,0:0:0:0:
223,95,84642,1,0,0:0:0:0:
237,97,84827,1,0,0:0:0:0:
237,97,85012,1,12,0:0:0:0:
227,79,85382,1,8,0:0:0:0:
189,88,85660,1,0,0:0:0:0:
189,88,85753,1,8,0:0:0:0:
198,90,85938,1,0,0:0:0:0:
198,90,86030,1,0,0:0:0:0:
198,90,86123,1,8,0:0:0:0:
198,90,86216,1,0,0:0:0:0:
198,90,86308,1,0,0:0:0:0:
198,90,86493,1,8,0:0:0:0:
208,95,86679,1,8,0:0:0:0:
208,95,86771,1,0,0:0:0:0:
208,95,86864,1,8,0:0:0:0:
188,89,87049,1,0,0:0:0:0:
213,75,87419,1,0,0:0:0:0:
213,75,87605,1,8,0:0:0:0:
213,75,87697,1,8,0:0:0:0:
213,75,87790,1,0,0:0:0:0:
213,75,87882,1,0,0:0:0:0:
213,75,87975,1,8,0:0:0:0:
225,80,88160,1,8,0:0:0:0:
225,80,88345,1,0,0:0:0:0:
225,80,88438,1,0,0:0:0:0:
225,80,88530,1,8,0:0:0:0:
225,75,88901,1,0,0:0:0:0:
225,75,88993,1,8,0:0:0:0:
225,80,89086,1,8,0:0:0:0:
200,83,89271,1,0,0:0:0:0:
200,83,89456,1,8,0:0:0:0:
200,83,89642,1,8,0:0:0:0:
200,83,89734,1,8,0:0:0:0:
200,83,89827,1,0,0:0:0:0:
239,136,89919,1,0,0:0:0:0:
200,83,90012,1,8,0:0:0:0:
200,90,90197,1,0,0:0:0:0:
200,90,90382,1,0,0:0:0:0:
203,90,90567,1,8,0:0:0:0:
206,90,90938,1,0,0:0:0:0:
206,90,91030,1,0,0:0:0:0:
206,90,91123,1,0,0:0:0:0:
206,90,91216,1,0,0:0:0:0:
206,90,91308,1,8,0:0:0:0:
203,90,91493,1,0,0:0:0:0:
203,90,91586,1,0,0:0:0:0:
206,90,91679,1,8,0:0:0:0:
217,79,91864,1,0,0:0:0:0:
217,79,92049,1,8,0:0:0:0:
217,79,92142,1,0,0:0:0:0:
216,80,92234,1,8,0:0:0:0:
210,86,92419,1,0,0:0:0:0:
210,86,92512,1,0,0:0:0:0:
210,86,92605,1,0,0:0:0:0:
210,86,92697,1,0,0:0:0:0:
210,86,92790,1,8,0:0:0:0:
197,78,92975,1,0,0:0:0:0:
197,78,93067,1,0,0:0:0:0:
197,78,93160,1,0,0:0:0:0:
197,78,93345,1,8,0:0:0:0:
198,78,93530,1,0,0:0:0:0:
197,78,93901,1,8,0:0:0:0:
197,78,93993,1,0,0:0:0:0:
197,78,94086,1,0,0:0:0:0:
202,81,94179,1,0,0:0:0:0:
202,81,94271,1,8,0:0:0:0:
206,79,94456,1,0,0:0:0:0:
206,79,94549,1,0,0:0:0:0:
206,79,94642,1,8,0:0:0:0:
189,73,94827,1,0,0:0:0:0:
197,78,95012,1,8,0:0:0:0:
197,78,95105,1,0,0:0:0:0:
197,73,95197,1,8,0:0:0:0:
197,73,95290,1,8,0:0:0:0:
197,73,95382,1,0,0:0:0:0:
224,66,95567,1,8,0:0:0:0:
195,83,95753,1,0,0:0:0:0:
216,74,95938,1,0,0:0:0:0:
216,74,96030,1,0,0:0:0:0:
216,74,96123,1,8,0:0:0:0:
216,74,96216,1,0,0:0:0:0:
216,74,96308,1,0,0:0:0:0:
216,74,96401,1,0,0:0:0:0:
216,74,96493,1,8,0:0:0:0:
219,76,96679,1,8,0:0:0:0:
219,76,96771,1,0,0:0:0:0:
216,74,96864,1,12,0:0:0:0:
216,74,97234,1,8,0:0:0:0:
222,64,97419,1,0,0:0:0:0:
222,64,97512,1,0,0:0:0:0:
222,64,97605,1,8,0:0:0:0:
222,64,97697,1,8,0:0:0:0:
222,64,97790,1,8,0:0:0:0:
211,79,97975,1,0,0:0:0:0:
211,79,98067,1,0,0:0:0:0:
211,79,98160,1,8,0:0:0:0:
211,79,98253,1,0,0:0:0:0:
211,79,98345,1,8,0:0:0:0:
216,78,98530,1,0,0:0:0:0:
220,83,98623,1,8,0:0:0:0:
220,83,98716,1,8,0:0:0:0:
211,79,98901,1,0,0:0:0:0:
208,72,99086,1,8,0:0:0:0:
208,72,99179,1,8,0:0:0:0:
208,72,99271,1,0,0:0:0:0:
208,72,99364,1,0,0:0:0:0:
208,72,99456,1,8,0:0:0:0:
208,72,99549,1,0,0:0:0:0:
208,72,99642,1,0,0:0:0:0:
208,67,99827,1,8,0:0:0:0:
183,105,99919,1,0,0:0:0:0:
208,67,100012,1,8,0:0:0:0:
190,55,100197,1,8,0:0:0:0:
204,61,100382,1,0,0:0:0:0:
205,63,100567,1,8,0:0:0:0:
205,63,100660,1,0,0:0:0:0:
208,67,100753,1,0,0:0:0:0:
208,67,100845,1,0,0:0:0:0:
208,67,100938,1,8,0:0:0:0:
206,79,101123,1,8,0:0:0:0:
204,78,101216,1,8,0:0:0:0:
204,78,101308,1,0,0:0:0:0:
219,77,101493,1,0,0:0:0:0:
219,77,101586,1,0,0:0:0:0:
219,77,101679,1,8,0:0:0:0:
219,77,101771,1,8,0:0:0:0:
219,77,101864,1,0,0:0:0:0:
219,77,101956,1,8,0:0:0:0:
219,77,102049,1,0,0:0:0:0:
219,77,102234,1,0,0:0:0:0:
221,72,102419,1,8,0:0:0:0:
219,77,102790,1,12,0:0:0:0:
243,80,102975,1,0,0:0:0:0:
237,79,103067,1,8,0:0:0:0:
238,78,103345,1,8,0:0:0:0:
234,84,103530,1,0,0:0:0:0:
234,84,103716,1,0,0:0:0:0:
234,84,103808,1,8,0:0:0:0:
233,86,104086,1,0,0:0:0:0:
227,86,104271,1,0,0:0:0:0:
227,86,104456,1,0,0:0:0:0:
227,87,104549,1,8,0:0:0:0:
227,87,104827,1,8,0:0:0:0:
227,87,105012,1,0,0:0:0:0:
206,76,105197,1,0,0:0:0:0:
206,76,105290,1,8,0:0:0:0:
196,79,105567,1,8,0:0:0:0:
201,79,105753,1,0,0:0:0:0:
204,68,106123,1,8,0:0:0:0:
210,70,106308,1,0,0:0:0:0:
210,70,106401,1,0,0:0:0:0:
210,70,106493,1,8,0:0:0:0:
210,70,106586,1,8,0:0:0:0:
210,70,106679,1,0,0:0:0:0:
226,78,106864,1,8,0:0:0:0:
226,78,106956,1,8,0:0:0:0:
226,78,107049,1,0,0:0:0:0:
225,79,107142,1,8,0:0:0:0:
225,79,107234,1,8,0:0:0:0:
210,70,107419,1,8,0:0:0:0:
234,74,107512,1,0,0:0:0:0:
234,74,107605,1,0,0:0:0:0:
234,74,107697,1,8,0:0:0:0:
234,74,107790,1,0,0:0:0:0:
232,74,107975,1,8,0:0:0:0:
233,78,108067,1,8,0:0:0:0:
233,78,108160,1,0,0:0:0:0:
191,84,108345,1,0,0:0:0:0:
191,84,108530,1,8,0:0:0:0:
191,84,108623,1,0,0:0:0:0:
191,84,108716,1,12,0:0:0:0:
216,98,109086,1,8,0:0:0:0:
199,95,109271,1,0,0:0:0:0:
217,73,109456,1,8,0:0:0:0:
217,75,109549,1,8,0:0:0:0:
217,75,109642,1,0,0:0:0:0:
214,79,109734,1,8,0:0:0:0:
211,81,109827,1,8,0:0:0:0:
229,89,110012,1,0,0:0:0:0:
229,89,110105,1,0,0:0:0:0:
229,89,110197,1,8,0:0:0:0:
229,89,110290,1,0,0:0:0:0:
229,89,110382,1,8,0:0:0:0:
229,89,110475,1,8,0:0:0:0:
229,89,110567,1,0,0:0:0:0:
230,79,110753,1,0,0:0:0:0:
230,79,110938,1,8,0:0:0:0:
230,79,111030,1,0,0:0:0:0:
230,79,111123,1,0,0:0:0:0:
230,79,111308,1,8,0:0:0:0:
229,80,111401,1,8,0:0:0:0:
229,80,111493,1,0,0:0:0:0:
228,81,111586,1,0,0:0:0:0:
227,83,111679,1,8,0:0:0:0:
216,76,111864,1,8,0:0:0:0:
216,76,111956,1,0,0:0:0:0:
216,76,112049,1,8,0:0:0:0:
216,76,112234,1,0,0:0:0:0:
194,80,112419,1,8,0:0:0:0:
194,80,112512,1,8,0:0:0:0:
194,80,112605,1,0,0:0:0:0:
194,80,112790,1,0,0:0:0:0:
194,80,112882,1,8,0:0:0:0:
194,80,112975,1,0,0:0:0:0:
194,80,113067,1,0,0:0:0:0:
194,80,113160,1,8,0:0:0:0:
206,73,113345,1,8,0:0:0:0:
218,78,113530,1,8,0:0:0:0:
218,78,113623,1,0,0:0:0:0:
216,78,113808,1,0,0:0:0:0:
215,79,113901,1,8,0:0:0:0:
220,87,114086,1,0,0:0:0:0:
220,87,114271,1,8,0:0:0:0:
168,103,114642,1,12,0:0:0:0:
203,93,114827,1,0,0:0:0:0:
203,93,114919,1,0,0:0:0:0:
203,93,115012,1,8,0:0:0:0:
226,77,115197,1,0,0:0:0:0:
216,83,115382,1,8,0:0:0:0:
216,83,115475,1,0,0:0:0:0:
216,83,115567,1,0,0:0:0:0:
216,83,115660,1,0,0:0:0:0:
216,83,115753,1,8,0:0:0:0:
195,86,115845,1,8,0:0:0:0:
195,86,115938,1,0,0:0:0:0:
214,81,116123,1,0,0:0:0:0:
216,82,116216,1,0,0:0:0:0:
216,83,116308,1,8,0:0:0:0:
216,83,116401,1,0,0:0:0:0:
216,83,116493,1,8,0:0:0:0:
221,65,116679,1,0,0:0:0:0:
230,61,116864,1,0,0:0:0:0:
230,61,116956,1,8,0:0:0:0:
230,61,117049,1,8,0:0:0:0:
230,61,117142,1,0,0:0:0:0:
230,61,117234,1,8,0:0:0:0:
220,71,117605,1,6,0:0:0:0:
208,69,117790,1,0,0:0:0:0:
208,69,117882,1,0,0:0:0:0:
160,101,118067,1,0,0:0:0:0:
160,101,118160,1,8,0:0:0:0:
160,101,118345,1,8,0:0:0:0:
160,101,118530,1,0,0:0:0:0:
160,101,118623,1,8,0:0:0:0:
160,101,118808,1,8,0:0:0:0:
160,101,118901,1,0,0:0:0:0:
182,90,119086,1,0,0:0:0:0:
170,90,119271,1,0,0:0:0:0:
170,90,119364,1,8,0:0:0:0:
170,90,119549,1,8,0:0:0:0:
169,89,119642,1,8,0:0:0:0:
188,75,119827,1,8,0:0:0:0:
185,67,120012,1,0,0:0:0:0:
185,67,120105,1,0,0:0:0:0:
185,67,120197,1,8,0:0:0:0:
185,67,120290,1,8,0:0:0:0:
185,67,120382,1,0,0:0:0:0:
185,67,120567,1,12,0:0:0:0:
203,72,122049,1,8,0:0:0:0:
132,102,125012,1,0,0:0:0:0:
143,108,125753,1,8,0:0:0:0:
159,117,126493,1,0,0:0:0:0:
204,134,130753,1,8,0:0:0:0:
204,134,130845,1,8,0:0:0:0:
204,134,130938,1,8,0:0:0:0:
197,113,131123,1,0,0:0:0:0:
197,113,131308,1,0,0:0:0:0:
197,113,131493,1,8,0:0:0:0:
197,113,131679,1,8,0:0:0:0:
197,115,131864,1,8,0:0:0:0:
197,113,132049,1,12,0:0:0:0:
191,106,132234,1,0,0:0:0:0:
251,130,132419,1,12,0:0:0:0:
247,125,132605,1,8,0:0:0:0:
247,125,132790,1,0,0:0:0:0:
196,117,132975,1,0,0:0:0:0:
196,117,133067,1,8,0:0:0:0:
196,117,133160,1,8,0:0:0:0:
196,117,133345,1,0,0:0:0:0:
196,117,133530,1,8,0:0:0:0:
196,117,133623,1,0,0:0:0:0:
196,117,133716,1,8,0:0:0:0:
204,103,133901,1,0,0:0:0:0:
204,103,134086,1,8,0:0:0:0:
204,103,134271,1,0,0:0:0:0:
204,103,134456,1,0,0:0:0:0:
204,103,134549,1,0,0:0:0:0:
204,103,134642,1,8,0:0:0:0:
160,91,134827,1,0,0:0:0:0:
160,91,135012,1,0,0:0:0:0:
235,113,135105,1,8,0:0:0:0:
160,91,135197,1,8,0:0:0:0:
251,130,135382,1,8,0:0:0:0:
247,125,135567,1,8,0:0:0:0:
247,125,135753,1,0,0:0:0:0:
196,117,135938,1,0,0:0:0:0:
196,117,136030,1,8,0:0:0:0:
196,117,136123,1,8,0:0:0:0:
196,117,136308,1,0,0:0:0:0:
196,117,136493,1,8,0:0:0:0:
201,120,136586,1,0,0:0:0:0:
196,117,136679,1,8,0:0:0:0:
204,103,136864,1,0,0:0:0:0:
204,103,137049,1,8,0:0:0:0:
204,103,137234,1,0,0:0:0:0:
193,85,137419,1,8,0:0:0:0:
193,85,137512,1,0,0:0:0:0:
193,85,137605,1,8,0:0:0:0:
193,85,137697,1,8,0:0:0:0:
193,85,137790,1,0,0:0:0:0:
209,93,137975,1,12,0:0:0:0:
219,94,138345,1,12,0:0:0:0:
216,90,138530,1,8,0:0:0:0:
216,90,138716,1,0,0:0:0:0:
185,85,138901,1,8,0:0:0:0:
188,87,138993,1,0,0:0:0:0:
185,85,139086,1,8,0:0:0:0:
191,88,139271,1,0,0:0:0:0:
191,88,139456,1,0,0:0:0:0:
191,88,139549,1,0,0:0:0:0:
191,88,139642,1,8,0:0:0:0:
196,92,139827,1,0,0:0:0:0:
196,92,140012,1,8,0:0:0:0:
196,92,140197,1,0,0:0:0:0:
190,99,140382,1,0,0:0:0:0:
190,99,140475,1,0,0:0:0:0:
190,99,140567,1,8,0:0:0:0:
190,99,140753,1,0,0:0:0:0:
190,99,140938,1,8,0:0:0:0:
190,99,141030,1,0,0:0:0:0:
190,99,141123,1,8,0:0:0:0:
219,94,141308,1,8,0:0:0:0:
216,90,141493,1,8,0:0:0:0:
216,90,141679,1,0,0:0:0:0:
185,85,141864,1,8,0:0:0:0:
188,87,141956,1,0,0:0:0:0:
185,85,142049,1,8,0:0:0:0:
191,88,142234,1,0,0:0:0:0:
191,88,142419,1,0,0:0:0:0:
191,88,142512,1,0,0:0:0:0:
191,88,142605,1,8,0:0:0:0:
196,92,142790,1,4,0:0:0:0:
176,93,142975,1,4,0:0:0:0:
191,88,143160,1,8,0:0:0:0:
191,88,143253,1,8,0:0:0:0:
191,88,143345,1,0,0:0:0:0:
191,88,143438,1,0,0:0:0:0:
191,88,143530,1,0,0:0:0:0:
172,90,143716,1,8,0:0:0:0:
176,93,143901,1,12,0:0:0:0:
181,98,144271,1,12,0:0:0:0:
