osu file format v14

[General]
AudioFilename: audio.mp3
AudioLeadIn: 0
PreviewTime: 101760
Countdown: 0
SampleSet: Normal
StackLeniency: 0.7
Mode: 1
LetterboxInBreaks: 0
WidescreenStoryboard: 0

[Editor]
Bookmarks: 9617,28461,40769,53077,65384,77692,90000,96153,102307,126153,126923,139230,148461,151538,162307,163846,173463,179616,185770,209616,210386,222693,231924,244232,261155,270385,281154,293462,308846,311923,321154,325000
DistanceSpacing: 0.7
BeatDivisor: 4
GridSize: 4
TimelineZoom: 2.3

[Metadata]
Title:TRUE CASTLE
TitleUnicode:TRUE CASTLE
Artist:CROSS VEIN
ArtistUnicode:CROSS VEIN
Creator:arley_
Version:Tatsujin
Source:
Tags:japanese jp melodic symphonic power gothic metal life of veins julia yoshi KeiTaro ZARY MASUMI ShinKi new zealand
BeatmapID:3919305
BeatmapSetID:1901162

[Difficulty]
HPDrainRate:4.5
CircleSize:2
OverallDifficulty:7
ApproachRate:5
SliderMultiplier:1.4
SliderTickRate:1

[Events]
//Background and Video events
0,0,"bg.jpg",0,45
//Break Periods
//Storyboard Layer 0 (Background)
//Storyboard Layer 1 (Fail)
//Storyboard Layer 2 (Pass)
//Storyboard Layer 3 (Foreground)
//Storyboard Layer 4 (Overlay)
//Storyboard Sound Samples

[TimingPoints]
843,384.615384615385,4,1,0,5,1,0
843,-117.647058823529,4,1,0,5,0,0
9657,384.615384615385,4,1,0,80,1,8
9657,-117.647058823529,4,1,0,80,0,8
9748,-115.942028985507,4,1,0,80,0,8
9844,-114.285714285714,4,1,0,80,0,8
9940,-112.676056338028,4,1,0,80,0,8
10041,384.615384615385,4,1,0,80,1,0
10041,-111.111111111111,4,1,0,80,0,8
10425,-117.647058823529,4,1,0,80,0,8
10516,-115.942028985507,4,1,0,80,0,8
10612,-114.285714285714,4,1,0,80,0,8
10708,-112.676056338028,4,1,0,80,0,8
10804,-111.111111111111,4,1,0,80,0,8
11189,-117.647058823529,4,1,0,80,0,8
11285,-115.942028985507,4,1,0,80,0,8
11381,-114.285714285714,4,1,0,80,0,8
11477,-112.676056338028,4,1,0,80,0,8
11573,-111.111111111111,4,1,0,80,0,8
11959,-109.89010989011,4,1,0,80,0,8
12151,-108.324640280951,4,1,0,81,0,8
12247,-107.558571019849,4,1,0,82,0,8
12343,-106.803260917162,4,1,0,83,0,8
12536,-106.382978723404,4,1,0,84,0,8
12632,-105.263157894737,4,1,0,85,0,8
12728,-104.166666666667,4,1,0,86,0,8
12824,-103.092783505155,4,1,0,87,0,8
12920,-102.040816326531,4,1,0,88,0,8
13016,-101.010101010101,4,1,0,89,0,8
13117,384.615384615385,4,1,0,90,1,0
13117,-100,4,1,0,90,0,8
21765,-100,4,1,0,90,0,8
21862,-99.18480012775,4,1,0,90,0,8
21958,-98.3827837998973,4,1,0,90,0,8
22054,-97.5935385270012,4,1,0,90,0,8
22150,-96.8169491623882,4,1,0,90,0,8
22246,-96.0526214681451,4,1,0,90,0,8
22342,-95.3002673172498,4,1,0,90,0,8
26381,-95.2380952380952,4,1,0,90,0,8
26477,-95.8904240945786,4,1,0,90,0,8
26573,-96.5517507728968,4,1,0,90,0,8
26669,-97.2222627314984,4,1,0,90,0,8
26765,-97.9020568243118,4,1,0,90,0,8
26862,-98.5915215235151,4,1,0,90,0,8
26958,-99.2907660580474,4,1,0,90,0,8
27054,-100,4,1,0,90,0,8
27150,-100.719438952437,4,1,0,90,0,8
27246,-101.449304767914,4,1,0,90,0,8
27342,-102.189825776566,4,1,0,90,0,8
27438,-102.941131055383,4,1,0,90,0,8
27535,-103.703672976689,4,1,0,90,0,8
27631,-104.477596346627,4,1,0,90,0,8
27727,-105.263157894737,4,1,0,90,0,8
28501,384.615384615385,4,1,0,85,1,0
28501,-100,4,1,0,85,0,8
50227,-100,4,1,0,86,0,8
50323,-99.5475563563603,4,1,0,86,0,8
50419,-99.0990901712531,4,1,0,87,0,8
50515,-98.6547439120158,4,1,0,87,0,8
50612,-98.2142681760236,4,1,0,88,0,8
50708,-97.7778038518588,4,1,0,88,0,8
50804,-97.3451068995291,4,1,0,89,0,8
50900,-96.9163166372364,4,1,0,89,0,8
50996,-96.4911942136161,4,1,0,90,0,8
51092,-96.0698773860155,4,1,0,90,0,8
51188,-95.6521323251599,4,1,0,90,0,8
51285,-95.2380952380952,4,1,0,90,0,8
51381,-94.8276270808737,4,1,0,90,0,8
51477,-94.4205927535972,4,1,0,90,0,8
51573,-94.0171261597012,4,1,0,90,0,8
51669,-93.6170053417863,4,1,0,90,0,8
51765,-93.2203626831431,4,1,0,90,0,8
51862,-92.8269807189078,4,1,0,90,0,8
51958,-92.4369903255446,4,1,0,90,0,8
52054,-92.0501783932457,4,1,0,90,0,8
52150,-91.6666743055562,4,1,0,90,0,8
52246,-91.2862691758219,4,1,0,90,0,8
52342,-90.9090909090909,4,1,0,90,0,8
53111,-100,4,1,0,85,0,8
76380,-100,4,1,0,85,0,8
76476,-99.009900990099,4,1,0,86,0,8
76572,-98.0392156862745,4,1,0,87,0,8
76669,-97.0873786407767,4,1,0,88,0,8
76765,-96.1538461538461,4,1,0,89,0,8
76861,-95.2380952380952,4,1,0,90,0,8
76957,-94.3396226415094,4,1,0,91,0,8
77053,-93.4579439252336,4,1,0,92,0,8
77149,-92.5925925925926,4,1,0,93,0,8
77246,-91.743119266055,4,1,0,94,0,8
77342,-90.9090909090909,4,1,0,95,0,8
87919,-90.9090909090909,4,1,0,94,0,8
88015,-91.2848525567062,4,1,0,94,0,8
88112,-91.6638174496743,4,1,0,93,0,8
88208,-92.04585724608,4,1,0,93,0,8
88304,-92.4310949295074,4,1,0,92,0,8
88400,-92.8196569756757,4,1,0,92,0,8
88496,-93.2114128053839,4,1,0,91,0,8
88592,-93.6064895507076,4,1,0,91,0,8
88688,-94.0049296185092,4,1,0,90,0,8
88785,-94.4068652672422,4,1,0,90,0,8
88881,-94.8121628835034,4,1,0,90,0,8
88977,-95.2209554661113,4,1,0,90,0,8
89073,-95.6333798749115,4,1,0,90,0,8
89169,-96.0493001847989,4,1,0,89,0,8
89265,-96.4688540657763,4,1,0,89,0,8
89362,-96.8921832231185,4,1,0,88,0,8
89458,-97.3191493917067,4,1,0,88,0,8
89554,-97.7498951632374,4,1,0,87,0,8
89650,-98.184470947706,4,1,0,87,0,8
89746,-98.6230253204755,4,1,0,86,0,8
89842,-99.0654168573676,4,1,0,86,0,8
90034,-99.9623142075438,4,1,0,85,0,8
95612,-100,4,1,0,85,0,0
95708,-99.18480012775,4,1,0,85,0,0
95804,-98.3827837998973,4,1,0,86,0,0
95900,-97.0873786407767,4,1,0,87,0,0
95996,-96.1538461538461,4,1,0,88,0,0
96092,-95.2380952380952,4,1,0,89,0,0
96188,-94.3396226415094,4,1,0,90,0,0
99265,-90.9090909090909,4,1,0,100,0,8
99362,-95.2380952380952,4,1,0,90,0,8
99842,-90.9090909090909,4,1,0,100,0,8
99938,-95.2380952380952,4,1,0,90,0,8
100419,-90.9090909090909,4,1,0,100,0,8
100804,-86.9565217391304,4,1,0,100,0,8
100996,-95.2380952380952,4,1,0,95,0,8
101092,-95.9894641964098,4,1,0,95,0,8
101188,-96.7527830938057,4,1,0,94,0,8
101285,-97.5284344150537,4,1,0,94,0,8
101381,-98.3165261231926,4,1,0,93,0,8
101477,-99.1174581526092,4,1,0,93,0,8
101573,-99.9315468903801,4,1,0,92,0,8
102347,-100,4,1,0,95,0,1
123496,-100,4,1,0,95,0,1
123592,-99.4500412717671,4,1,0,95,0,1
123688,-98.9060985500366,4,1,0,95,0,1
123785,-98.3680736580135,4,1,0,95,0,1
123881,-97.8358705435761,4,1,0,95,0,1
123977,-97.3093952221087,4,1,0,95,0,1
124073,-96.7885557211715,4,1,0,95,0,1
124169,-96.2732620269373,4,1,0,95,0,1
124265,-95.7634260323297,4,1,0,95,0,1
124362,-95.2589614868019,4,1,0,95,0,1
124458,-94.7597839476926,4,1,0,95,0,1
124554,-94.2658995936197,4,1,0,95,0,1
124650,-93.7770488175183,4,1,0,95,0,1
124746,-93.2932421174207,4,1,0,95,0,1
124842,-92.8144018251024,4,1,0,95,0,1
124938,-92.3404518587671,4,1,0,95,0,1
125035,-91.8713176827481,4,1,0,95,0,1
125131,-91.4069262684311,4,1,0,95,0,1
125227,-90.9472060563563,4,1,0,95,0,1
125419,-90.9090909090909,4,1,0,100,0,1
125612,-92.5925925925926,4,1,0,90,0,1
125804,-94.3396226415094,4,1,0,100,0,1
125996,-96.1538461538461,4,1,0,90,0,1
126193,-98.0392156862745,4,1,0,100,0,0
126381,-100,4,1,0,85,0,0
136188,-95.2380952380952,4,1,0,100,0,0
136381,-100,4,1,0,90,0,0
136958,-95.2380952380952,4,1,0,100,0,0
137150,-100,4,1,0,90,0,0
137727,-95.2380952380952,4,1,0,100,0,0
137919,-99.009900990099,4,1,0,90,0,0
138015,-98.0392156862745,4,1,0,90,0,0
138112,-97.0873786407767,4,1,0,90,0,0
138208,-96.1538461538461,4,1,0,90,0,0
138304,-95.2380952380952,4,1,0,90,0,0
138496,-90.9090909090909,4,1,0,100,0,0
139265,-100,4,1,0,85,0,0
147919,-100,4,1,0,86,0,0
148015,-99.5260569169614,4,1,0,87,0,0
148112,-99.0565850836632,4,1,0,88,0,0
148208,-98.5915215235151,4,1,0,89,0,0
148304,-98.1308044370825,4,1,0,90,0,0
148400,-97.6743731747101,4,1,0,90,0,0
148496,-97.2222627314984,4,1,0,90,0,0
148592,-96.774224765879,4,1,0,90,0,0
148688,-96.3302973234627,4,1,0,90,0,0
148785,-95.8904240945786,4,1,0,90,0,0
148881,-95.4545497933886,4,1,0,90,0,0
148977,-95.0226201347231,4,1,0,90,0,0
149073,-94.594581811543,4,1,0,90,0,0
149169,-94.1703824730084,4,1,0,90,0,0
149265,-93.7499707031342,4,1,0,90,0,0
149362,-93.3332960000149,4,1,0,90,0,0
149458,-92.92039509752,4,1,0,90,0,0
149554,-92.5110458188708,4,1,0,90,0,0
149650,-92.1052873961283,4,1,0,90,0,0
149746,-91.7030727865629,4,1,0,90,0,0
149842,-91.3043557655962,4,1,0,90,0,0
149938,-91.743119266055,4,1,0,90,0,0
150035,-91.743119266055,4,1,0,90,0,0
150131,-92.2190201729107,4,1,0,90,0,0
150227,-92.6998841251448,4,1,0,90,0,0
150323,-93.185789167152,4,1,0,90,0,0
150419,-93.6768149882904,4,1,0,90,0,0
150515,-94.1730429664509,4,1,0,90,0,0
150612,-94.6745562130178,4,1,0,90,0,0
150708,-95.1814396192742,4,1,0,90,0,0
150804,-95.6937799043062,4,1,0,90,0,0
150996,-96.7351874244256,4,1,0,90,0,0
151092,-97.2644376899696,4,1,0,89,0,0
151188,-97.799511002445,4,1,0,88,0,0
151285,-98.340503995083,4,1,0,87,0,0
151381,-98.8875154511743,4,1,0,86,0,0
151573,-100,4,1,0,85,0,0
161188,-100,4,1,0,85,0,0
161285,-100.561232237115,4,1,0,85,0,0
161381,-101.12890193227,4,1,0,85,0,0
161477,-101.702913585068,4,1,0,85,0,0
161573,-102.283583280316,4,1,0,85,0,0
161701,-103.068025927793,4,1,0,84,0,0
161829,-103.864701684997,4,1,0,83,0,0
161958,-104.673789369121,4,1,0,82,0,0
162086,-105.495581317577,4,1,0,81,0,0
162214,-106.330379120967,4,1,0,80,0,0
163885,384.615384615385,3,1,0,80,1,8
163889,384.615384615385,3,1,0,80,1,0
163889,-111.111111111111,4,1,0,80,0,0
171965,384.615384615385,4,1,0,80,1,0
171965,-111.111111111111,4,1,0,80,0,0
172341,-109.89010989011,4,1,0,80,0,0
172437,-108.707822723631,4,1,0,80,0,0
172533,-107.550704779768,4,1,0,81,0,0
172630,-106.417960797752,4,1,0,81,0,0
172726,-105.30882867096,4,1,0,82,0,0
172822,-104.222577737015,4,1,0,82,0,0
172918,-103.158613589497,4,1,0,83,0,0
173014,-102.116048762456,4,1,0,83,0,0
173110,-101.094346298683,4,1,0,84,0,0
173207,-100,4,1,0,85,0,0
173503,384.615384615385,4,1,0,85,1,0
179074,-100,4,1,0,85,0,0
179171,-99.18480012775,4,1,0,85,0,0
179267,-98.3827837998973,4,1,0,86,0,0
179363,-97.0873786407767,4,1,0,87,0,0
179459,-96.1538461538461,4,1,0,88,0,0
179555,-95.2380952380952,4,1,0,89,0,0
179651,-94.3396226415094,4,1,0,90,0,0
182728,-90.9090909090909,4,1,0,100,0,8
182825,-95.2380952380952,4,1,0,90,0,8
183305,-90.9090909090909,4,1,0,100,0,8
183401,-95.2380952380952,4,1,0,90,0,8
183882,-90.9090909090909,4,1,0,100,0,8
184267,-86.9565217391304,4,1,0,100,0,8
184459,-95.2380952380952,4,1,0,95,0,8
184555,-95.9894641964098,4,1,0,95,0,8
184651,-96.7527830938057,4,1,0,94,0,8
184748,-97.5284344150537,4,1,0,94,0,8
184844,-98.3165261231926,4,1,0,93,0,8
184940,-99.1174581526092,4,1,0,93,0,8
185036,-99.9315468903801,4,1,0,92,0,8
185810,-100,4,1,0,95,0,1
206959,-100,4,1,0,95,0,1
207055,-99.4500412717671,4,1,0,95,0,1
207151,-98.9060985500366,4,1,0,95,0,1
207248,-98.3680736580135,4,1,0,95,0,1
207344,-97.8358705435761,4,1,0,95,0,1
207440,-97.3093952221087,4,1,0,95,0,1
207536,-96.7885557211715,4,1,0,95,0,1
207632,-96.2732620269373,4,1,0,95,0,1
207728,-95.7634260323297,4,1,0,95,0,1
207825,-95.2589614868019,4,1,0,95,0,1
207921,-94.7597839476926,4,1,0,95,0,1
208017,-94.2658995936197,4,1,0,95,0,1
208113,-93.7770488175183,4,1,0,95,0,1
208209,-93.2932421174207,4,1,0,95,0,1
208305,-92.8144018251024,4,1,0,95,0,1
208401,-92.3404518587671,4,1,0,95,0,1
208498,-91.8713176827481,4,1,0,95,0,1
208594,-91.4069262684311,4,1,0,95,0,1
208690,-90.9472060563563,4,1,0,95,0,1
208882,-90.9090909090909,4,1,0,100,0,1
209074,-90.0900900900901,4,1,0,90,0,1
209267,-89.2857142857143,4,1,0,100,0,1
209459,-88.4955752212389,4,1,0,90,0,1
209656,-86.9565217391304,4,1,0,100,0,0
210421,-111.111111111111,4,1,0,80,0,0
222728,-111.111111111111,4,1,0,90,0,0
222824,-111.111111111111,4,1,0,80,0,0
224267,-111.111111111111,4,1,0,90,0,0
224363,-111.111111111111,4,1,0,80,0,0
225805,-105.263157894737,4,1,0,90,0,0
226574,-100,4,1,0,90,0,0
227344,-105.263157894737,4,1,0,90,0,0
227728,-111.111111111111,4,1,0,80,0,0
228882,-105.263157894737,4,1,0,90,0,0
229267,-111.111111111111,4,1,0,80,0,0
229651,-105.263157894737,4,1,0,90,0,0
230036,-111.111111111111,4,1,0,90,0,0
230421,-111.111111111111,4,1,0,80,0,0
230517,-110.344827586207,4,1,0,81,0,0
230613,-109.58904109589,4,1,0,82,0,0
230709,-108.843537414966,4,1,0,83,0,0
230805,-108.108108108108,4,1,0,84,0,0
230901,-107.38255033557,4,1,0,85,0,0
230998,-106.666666666667,4,1,0,86,0,0
231094,-105.960264900662,4,1,0,87,0,0
231190,-105.263157894737,4,1,0,88,0,0
231286,-104.575163398693,4,1,0,89,0,0
231382,-103.896103896104,4,1,0,90,0,0
231478,-103.225806451613,4,1,0,90,0,0
231574,-102.564102564103,4,1,0,90,0,0
231671,-101.910828025478,4,1,0,90,0,0
231767,-101.26582278481,4,1,0,90,0,0
231964,384.615384615385,4,1,0,90,1,0
231964,-100,4,1,0,90,0,0
252921,-99.009900990099,4,1,0,92,0,0
253017,-98.0392156862745,4,1,0,92,0,0
253113,-97.0873786407767,4,1,0,93,0,0
253209,-96.1538461538461,4,1,0,93,0,0
253305,-95.2380952380952,4,1,0,94,0,0
253401,-94.3396226415094,4,1,0,94,0,0
253498,-93.4579439252336,4,1,0,95,0,0
253690,-92.5925925925926,4,1,0,95,0,0
253786,-91.743119266055,4,1,0,95,0,0
253882,-90.9090909090909,4,1,0,95,0,0
257921,-90.9090909090909,4,1,0,95,0,0
258017,-91.4634425193422,4,1,0,94,0,0
258113,-92.0245116489228,4,1,0,93,0,0
258209,-92.5925925925926,4,1,0,92,0,0
258305,-93.1677307974319,4,1,0,91,0,0
258401,-93.7499707031342,4,1,0,90,0,0
258498,-94.3396226415094,4,1,0,90,0,0
258594,-94.9367389040313,4,1,0,90,0,0
258690,-95.5413708466972,4,1,0,90,0,0
258786,-96.1538461538461,4,1,0,90,0,0
258882,-96.774224765879,4,1,0,90,0,0
258978,-97.4025657783877,4,1,0,90,0,0
259074,-98.0392156862745,4,1,0,90,0,0
259171,-98.6842429882378,4,1,0,90,0,0
259267,-99.3377154510876,4,1,0,90,0,0
259363,-100,4,1,0,90,0,0
259459,-100.671174721871,4,1,0,90,0,0
259555,-101.351317111042,4,1,0,90,0,0
259651,-102.040816326531,4,1,0,90,0,0
259780,-102.974840157304,4,1,0,89,0,0
259908,-103.926120999104,4,1,0,88,0,0
260036,-104.895141571728,4,1,0,87,0,0
260164,-105.88240276819,4,1,0,86,0,0
260292,-106.888310266836,4,1,0,85,0,0
260421,-107.913630246896,4,1,0,84,0,0
260517,-108.695652173913,4,1,0,83,0,0
260613,-109.489091054413,4,1,0,82,0,0
260709,-110.294077097766,4,1,0,81,0,0
260805,-111.111111111111,4,1,0,80,0,0
261194,384.615384615385,3,1,0,80,1,0
261194,-111.111111111111,3,1,0,80,0,0
269843,-109.89010989011,3,1,0,81,0,0
269940,-108.695652173913,3,1,0,82,0,0
270036,-107.52688172043,3,1,0,83,0,0
270228,-106.382978723404,3,1,0,84,0,0
270420,-105.263157894737,3,1,0,85,0,0
275036,-95.2380952380954,3,1,0,90,0,0
275136,-100,3,1,0,85,0,0
276193,384.615384615385,4,1,0,90,1,8
276195,384.615384615385,4,1,0,90,1,8
276579,384.615384615385,4,1,0,90,1,0
276579,-95.2380952380952,4,1,0,90,0,8
278304,-100,4,1,0,85,0,8
278689,-95.2380952380952,4,1,0,90,0,8
278881,-100,4,1,0,85,0,8
279266,-95.2380952380952,4,1,0,90,0,8
279650,-86.9565217391304,4,1,0,90,0,8
279843,-95.2380952380952,4,1,0,89,0,8
279939,-95.9894641964098,4,1,0,88,0,8
280035,-96.7527830938057,4,1,0,87,0,8
280131,-97.5284344150537,4,1,0,86,0,8
280227,-98.3165261231926,4,1,0,85,0,8
280324,-99.1174581526092,4,1,0,85,0,8
280420,-99.9315468903801,4,1,0,85,0,8
281194,384.615384615385,4,1,0,90,1,0
281194,-90.852514570472,4,1,0,90,0,8
283497,-100,4,1,0,85,0,8
284265,-90.9090909090909,4,1,0,90,0,8
284843,-100,4,1,0,85,0,8
285804,-90.9090909090909,4,1,0,90,0,8
286093,-100,4,1,0,85,0,8
286381,-90.9090909090909,4,1,0,90,0,8
286766,-90.9090909090909,4,1,0,90,0,8
286862,-91.5934605932875,4,1,0,89,0,8
286958,-92.2882123957835,4,1,0,88,0,8
287054,-92.9936708507619,4,1,0,87,0,8
287150,-93.709909729244,4,1,0,86,0,8
287247,-94.4372672121363,4,1,0,85,0,8
287343,-95.1760042258146,4,1,0,84,0,8
287727,-95.2380952380952,4,1,0,84,0,8
288112,-96.3795039346932,4,1,0,83,0,8
288497,-97.5486035917396,4,1,0,82,0,8
288881,-98.7465117794714,4,1,0,81,0,8
289266,-99.974106706363,4,1,0,80,0,8
289650,-90.8876909891216,4,1,0,90,0,8
290419,-100,4,1,0,85,0,8
292920,-100,4,1,0,90,0,8
293016,-99.18480012775,4,1,0,90,0,8
293112,-98.3827837998973,4,1,0,91,0,8
293208,-97.0873786407767,4,1,0,92,0,8
293304,-96.1538461538461,4,1,0,93,0,8
293400,-95.2380952380952,4,1,0,94,0,8
293501,-94.3396226415094,4,1,0,95,0,9
308886,-90.9090909090909,4,1,0,100,0,8
309650,-95.2380952380952,4,1,0,95,0,8
310420,-100,4,1,0,95,0,8
310612,-100,4,1,0,90,0,8
311381,-100,4,1,0,91,0,8
311477,-99.18480012775,4,1,0,92,0,8
311574,-98.3827837998973,4,1,0,93,0,8
311670,-97.0873786407767,4,1,0,94,0,8
311766,-96.1538461538461,4,1,0,95,0,8
311958,-95.2380952380952,4,1,0,90,0,8
317535,-95.2380952380952,4,1,0,90,0,8
317631,-94.4983977796656,4,1,0,90,0,8
317727,-93.7701019656089,4,1,0,91,0,8
317824,-93.0528596074286,4,1,0,92,0,8
317920,-92.3465915334798,4,1,0,93,0,8
318016,-91.6509638015353,4,1,0,94,0,8
318117,-90.9657377548746,4,1,0,95,0,9
322727,-90.9090909090909,4,1,0,95,0,9
322824,-91.4997634731114,4,1,0,95,0,9
322920,-92.0980770842486,4,1,0,95,0,9
323016,-92.7043528401833,4,1,0,95,0,9
323112,-93.3185765557606,4,1,0,95,0,9
323208,-93.9410820321711,4,1,0,95,0,9
323304,-94.5719484469395,4,1,0,95,0,9
323400,-95.2112547319994,4,1,0,95,0,9
323497,-95.8593551541179,4,1,0,95,0,9
323689,-97.182296495412,4,1,0,95,0,9
323785,-97.8576034868621,4,1,0,94,0,9
323881,-98.5422642844403,4,1,0,93,0,9
323977,-99.2366715226478,4,1,0,92,0,9
324074,-99.9408350256648,4,1,0,91,0,9
324270,-90.9090909090909,4,1,0,100,0,8
325035,-83.3333333333333,4,1,0,100,0,8
325131,-50,4,1,0,60,0,8
327347,-100,4,1,0,5,0,8

[HitObjects]
256,192,9657,5,8,0:0:0:0:
256,192,9753,5,8,0:0:0:0:
256,192,9849,5,0,0:0:0:0:
256,192,9945,5,0,0:0:0:0:
256,192,10041,5,8,0:0:0:0:
256,192,10425,5,0,0:0:0:0:
256,192,10521,5,8,0:0:0:0:
256,192,10617,5,0,0:0:0:0:
256,192,10714,5,0,0:0:0:0:
256,192,10810,5,8,0:0:0:0:
256,192,11194,5,0,0:0:0:0:
256,192,11291,5,0,0:0:0:0:
256,192,11387,5,0,0:0:0:0:
256,192,11483,5,0,0:0:0:0:
256,192,11579,5,12,0:0:0:0:
256,192,11964,5,0,0:0:0:0:
256,192,12156,5,0,0:0:0:0:
256,192,12252,5,0,0:0:0:0:
256,192,12348,5,8,0:0:0:0:
256,192,12541,5,8,0:0:0:0:
256,192,12637,5,0,0:0:0:0:
256,192,12733,5,8,0:0:0:0:
256,192,12829,5,8,0:0:0:0:
256,192,12925,5,0,0:0:0:0:
256,192,13021,5,0,0:0:0:0:
256,192,13117,5,8,0:0:0:0:
256,192,13213,5,8,0:0:0:0:
256,192,13309,5,0,0:0:0:0:
256,192,13405,5,0,0:0:0:0:
256,192,13501,5,8,0:0:0:0:
256,192,13597,5,0,0:0:0:0:
256,192,13693,5,8,0:0:0:0:
256,192,13790,5,0,0:0:0:0:
256,192,13886,5,8,0:0:0:0:
256,192,13982,5,8,0:0:0:0:
256,192,14078,5,0,0:0:0:0:
256,192,14174,5,0,0:0:0:0:
256,192,14270,5,8,0:0:0:0:
256,192,14367,5,8,0:0:0:0:
256,192,14463,5,8,0:0:0:0:
256,192,14559,5,0,0:0:0:0:
256,192,14655,5,8,0:0:0:0:
256,192,14751,5,8,0:0:0:0:
256,192,14847,5,0,0:0:0:0:
256,192,14943,5,0,0:0:0:0:
256,192,15040,5,8,0:0:0:0:
256,192,15136,5,8,0:0:0:0:
256,192,15232,5,8,0:0:0:0:
256,192,15328,5,8,0:0:0:0:
256,192,15424,5,0,0:0:0:0:
256,192,15520,5,0,0:0:0:0:
256,192,15617,5,8,0:0:0:0:
256,192,15713,5,0,0:0:0:0:
256,192,15809,5,8,0:0:0:0:
256,192,15905,5,8,0:0:0:0:
256,192,16001,5,0,0:0:0:0:
256,192,16097,5,0,0:0:0:0:
256,192,16193,5,8,0:0:0:0:
256,192,16290,5,8,0:0:0:0:
256,192,16386,5,0,0:0:0:0:
256,192,16482,5,0,0:0:0:0:
256,192,16578,5,8,0:0:0:0:
256,192,16674,5,0,0:0:0:0:
256,192,16770,5,8,0:0:0:0:
256,192,16867,5,0,0:0:0:0:
256,192,16963,5,8,0:0:0:0:
256,192,17059,5,8,0:0:0:0:
256,192,17155,5,8,0:0:0:0:
256,192,17251,5,0,0:0:0:0:
256,192,17347,5,8,0:0:0:0:
256,192,17443,5,8,0:0:0:0:
256,192,17540,5,0,0:0:0:0:
256,192,17636,5,0,0:0:0:0:
256,192,17732,5,8,0:0:0:0:
256,192,17828,5,8,0:0:0:0:
256,192,17924,5,8,0:0:0:0:
256,192,18020,5,8,0:0:0:0:
256,192,18117,5,0,0:0:0:0:
256,192,18213,5,0,0:0:0:0:
256,192,18309,5,8,0:0:0:0:
256,192,18405,5,8,0:0:0:0:
256,192,18501,5,0,0:0:0:0:
256,192,18597,5,0,0:0:0:0:
256,192,18693,5,8,0:0:0:0:
256,192,18790,5,0,0:0:0:0:
256,192,18886,5,8,0:0:0:0:
256,192,18982,5,8,0:0:0:0:
256,192,19078,5,0,0:0:0:0:
256,192,19174,5,0,0:0:0:0:
256,192,19270,5,8,0:0:0:0:
256,192,19367,5,8,0:0:0:0:
256,192,19463,5,0,0:0:0:0:
256,192,19559,5,0,0:0:0:0:
256,192,19655,5,8,0:0:0:0:
256,192,19751,5,0,0:0:0:0:
256,192,19847,5,8,0:0:0:0:
256,192,19943,5,8,0:0:0:0:
256,192,20040,5,8,0:0:0:0:
256,192,20136,5,8,0:0:0:0:
256,192,20232,5,0,0:0:0:0:
256,192,20328,5,0,0:0:0:0:
256,192,20424,5,8,0:0:0:0:
256,192,20520,5,8,0:0:0:0:
256,192,20617,5,0,0:0:0:0:
256,192,20713,5,0,0:0:0:0:
256,192,20809,5,8,0:0:0:0:
256,192,20905,5,8,0:0:0:0:
256,192,21001,5,8,0:0:0:0:
256,192,21097,5,8,0:0:0:0:
256,192,21193,5,0,0:0:0:0:
256,192,21290,5,0,0:0:0:0:
256,192,21386,5,0,0:0:0:0:
256,192,21482,5,0,0:0:0:0:
256,192,21578,5,8,0:0:0:0:
256,192,21770,5,0,0:0:0:0:
256,192,21867,5,0,0:0:0:0:
256,192,21963,5,0,0:0:0:0:
256,192,22059,5,0,0:0:0:0:
256,192,22155,5,0,0:0:0:0:
256,192,22251,5,0,0:0:0:0:
256,192,22347,5,8,0:0:0:0:
256,192,22443,5,8,0:0:0:0:
256,192,22540,5,8,0:0:0:0:
256,192,22636,5,8,0:0:0:0:
256,192,22732,5,0,0:0:0:0:
256,192,22828,5,0,0:0:0:0:
256,192,22924,5,8,0:0:0:0:
256,192,23020,5,0,0:0:0:0:
256,192,23117,5,8,0:0:0:0:
256,192,23213,5,8,0:0:0:0:
256,192,23309,5,8,0:0:0:0:
256,192,23405,5,8,0:0:0:0:
256,192,23501,5,0,0:0:0:0:
256,192,23597,5,0,0:0:0:0:
256,192,23693,5,0,0:0:0:0:
256,192,23790,5,0,0:0:0:0:
256,192,23886,5,8,0:0:0:0:
256,192,23982,5,0,0:0:0:0:
256,192,24078,5,8,0:0:0:0:
256,192,24174,5,0,0:0:0:0:
256,192,24270,5,8,0:0:0:0:
256,192,24367,5,8,0:0:0:0:
256,192,24463,5,0,0:0:0:0:
256,192,24559,5,0,0:0:0:0:
256,192,24655,5,8,0:0:0:0:
256,192,24751,5,8,0:0:0:0:
256,192,24847,5,8,0:0:0:0:
256,192,24943,5,8,0:0:0:0:
256,192,25040,5,0,0:0:0:0:
256,192,25136,5,0,0:0:0:0:
256,192,25232,5,0,0:0:0:0:
256,192,25328,5,0,0:0:0:0:
256,192,25424,5,8,0:0:0:0:
256,192,25617,5,0,0:0:0:0:
256,192,25713,5,8,0:0:0:0:
256,192,25809,5,0,0:0:0:0:
256,192,25905,5,0,0:0:0:0:
256,192,26001,5,8,0:0:0:0:
256,192,26097,5,8,0:0:0:0:
256,192,26193,5,0,0:0:0:0:
256,192,26386,5,8,0:0:0:0:
256,192,26482,5,0,0:0:0:0:
256,192,26578,5,8,0:0:0:0:
256,192,26674,5,8,0:0:0:0:
256,192,26770,5,0,0:0:0:0:
256,192,26867,5,0,0:0:0:0:
256,192,26963,5,8,0:0:0:0:
256,192,27059,5,8,0:0:0:0:
256,192,27155,5,8,0:0:0:0:
256,192,27251,5,8,0:0:0:0:
256,192,27347,5,0,0:0:0:0:
256,192,27443,5,0,0:0:0:0:
256,192,27540,5,0,0:0:0:0:
256,192,27636,5,0,0:0:0:0:
256,192,27732,5,8,0:0:0:0:
256,192,28501,5,4,0:0:0:0:
256,192,28693,5,8,0:0:0:0:
256,192,28789,5,0,0:0:0:0:
256,192,28885,5,0,0:0:0:0:
256,192,28981,5,0,0:0:0:0:
256,192,29077,5,8,0:0:0:0:
256,192,29174,5,8,0:0:0:0:
256,192,29270,5,0,0:0:0:0:
256,192,29462,5,8,0:0:0:0:
256,192,29558,5,8,0:0:0:0:
256,192,29654,5,0,0:0:0:0:
256,192,29751,5,0,0:0:0:0:
256,192,29847,5,8,0:0:0:0:
256,192,30039,5,0,0:0:0:0:
256,192,30135,5,0,0:0:0:0:
256,192,30231,5,0,0:0:0:0:
256,192,30424,5,8,0:0:0:0:
256,192,30520,5,0,0:0:0:0:
256,192,30616,5,8,0:0:0:0:
256,192,30712,5,8,0:0:0:0:
256,192,30808,5,0,0:0:0:0:
256,192,31001,5,8,0:0:0:0:
256,192,31193,5,0,0:0:0:0:
256,192,31289,5,0,0:0:0:0:
256,192,31385,5,8,0:0:0:0:
256,192,31577,5,0,0:0:0:0:
256,192,31770,5,8,0:0:0:0:
256,192,31866,5,8,0:0:0:0:
256,192,31962,5,0,0:0:0:0:
256,192,32058,5,8,0:0:0:0:
256,192,32154,5,0,0:0:0:0:
256,192,32251,5,0,0:0:0:0:
256,192,32347,5,8,0:0:0:0:
256,192,32539,5,0,0:0:0:0:
256,192,32635,5,8,0:0:0:0:
256,192,32731,5,0,0:0:0:0:
256,192,32827,5,0,0:0:0:0:
256,192,32924,5,8,0:0:0:0:
256,192,33116,5,0,0:0:0:0:
256,192,33212,5,0,0:0:0:0:
256,192,33308,5,0,0:0:0:0:
256,192,33501,5,8,0:0:0:0:
256,192,33597,5,0,0:0:0:0:
256,192,33693,5,8,0:0:0:0:
256,192,33789,5,8,0:0:0:0:
256,192,33885,5,0,0:0:0:0:
256,192,34077,5,8,0:0:0:0:
256,192,34270,5,0,0:0:0:0:
256,192,34366,5,0,0:0:0:0:
256,192,34462,5,8,0:0:0:0:
256,192,34654,5,4,0:0:0:0:
256,192,34847,5,8,0:0:0:0:
256,192,34943,5,8,0:0:0:0:
256,192,35039,5,0,0:0:0:0:
256,192,35135,5,0,0:0:0:0:
256,192,35231,5,8,0:0:0:0:
256,192,35327,5,8,0:0:0:0:
256,192,35424,5,0,0:0:0:0:
256,192,35616,5,8,0:0:0:0:
256,192,35712,5,0,0:0:0:0:
256,192,35808,5,0,0:0:0:0:
256,192,35904,5,0,0:0:0:0:
256,192,36001,5,8,0:0:0:0:
256,192,36193,5,0,0:0:0:0:
256,192,36289,5,0,0:0:0:0:
256,192,36385,5,0,0:0:0:0:
256,192,36577,5,8,0:0:0:0:
256,192,36674,5,0,0:0:0:0:
256,192,36770,5,8,0:0:0:0:
256,192,36866,5,8,0:0:0:0:
256,192,36962,5,0,0:0:0:0:
256,192,37058,5,0,0:0:0:0:
256,192,37154,5,8,0:0:0:0:
256,192,37347,5,0,0:0:0:0:
256,192,37443,5,0,0:0:0:0:
256,192,37539,5,8,0:0:0:0:
256,192,37731,5,0,0:0:0:0:
256,192,37827,5,0,0:0:0:0:
256,192,37924,5,8,0:0:0:0:
256,192,38020,5,8,0:0:0:0:
256,192,38116,5,0,0:0:0:0:
256,192,38212,5,0,0:0:0:0:
256,192,38308,5,8,0:0:0:0:
256,192,38501,5,0,0:0:0:0:
256,192,38693,5,8,0:0:0:0:
256,192,38789,5,8,0:0:0:0:
256,192,38885,5,0,0:0:0:0:
256,192,38981,5,0,0:0:0:0:
256,192,39077,5,8,0:0:0:0:
256,192,39270,5,0,0:0:0:0:
256,192,39366,5,0,0:0:0:0:
256,192,39462,5,0,0:0:0:0:
256,192,39654,5,8,0:0:0:0:
256,192,39751,5,0,0:0:0:0:
256,192,39847,5,8,0:0:0:0:
256,192,39943,5,8,0:0:0:0:
256,192,40039,5,0,0:0:0:0:
256,192,40135,5,8,0:0:0:0:
256,192,40231,5,0,0:0:0:0:
256,192,40424,5,8,0:0:0:0:
256,192,40520,5,8,0:0:0:0:
256,192,40616,5,8,0:0:0:0:
256,192,40808,5,4,0:0:0:0:
256,192,41001,5,8,0:0:0:0:
256,192,41097,5,0,0:0:0:0:
256,192,41193,5,0,0:0:0:0:
256,192,41289,5,0,0:0:0:0:
256,192,41385,5,8,0:0:0:0:
256,192,41481,5,8,0:0:0:0:
256,192,41577,5,0,0:0:0:0:
256,192,41770,5,8,0:0:0:0:
256,192,41866,5,8,0:0:0:0:
256,192,41962,5,0,0:0:0:0:
256,192,42058,5,0,0:0:0:0:
256,192,42154,5,8,0:0:0:0:
256,192,42347,5,0,0:0:0:0:
256,192,42443,5,0,0:0:0:0:
256,192,42539,5,8,0:0:0:0:
256,192,42731,5,0,0:0:0:0:
256,192,42827,5,0,0:0:0:0:
256,192,42924,5,8,0:0:0:0:
256,192,43020,5,0,0:0:0:0:
256,192,43116,5,8,0:0:0:0:
256,192,43308,5,8,0:0:0:0:
256,192,43501,5,0,0:0:0:0:
256,192,43597,5,0,0:0:0:0:
256,192,43693,5,8,0:0:0:0:
256,192,43885,5,0,0:0:0:0:
256,192,43981,5,0,0:0:0:0:
256,192,44077,5,8,0:0:0:0:
256,192,44174,5,8,0:0:0:0:
256,192,44270,5,0,0:0:0:0:
256,192,44366,5,0,0:0:0:0:
256,192,44462,5,8,0:0:0:0:
256,192,44654,5,0,0:0:0:0:
256,192,44847,5,8,0:0:0:0:
256,192,44943,5,8,0:0:0:0:
256,192,45039,5,0,0:0:0:0:
256,192,45135,5,0,0:0:0:0:
256,192,45231,5,8,0:0:0:0:
256,192,45424,5,0,0:0:0:0:
256,192,45520,5,8,0:0:0:0:
256,192,45616,5,8,0:0:0:0:
256,192,45712,5,8,0:0:0:0:
256,192,45808,5,0,0:0:0:0:
256,192,45904,5,0,0:0:0:0:
256,192,46001,5,8,0:0:0:0:
256,192,46097,5,8,0:0:0:0:
256,192,46193,5,0,0:0:0:0:
256,192,46385,5,8,0:0:0:0:
256,192,46577,5,0,0:0:0:0:
256,192,46674,5,0,0:0:0:0:
256,192,46770,5,8,0:0:0:0:
256,192,46962,5,4,0:0:0:0:
256,192,47154,5,8,0:0:0:0:
256,192,47251,5,8,0:0:0:0:
256,192,47347,5,0,0:0:0:0:
256,192,47443,5,0,0:0:0:0:
256,192,47539,5,8,0:0:0:0:
256,192,47635,5,8,0:0:0:0:
256,192,47731,5,0,0:0:0:0:
256,192,47924,5,8,0:0:0:0:
256,192,48020,5,0,0:0:0:0:
256,192,48116,5,0,0:0:0:0:
256,192,48212,5,0,0:0:0:0:
256,192,48308,5,8,0:0:0:0:
256,192,48501,5,0,0:0:0:0:
256,192,48597,5,0,0:0:0:0:
256,192,48693,5,8,0:0:0:0:
256,192,48789,5,0,0:0:0:0:
256,192,48885,5,8,0:0:0:0:
256,192,48981,5,0,0:0:0:0:
256,192,49077,5,8,0:0:0:0:
256,192,49174,5,8,0:0:0:0:
256,192,49270,5,0,0:0:0:0:
256,192,49366,5,0,0:0:0:0:
256,192,49462,5,8,0:0:0:0:
256,192,49654,5,0,0:0:0:0:
256,192,49751,5,0,0:0:0:0:
256,192,49847,5,8,0:0:0:0:
256,192,50039,5,4,0:0:0:0:
256,192,50231,5,8,0:0:0:0:
256,192,50327,5,8,0:0:0:0:
256,192,50424,5,0,0:0:0:0:
256,192,50520,5,8,0:0:0:0:
256,192,50616,5,0,0:0:0:0:
256,192,50712,5,0,0:0:0:0:
256,192,50808,5,8,0:0:0:0:
256,192,50904,5,8,0:0:0:0:
256,192,51001,5,8,0:0:0:0:
256,192,51097,5,8,0:0:0:0:
256,192,51193,5,0,0:0:0:0:
256,192,51289,5,0,0:0:0:0:
256,192,51385,5,0,0:0:0:0:
256,192,51481,5,0,0:0:0:0:
256,192,51577,5,8,0:0:0:0:
256,192,51674,5,8,0:0:0:0:
256,192,51770,5,8,0:0:0:0:
256,192,51866,5,8,0:0:0:0:
256,192,51962,5,0,0:0:0:0:
256,192,52058,5,8,0:0:0:0:
256,192,52154,5,0,0:0:0:0:
256,192,52251,5,0,0:0:0:0:
256,192,52347,5,8,0:0:0:0:
256,192,53116,5,4,0:0:0:0:
256,192,53308,5,8,0:0:0:0:
256,192,53404,5,0,0:0:0:0:
256,192,53501,5,0,0:0:0:0:
256,192,53597,5,0,0:0:0:0:
256,192,53693,5,8,0:0:0:0:
256,192,53789,5,8,0:0:0:0:
256,192,53885,5,0,0:0:0:0:
256,192,54077,5,8,0:0:0:0:
256,192,54174,5,0,0:0:0:0:
256,192,54270,5,0,0:0:0:0:
256,192,54366,5,0,0:0:0:0:
256,192,54462,5,8,0:0:0:0:
256,192,54654,5,0,0:0:0:0:
256,192,54751,5,0,0:0:0:0:
256,192,54847,5,0,0:0:0:0:
256,192,55039,5,8,0:0:0:0:
256,192,55135,5,0,0:0:0:0:
256,192,55231,5,8,0:0:0:0:
256,192,55327,5,8,0:0:0:0:
256,192,55424,5,0,0:0:0:0:
256,192,55616,5,8,0:0:0:0:
256,192,55808,5,0,0:0:0:0:
256,192,55904,5,0,0:0:0:0:
256,192,56001,5,8,0:0:0:0:
256,192,56193,5,0,0:0:0:0:
256,192,56289,5,0,0:0:0:0:
256,192,56385,5,8,0:0:0:0:
256,192,56481,5,0,0:0:0:0:
256,192,56674,5,0,0:0:0:0:
256,192,56770,5,8,0:0:0:0:
256,192,56962,5,0,0:0:0:0:
256,192,57058,5,0,0:0:0:0:
256,192,57154,5,8,0:0:0:0:
256,192,57251,5,0,0:0:0:0:
256,192,57443,5,0,0:0:0:0:
256,192,57539,5,8,0:0:0:0:
256,192,57731,5,0,0:0:0:0:
256,192,57827,5,0,0:0:0:0:
256,192,57924,5,0,0:0:0:0:
256,192,58116,5,8,0:0:0:0:
256,192,58212,5,0,0:0:0:0:
256,192,58308,5,8,0:0:0:0:
256,192,58404,5,8,0:0:0:0:
256,192,58501,5,0,0:0:0:0:
256,192,58597,5,0,0:0:0:0:
256,192,58693,5,8,0:0:0:0:
256,192,58885,5,0,0:0:0:0:
256,192,58981,5,0,0:0:0:0:
256,192,59077,5,8,0:0:0:0:
256,192,59270,5,4,0:0:0:0:
256,192,59462,5,8,0:0:0:0:
256,192,59558,5,8,0:0:0:0:
256,192,59654,5,0,0:0:0:0:
256,192,59751,5,0,0:0:0:0:
256,192,59847,5,8,0:0:0:0:
256,192,59943,5,8,0:0:0:0:
256,192,60039,5,0,0:0:0:0:
256,192,60231,5,8,0:0:0:0:
256,192,60327,5,0,0:0:0:0:
256,192,60424,5,0,0:0:0:0:
256,192,60520,5,0,0:0:0:0:
256,192,60616,5,8,0:0:0:0:
256,192,60808,5,0,0:0:0:0:
256,192,60904,5,0,0:0:0:0:
256,192,61001,5,0,0:0:0:0:
256,192,61193,5,8,0:0:0:0:
256,192,61289,5,0,0:0:0:0:
256,192,61385,5,8,0:0:0:0:
256,192,61481,5,8,0:0:0:0:
256,192,61577,5,0,0:0:0:0:
256,192,61674,5,0,0:0:0:0:
256,192,61770,5,8,0:0:0:0:
256,192,61962,5,0,0:0:0:0:
256,192,62058,5,0,0:0:0:0:
256,192,62154,5,8,0:0:0:0:
256,192,62347,5,0,0:0:0:0:
256,192,62443,5,0,0:0:0:0:
256,192,62539,5,8,0:0:0:0:
256,192,62635,5,0,0:0:0:0:
256,192,62827,5,0,0:0:0:0:
256,192,62924,5,8,0:0:0:0:
256,192,63116,5,0,0:0:0:0:
256,192,63212,5,8,0:0:0:0:
256,192,63308,5,8,0:0:0:0:
256,192,63404,5,0,0:0:0:0:
256,192,63597,5,0,0:0:0:0:
256,192,63693,5,8,0:0:0:0:
256,192,63885,5,0,0:0:0:0:
256,192,63981,5,0,0:0:0:0:
256,192,64077,5,0,0:0:0:0:
256,192,64270,5,8,0:0:0:0:
256,192,64366,5,0,0:0:0:0:
256,192,64462,5,8,0:0:0:0:
256,192,64558,5,8,0:0:0:0:
256,192,64654,5,0,0:0:0:0:
256,192,64751,5,0,0:0:0:0:
256,192,64847,5,8,0:0:0:0:
256,192,65039,5,0,0:0:0:0:
256,192,65135,5,0,0:0:0:0:
256,192,65231,5,8,0:0:0:0:
256,192,65424,5,4,0:0:0:0:
256,192,65616,5,8,0:0:0:0:
256,192,65712,5,0,0:0:0:0:
256,192,65808,5,0,0:0:0:0:
256,192,65904,5,0,0:0:0:0:
256,192,66001,5,8,0:0:0:0:
256,192,66097,5,8,0:0:0:0:
256,192,66193,5,0,0:0:0:0:
256,192,66385,5,8,0:0:0:0:
256,192,66481,5,8,0:0:0:0:
256,192,66577,5,0,0:0:0:0:
256,192,66674,5,0,0:0:0:0:
256,192,66770,5,8,0:0:0:0:
256,192,66962,5,0,0:0:0:0:
256,192,67058,5,0,0:0:0:0:
256,192,67154,5,8,0:0:0:0:
256,192,67251,5,8,0:0:0:0:
256,192,67347,5,8,0:0:0:0:
256,192,67443,5,0,0:0:0:0:
256,192,67539,5,8,0:0:0:0:
256,192,67635,5,8,0:0:0:0:
256,192,67731,5,0,0:0:0:0:
256,192,67924,5,8,0:0:0:0:
256,192,68116,5,0,0:0:0:0:
256,192,68212,5,0,0:0:0:0:
256,192,68308,5,8,0:0:0:0:
256,192,68501,5,0,0:0:0:0:
256,192,68597,5,0,0:0:0:0:
256,192,68693,5,8,0:0:0:0:
256,192,68789,5,8,0:0:0:0:
256,192,68885,5,0,0:0:0:0:
256,192,68981,5,0,0:0:0:0:
256,192,69077,5,8,0:0:0:0:
256,192,69270,5,0,0:0:0:0:
256,192,69366,5,8,0:0:0:0:
256,192,69462,5,0,0:0:0:0:
256,192,69558,5,0,0:0:0:0:
256,192,69654,5,8,0:0:0:0:
256,192,69751,5,8,0:0:0:0:
256,192,69847,5,0,0:0:0:0:
256,192,70039,5,8,0:0:0:0:
256,192,70135,5,8,0:0:0:0:
256,192,70231,5,0,0:0:0:0:
256,192,70327,5,0,0:0:0:0:
256,192,70424,5,8,0:0:0:0:
256,192,70520,5,0,0:0:0:0:
256,192,70616,5,8,0:0:0:0:
256,192,70712,5,8,0:0:0:0:
256,192,70808,5,0,0:0:0:0:
256,192,71001,5,8,0:0:0:0:
256,192,71193,5,0,0:0:0:0:
256,192,71289,5,0,0:0:0:0:
256,192,71385,5,8,0:0:0:0:
256,192,71577,5,4,0:0:0:0:
256,192,71770,5,8,0:0:0:0:
256,192,71866,5,8,0:0:0:0:
256,192,71962,5,0,0:0:0:0:
256,192,72058,5,0,0:0:0:0:
256,192,72154,5,8,0:0:0:0:
256,192,72251,5,8,0:0:0:0:
256,192,72347,5,0,0:0:0:0:
256,192,72539,5,8,0:0:0:0:
256,192,72635,5,0,0:0:0:0:
256,192,72731,5,0,0:0:0:0:
256,192,72827,5,0,0:0:0:0:
256,192,72924,5,8,0:0:0:0:
256,192,73116,5,0,0:0:0:0:
256,192,73212,5,0,0:0:0:0:
256,192,73308,5,8,0:0:0:0:
256,192,73404,5,0,0:0:0:0:
256,192,73501,5,8,0:0:0:0:
256,192,73597,5,0,0:0:0:0:
256,192,73693,5,8,0:0:0:0:
256,192,73789,5,8,0:0:0:0:
256,192,73885,5,0,0:0:0:0:
256,192,73981,5,0,0:0:0:0:
256,192,74077,5,8,0:0:0:0:
256,192,74270,5,0,0:0:0:0:
256,192,74366,5,0,0:0:0:0:
256,192,74462,5,8,0:0:0:0:
256,192,74558,5,8,0:0:0:0:
256,192,74654,5,0,0:0:0:0:
256,192,74847,5,8,0:0:0:0:
256,192,74943,5,0,0:0:0:0:
256,192,75135,5,0,0:0:0:0:
256,192,75231,5,8,0:0:0:0:
256,192,75424,5,0,0:0:0:0:
256,192,75520,5,0,0:0:0:0:
256,192,75616,5,8,0:0:0:0:
256,192,75712,5,0,0:0:0:0:
256,192,75808,5,0,0:0:0:0:
256,192,75904,5,0,0:0:0:0:
256,192,76001,5,8,0:0:0:0:
256,192,76193,5,8,0:0:0:0:
256,192,76385,5,0,0:0:0:0:
256,192,76481,5,0,0:0:0:0:
256,192,76577,5,8,0:0:0:0:
256,192,76674,5,8,0:0:0:0:
256,192,76770,5,8,0:0:0:0:
256,192,76866,5,8,0:0:0:0:
256,192,76962,5,0,0:0:0:0:
256,192,77058,5,0,0:0:0:0:
256,192,77154,5,0,0:0:0:0:
256,192,77251,5,0,0:0:0:0:
256,192,77347,5,8,0:0:0:0:
256,192,77731,5,4,0:0:0:0:
256,192,77924,5,0,0:0:0:0:
256,192,78020,5,0,0:0:0:0:
256,192,78116,5,8,0:0:0:0:
256,192,78308,5,8,0:0:0:0:
256,192,78404,5,0,0:0:0:0:
256,192,78501,5,8,0:0:0:0:
256,192,78693,5,0,0:0:0:0:
256,192,78789,5,0,0:0:0:0:
256,192,78885,5,8,0:0:0:0:
256,192,78981,5,8,0:0:0:0:
256,192,79077,5,0,0:0:0:0:
256,192,79174,5,0,0:0:0:0:
256,192,79270,5,8,0:0:0:0:
256,192,79462,5,0,0:0:0:0:
256,192,79558,5,0,0:0:0:0:
256,192,79654,5,8,0:0:0:0:
256,192,79847,5,0,0:0:0:0:
256,192,79943,5,0,0:0:0:0:
256,192,80039,5,8,0:0:0:0:
256,192,80231,5,8,0:0:0:0:
256,192,80327,5,0,0:0:0:0:
256,192,80424,5,8,0:0:0:0:
256,192,80520,5,8,0:0:0:0:
256,192,80616,5,0,0:0:0:0:
256,192,80712,5,0,0:0:0:0:
256,192,80808,5,8,0:0:0:0:
256,192,81001,5,0,0:0:0:0:
256,192,81097,5,0,0:0:0:0:
256,192,81193,5,8,0:0:0:0:
256,192,81385,5,8,0:0:0:0:
256,192,81481,5,0,0:0:0:0:
256,192,81577,5,8,0:0:0:0:
256,192,81770,5,0,0:0:0:0:
256,192,81866,5,0,0:0:0:0:
256,192,81962,5,8,0:0:0:0:
256,192,82058,5,8,0:0:0:0:
256,192,82154,5,0,0:0:0:0:
256,192,82251,5,0,0:0:0:0:
256,192,82347,5,8,0:0:0:0:
256,192,82539,5,0,0:0:0:0:
256,192,82635,5,0,0:0:0:0:
256,192,82731,5,8,0:0:0:0:
256,192,82924,5,8,0:0:0:0:
256,192,83020,5,0,0:0:0:0:
256,192,83116,5,8,0:0:0:0:
256,192,83212,5,8,0:0:0:0:
256,192,83308,5,0,0:0:0:0:
256,192,83404,5,0,0:0:0:0:
256,192,83501,5,8,0:0:0:0:
256,192,83597,5,8,0:0:0:0:
256,192,83693,5,0,0:0:0:0:
256,192,83789,5,0,0:0:0:0:
256,192,83885,5,8,0:0:0:0:
256,192,84077,5,0,0:0:0:0:
256,192,84174,5,0,0:0:0:0:
256,192,84270,5,8,0:0:0:0:
256,192,84462,5,8,0:0:0:0:
256,192,84558,5,0,0:0:0:0:
256,192,84654,5,8,0:0:0:0:
256,192,84847,5,0,0:0:0:0:
256,192,84943,5,0,0:0:0:0:
256,192,85039,5,8,0:0:0:0:
256,192,85135,5,8,0:0:0:0:
256,192,85231,5,0,0:0:0:0:
256,192,85327,5,0,0:0:0:0:
256,192,85424,5,8,0:0:0:0:
256,192,85616,5,0,0:0:0:0:
256,192,85712,5,0,0:0:0:0:
256,192,85808,5,8,0:0:0:0:
256,192,86001,5,0,0:0:0:0:
256,192,86097,5,0,0:0:0:0:
256,192,86193,5,8,0:0:0:0:
256,192,86385,5,8,0:0:0:0:
256,192,86481,5,0,0:0:0:0:
256,192,86577,5,8,0:0:0:0:
256,192,86674,5,8,0:0:0:0:
256,192,86770,5,0,0:0:0:0:
256,192,86866,5,0,0:0:0:0:
256,192,86962,5,8,0:0:0:0:
256,192,87154,5,0,0:0:0:0:
256,192,87251,5,0,0:0:0:0:
256,192,87347,5,8,0:0:0:0:
256,192,87539,5,8,0:0:0:0:
256,192,87635,5,0,0:0:0:0:
256,192,87731,5,8,0:0:0:0:
256,192,87924,5,0,0:0:0:0:
256,192,88020,5,0,0:0:0:0:
256,192,88116,5,8,0:0:0:0:
256,192,88212,5,8,0:0:0:0:
256,192,88308,5,0,0:0:0:0:
256,192,88404,5,0,0:0:0:0:
256,192,88501,5,8,0:0:0:0:
256,192,88597,5,8,0:0:0:0:
256,192,88693,5,0,0:0:0:0:
256,192,88789,5,0,0:0:0:0:
256,192,88885,5,8,0:0:0:0:
256,192,88981,5,8,0:0:0:0:
256,192,89077,5,8,0:0:0:0:
256,192,89174,5,8,0:0:0:0:
256,192,89270,5,0,0:0:0:0:
256,192,89366,5,0,0:0:0:0:
256,192,89462,5,0,0:0:0:0:
256,192,89558,5,0,0:0:0:0:
256,192,89654,5,8,0:0:0:0:
256,192,89751,5,8,0:0:0:0:
256,192,89847,5,0,0:0:0:0:
256,192,90039,5,4,0:0:0:0:
256,192,90231,5,8,0:0:0:0:
256,192,90327,5,0,0:0:0:0:
256,192,90424,5,0,0:0:0:0:
256,192,90520,5,0,0:0:0:0:
256,192,90616,5,8,0:0:0:0:
256,192,90712,5,8,0:0:0:0:
256,192,90808,5,0,0:0:0:0:
256,192,91001,5,8,0:0:0:0:
256,192,91097,5,8,0:0:0:0:
256,192,91193,5,0,0:0:0:0:
256,192,91289,5,0,0:0:0:0:
256,192,91385,5,8,0:0:0:0:
256,192,91577,5,0,0:0:0:0:
256,192,91674,5,0,0:0:0:0:
256,192,91770,5,8,0:0:0:0:
256,192,91962,5,8,0:0:0:0:
256,192,92058,5,0,0:0:0:0:
256,192,92154,5,8,0:0:0:0:
256,192,92251,5,8,0:0:0:0:
256,192,92347,5,0,0:0:0:0:
256,192,92443,5,0,0:0:0:0:
256,192,92539,5,8,0:0:0:0:
256,192,92731,5,0,0:0:0:0:
256,192,92827,5,0,0:0:0:0:
256,192,92924,5,8,0:0:0:0:
256,192,93116,5,0,0:0:0:0:
256,192,93212,5,0,0:0:0:0:
256,192,93308,5,8,0:0:0:0:
256,192,93404,5,8,0:0:0:0:
256,192,93501,5,0,0:0:0:0:
256,192,93597,5,0,0:0:0:0:
256,192,93693,5,8,0:0:0:0:
256,192,93885,5,0,0:0:0:0:
256,192,93981,5,8,0:0:0:0:
256,192,94077,5,8,0:0:0:0:
256,192,94174,5,8,0:0:0:0:
256,192,94270,5,0,0:0:0:0:
256,192,94366,5,0,0:0:0:0:
256,192,94462,5,8,0:0:0:0:
256,192,94654,5,0,0:0:0:0:
256,192,94751,5,0,0:0:0:0:
256,192,94847,5,8,0:0:0:0:
256,192,94943,5,8,0:0:0:0:
256,192,95039,5,0,0:0:0:0:
256,192,95135,5,8,0:0:0:0:
256,192,95231,5,0,0:0:0:0:
256,192,95327,5,0,0:0:0:0:
256,192,95424,5,8,0:0:0:0:
256,192,95616,5,8,0:0:0:0:
256,192,95712,5,0,0:0:0:0:
256,192,95808,5,8,0:0:0:0:
256,192,95904,5,8,0:0:0:0:
256,192,96001,5,0,0:0:0:0:
256,192,96097,5,0,0:0:0:0:
256,192,96193,5,8,0:0:0:0:
256,192,96289,5,8,0:0:0:0:
256,192,96385,5,8,0:0:0:0:
256,192,96481,5,8,0:0:0:0:
256,192,96577,5,0,0:0:0:0:
256,192,96674,5,0,0:0:0:0:
256,192,96770,5,0,0:0:0:0:
256,192,96866,5,0,0:0:0:0:
256,192,96962,5,8,0:0:0:0:
256,192,97058,5,8,0:0:0:0:
256,192,97154,5,8,0:0:0:0:
256,192,97251,5,0,0:0:0:0:
256,192,97347,5,8,0:0:0:0:
256,192,97443,5,8,0:0:0:0:
256,192,97539,5,8,0:0:0:0:
256,192,97635,5,8,0:0:0:0:
256,192,97731,5,0,0:0:0:0:
256,192,97827,5,0,0:0:0:0:
256,192,97924,5,0,0:0:0:0:
256,192,98020,5,0,0:0:0:0:
256,192,98116,5,8,0:0:0:0:
256,192,98212,5,8,0:0:0:0:
256,192,98308,5,0,0:0:0:0:
256,192,98404,5,0,0:0:0:0:
256,192,98501,5,8,0:0:0:0:
256,192,98597,5,8,0:0:0:0:
256,192,98693,5,8,0:0:0:0:
256,192,98789,5,0,0:0:0:0:
256,192,98885,5,8,0:0:0:0:
256,192,98981,5,8,0:0:0:0:
256,192,99077,5,0,0:0:0:0:
256,192,99270,5,12,0:0:0:0:
256,192,99462,5,0,0:0:0:0:
256,192,99558,5,0,0:0:0:0:
256,192,99654,5,0,0:0:0:0:
256,192,99847,5,12,0:0:0:0:
256,192,100039,5,0,0:0:0:0:
256,192,100135,5,0,0:0:0:0:
256,192,100231,5,0,0:0:0:0:
256,192,100424,5,12,0:0:0:0:
256,192,100808,5,12,0:0:0:0:
256,192,101001,5,0,0:0:0:0:
256,192,101097,5,0,0:0:0:0:
256,192,101193,5,8,0:0:0:0:
256,192,101289,5,8,0:0:0:0:
256,192,101385,5,0,0:0:0:0:
256,192,101481,5,0,0:0:0:0:
256,192,101577,5,8,0:0:0:0:
256,192,102347,5,8,0:0:0:0:
256,192,102443,5,0,0:0:0:0:
256,192,102539,5,0,0:0:0:0:
256,192,102635,5,0,0:0:0:0:
256,192,102731,5,8,0:0:0:0:
256,192,102827,5,8,0:0:0:0:
256,192,102924,5,0,0:0:0:0:
256,192,103020,5,0,0:0:0:0:
256,192,103116,5,8,0:0:0:0:
256,192,103212,5,8,0:0:0:0:
256,192,103308,5,8,0:0:0:0:
256,192,103404,5,0,0:0:0:0:
256,192,103501,5,8,0:0:0:0:
256,192,103597,5,8,0:0:0:0:
256,192,103693,5,0,0:0:0:0:
256,192,103789,5,0,0:0:0:0:
256,192,103885,5,8,0:0:0:0:
256,192,103981,5,0,0:0:0:0:
256,192,104077,5,8,0:0:0:0:
256,192,104174,5,8,0:0:0:0:
256,192,104270,5,0,0:0:0:0:
256,192,104366,5,8,0:0:0:0:
256,192,104462,5,0,0:0:0:0:
256,192,104558,5,0,0:0:0:0:
256,192,104654,5,8,0:0:0:0:
256,192,104751,5,8,0:0:0:0:
256,192,104847,5,0,0:0:0:0:
256,192,104943,5,0,0:0:0:0:
256,192,105039,5,8,0:0:0:0:
256,192,105135,5,8,0:0:0:0:
256,192,105231,5,8,0:0:0:0:
256,192,105327,5,0,0:0:0:0:
256,192,105424,5,8,0:0:0:0:
256,192,105520,5,8,0:0:0:0:
256,192,105616,5,8,0:0:0:0:
256,192,105712,5,8,0:0:0:0:
256,192,105808,5,0,0:0:0:0:
256,192,105904,5,0,0:0:0:0:
256,192,106001,5,8,0:0:0:0:
256,192,106097,5,0,0:0:0:0:
256,192,106193,5,8,0:0:0:0:
256,192,106289,5,8,0:0:0:0:
256,192,106385,5,0,0:0:0:0:
256,192,106481,5,0,0:0:0:0:
256,192,106577,5,8,0:0:0:0:
256,192,106674,5,0,0:0:0:0:
256,192,106770,5,0,0:0:0:0:
256,192,106866,5,0,0:0:0:0:
256,192,106962,5,8,0:0:0:0:
256,192,107058,5,8,0:0:0:0:
256,192,107154,5,8,0:0:0:0:
256,192,107251,5,8,0:0:0:0:
256,192,107347,5,0,0:0:0:0:
256,192,107443,5,0,0:0:0:0:
256,192,107539,5,8,0:0:0:0:
256,192,107635,5,0,0:0:0:0:
256,192,107731,5,8,0:0:0:0:
256,192,107827,5,8,0:0:0:0:
256,192,107924,5,8,0:0:0:0:
256,192,108020,5,8,0:0:0:0:
256,192,108116,5,0,0:0:0:0:
256,192,108212,5,0,0:0:0:0:
256,192,108308,5,0,0:0:0:0:
256,192,108404,5,0,0:0:0:0:
256,192,108501,5,8,0:0:0:0:
256,192,108597,5,8,0:0:0:0:
256,192,108693,5,8,0:0:0:0:
256,192,108789,5,8,0:0:0:0:
256,192,108885,5,0,0:0:0:0:
256,192,108981,5,0,0:0:0:0:
256,192,109077,5,8,0:0:0:0:
256,192,109174,5,0,0:0:0:0:
256,192,109270,5,8,0:0:0:0:
256,192,109366,5,8,0:0:0:0:
256,192,109462,5,0,0:0:0:0:
256,192,109558,5,8,0:0:0:0:
256,192,109654,5,0,0:0:0:0:
256,192,109751,5,0,0:0:0:0:
256,192,109847,5,0,0:0:0:0:
256,192,109943,5,0,0:0:0:0:
256,192,110039,5,8,0:0:0:0:
256,192,110135,5,8,0:0:0:0:
256,192,110231,5,0,0:0:0:0:
256,192,110327,5,0,0:0:0:0:
256,192,110424,5,8,0:0:0:0:
256,192,110520,5,8,0:0:0:0:
256,192,110616,5,8,0:0:0:0:
256,192,110712,5,0,0:0:0:0:
256,192,110808,5,8,0:0:0:0:
256,192,110904,5,8,0:0:0:0:
256,192,111001,5,8,0:0:0:0:
256,192,111097,5,8,0:0:0:0:
256,192,111193,5,0,0:0:0:0:
256,192,111289,5,0,0:0:0:0:
256,192,111385,5,8,0:0:0:0:
256,192,111577,5,8,0:0:0:0:
256,192,111674,5,8,0:0:0:0:
256,192,111770,5,0,0:0:0:0:
256,192,111866,5,0,0:0:0:0:
256,192,111962,5,0,0:0:0:0:
256,192,112058,5,0,0:0:0:0:
256,192,112154,5,8,0:0:0:0:
256,192,112251,5,0,0:0:0:0:
256,192,112347,5,8,0:0:0:0:
256,192,112443,5,8,0:0:0:0:
256,192,112539,5,8,0:0:0:0:
256,192,112635,5,0,0:0:0:0:
256,192,112731,5,8,0:0:0:0:
256,192,112827,5,8,0:0:0:0:
256,192,112924,5,0,0:0:0:0:
256,192,113020,5,0,0:0:0:0:
256,192,113116,5,8,0:0:0:0:
256,192,113212,5,8,0:0:0:0:
256,192,113308,5,8,0:0:0:0:
256,192,113404,5,8,0:0:0:0:
256,192,113501,5,0,0:0:0:0:
256,192,113597,5,0,0:0:0:0:
256,192,113693,5,8,0:0:0:0:
256,192,113789,5,0,0:0:0:0:
256,192,113885,5,8,0:0:0:0:
256,192,113981,5,8,0:0:0:0:
256,192,114077,5,0,0:0:0:0:
256,192,114174,5,0,0:0:0:0:
256,192,114270,5,0,0:0:0:0:
256,192,114366,5,0,0:0:0:0:
256,192,114462,5,8,0:0:0:0:
256,192,114654,5,8,0:0:0:0:
256,192,114751,5,8,0:0:0:0:
256,192,114847,5,0,0:0:0:0:
256,192,114943,5,0,0:0:0:0:
256,192,115039,5,8,0:0:0:0:
256,192,115135,5,0,0:0:0:0:
256,192,115231,5,8,0:0:0:0:
256,192,115327,5,8,0:0:0:0:
256,192,115424,5,0,0:0:0:0:
256,192,115520,5,0,0:0:0:0:
256,192,115616,5,8,0:0:0:0:
256,192,115712,5,0,0:0:0:0:
256,192,115808,5,8,0:0:0:0:
256,192,115904,5,8,0:0:0:0:
256,192,116001,5,0,0:0:0:0:
256,192,116097,5,0,0:0:0:0:
256,192,116193,5,8,0:0:0:0:
256,192,116289,5,8,0:0:0:0:
256,192,116385,5,8,0:0:0:0:
256,192,116481,5,8,0:0:0:0:
256,192,116577,5,0,0:0:0:0:
256,192,116674,5,8,0:0:0:0:
256,192,116770,5,0,0:0:0:0:
256,192,116866,5,0,0:0:0:0:
256,192,116962,5,8,0:0:0:0:
256,192,117058,5,8,0:0:0:0:
256,192,117154,5,0,0:0:0:0:
256,192,117251,5,0,0:0:0:0:
256,192,117347,5,8,0:0:0:0:
256,192,117443,5,8,0:0:0:0:
256,192,117539,5,8,0:0:0:0:
256,192,117635,5,0,0:0:0:0:
256,192,117731,5,8,0:0:0:0:
256,192,117827,5,8,0:0:0:0:
256,192,117924,5,8,0:0:0:0:
256,192,118020,5,8,0:0:0:0:
256,192,118116,5,0,0:0:0:0:
256,192,118212,5,0,0:0:0:0:
256,192,118308,5,8,0:0:0:0:
256,192,118404,5,0,0:0:0:0:
256,192,118501,5,8,0:0:0:0:
256,192,118597,5,8,0:0:0:0:
256,192,118693,5,0,0:0:0:0:
256,192,118789,5,0,0:0:0:0:
256,192,118885,5,8,0:0:0:0:
256,192,118981,5,0,0:0:0:0:
256,192,119077,5,0,0:0:0:0:
256,192,119174,5,0,0:0:0:0:
256,192,119270,5,8,0:0:0:0:
256,192,119366,5,8,0:0:0:0:
256,192,119462,5,8,0:0:0:0:
256,192,119558,5,8,0:0:0:0:
256,192,119654,5,0,0:0:0:0:
256,192,119751,5,0,0:0:0:0:
256,192,119847,5,8,0:0:0:0:
256,192,119943,5,0,0:0:0:0:
256,192,120039,5,8,0:0:0:0:
256,192,120135,5,8,0:0:0:0:
256,192,120231,5,0,0:0:0:0:
256,192,120327,5,0,0:0:0:0:
256,192,120424,5,8,0:0:0:0:
256,192,120520,5,0,0:0:0:0:
256,192,120616,5,8,0:0:0:0:
256,192,120712,5,0,0:0:0:0:
256,192,120808,5,8,0:0:0:0:
256,192,120904,5,8,0:0:0:0:
256,192,121001,5,8,0:0:0:0:
256,192,121097,5,8,0:0:0:0:
256,192,121193,5,0,0:0:0:0:
256,192,121289,5,0,0:0:0:0:
256,192,121385,5,0,0:0:0:0:
256,192,121481,5,0,0:0:0:0:
256,192,121577,5,8,0:0:0:0:
256,192,121674,5,8,0:0:0:0:
256,192,121770,5,0,0:0:0:0:
256,192,121866,5,8,0:0:0:0:
256,192,121962,5,0,0:0:0:0:
256,192,122058,5,0,0:0:0:0:
256,192,122154,5,0,0:0:0:0:
256,192,122251,5,0,0:0:0:0:
256,192,122347,5,8,0:0:0:0:
256,192,122443,5,8,0:0:0:0:
256,192,122539,5,8,0:0:0:0:
256,192,122635,5,0,0:0:0:0:
256,192,122731,5,8,0:0:0:0:
256,192,122827,5,8,0:0:0:0:
256,192,122924,5,8,0:0:0:0:
256,192,123020,5,8,0:0:0:0:
256,192,123116,5,0,0:0:0:0:
256,192,123212,5,0,0:0:0:0:
256,192,123308,5,0,0:0:0:0:
256,192,123404,5,0,0:0:0:0:
256,192,123501,5,8,0:0:0:0:
256,192,123597,5,0,0:0:0:0:
256,192,123693,5,8,0:0:0:0:
256,192,123789,5,0,0:0:0:0:
256,192,123885,5,8,0:0:0:0:
256,192,123981,5,8,0:0:0:0:
256,192,124077,5,8,0:0:0:0:
256,192,124174,5,8,0:0:0:0:
256,192,124270,5,0,0:0:0:0:
256,192,124366,5,0,0:0:0:0:
256,192,124462,5,8,0:0:0:0:
256,192,124558,5,0,0:0:0:0:
256,192,124654,5,8,0:0:0:0:
256,192,124751,5,8,0:0:0:0:
256,192,124847,5,0,0:0:0:0:
256,192,124943,5,8,0:0:0:0:
256,192,125039,5,0,0:0:0:0:
256,192,125135,5,0,0:0:0:0:
256,192,125231,5,8,0:0:0:0:
256,192,125424,5,12,0:0:0:0:
256,192,125616,5,0,0:0:0:0:
256,192,125808,5,12,0:0:0:0:
256,192,126001,5,0,0:0:0:0:
256,192,126193,5,12,0:0:0:0:
256,192,126385,5,8,0:0:0:0:
256,192,126481,5,0,0:0:0:0:
256,192,126577,5,8,0:0:0:0:
256,192,126674,5,8,0:0:0:0:
256,192,126770,5,0,0:0:0:0:
256,192,126866,5,0,0:0:0:0:
256,192,126962,5,8,0:0:0:0:
256,192,127058,5,8,0:0:0:0:
256,192,127154,5,0,0:0:0:0:
256,192,127251,5,0,0:0:0:0:
256,192,127347,5,8,0:0:0:0:
256,192,127443,5,0,0:0:0:0:
256,192,127539,5,8,0:0:0:0:
256,192,127635,5,0,0:0:0:0:
256,192,127731,5,8,0:0:0:0:
256,192,127827,5,8,0:0:0:0:
256,192,127924,5,0,0:0:0:0:
256,192,128020,5,0,0:0:0:0:
256,192,128116,5,8,0:0:0:0:
256,192,128212,5,8,0:0:0:0:
256,192,128308,5,8,0:0:0:0:
256,192,128404,5,0,0:0:0:0:
256,192,128501,5,8,0:0:0:0:
256,192,128597,5,8,0:0:0:0:
256,192,128693,5,0,0:0:0:0:
256,192,128789,5,0,0:0:0:0:
256,192,128885,5,8,0:0:0:0:
256,192,128981,5,8,0:0:0:0:
256,192,129077,5,8,0:0:0:0:
256,192,129174,5,8,0:0:0:0:
256,192,129270,5,0,0:0:0:0:
256,192,129366,5,0,0:0:0:0:
256,192,129462,5,8,0:0:0:0:
256,192,129558,5,0,0:0:0:0:
256,192,129654,5,8,0:0:0:0:
256,192,129751,5,8,0:0:0:0:
256,192,129847,5,0,0:0:0:0:
256,192,129943,5,0,0:0:0:0:
256,192,130039,5,8,0:0:0:0:
256,192,130135,5,8,0:0:0:0:
256,192,130231,5,0,0:0:0:0:
256,192,130327,5,0,0:0:0:0:
256,192,130424,5,8,0:0:0:0:
256,192,130520,5,0,0:0:0:0:
256,192,130616,5,8,0:0:0:0:
256,192,130712,5,0,0:0:0:0:
256,192,130808,5,8,0:0:0:0:
256,192,130904,5,8,0:0:0:0:
256,192,131001,5,8,0:0:0:0:
256,192,131097,5,0,0:0:0:0:
256,192,131193,5,8,0:0:0:0:
256,192,131289,5,8,0:0:0:0:
256,192,131385,5,0,0:0:0:0:
256,192,131481,5,0,0:0:0:0:
256,192,131577,5,8,0:0:0:0:
256,192,131674,5,8,0:0:0:0:
256,192,131770,5,8,0:0:0:0:
256,192,131866,5,8,0:0:0:0:
256,192,131962,5,0,0:0:0:0:
256,192,132058,5,0,0:0:0:0:
256,192,132154,5,8,0:0:0:0:
256,192,132251,5,8,0:0:0:0:
256,192,132347,5,0,0:0:0:0:
256,192,132443,5,0,0:0:0:0:
256,192,132539,5,8,0:0:0:0:
256,192,132635,5,0,0:0:0:0:
256,192,132731,5,8,0:0:0:0:
256,192,132827,5,8,0:0:0:0:
256,192,132924,5,0,0:0:0:0:
256,192,133020,5,0,0:0:0:0:
256,192,133116,5,8,0:0:0:0:
256,192,133212,5,8,0:0:0:0:
256,192,133308,5,0,0:0:0:0:
256,192,133404,5,0,0:0:0:0:
256,192,133501,5,8,0:0:0:0:
256,192,133597,5,0,0:0:0:0:
256,192,133693,5,8,0:0:0:0:
256,192,133789,5,8,0:0:0:0:
256,192,133885,5,0,0:0:0:0:
256,192,133981,5,0,0:0:0:0:
256,192,134077,5,8,0:0:0:0:
256,192,134174,5,0,0:0:0:0:
256,192,134270,5,8,0:0:0:0:
256,192,134366,5,8,0:0:0:0:
256,192,134462,5,0,0:0:0:0:
256,192,134558,5,0,0:0:0:0:
256,192,134654,5,8,0:0:0:0:
256,192,134751,5,8,0:0:0:0:
256,192,134847,5,8,0:0:0:0:
256,192,134943,5,8,0:0:0:0:
256,192,135039,5,0,0:0:0:0:
256,192,135135,5,0,0:0:0:0:
256,192,135231,5,0,0:0:0:0:
256,192,135327,5,0,0:0:0:0:
256,192,135424,5,8,0:0:0:0:
256,192,135616,5,0,0:0:0:0:
256,192,135712,5,0,0:0:0:0:
256,192,135808,5,8,0:0:0:0:
256,192,135904,5,8,0:0:0:0:
256,192,136001,5,0,0:0:0:0:
256,192,136193,5,12,0:0:0:0:
256,192,136385,5,0,0:0:0:0:
256,192,136481,5,0,0:0:0:0:
256,192,136577,5,8,0:0:0:0:
256,192,136770,5,0,0:0:0:0:
256,192,136962,5,12,0:0:0:0:
256,192,137154,5,0,0:0:0:0:
256,192,137251,5,0,0:0:0:0:
256,192,137347,5,8,0:0:0:0:
256,192,137443,5,0,0:0:0:0:
256,192,137539,5,0,0:0:0:0:
256,192,137731,5,12,0:0:0:0:
256,192,137924,5,8,0:0:0:0:
256,192,138020,5,0,0:0:0:0:
256,192,138116,5,8,0:0:0:0:
256,192,138212,5,8,0:0:0:0:
256,192,138308,5,0,0:0:0:0:
256,192,138501,5,12,0:0:0:0:
256,192,139270,5,4,0:0:0:0:
256,192,139462,5,8,0:0:0:0:
256,192,139558,5,0,0:0:0:0:
256,192,139654,5,0,0:0:0:0:
256,192,139751,5,0,0:0:0:0:
256,192,139847,5,8,0:0:0:0:
256,192,139943,5,8,0:0:0:0:
256,192,140039,5,0,0:0:0:0:
256,192,140231,5,8,0:0:0:0:
256,192,140327,5,8,0:0:0:0:
256,192,140424,5,0,0:0:0:0:
256,192,140520,5,0,0:0:0:0:
256,192,140616,5,8,0:0:0:0:
256,192,140808,5,0,0:0:0:0:
256,192,140904,5,0,0:0:0:0:
256,192,141001,5,8,0:0:0:0:
256,192,141193,5,0,0:0:0:0:
256,192,141289,5,0,0:0:0:0:
256,192,141385,5,8,0:0:0:0:
256,192,141481,5,0,0:0:0:0:
256,192,141577,5,8,0:0:0:0:
256,192,141770,5,0,0:0:0:0:
256,192,141962,5,8,0:0:0:0:
256,192,142058,5,8,0:0:0:0:
256,192,142154,5,0,0:0:0:0:
256,192,142347,5,4,0:0:0:0:
256,192,142539,5,8,0:0:0:0:
256,192,142635,5,8,0:0:0:0:
256,192,142731,5,0,0:0:0:0:
256,192,142827,5,8,0:0:0:0:
256,192,142924,5,0,0:0:0:0:
256,192,143020,5,0,0:0:0:0:
256,192,143116,5,8,0:0:0:0:
256,192,143308,5,0,0:0:0:0:
256,192,143404,5,0,0:0:0:0:
256,192,143501,5,8,0:0:0:0:
256,192,143597,5,8,0:0:0:0:
256,192,143693,5,0,0:0:0:0:
256,192,143885,5,4,0:0:0:0:
256,192,144174,5,0,0:0:0:0:
256,192,144462,5,0,0:0:0:0:
256,192,144558,5,0,0:0:0:0:
256,192,144654,5,8,0:0:0:0:
256,192,144847,5,0,0:0:0:0:
256,192,145039,5,8,0:0:0:0:
256,192,145135,5,8,0:0:0:0:
256,192,145231,5,0,0:0:0:0:
256,192,145424,5,4,0:0:0:0:
256,192,145616,5,8,0:0:0:0:
256,192,145712,5,8,0:0:0:0:
256,192,145808,5,0,0:0:0:0:
256,192,145904,5,0,0:0:0:0:
256,192,146001,5,8,0:0:0:0:
256,192,146097,5,8,0:0:0:0:
256,192,146193,5,0,0:0:0:0:
256,192,146385,5,8,0:0:0:0:
256,192,146481,5,0,0:0:0:0:
256,192,146577,5,0,0:0:0:0:
256,192,146674,5,0,0:0:0:0:
256,192,146770,5,8,0:0:0:0:
256,192,146962,5,0,0:0:0:0:
256,192,147058,5,0,0:0:0:0:
256,192,147154,5,8,0:0:0:0:
256,192,147347,5,0,0:0:0:0:
256,192,147443,5,0,0:0:0:0:
256,192,147539,5,8,0:0:0:0:
256,192,147635,5,0,0:0:0:0:
256,192,147731,5,8,0:0:0:0:
256,192,147924,5,0,0:0:0:0:
256,192,148020,5,0,0:0:0:0:
256,192,148116,5,0,0:0:0:0:
256,192,148212,5,0,0:0:0:0:
256,192,148308,5,8,0:0:0:0:
256,192,148404,5,8,0:0:0:0:
256,192,148501,5,0,0:0:0:0:
256,192,148597,5,0,0:0:0:0:
256,192,148693,5,0,0:0:0:0:
256,192,148789,5,0,0:0:0:0:
256,192,148885,5,8,0:0:0:0:
256,192,148981,5,8,0:0:0:0:
256,192,149077,5,8,0:0:0:0:
256,192,149174,5,8,0:0:0:0:
256,192,149270,5,0,0:0:0:0:
256,192,149366,5,0,0:0:0:0:
256,192,149462,5,8,0:0:0:0:
256,192,149558,5,0,0:0:0:0:
256,192,149654,5,8,0:0:0:0:
256,192,149751,5,8,0:0:0:0:
256,192,149847,5,0,0:0:0:0:
256,192,149943,5,0,0:0:0:0:
256,192,150039,5,8,0:0:0:0:
256,192,150135,5,8,0:0:0:0:
256,192,150231,5,8,0:0:0:0:
256,192,150327,5,0,0:0:0:0:
256,192,150424,5,8,0:0:0:0:
256,192,150520,5,8,0:0:0:0:
256,192,150616,5,8,0:0:0:0:
256,192,150712,5,8,0:0:0:0:
256,192,150808,5,0,0:0:0:0:
256,192,151001,5,8,0:0:0:0:
256,192,151097,5,8,0:0:0:0:
256,192,151193,5,0,0:0:0:0:
256,192,151289,5,0,0:0:0:0:
256,192,151385,5,8,0:0:0:0:
256,192,151577,5,4,0:0:0:0:
256,192,151770,5,8,0:0:0:0:
256,192,151866,5,8,0:0:0:0:
256,192,151962,5,0,0:0:0:0:
256,192,152058,5,0,0:0:0:0:
256,192,152154,5,8,0:0:0:0:
256,192,152251,5,8,0:0:0:0:
256,192,152347,5,0,0:0:0:0:
256,192,152539,5,8,0:0:0:0:
256,192,152635,5,0,0:0:0:0:
256,192,152731,5,0,0:0:0:0:
256,192,152827,5,0,0:0:0:0:
256,192,152924,5,8,0:0:0:0:
256,192,153116,5,0,0:0:0:0:
256,192,153212,5,0,0:0:0:0:
256,192,153308,5,0,0:0:0:0:
256,192,153501,5,8,0:0:0:0:
256,192,153597,5,0,0:0:0:0:
256,192,153693,5,8,0:0:0:0:
256,192,153789,5,8,0:0:0:0:
256,192,153885,5,0,0:0:0:0:
256,192,154077,5,8,0:0:0:0:
256,192,154270,5,0,0:0:0:0:
256,192,154366,5,0,0:0:0:0:
256,192,154462,5,8,0:0:0:0:
256,192,154654,5,4,0:0:0:0:
256,192,154847,5,8,0:0:0:0:
256,192,154943,5,0,0:0:0:0:
256,192,155039,5,0,0:0:0:0:
256,192,155135,5,0,0:0:0:0:
256,192,155231,5,8,0:0:0:0:
256,192,155327,5,8,0:0:0:0:
256,192,155424,5,0,0:0:0:0:
256,192,155616,5,0,0:0:0:0:
256,192,155712,5,8,0:0:0:0:
256,192,155808,5,0,0:0:0:0:
256,192,155904,5,0,0:0:0:0:
256,192,156001,5,8,0:0:0:0:
256,192,156193,5,0,0:0:0:0:
256,192,156289,5,0,0:0:0:0:
256,192,156385,5,0,0:0:0:0:
256,192,156577,5,8,0:0:0:0:
256,192,156674,5,0,0:0:0:0:
256,192,156770,5,8,0:0:0:0:
256,192,156866,5,8,0:0:0:0:
256,192,156962,5,0,0:0:0:0:
256,192,157154,5,8,0:0:0:0:
256,192,157347,5,0,0:0:0:0:
256,192,157443,5,0,0:0:0:0:
256,192,157539,5,8,0:0:0:0:
256,192,157731,5,4,0:0:0:0:
256,192,157924,5,8,0:0:0:0:
256,192,158020,5,0,0:0:0:0:
256,192,158116,5,0,0:0:0:0:
256,192,158212,5,0,0:0:0:0:
256,192,158308,5,8,0:0:0:0:
256,192,158404,5,8,0:0:0:0:
256,192,158501,5,0,0:0:0:0:
256,192,158693,5,8,0:0:0:0:
256,192,158789,5,8,0:0:0:0:
256,192,158885,5,0,0:0:0:0:
256,192,158981,5,0,0:0:0:0:
256,192,159077,5,8,0:0:0:0:
256,192,159270,5,8,0:0:0:0:
256,192,159366,5,0,0:0:0:0:
256,192,159462,5,8,0:0:0:0:
256,192,159558,5,8,0:0:0:0:
256,192,159654,5,0,0:0:0:0:
256,192,159751,5,0,0:0:0:0:
256,192,159847,5,8,0:0:0:0:
256,192,159943,5,8,0:0:0:0:
256,192,160039,5,0,0:0:0:0:
256,192,160231,5,8,0:0:0:0:
256,192,160424,5,0,0:0:0:0:
256,192,160520,5,0,0:0:0:0:
256,192,160616,5,8,0:0:0:0:
256,192,160808,5,4,0:0:0:0:
256,192,161001,5,8,0:0:0:0:
256,192,161193,5,0,0:0:0:0:
256,192,161289,5,0,0:0:0:0:
256,192,161385,5,8,0:0:0:0:
256,192,161481,5,8,0:0:0:0:
256,192,161577,5,0,0:0:0:0:
256,192,161706,5,8,0:0:0:0:
256,192,161834,5,8,0:0:0:0:
256,192,161962,5,0,0:0:0:0:
256,192,162090,5,0,0:0:0:0:
256,192,162218,5,8,0:0:0:0:
256,192,162347,12,0,162731,0:0:0:0:
256,192,163889,5,0,0:0:0:0:
256,192,163985,5,0,0:0:0:0:
256,192,164081,5,8,0:0:0:0:
256,192,164177,5,8,0:0:0:0:
256,192,164273,5,0,0:0:0:0:
256,192,164658,5,8,0:0:0:0:
256,192,165042,5,0,0:0:0:0:
256,192,165139,5,8,0:0:0:0:
256,192,165235,5,0,0:0:0:0:
256,192,165331,5,0,0:0:0:0:
256,192,165427,5,8,0:0:0:0:
256,192,165619,5,0,0:0:0:0:
256,192,165812,5,8,0:0:0:0:
256,192,166004,5,0,0:0:0:0:
256,192,166196,5,8,0:0:0:0:
256,192,166292,5,8,0:0:0:0:
256,192,166389,5,0,0:0:0:0:
256,192,166485,5,0,0:0:0:0:
256,192,166581,5,8,0:0:0:0:
256,192,166965,5,8,0:0:0:0:
256,192,167350,5,0,0:0:0:0:
256,192,167446,5,0,0:0:0:0:
256,192,167542,5,0,0:0:0:0:
256,192,167639,5,0,0:0:0:0:
256,192,167735,5,8,0:0:0:0:
256,192,167927,5,0,0:0:0:0:
256,192,168119,5,8,0:0:0:0:
256,192,168312,5,0,0:0:0:0:
256,192,168504,5,8,0:0:0:0:
256,192,168889,5,0,0:0:0:0:
256,192,169081,5,8,0:0:0:0:
256,192,169273,5,0,0:0:0:0:
256,192,169465,5,0,0:0:0:0:
256,192,169658,5,8,0:0:0:0:
256,192,170042,5,0,0:0:0:0:
256,192,170235,5,8,0:0:0:0:
256,192,170427,5,0,0:0:0:0:
256,192,170619,5,0,0:0:0:0:
256,192,170812,5,8,0:0:0:0:
256,192,170908,5,8,0:0:0:0:
256,192,171004,5,0,0:0:0:0:
256,192,171100,5,0,0:0:0:0:
256,192,171196,5,8,0:0:0:0:
256,192,171581,5,8,0:0:0:0:
256,192,171773,5,8,0:0:0:0:
256,192,171965,5,0,0:0:0:0:
256,192,172157,5,0,0:0:0:0:
256,192,172349,5,8,0:0:0:0:
256,192,172445,5,0,0:0:0:0:
256,192,172541,5,8,0:0:0:0:
256,192,172638,5,8,0:0:0:0:
256,192,172734,5,0,0:0:0:0:
256,192,172830,5,0,0:0:0:0:
256,192,172926,5,0,0:0:0:0:
256,192,173022,5,0,0:0:0:0:
256,192,173118,5,8,0:0:0:0:
256,192,173215,5,8,0:0:0:0:
256,192,173311,5,0,0:0:0:0:
256,192,173503,5,4,0:0:0:0:
256,192,173695,5,8,0:0:0:0:
256,192,173791,5,8,0:0:0:0:
256,192,173887,5,0,0:0:0:0:
256,192,173983,5,8,0:0:0:0:
256,192,174079,5,0,0:0:0:0:
256,192,174176,5,0,0:0:0:0:
256,192,174272,5,8,0:0:0:0:
256,192,174464,5,0,0:0:0:0:
256,192,174560,5,0,0:0:0:0:
256,192,174656,5,8,0:0:0:0:
256,192,174753,5,0,0:0:0:0:
256,192,174849,5,8,0:0:0:0:
256,192,175041,5,0,0:0:0:0:
256,192,175137,5,0,0:0:0:0:
256,192,175233,5,0,0:0:0:0:
256,192,175426,5,8,0:0:0:0:
256,192,175522,5,0,0:0:0:0:
256,192,175618,5,8,0:0:0:0:
256,192,175714,5,8,0:0:0:0:
256,192,175810,5,0,0:0:0:0:
256,192,175906,5,0,0:0:0:0:
256,192,176003,5,8,0:0:0:0:
256,192,176195,5,0,0:0:0:0:
256,192,176291,5,0,0:0:0:0:
256,192,176387,5,8,0:0:0:0:
256,192,176579,5,0,0:0:0:0:
256,192,176676,5,0,0:0:0:0:
256,192,176772,5,8,0:0:0:0:
256,192,176868,5,8,0:0:0:0:
256,192,176964,5,0,0:0:0:0:
256,192,177060,5,0,0:0:0:0:
256,192,177156,5,8,0:0:0:0:
256,192,177349,5,0,0:0:0:0:
256,192,177445,5,8,0:0:0:0:
256,192,177541,5,8,0:0:0:0:
256,192,177637,5,8,0:0:0:0:
256,192,177733,5,0,0:0:0:0:
256,192,177829,5,0,0:0:0:0:
256,192,177926,5,8,0:0:0:0:
256,192,178118,5,0,0:0:0:0:
256,192,178214,5,0,0:0:0:0:
256,192,178310,5,8,0:0:0:0:
256,192,178406,5,8,0:0:0:0:
256,192,178503,5,0,0:0:0:0:
256,192,178599,5,8,0:0:0:0:
256,192,178695,5,0,0:0:0:0:
256,192,178791,5,0,0:0:0:0:
256,192,178887,5,8,0:0:0:0:
256,192,179079,5,8,0:0:0:0:
256,192,179176,5,0,0:0:0:0:
256,192,179272,5,8,0:0:0:0:
256,192,179368,5,8,0:0:0:0:
256,192,179464,5,0,0:0:0:0:
256,192,179560,5,0,0:0:0:0:
256,192,179656,5,8,0:0:0:0:
256,192,179753,5,8,0:0:0:0:
256,192,179849,5,8,0:0:0:0:
256,192,179945,5,8,0:0:0:0:
256,192,180041,5,0,0:0:0:0:
256,192,180137,5,0,0:0:0:0:
256,192,180233,5,0,0:0:0:0:
256,192,180329,5,0,0:0:0:0:
256,192,180426,5,8,0:0:0:0:
256,192,180522,5,8,0:0:0:0:
256,192,180618,5,8,0:0:0:0:
256,192,180714,5,0,0:0:0:0:
256,192,180810,5,8,0:0:0:0:
256,192,180906,5,8,0:0:0:0:
256,192,181003,5,8,0:0:0:0:
256,192,181099,5,8,0:0:0:0:
256,192,181195,5,0,0:0:0:0:
256,192,181291,5,0,0:0:0:0:
256,192,181387,5,0,0:0:0:0:
256,192,181483,5,0,0:0:0:0:
256,192,181579,5,8,0:0:0:0:
256,192,181676,5,8,0:0:0:0:
256,192,181772,5,0,0:0:0:0:
256,192,181868,5,0,0:0:0:0:
256,192,181964,5,8,0:0:0:0:
256,192,182060,5,8,0:0:0:0:
256,192,182156,5,8,0:0:0:0:
256,192,182253,5,0,0:0:0:0:
256,192,182349,5,8,0:0:0:0:
256,192,182445,5,8,0:0:0:0:
256,192,182541,5,0,0:0:0:0:
256,192,182733,5,12,0:0:0:0:
256,192,182926,5,0,0:0:0:0:
256,192,183022,5,0,0:0:0:0:
256,192,183118,5,0,0:0:0:0:
256,192,183310,5,12,0:0:0:0:
256,192,183503,5,0,0:0:0:0:
256,192,183599,5,0,0:0:0:0:
256,192,183695,5,0,0:0:0:0:
256,192,183887,5,12,0:0:0:0:
256,192,184272,5,12,0:0:0:0:
256,192,184464,5,8,0:0:0:0:
256,192,184560,5,0,0:0:0:0:
256,192,184656,5,8,0:0:0:0:
256,192,184753,5,8,0:0:0:0:
256,192,184849,5,0,0:0:0:0:
256,192,184945,5,0,0:0:0:0:
256,192,185041,5,8,0:0:0:0:
256,192,185810,5,8,0:0:0:0:
256,192,185906,5,0,0:0:0:0:
256,192,186003,5,0,0:0:0:0:
256,192,186099,5,0,0:0:0:0:
256,192,186195,5,8,0:0:0:0:
256,192,186291,5,8,0:0:0:0:
256,192,186387,5,8,0:0:0:0:
256,192,186483,5,8,0:0:0:0:
256,192,186579,5,0,0:0:0:0:
256,192,186676,5,8,0:0:0:0:
256,192,186772,5,0,0:0:0:0:
256,192,186868,5,0,0:0:0:0:
256,192,186964,5,8,0:0:0:0:
256,192,187060,5,8,0:0:0:0:
256,192,187156,5,8,0:0:0:0:
256,192,187253,5,0,0:0:0:0:
256,192,187349,5,8,0:0:0:0:
256,192,187445,5,8,0:0:0:0:
256,192,187541,5,0,0:0:0:0:
256,192,187637,5,0,0:0:0:0:
256,192,187733,5,8,0:0:0:0:
256,192,187829,5,8,0:0:0:0:
256,192,187926,5,8,0:0:0:0:
256,192,188022,5,8,0:0:0:0:
256,192,188118,5,0,0:0:0:0:
256,192,188214,5,0,0:0:0:0:
256,192,188310,5,8,0:0:0:0:
256,192,188406,5,0,0:0:0:0:
256,192,188503,5,8,0:0:0:0:
256,192,188599,5,8,0:0:0:0:
256,192,188695,5,0,0:0:0:0:
256,192,188791,5,0,0:0:0:0:
256,192,188887,5,8,0:0:0:0:
256,192,188983,5,8,0:0:0:0:
256,192,189079,5,8,0:0:0:0:
256,192,189176,5,8,0:0:0:0:
256,192,189272,5,0,0:0:0:0:
256,192,189368,5,0,0:0:0:0:
256,192,189464,5,8,0:0:0:0:
256,192,189560,5,0,0:0:0:0:
256,192,189656,5,8,0:0:0:0:
256,192,189753,5,8,0:0:0:0:
256,192,189849,5,0,0:0:0:0:
256,192,189945,5,0,0:0:0:0:
256,192,190041,5,8,0:0:0:0:
256,192,190137,5,0,0:0:0:0:
256,192,190233,5,0,0:0:0:0:
256,192,190329,5,0,0:0:0:0:
256,192,190426,5,8,0:0:0:0:
256,192,190522,5,8,0:0:0:0:
256,192,190618,5,8,0:0:0:0:
256,192,190714,5,8,0:0:0:0:
256,192,190810,5,0,0:0:0:0:
256,192,190906,5,0,0:0:0:0:
256,192,191003,5,8,0:0:0:0:
256,192,191099,5,0,0:0:0:0:
256,192,191195,5,8,0:0:0:0:
256,192,191291,5,8,0:0:0:0:
256,192,191387,5,0,0:0:0:0:
256,192,191483,5,0,0:0:0:0:
256,192,191579,5,8,0:0:0:0:
256,192,191676,5,0,0:0:0:0:
256,192,191772,5,8,0:0:0:0:
256,192,191868,5,0,0:0:0:0:
256,192,191964,5,8,0:0:0:0:
256,192,192060,5,8,0:0:0:0:
256,192,192156,5,8,0:0:0:0:
256,192,192253,5,8,0:0:0:0:
256,192,192349,5,0,0:0:0:0:
256,192,192445,5,0,0:0:0:0:
256,192,192541,5,8,0:0:0:0:
256,192,192637,5,0,0:0:0:0:
256,192,192733,5,8,0:0:0:0:
256,192,192829,5,8,0:0:0:0:
256,192,192926,5,0,0:0:0:0:
256,192,193022,5,8,0:0:0:0:
256,192,193118,5,0,0:0:0:0:
256,192,193214,5,0,0:0:0:0:
256,192,193310,5,0,0:0:0:0:
256,192,193406,5,0,0:0:0:0:
256,192,193503,5,8,0:0:0:0:
256,192,193599,5,8,0:0:0:0:
256,192,193695,5,0,0:0:0:0:
256,192,193791,5,0,0:0:0:0:
256,192,193887,5,8,0:0:0:0:
256,192,193983,5,8,0:0:0:0:
256,192,194079,5,8,0:0:0:0:
256,192,194176,5,0,0:0:0:0:
256,192,194272,5,8,0:0:0:0:
256,192,194368,5,8,0:0:0:0:
256,192,194464,5,8,0:0:0:0:
256,192,194560,5,8,0:0:0:0:
256,192,194656,5,0,0:0:0:0:
256,192,194753,5,0,0:0:0:0:
256,192,194849,5,8,0:0:0:0:
256,192,195041,5,8,0:0:0:0:
256,192,195137,5,8,0:0:0:0:
256,192,195233,5,0,0:0:0:0:
256,192,195329,5,0,0:0:0:0:
256,192,195426,5,0,0:0:0:0:
256,192,195522,5,0,0:0:0:0:
256,192,195618,5,8,0:0:0:0:
256,192,195714,5,0,0:0:0:0:
256,192,195810,5,8,0:0:0:0:
256,192,195906,5,8,0:0:0:0:
256,192,196003,5,8,0:0:0:0:
256,192,196099,5,0,0:0:0:0:
256,192,196195,5,8,0:0:0:0:
256,192,196291,5,8,0:0:0:0:
256,192,196387,5,0,0:0:0:0:
256,192,196483,5,0,0:0:0:0:
256,192,196579,5,8,0:0:0:0:
256,192,196676,5,8,0:0:0:0:
256,192,196772,5,8,0:0:0:0:
256,192,196868,5,8,0:0:0:0:
256,192,196964,5,0,0:0:0:0:
256,192,197060,5,0,0:0:0:0:
256,192,197156,5,8,0:0:0:0:
256,192,197253,5,0,0:0:0:0:
256,192,197349,5,8,0:0:0:0:
256,192,197445,5,8,0:0:0:0:
256,192,197541,5,0,0:0:0:0:
256,192,197637,5,0,0:0:0:0:
256,192,197733,5,0,0:0:0:0:
256,192,197829,5,0,0:0:0:0:
256,192,197926,5,8,0:0:0:0:
256,192,198118,5,8,0:0:0:0:
256,192,198214,5,0,0:0:0:0:
256,192,198310,5,0,0:0:0:0:
256,192,198406,5,0,0:0:0:0:
256,192,198503,5,8,0:0:0:0:
256,192,198599,5,8,0:0:0:0:
256,192,198695,5,0,0:0:0:0:
256,192,198791,5,8,0:0:0:0:
256,192,198887,5,0,0:0:0:0:
256,192,198983,5,0,0:0:0:0:
256,192,199079,5,8,0:0:0:0:
256,192,199176,5,0,0:0:0:0:
256,192,199272,5,8,0:0:0:0:
256,192,199368,5,8,0:0:0:0:
256,192,199464,5,0,0:0:0:0:
256,192,199560,5,0,0:0:0:0:
256,192,199656,5,8,0:0:0:0:
256,192,199753,5,8,0:0:0:0:
256,192,199849,5,8,0:0:0:0:
256,192,199945,5,8,0:0:0:0:
256,192,200041,5,0,0:0:0:0:
256,192,200137,5,8,0:0:0:0:
256,192,200233,5,0,0:0:0:0:
256,192,200329,5,0,0:0:0:0:
256,192,200426,5,8,0:0:0:0:
256,192,200522,5,8,0:0:0:0:
256,192,200618,5,0,0:0:0:0:
256,192,200714,5,0,0:0:0:0:
256,192,200810,5,8,0:0:0:0:
256,192,200906,5,8,0:0:0:0:
256,192,201003,5,8,0:0:0:0:
256,192,201099,5,0,0:0:0:0:
256,192,201195,5,8,0:0:0:0:
256,192,201291,5,8,0:0:0:0:
256,192,201387,5,8,0:0:0:0:
256,192,201483,5,8,0:0:0:0:
256,192,201579,5,0,0:0:0:0:
256,192,201676,5,0,0:0:0:0:
256,192,201772,5,8,0:0:0:0:
256,192,201868,5,0,0:0:0:0:
256,192,201964,5,8,0:0:0:0:
256,192,202060,5,8,0:0:0:0:
256,192,202156,5,0,0:0:0:0:
256,192,202253,5,0,0:0:0:0:
256,192,202349,5,8,0:0:0:0:
256,192,202445,5,0,0:0:0:0:
256,192,202541,5,0,0:0:0:0:
256,192,202637,5,0,0:0:0:0:
256,192,202733,5,8,0:0:0:0:
256,192,202829,5,8,0:0:0:0:
256,192,202926,5,8,0:0:0:0:
256,192,203022,5,8,0:0:0:0:
256,192,203118,5,0,0:0:0:0:
256,192,203214,5,0,0:0:0:0:
256,192,203310,5,8,0:0:0:0:
256,192,203406,5,0,0:0:0:0:
256,192,203503,5,8,0:0:0:0:
256,192,203599,5,8,0:0:0:0:
256,192,203695,5,0,0:0:0:0:
256,192,203791,5,0,0:0:0:0:
256,192,203887,5,8,0:0:0:0:
256,192,203983,5,0,0:0:0:0:
256,192,204079,5,8,0:0:0:0:
256,192,204176,5,0,0:0:0:0:
256,192,204272,5,8,0:0:0:0:
256,192,204368,5,8,0:0:0:0:
256,192,204464,5,0,0:0:0:0:
256,192,204560,5,0,0:0:0:0:
256,192,204656,5,8,0:0:0:0:
256,192,204753,5,0,0:0:0:0:
256,192,204849,5,8,0:0:0:0:
256,192,204945,5,8,0:0:0:0:
256,192,205041,5,0,0:0:0:0:
256,192,205137,5,8,0:0:0:0:
256,192,205233,5,0,0:0:0:0:
256,192,205329,5,0,0:0:0:0:
256,192,205426,5,8,0:0:0:0:
256,192,205522,5,8,0:0:0:0:
256,192,205618,5,0,0:0:0:0:
256,192,205714,5,0,0:0:0:0:
256,192,205810,5,8,0:0:0:0:
256,192,205906,5,8,0:0:0:0:
256,192,206003,5,8,0:0:0:0:
256,192,206099,5,0,0:0:0:0:
256,192,206195,5,8,0:0:0:0:
256,192,206291,5,8,0:0:0:0:
256,192,206387,5,8,0:0:0:0:
256,192,206483,5,8,0:0:0:0:
256,192,206579,5,0,0:0:0:0:
256,192,206676,5,0,0:0:0:0:
256,192,206772,5,0,0:0:0:0:
256,192,206868,5,0,0:0:0:0:
256,192,206964,5,8,0:0:0:0:
256,192,207060,5,0,0:0:0:0:
256,192,207156,5,8,0:0:0:0:
256,192,207253,5,0,0:0:0:0:
256,192,207349,5,8,0:0:0:0:
256,192,207445,5,8,0:0:0:0:
256,192,207541,5,8,0:0:0:0:
256,192,207637,5,8,0:0:0:0:
256,192,207733,5,0,0:0:0:0:
256,192,207829,5,0,0:0:0:0:
256,192,207926,5,8,0:0:0:0:
256,192,208022,5,0,0:0:0:0:
256,192,208118,5,8,0:0:0:0:
256,192,208214,5,8,0:0:0:0:
256,192,208310,5,0,0:0:0:0:
256,192,208406,5,8,0:0:0:0:
256,192,208503,5,0,0:0:0:0:
256,192,208599,5,0,0:0:0:0:
256,192,208695,5,8,0:0:0:0:
256,192,208887,5,12,0:0:0:0:
256,192,209079,5,0,0:0:0:0:
256,192,209272,5,12,0:0:0:0:
256,192,209464,5,0,0:0:0:0:
256,192,209656,5,12,0:0:0:0:
256,192,210426,5,0,0:0:0:0:
256,192,210522,5,0,0:0:0:0:
256,192,210618,5,0,0:0:0:0:
256,192,210714,5,0,0:0:0:0:
256,192,210810,5,8,0:0:0:0:
256,192,211195,5,8,0:0:0:0:
256,192,211579,5,8,0:0:0:0:
256,192,211676,5,0,0:0:0:0:
256,192,211772,5,8,0:0:0:0:
256,192,211868,5,8,0:0:0:0:
256,192,211964,5,0,0:0:0:0:
256,192,212156,5,8,0:0:0:0:
256,192,212349,5,8,0:0:0:0:
256,192,212541,5,0,0:0:0:0:
256,192,212733,5,8,0:0:0:0:
256,192,213503,5,0,0:0:0:0:
256,192,213599,5,0,0:0:0:0:
256,192,213695,5,0,0:0:0:0:
256,192,213791,5,0,0:0:0:0:
256,192,213887,5,8,0:0:0:0:
256,192,214272,5,8,0:0:0:0:
256,192,214656,5,0,0:0:0:0:
256,192,214753,5,8,0:0:0:0:
256,192,214849,5,0,0:0:0:0:
256,192,214945,5,0,0:0:0:0:
256,192,215041,5,8,0:0:0:0:
256,192,215233,5,0,0:0:0:0:
256,192,215426,5,8,0:0:0:0:
256,192,215522,5,8,0:0:0:0:
256,192,215618,5,0,0:0:0:0:
256,192,215810,5,8,0:0:0:0:
256,192,216579,5,0,0:0:0:0:
256,192,216676,5,0,0:0:0:0:
256,192,216772,5,0,0:0:0:0:
256,192,216868,5,0,0:0:0:0:
256,192,216964,5,8,0:0:0:0:
256,192,217349,5,8,0:0:0:0:
256,192,217733,5,8,0:0:0:0:
256,192,217829,5,8,0:0:0:0:
256,192,217926,5,0,0:0:0:0:
256,192,218022,5,0,0:0:0:0:
256,192,218118,5,8,0:0:0:0:
256,192,218310,5,0,0:0:0:0:
256,192,218503,5,8,0:0:0:0:
256,192,218695,5,0,0:0:0:0:
256,192,218887,5,8,0:0:0:0:
256,192,219656,5,0,0:0:0:0:
256,192,219753,5,0,0:0:0:0:
256,192,219849,5,0,0:0:0:0:
256,192,219945,5,0,0:0:0:0:
256,192,220041,5,8,0:0:0:0:
256,192,220426,5,8,0:0:0:0:
256,192,220810,5,0,0:0:0:0:
256,192,220906,5,8,0:0:0:0:
256,192,221003,5,0,0:0:0:0:
256,192,221099,5,0,0:0:0:0:
256,192,221195,5,8,0:0:0:0:
256,192,221387,5,0,0:0:0:0:
256,192,221579,5,0,0:0:0:0:
256,192,221772,5,8,0:0:0:0:
256,192,221964,5,0,0:0:0:0:
256,192,222156,5,8,0:0:0:0:
256,192,222253,5,0,0:0:0:0:
256,192,222349,5,8,0:0:0:0:
256,192,222445,5,8,0:0:0:0:
256,192,222541,5,0,0:0:0:0:
256,192,222733,5,12,0:0:0:0:
256,192,224272,5,12,0:0:0:0:
256,192,224656,5,0,0:0:0:0:
256,192,225041,5,8,0:0:0:0:
256,192,225426,5,0,0:0:0:0:
256,192,225810,5,12,0:0:0:0:
256,192,226579,5,12,0:0:0:0:
256,192,227349,5,12,0:0:0:0:
256,192,227733,5,0,0:0:0:0:
256,192,228118,5,0,0:0:0:0:
256,192,228503,5,8,0:0:0:0:
256,192,228695,5,0,0:0:0:0:
256,192,228887,5,12,0:0:0:0:
256,192,229272,5,0,0:0:0:0:
256,192,229464,5,0,0:0:0:0:
256,192,229656,5,12,0:0:0:0:
256,192,230041,5,8,0:0:0:0:
256,192,230426,5,0,0:0:0:0:
256,192,230522,5,0,0:0:0:0:
256,192,230618,5,0,0:0:0:0:
256,192,230714,5,0,0:0:0:0:
256,192,230810,5,8,0:0:0:0:
256,192,230906,5,8,0:0:0:0:
256,192,231003,5,0,0:0:0:0:
256,192,231099,5,0,0:0:0:0:
256,192,231195,5,8,0:0:0:0:
256,192,231291,5,0,0:0:0:0:
256,192,231387,5,8,0:0:0:0:
256,192,231483,5,8,0:0:0:0:
256,192,231579,5,0,0:0:0:0:
256,192,231676,5,0,0:0:0:0:
256,192,231772,5,8,0:0:0:0:
256,192,231964,5,4,0:0:0:0:
256,192,232156,5,8,0:0:0:0:
256,192,232252,5,0,0:0:0:0:
256,192,232444,5,0,0:0:0:0:
256,192,232540,5,8,0:0:0:0:
256,192,232733,5,0,0:0:0:0:
256,192,232925,5,8,0:0:0:0:
256,192,233117,5,0,0:0:0:0:
256,192,233214,5,0,0:0:0:0:
256,192,233310,5,0,0:0:0:0:
256,192,233502,5,8,0:0:0:0:
256,192,233598,5,0,0:0:0:0:
256,192,233694,5,8,0:0:0:0:
256,192,233790,5,8,0:0:0:0:
256,192,233887,5,0,0:0:0:0:
256,192,233983,5,0,0:0:0:0:
256,192,234079,5,8,0:0:0:0:
256,192,234271,5,0,0:0:0:0:
256,192,234464,5,8,0:0:0:0:
256,192,234560,5,8,0:0:0:0:
256,192,234656,5,0,0:0:0:0:
256,192,234752,5,0,0:0:0:0:
256,192,234848,5,8,0:0:0:0:
256,192,235040,5,0,0:0:0:0:
256,192,235233,5,8,0:0:0:0:
256,192,235329,5,8,0:0:0:0:
256,192,235425,5,8,0:0:0:0:
256,192,235521,5,0,0:0:0:0:
256,192,235617,5,8,0:0:0:0:
256,192,235810,5,0,0:0:0:0:
256,192,235906,5,8,0:0:0:0:
256,192,236002,5,8,0:0:0:0:
256,192,236098,5,8,0:0:0:0:
256,192,236194,5,0,0:0:0:0:
256,192,236290,5,0,0:0:0:0:
256,192,236387,5,8,0:0:0:0:
256,192,236579,5,0,0:0:0:0:
256,192,236675,5,0,0:0:0:0:
256,192,236771,5,8,0:0:0:0:
256,192,236867,5,0,0:0:0:0:
256,192,237060,5,0,0:0:0:0:
256,192,237156,5,8,0:0:0:0:
256,192,237348,5,8,0:0:0:0:
256,192,237444,5,0,0:0:0:0:
256,192,237540,5,8,0:0:0:0:
256,192,237637,5,8,0:0:0:0:
256,192,237733,5,0,0:0:0:0:
256,192,237829,5,0,0:0:0:0:
256,192,237925,5,8,0:0:0:0:
256,192,238117,5,0,0:0:0:0:
256,192,238310,5,8,0:0:0:0:
256,192,238406,5,0,0:0:0:0:
256,192,238598,5,0,0:0:0:0:
256,192,238694,5,8,0:0:0:0:
256,192,238790,5,8,0:0:0:0:
256,192,238887,5,0,0:0:0:0:
256,192,239079,5,8,0:0:0:0:
256,192,239271,5,0,0:0:0:0:
256,192,239367,5,0,0:0:0:0:
256,192,239464,5,8,0:0:0:0:
256,192,239656,5,0,0:0:0:0:
256,192,239752,5,0,0:0:0:0:
256,192,239848,5,8,0:0:0:0:
256,192,239944,5,0,0:0:0:0:
256,192,240137,5,0,0:0:0:0:
256,192,240233,5,8,0:0:0:0:
256,192,240329,5,8,0:0:0:0:
256,192,240425,5,0,0:0:0:0:
256,192,240617,5,8,0:0:0:0:
256,192,240714,5,8,0:0:0:0:
256,192,240810,5,0,0:0:0:0:
256,192,240906,5,0,0:0:0:0:
256,192,241002,5,8,0:0:0:0:
256,192,241194,5,0,0:0:0:0:
256,192,241290,5,8,0:0:0:0:
256,192,241387,5,8,0:0:0:0:
256,192,241483,5,0,0:0:0:0:
256,192,241675,5,0,0:0:0:0:
256,192,241771,5,8,0:0:0:0:
256,192,241964,5,8,0:0:0:0:
256,192,242060,5,0,0:0:0:0:
256,192,242156,5,8,0:0:0:0:
256,192,242252,5,8,0:0:0:0:
256,192,242348,5,0,0:0:0:0:
256,192,242444,5,0,0:0:0:0:
256,192,242540,5,8,0:0:0:0:
256,192,242733,5,0,0:0:0:0:
256,192,242925,5,8,0:0:0:0:
256,192,243021,5,0,0:0:0:0:
256,192,243117,5,0,0:0:0:0:
256,192,243214,5,0,0:0:0:0:
256,192,243310,5,8,0:0:0:0:
256,192,243502,5,0,0:0:0:0:
256,192,243598,5,0,0:0:0:0:
256,192,243694,5,8,0:0:0:0:
256,192,243790,5,8,0:0:0:0:
256,192,243887,5,0,0:0:0:0:
256,192,243983,5,0,0:0:0:0:
256,192,244079,5,8,0:0:0:0:
256,192,244271,5,4,0:0:0:0:
256,192,244464,5,0,0:0:0:0:
256,192,244560,5,8,0:0:0:0:
256,192,244656,5,0,0:0:0:0:
256,192,244752,5,0,0:0:0:0:
255,186,244848,5,8,0:0:0:0:
256,192,244944,5,8,0:0:0:0:
256,192,245040,5,0,0:0:0:0:
256,192,245233,5,8,0:0:0:0:
256,192,245329,5,8,0:0:0:0:
256,192,245425,5,8,0:0:0:0:
256,192,245521,5,0,0:0:0:0:
256,192,245617,5,8,0:0:0:0:
256,192,245810,5,0,0:0:0:0:
256,192,246002,5,8,0:0:0:0:
256,192,246098,5,8,0:0:0:0:
256,192,246194,5,0,0:0:0:0:
256,192,246290,5,0,0:0:0:0:
256,192,246387,5,8,0:0:0:0:
256,192,246483,5,8,0:0:0:0:
256,192,246579,5,0,0:0:0:0:
256,192,246771,5,0,0:0:0:0:
256,192,246867,5,8,0:0:0:0:
256,192,246964,5,0,0:0:0:0:
256,192,247060,5,0,0:0:0:0:
256,192,247156,5,8,0:0:0:0:
256,192,247348,5,0,0:0:0:0:
256,192,247540,5,8,0:0:0:0:
256,192,247637,5,0,0:0:0:0:
256,192,247829,5,0,0:0:0:0:
256,192,247925,5,8,0:0:0:0:
256,192,248117,5,8,0:0:0:0:
256,192,248214,5,8,0:0:0:0:
256,192,248310,5,0,0:0:0:0:
256,192,248406,5,0,0:0:0:0:
256,192,248502,5,8,0:0:0:0:
256,192,248598,5,0,0:0:0:0:
256,192,248694,5,8,0:0:0:0:
256,192,248887,5,0,0:0:0:0:
256,192,248983,5,0,0:0:0:0:
256,192,249079,5,8,0:0:0:0:
256,192,249175,5,0,0:0:0:0:
256,192,249271,5,8,0:0:0:0:
256,192,249367,5,8,0:0:0:0:
256,192,249464,5,0,0:0:0:0:
256,192,249560,5,8,0:0:0:0:
256,192,249656,5,0,0:0:0:0:
256,192,249752,5,0,0:0:0:0:
256,192,249848,5,8,0:0:0:0:
256,192,249944,5,8,0:0:0:0:
256,192,250040,5,0,0:0:0:0:
256,192,250137,5,0,0:0:0:0:
256,192,250233,5,8,0:0:0:0:
256,192,250425,5,4,0:0:0:0:
256,192,250617,5,8,0:0:0:0:
256,192,250714,5,0,0:0:0:0:
256,192,250906,5,0,0:0:0:0:
256,192,251002,5,8,0:0:0:0:
256,192,251194,5,8,0:0:0:0:
256,192,251290,5,0,0:0:0:0:
256,192,251387,5,8,0:0:0:0:
256,192,251483,5,8,0:0:0:0:
256,192,251579,5,0,0:0:0:0:
256,192,251675,5,0,0:0:0:0:
256,192,251771,5,8,0:0:0:0:
256,192,251964,5,0,0:0:0:0:
256,192,252060,5,0,0:0:0:0:
256,192,252156,5,8,0:0:0:0:
256,192,252252,5,0,0:0:0:0:
256,192,252444,5,0,0:0:0:0:
256,192,252540,5,8,0:0:0:0:
256,192,252733,5,0,0:0:0:0:
256,192,252925,5,0,0:0:0:0:
256,192,253021,5,0,0:0:0:0:
256,192,253117,5,8,0:0:0:0:
256,192,253214,5,8,0:0:0:0:
256,192,253310,5,0,0:0:0:0:
256,192,253406,5,0,0:0:0:0:
256,192,253502,5,8,0:0:0:0:
256,192,253694,5,0,0:0:0:0:
256,192,253790,5,0,0:0:0:0:
256,192,253887,5,8,0:0:0:0:
256,192,254079,5,8,0:0:0:0:
256,192,254175,5,0,0:0:0:0:
256,192,254271,5,8,0:0:0:0:
256,192,254464,5,0,0:0:0:0:
256,192,254560,5,0,0:0:0:0:
256,192,254656,5,8,0:0:0:0:
256,192,254752,5,8,0:0:0:0:
256,192,254848,5,0,0:0:0:0:
256,192,254944,5,0,0:0:0:0:
256,192,255040,5,8,0:0:0:0:
256,192,255233,5,0,0:0:0:0:
256,192,255329,5,0,0:0:0:0:
256,192,255425,5,8,0:0:0:0:
256,192,255617,5,8,0:0:0:0:
256,192,255714,5,0,0:0:0:0:
256,192,255810,5,8,0:0:0:0:
256,192,255906,5,8,0:0:0:0:
256,192,256002,5,0,0:0:0:0:
256,192,256098,5,0,0:0:0:0:
256,192,256194,5,8,0:0:0:0:
256,192,256579,5,8,0:0:0:0:
256,192,256675,5,8,0:0:0:0:
256,192,256771,5,0,0:0:0:0:
256,192,256867,5,8,0:0:0:0:
256,192,256964,5,0,0:0:0:0:
256,192,257060,5,0,0:0:0:0:
256,192,257156,5,8,0:0:0:0:
256,192,257252,5,8,0:0:0:0:
256,192,257348,5,8,0:0:0:0:
256,192,257444,5,8,0:0:0:0:
256,192,257540,5,0,0:0:0:0:
256,192,257637,5,0,0:0:0:0:
256,192,257733,5,8,0:0:0:0:
256,192,257925,5,0,0:0:0:0:
256,192,258021,5,0,0:0:0:0:
256,192,258117,5,8,0:0:0:0:
256,192,258214,5,8,0:0:0:0:
256,192,258310,5,8,0:0:0:0:
256,192,258406,5,8,0:0:0:0:
256,192,258502,5,0,0:0:0:0:
256,192,258598,5,0,0:0:0:0:
256,192,258694,5,8,0:0:0:0:
256,192,258790,5,0,0:0:0:0:
256,192,258887,5,8,0:0:0:0:
256,192,258983,5,8,0:0:0:0:
256,192,259079,5,0,0:0:0:0:
256,192,259175,5,0,0:0:0:0:
256,192,259271,5,8,0:0:0:0:
256,192,259367,5,8,0:0:0:0:
256,192,259464,5,0,0:0:0:0:
256,192,259560,5,0,0:0:0:0:
256,192,259656,5,8,0:0:0:0:
256,192,259784,5,0,0:0:0:0:
256,192,259912,5,0,0:0:0:0:
256,192,260040,5,8,0:0:0:0:
256,192,260169,5,8,0:0:0:0:
256,192,260297,5,0,0:0:0:0:
256,192,260425,5,8,0:0:0:0:
256,192,260521,5,8,0:0:0:0:
256,192,260617,5,0,0:0:0:0:
256,192,260714,5,0,0:0:0:0:
256,192,260810,5,8,0:0:0:0:
256,192,261194,5,4,0:0:0:0:
256,192,261578,5,0,0:0:0:0:
256,192,261963,5,8,0:0:0:0:
256,192,262155,5,8,0:0:0:0:
256,192,262347,5,0,0:0:0:0:
256,192,262732,5,0,0:0:0:0:
256,192,262924,5,0,0:0:0:0:
256,192,263117,5,8,0:0:0:0:
256,192,263309,5,8,0:0:0:0:
256,192,263501,5,0,0:0:0:0:
256,192,263886,5,0,0:0:0:0:
256,192,264270,5,8,0:0:0:0:
256,192,264463,5,0,0:0:0:0:
256,192,264655,5,0,0:0:0:0:
256,192,264847,5,8,0:0:0:0:
256,192,265232,5,8,0:0:0:0:
256,192,265424,5,0,0:0:0:0:
256,192,265617,5,8,0:0:0:0:
256,192,265809,5,0,0:0:0:0:
256,192,266194,5,8,0:0:0:0:
256,192,266386,5,0,0:0:0:0:
256,192,266578,5,8,0:0:0:0:
256,192,266770,5,8,0:0:0:0:
256,192,266963,5,0,0:0:0:0:
256,192,267347,5,8,0:0:0:0:
256,192,267540,5,0,0:0:0:0:
256,192,267732,5,8,0:0:0:0:
256,192,268117,5,0,0:0:0:0:
256,192,268501,5,0,0:0:0:0:
256,192,268886,5,8,0:0:0:0:
256,192,269078,5,8,0:0:0:0:
256,192,269270,5,0,0:0:0:0:
256,192,269463,5,8,0:0:0:0:
256,192,269655,5,0,0:0:0:0:
256,192,269847,5,8,0:0:0:0:
256,192,269944,5,8,0:0:0:0:
256,192,270040,5,0,0:0:0:0:
256,192,270232,5,8,0:0:0:0:
256,192,270424,5,4,0:0:0:0:
256,192,270809,5,0,0:0:0:0:
256,192,271001,5,0,0:0:0:0:
256,192,271194,5,8,0:0:0:0:
256,192,271386,5,0,0:0:0:0:
256,192,271578,5,8,0:0:0:0:
256,192,271963,5,8,0:0:0:0:
256,192,272155,5,0,0:0:0:0:
256,192,272347,5,8,0:0:0:0:
256,192,272540,5,8,0:0:0:0:
256,192,272732,5,0,0:0:0:0:
256,192,273117,5,0,0:0:0:0:
256,192,273309,5,0,0:0:0:0:
256,192,273501,5,8,0:0:0:0:
256,192,273694,5,0,0:0:0:0:
256,192,273886,5,8,0:0:0:0:
256,192,274078,5,8,0:0:0:0:
256,192,274270,5,0,0:0:0:0:
256,192,274463,5,0,0:0:0:0:
256,192,274655,5,8,0:0:0:0:
256,192,274847,5,8,0:0:0:0:
256,192,275040,5,4,0:0:0:0:
256,192,276194,5,0,0:0:0:0:
256,192,276579,5,12,0:0:0:0:
256,192,276963,5,4,0:0:0:0:
256,192,277348,5,4,0:0:0:0:
256,192,277732,5,12,0:0:0:0:
256,192,278117,5,12,0:0:0:0:
256,192,278309,5,0,0:0:0:0:
256,192,278405,5,0,0:0:0:0:
256,192,278502,5,0,0:0:0:0:
256,192,278694,5,12,0:0:0:0:
256,192,278886,5,0,0:0:0:0:
256,192,278982,5,0,0:0:0:0:
256,192,279079,5,0,0:0:0:0:
256,192,279271,5,12,0:0:0:0:
256,192,279655,5,12,0:0:0:0:
256,192,279848,5,0,0:0:0:0:
256,192,279944,5,0,0:0:0:0:
256,192,280040,5,8,0:0:0:0:
256,192,280136,5,8,0:0:0:0:
256,192,280232,5,0,0:0:0:0:
256,192,280329,5,0,0:0:0:0:
256,192,280425,5,8,0:0:0:0:
256,192,281194,5,12,0:0:0:0:
256,192,281963,5,12,0:0:0:0:
256,192,282732,5,12,0:0:0:0:
256,192,283501,5,0,0:0:0:0:
256,192,283886,5,0,0:0:0:0:
256,192,284270,5,12,0:0:0:0:
256,192,284847,5,0,0:0:0:0:
256,192,285040,5,8,0:0:0:0:
256,192,285328,5,0,0:0:0:0:
256,192,285617,5,8,0:0:0:0:
256,192,285809,5,4,0:0:0:0:
256,192,286097,5,0,0:0:0:0:
256,192,286386,5,12,0:0:0:0:
256,192,286578,5,12,0:0:0:0:
256,192,286770,5,0,0:0:0:0:
256,192,286867,5,0,0:0:0:0:
256,192,286963,5,8,0:0:0:0:
256,192,287059,5,8,0:0:0:0:
256,192,287155,5,0,0:0:0:0:
256,192,287251,5,0,0:0:0:0:
256,192,287347,5,8,0:0:0:0:
256,192,287732,5,0,0:0:0:0:
256,192,288117,5,8,0:0:0:0:
256,192,288501,5,8,0:0:0:0:
256,192,288886,5,0,0:0:0:0:
256,192,289270,5,8,0:0:0:0:
256,192,289655,5,4,0:0:0:0:
256,192,289944,5,4,0:0:0:0:
256,192,290232,5,12,0:0:0:0:
256,192,290424,5,0,0:0:0:0:
256,192,290520,5,0,0:0:0:0:
256,192,290617,5,8,0:0:0:0:
256,192,290809,5,0,0:0:0:0:
256,192,290905,5,0,0:0:0:0:
256,192,291001,5,8,0:0:0:0:
256,192,291097,5,0,0:0:0:0:
256,192,291194,5,8,0:0:0:0:
256,192,291386,5,8,0:0:0:0:
256,192,291482,5,0,0:0:0:0:
256,192,291578,5,8,0:0:0:0:
256,192,291674,5,8,0:0:0:0:
256,192,291770,5,0,0:0:0:0:
256,192,291867,5,0,0:0:0:0:
256,192,291963,5,8,0:0:0:0:
256,192,292059,5,0,0:0:0:0:
256,192,292155,5,8,0:0:0:0:
256,192,292251,5,8,0:0:0:0:
256,192,292347,5,0,0:0:0:0:
256,192,292444,5,0,0:0:0:0:
256,192,292540,5,0,0:0:0:0:
256,192,292636,5,0,0:0:0:0:
256,192,292732,5,8,0:0:0:0:
256,192,292924,5,8,0:0:0:0:
256,192,293020,5,0,0:0:0:0:
256,192,293117,5,8,0:0:0:0:
256,192,293213,5,8,0:0:0:0:
256,192,293309,5,0,0:0:0:0:
256,192,293405,5,0,0:0:0:0:
256,192,293501,5,8,0:0:0:0:
256,192,293597,5,8,0:0:0:0:
256,192,293694,5,0,0:0:0:0:
256,192,293790,5,0,0:0:0:0:
256,192,293886,5,8,0:0:0:0:
256,192,293982,5,0,0:0:0:0:
256,192,294078,5,8,0:0:0:0:
256,192,294174,5,8,0:0:0:0:
256,192,294270,5,0,0:0:0:0:
256,192,294367,5,0,0:0:0:0:
256,192,294463,5,8,0:0:0:0:
256,192,294559,5,0,0:0:0:0:
256,192,294655,5,8,0:0:0:0:
256,192,294751,5,8,0:0:0:0:
256,192,294847,5,0,0:0:0:0:
256,192,294944,5,0,0:0:0:0:
256,192,295040,5,8,0:0:0:0:
256,192,295136,5,8,0:0:0:0:
256,192,295232,5,8,0:0:0:0:
256,192,295328,5,8,0:0:0:0:
256,192,295424,5,0,0:0:0:0:
256,192,295520,5,8,0:0:0:0:
256,192,295617,5,0,0:0:0:0:
256,192,295713,5,0,0:0:0:0:
256,192,295809,5,8,0:0:0:0:
256,192,295905,5,8,0:0:0:0:
256,192,296001,5,0,0:0:0:0:
256,192,296097,5,8,0:0:0:0:
256,192,296194,5,0,0:0:0:0:
256,192,296290,5,0,0:0:0:0:
256,192,296386,5,8,0:0:0:0:
256,192,296482,5,0,0:0:0:0:
256,192,296578,5,8,0:0:0:0:
256,192,296674,5,8,0:0:0:0:
256,192,296770,5,8,0:0:0:0:
256,192,296867,5,8,0:0:0:0:
256,192,296963,5,0,0:0:0:0:
256,192,297059,5,0,0:0:0:0:
256,192,297155,5,8,0:0:0:0:
256,192,297251,5,0,0:0:0:0:
256,192,297347,5,8,0:0:0:0:
256,192,297444,5,8,0:0:0:0:
256,192,297540,5,0,0:0:0:0:
256,192,297636,5,0,0:0:0:0:
256,192,297732,5,8,0:0:0:0:
256,192,297828,5,0,0:0:0:0:
256,192,297924,5,0,0:0:0:0:
256,192,298020,5,0,0:0:0:0:
256,192,298117,5,8,0:0:0:0:
256,192,298213,5,8,0:0:0:0:
256,192,298309,5,8,0:0:0:0:
256,192,298405,5,8,0:0:0:0:
256,192,298501,5,0,0:0:0:0:
256,192,298597,5,0,0:0:0:0:
256,192,298694,5,8,0:0:0:0:
256,192,298790,5,0,0:0:0:0:
256,192,298886,5,8,0:0:0:0:
256,192,298982,5,8,0:0:0:0:
256,192,299078,5,0,0:0:0:0:
256,192,299174,5,0,0:0:0:0:
256,192,299270,5,8,0:0:0:0:
256,192,299367,5,0,0:0:0:0:
256,192,299463,5,8,0:0:0:0:
256,192,299559,5,0,0:0:0:0:
256,192,299655,5,8,0:0:0:0:
256,192,299751,5,8,0:0:0:0:
256,192,299847,5,0,0:0:0:0:
256,192,299944,5,0,0:0:0:0:
256,192,300040,5,8,0:0:0:0:
256,192,300136,5,0,0:0:0:0:
256,192,300232,5,8,0:0:0:0:
256,192,300328,5,8,0:0:0:0:
256,192,300424,5,0,0:0:0:0:
256,192,300520,5,8,0:0:0:0:
256,192,300617,5,0,0:0:0:0:
256,192,300713,5,0,0:0:0:0:
256,192,300809,5,8,0:0:0:0:
256,192,300905,5,8,0:0:0:0:
256,192,301001,5,0,0:0:0:0:
256,192,301097,5,0,0:0:0:0:
256,192,301194,5,8,0:0:0:0:
256,192,301290,5,8,0:0:0:0:
256,192,301386,5,8,0:0:0:0:
256,192,301482,5,0,0:0:0:0:
256,192,301578,5,8,0:0:0:0:
256,192,301674,5,8,0:0:0:0:
256,192,301770,5,8,0:0:0:0:
256,192,301867,5,8,0:0:0:0:
256,192,301963,5,0,0:0:0:0:
256,192,302059,5,0,0:0:0:0:
256,192,302155,5,0,0:0:0:0:
256,192,302251,5,0,0:0:0:0:
256,192,302347,5,8,0:0:0:0:
256,192,302444,5,0,0:0:0:0:
256,192,302540,5,8,0:0:0:0:
256,192,302636,5,0,0:0:0:0:
256,192,302732,5,8,0:0:0:0:
256,192,302828,5,8,0:0:0:0:
256,192,302924,5,8,0:0:0:0:
256,192,303020,5,8,0:0:0:0:
256,192,303117,5,0,0:0:0:0:
256,192,303213,5,0,0:0:0:0:
256,192,303309,5,8,0:0:0:0:
256,192,303405,5,0,0:0:0:0:
256,192,303501,5,8,0:0:0:0:
256,192,303597,5,8,0:0:0:0:
256,192,303694,5,0,0:0:0:0:
256,192,303790,5,8,0:0:0:0:
256,192,303886,5,0,0:0:0:0:
256,192,303982,5,0,0:0:0:0:
256,192,304078,5,8,0:0:0:0:
256,192,304270,5,8,0:0:0:0:
256,192,304463,5,0,0:0:0:0:
256,192,304559,5,0,0:0:0:0:
256,192,304655,5,8,0:0:0:0:
256,192,304847,5,0,0:0:0:0:
256,192,304944,5,0,0:0:0:0:
256,192,305040,5,8,0:0:0:0:
256,192,305136,5,8,0:0:0:0:
256,192,305232,5,0,0:0:0:0:
256,192,305328,5,0,0:0:0:0:
256,192,305424,5,8,0:0:0:0:
256,192,305520,5,0,0:0:0:0:
256,192,305617,5,8,0:0:0:0:
256,192,305713,5,8,0:0:0:0:
256,192,305809,5,0,0:0:0:0:
256,192,305905,5,0,0:0:0:0:
256,192,306001,5,0,0:0:0:0:
256,192,306097,5,0,0:0:0:0:
256,192,306194,5,8,0:0:0:0:
256,192,306290,5,0,0:0:0:0:
256,192,306386,5,0,0:0:0:0:
256,192,306482,5,0,0:0:0:0:
256,192,306578,5,8,0:0:0:0:
256,192,306674,5,8,0:0:0:0:
256,192,306770,5,8,0:0:0:0:
256,192,306867,5,8,0:0:0:0:
256,192,306963,5,0,0:0:0:0:
256,192,307059,5,0,0:0:0:0:
256,192,307155,5,0,0:0:0:0:
256,192,307251,5,0,0:0:0:0:
256,192,307347,5,8,0:0:0:0:
256,192,307444,5,8,0:0:0:0:
256,192,307540,5,8,0:0:0:0:
256,192,307636,5,0,0:0:0:0:
256,192,307732,5,8,0:0:0:0:
256,192,307828,5,8,0:0:0:0:
256,192,307924,5,0,0:0:0:0:
256,192,308020,5,0,0:0:0:0:
256,192,308117,5,8,0:0:0:0:
256,192,308309,5,8,0:0:0:0:
256,192,308405,5,0,0:0:0:0:
256,192,308501,5,8,0:0:0:0:
256,192,308597,5,8,0:0:0:0:
256,192,308694,5,0,0:0:0:0:
256,192,308886,5,4,0:0:0:0:
256,192,309655,5,4,0:0:0:0:
256,192,310424,5,4,0:0:0:0:
256,192,310617,5,8,0:0:0:0:
256,192,310713,5,0,0:0:0:0:
256,192,310809,5,8,0:0:0:0:
256,192,311001,5,0,0:0:0:0:
256,192,311097,5,0,0:0:0:0:
256,192,311194,5,8,0:0:0:0:
256,192,311386,5,8,0:0:0:0:
256,192,311482,5,0,0:0:0:0:
256,192,311578,5,8,0:0:0:0:
256,192,311674,5,8,0:0:0:0:
256,192,311770,5,0,0:0:0:0:
256,192,311963,5,4,0:0:0:0:
256,192,312155,5,8,0:0:0:0:
256,192,312251,5,0,0:0:0:0:
256,192,312444,5,0,0:0:0:0:
256,192,312540,5,8,0:0:0:0:
256,192,312732,5,0,0:0:0:0:
256,192,312924,5,8,0:0:0:0:
256,192,313117,5,0,0:0:0:0:
256,192,313213,5,0,0:0:0:0:
256,192,313309,5,8,0:0:0:0:
256,192,313501,5,0,0:0:0:0:
256,192,313597,5,0,0:0:0:0:
256,192,313694,5,8,0:0:0:0:
256,192,313790,5,0,0:0:0:0:
256,192,313982,5,0,0:0:0:0:
256,192,314078,5,8,0:0:0:0:
256,192,314270,5,0,0:0:0:0:
256,192,314463,5,8,0:0:0:0:
256,192,314559,5,8,0:0:0:0:
256,192,314655,5,0,0:0:0:0:
256,192,314751,5,0,0:0:0:0:
256,192,314847,5,8,0:0:0:0:
256,192,315040,5,0,0:0:0:0:
256,192,315232,5,8,0:0:0:0:
256,192,315328,5,0,0:0:0:0:
256,192,315520,5,0,0:0:0:0:
256,192,315617,5,8,0:0:0:0:
256,192,315713,5,8,0:0:0:0:
256,192,315809,5,0,0:0:0:0:
256,192,316001,5,8,0:0:0:0:
256,192,316194,5,0,0:0:0:0:
256,192,316290,5,0,0:0:0:0:
256,192,316386,5,8,0:0:0:0:
256,192,316578,5,0,0:0:0:0:
256,192,316674,5,0,0:0:0:0:
256,192,316770,5,8,0:0:0:0:
256,192,316867,5,8,0:0:0:0:
256,192,316963,5,0,0:0:0:0:
256,192,317059,5,0,0:0:0:0:
256,192,317155,5,8,0:0:0:0:
256,192,317347,5,0,0:0:0:0:
256,192,317540,5,8,0:0:0:0:
256,192,317636,5,0,0:0:0:0:
256,192,317732,5,8,0:0:0:0:
256,192,317828,5,8,0:0:0:0:
256,192,317924,5,0,0:0:0:0:
256,192,318020,5,0,0:0:0:0:
256,192,318117,5,8,0:0:0:0:
256,192,318309,5,8,0:0:0:0:
256,192,318405,5,0,0:0:0:0:
256,192,318501,5,8,0:0:0:0:
256,192,318694,5,0,0:0:0:0:
256,192,318790,5,0,0:0:0:0:
256,192,318886,5,8,0:0:0:0:
256,192,319078,5,0,0:0:0:0:
256,192,319174,5,0,0:0:0:0:
256,192,319270,5,8,0:0:0:0:
256,192,319367,5,8,0:0:0:0:
256,192,319463,5,0,0:0:0:0:
256,192,319559,5,0,0:0:0:0:
256,192,319655,5,8,0:0:0:0:
256,192,319847,5,8,0:0:0:0:
256,192,319944,5,0,0:0:0:0:
256,192,320040,5,8,0:0:0:0:
256,192,320232,5,0,0:0:0:0:
256,192,320328,5,0,0:0:0:0:
256,192,320424,5,8,0:0:0:0:
256,192,320617,5,8,0:0:0:0:
256,192,320713,5,0,0:0:0:0:
256,192,320809,5,8,0:0:0:0:
256,192,320905,5,8,0:0:0:0:
256,192,321001,5,0,0:0:0:0:
256,192,321097,5,0,0:0:0:0:
256,192,321194,5,8,0:0:0:0:
256,192,321290,5,8,0:0:0:0:
256,192,321386,5,8,0:0:0:0:
256,192,321482,5,8,0:0:0:0:
256,192,321578,5,0,0:0:0:0:
256,192,321674,5,0,0:0:0:0:
256,192,321770,5,8,0:0:0:0:
256,192,321867,5,0,0:0:0:0:
256,192,321963,5,8,0:0:0:0:
256,192,322059,5,8,0:0:0:0:
256,192,322155,5,0,0:0:0:0:
256,192,322251,5,0,0:0:0:0:
256,192,322347,5,8,0:0:0:0:
256,192,322444,5,8,0:0:0:0:
256,192,322540,5,0,0:0:0:0:
256,192,322636,5,0,0:0:0:0:
256,192,322732,5,8,0:0:0:0:
256,192,322828,5,0,0:0:0:0:
256,192,322924,5,8,0:0:0:0:
256,192,323020,5,8,0:0:0:0:
256,192,323117,5,0,0:0:0:0:
256,192,323213,5,0,0:0:0:0:
256,192,323309,5,8,0:0:0:0:
256,192,323405,5,8,0:0:0:0:
256,192,323501,5,0,0:0:0:0:
256,192,323694,5,0,0:0:0:0:
256,192,323790,5,8,0:0:0:0:
256,192,323886,5,0,0:0:0:0:
256,192,323982,5,0,0:0:0:0:
256,192,324078,5,8,0:0:0:0:
256,192,324270,5,4,0:0:0:0:
256,192,325040,5,12,0:0:0:0:
256,192,325136,12,0,327347,0:0:0:0:
