osu file format v14

[General]
AudioFilename: audio.mp3
AudioLeadIn: 0
PreviewTime: 61511
Countdown: 0
SampleSet: Normal
StackLeniency: 0.7
Mode: 0
LetterboxInBreaks: 0
WidescreenStoryboard: 0

[Editor]
Bookmarks: 43670,87306
DistanceSpacing: 1.1
BeatDivisor: 4
GridSize: 4
TimelineZoom: 1.7

[Metadata]
Title:Stay Ugly
TitleUnicode:Stay Ugly
Artist:CRIM3S
ArtistUnicode:CRIM3S
Creator:riffy
Version:putrid
Source:
Tags:english electronic crimes witch house bakari experimental
BeatmapID:1709004
BeatmapSetID:814890

[Difficulty]
HPDrainRate:5
CircleSize:3.1
OverallDifficulty:9
ApproachRate:8
SliderMultiplier:3.19999990463257
SliderTickRate:2

[Events]
//Background and Video events
0,0,"u3.jpg",0,0
//Break Periods
//Storyboard Layer 0 (Background)
//Storyboard Layer 1 (Fail)
//Storyboard Layer 2 (Pass)
//Storyboard Layer 3 (Foreground)
//Storyboard Layer 4 (Overlay)
//Storyboard Sound Samples

[TimingPoints]
7300,454.545454545455,4,1,0,63,1,0
9117,-83.3333333333333,4,1,0,63,0,0
10936,-71.4285714285714,4,1,0,63,0,0
12754,-62.5,4,1,0,63,0,0
14572,-100,4,1,0,63,0,0
43663,-45.045045045045,4,1,0,100,0,1
72754,-399.999999999997,4,3,0,63,0,0
87299,-100,4,1,0,63,0,0
116390,-45.045045045045,4,1,0,100,0,1
145481,-45.045045045045,4,2,0,5,0,0

[Colours]
Combo1 : 119,103,79
Combo2 : 255,15,21
Combo3 : 148,156,186
Combo4 : 0,177,244
SliderTrackOverride : 200,45,45
SliderBorder : 17,167,171

[HitObjects]
123,341,7299,6,0,L|99:177,1,159.999995231628
233,341,7754,2,0,L|192:179,1,159.999995231628
339,341,8208,2,0,L|321:178,1,159.999995231628
449,341,8663,2,0,L|395:184,1,159.999995231628
123,341,9117,6,0,P|92:234|75:155,1,191.99998841858
238,353,9572,2,0,P|199:270|159:178,1,191.99998841858
338,329,10027,2,0,P|312:250|307:134,1,191.99998841858
453,361,10481,2,0,P|470:273|532:168,1,191.99998841858
122,329,10936,6,0,P|120:209|113:98,1,223.999986488343
241,367,11390,2,0,B|232:260|232:260|227:259|199:138,1,223.999986488343
339,340,11845,2,0,B|305:266|305:266|307:225|307:225|290:209|290:209|249:121,1,223.999986488343
449,341,12299,2,0,B|403:275|403:275|485:286|323:128,1,223.999986488343
123,341,12754,6,0,B|72:326|174:267|174:267|52:64,1,255.999992370606
240,257,13208,2,0,B|181:213|181:213|246:189|246:189|242:150|242:150|291:248,1,255.999992370606
327,319,13663,2,0,B|263:282|263:282|341:239|341:239|334:128,1,255.999992370606
440,365,14117,2,0,B|436:327|436:327|434:309|434:309|418:284|418:284|424:256|424:256|417:229|417:229|427:199|427:199|414:161|414:161|400:86,1,255.999992370606
60,92,14572,5,4,0:0:0:0:
276,92,14799,1,0,0:0:0:0:
169,75,15027,1,2,0:0:0:0:
384,103,15254,1,0,0:0:0:0:
449,341,15481,5,8,0:0:0:0:
232,347,15708,1,0,0:0:0:0:
350,320,15936,1,2,0:0:0:0:
125,336,16163,1,0,0:0:0:0:
60,92,16390,5,4,0:0:0:0:
276,92,16617,1,0,0:0:0:0:
170,115,16845,1,2,0:0:0:0:
365,128,17072,1,0,0:0:0:0:
449,341,17299,5,8,0:0:0:0:
240,326,17527,1,0,0:0:0:0:
334,357,17754,1,2,0:0:0:0:
116,356,17981,1,0,0:0:0:0:
60,92,18208,5,4,0:0:0:0:
275,146,18436,1,0,0:0:0:0:
179,48,18663,1,2,0:0:0:0:
391,74,18890,1,0,0:0:0:0:
451,300,19117,5,8,0:0:0:0:
233,319,19345,1,0,0:0:0:0:
352,323,19572,1,2,0:0:0:0:
110,354,19799,1,0,0:0:0:0:
300,209,20027,5,4,0:0:0:0:
84,181,20254,1,0,0:0:0:0:
374,165,20481,1,2,0:0:0:0:
192,262,20708,1,0,0:0:0:0:
300,209,20936,5,8,0:0:0:0:
85,232,21163,1,0,0:0:0:0:
355,237,21390,1,2,0:0:0:0:
187,188,21617,1,0,0:0:0:0:
317,42,21845,5,4,0:0:0:0:
438,140,22072,1,0,0:0:0:0:
436,215,22299,1,0,0:0:0:0:
317,42,22527,1,2,0:0:0:0:
317,42,22754,2,0,B|342:95|342:95|344:117|302:146|302:146|422:131|336:181|375:282,1,319.999990463257,8|2,0:0|0:0,0:0:0:0:
485,187,23436,1,0,0:0:0:0:
186,289,23663,5,4,0:0:0:0:
449,165,23890,1,0,0:0:0:0:
436,271,24117,1,0,0:0:0:0:
186,289,24345,1,2,0:0:0:0:
208,21,24572,2,0,B|272:97|272:97|251:152|251:152|285:318,1,319.999990463257,8|2,0:0|0:0,0:0:0:0:
146,214,25254,1,0,0:0:0:0:
427,349,25481,5,4,0:0:0:0:
161,184,25708,1,0,0:0:0:0:
95,204,25936,1,2,0:0:0:0:
398,288,26163,1,0,0:0:0:0:
384,76,26390,2,0,B|326:92|326:92|379:135|348:193|348:193|284:205|284:205|253:217|259:285,1,319.999990463257,8|2,0:0|0:0,0:0:0:0:
427,349,27072,1,0,0:0:0:0:
498,103,27299,5,4,0:0:0:0:
268,302,27527,1,0,0:0:0:0:
268,302,27754,1,2,0:0:0:0:
475,33,27981,1,0,0:0:0:0:
198,108,28208,2,0,B|279:77|279:77|240:153|240:153|347:132|347:132|369:74|364:60,1,319.999990463257,8|2,0:0|0:0,0:0:0:0:
335,218,28890,1,0,0:0:0:0:
498,103,29117,5,4,0:0:0:0:
379,323,29345,1,0,0:0:0:0:
423,335,29572,1,2,0:0:0:0:
498,103,29799,1,0,0:0:0:0:
203,147,30027,2,0,B|267:144|293:171|293:171|384:184|384:184|409:188|448:217|512:232,1,319.999990463257,8|2,0:0|0:0,0:0:0:0:
336,184,30708,1,0,0:0:0:0:
78,101,30936,5,4,0:0:0:0:
129,277,31163,1,0,0:0:0:0:
89,319,31390,1,2,0:0:0:0:
106,117,31617,1,0,0:0:0:0:
319,227,31845,2,0,B|231:212|231:212|204:222|86:279|-13:187,1,319.999990463257,8|2,0:0|0:0,0:0:0:0:
162,92,32527,1,0,0:0:0:0:
220,362,32754,5,4,0:0:0:0:
255,157,32981,1,0,0:0:0:0:
267,159,33208,1,2,0:0:0:0:
209,352,33436,1,0,0:0:0:0:
378,304,33663,2,0,B|294:269|294:269|266:263|228:253|228:253|200:239|200:239|155:241|155:241|70:200,1,319.999990463257,8|2,0:0|0:0,0:0:0:0:
220,362,34345,1,0,0:0:0:0:
424,140,34572,5,4,0:0:0:0:
199,268,34799,1,0,0:0:0:0:
183,257,35027,1,2,0:0:0:0:
424,140,35254,1,0,0:0:0:0:
296,40,35481,2,0,B|248:117|213:236|315:243|344:364,1,319.999990463257,8|2,0:0|0:0,0:0:0:0:
457,325,36163,1,0,0:0:0:0:
220,88,36390,5,4,0:0:0:0:
457,325,36617,1,0,0:0:0:0:
476,290,36845,1,2,0:0:0:0:
220,88,37072,1,0,0:0:0:0:
222,120,37299,1,8,0:0:0:0:
457,325,37527,1,0,0:0:0:0:
432,290,37754,1,2,0:0:0:0:
220,88,37981,1,0,0:0:0:0:
364,139,38208,5,4,0:0:0:0:
150,309,38436,1,0,0:0:0:0:
162,345,38663,1,2,0:0:0:0:
365,168,38890,1,0,0:0:0:0:
364,139,39117,1,8,0:0:0:0:
162,345,39345,1,0,0:0:0:0:
169,363,39572,1,2,0:0:0:0:
364,139,39799,1,0,0:0:0:0:
406,264,40027,5,4,0:0:0:0:
243,37,40254,1,0,0:0:0:0:
279,21,40481,1,2,0:0:0:0:
406,264,40708,1,0,0:0:0:0:
384,280,40936,1,8,0:0:0:0:
243,37,41163,1,0,0:0:0:0:
243,37,41390,1,2,0:0:0:0:
406,264,41617,1,0,0:0:0:0:
263,185,41845,5,4,0:0:0:0:
502,255,42072,1,0,0:0:0:0:
468,211,42299,1,2,0:0:0:0:
263,185,42527,1,0,0:0:0:0:
240,211,42754,1,8,0:0:0:0:
502,255,42981,1,0,0:0:0:0:
494,233,43208,1,2,0:0:0:0:
353,138,43436,1,0,0:0:0:0:
64,332,43663,5,4,0:0:0:0:
195,40,43890,2,2,B|196:102|196:102|199:129|199:129|199:159|199:159|199:187|182:220|182:220|125:244|125:244|113:292|113:292|52:336,1,355.19999808609,0|2,0:0|0:0,0:0:0:0:
195,40,44345,1,0,0:0:0:0:
382,299,44572,1,8,0:0:0:0:
195,40,44799,1,2,0:0:0:0:
233,112,44913,1,2,0:0:0:0:
238,198,45027,1,2,0:0:0:0:
195,40,45254,1,2,0:0:0:0:
169,160,45367,1,2,0:0:0:0:
95,247,45481,6,2,B|59:170|59:170|186:210|150:64|150:64|147:60|291:141|291:141|383:77|456:175|380:313,1,710.39999617218,6|2,0:0|0:0,0:0:0:0:
95,247,46163,1,0,0:0:0:0:
474,53,46390,1,8,0:0:0:0:
474,53,46617,1,2,0:0:0:0:
397,97,46731,1,2,0:0:0:0:
303,70,46845,1,2,0:0:0:0:
474,53,47072,1,2,0:0:0:0:
371,61,47186,1,2,0:0:0:0:
266,3,47299,6,2,P|244:168|316:356,1,355.19999808609,4|0,0:0|0:0,0:0:0:0:
272,0,47754,1,2,0:0:0:0:
266,185,47981,1,0,0:0:0:0:
477,352,48208,1,8,0:0:0:0:
477,352,48436,1,2,0:0:0:0:
402,302,48549,1,2,0:0:0:0:
317,313,48663,1,2,0:0:0:0:
477,352,48890,1,2,0:0:0:0:
376,300,49004,1,2,0:0:0:0:
268,364,49117,6,2,B|19:342|22:150|115:25|322:168|322:168|442:52|442:52|408:119|408:119|414:121,1,710.39999617218,6|2,0:0|0:0,0:0:0:0:
269,372,49799,1,0,0:0:0:0:
279,353,50027,1,8,0:0:0:0:
168,32,50254,1,0,0:0:0:0:
196,56,50481,1,2,0:0:0:0:
269,372,50708,1,2,0:0:0:0:
205,315,50822,1,2,0:0:0:0:
118,295,50936,6,2,B|208:259|208:259|256:200|256:200|348:265|348:265|388:331|452:276,1,355.19999808609,4|0,0:0|0:0,0:0:0:0:
113,281,51390,1,2,0:0:0:0:
440,220,51617,1,0,0:0:0:0:
118,295,51845,1,8,0:0:0:0:
455,188,52072,1,2,0:0:0:0:
500,280,52186,1,2,0:0:0:0:
451,359,52299,1,2,0:0:0:0:
279,156,52527,1,0,0:0:0:0:
23,343,52754,6,2,L|396:296,1,355.19999808609,4|0,0:0|0:0,0:0:0:0:
362,274,53208,1,2,0:0:0:0:
375,298,53436,1,0,0:0:0:0:
23,343,53663,1,8,0:0:0:0:
23,343,53890,1,2,0:0:0:0:
80,271,54004,1,2,0:0:0:0:
95,183,54117,1,2,0:0:0:0:
23,343,54345,1,2,0:0:0:0:
66,239,54458,1,2,0:0:0:0:
16,80,54572,6,2,L|392:36,1,355.19999808609,4|0,0:0|0:0,0:0:0:0:
0,105,55027,1,2,0:0:0:0:
328,252,55254,1,0,0:0:0:0:
16,80,55481,2,2,B|89:42|89:42|-3:136|-3:136|146:104,1,355.19999808609,10|0,0:0|0:0,0:0:0:0:
185,141,55822,1,2,0:0:0:0:
195,259,55936,1,2,0:0:0:0:
331,8,56163,1,2,0:0:0:0:
411,84,56277,1,2,0:0:0:0:
434,190,56390,5,6,0:0:0:0:
227,8,56617,1,0,0:0:0:0:
232,12,56845,1,2,0:0:0:0:
270,348,57072,1,0,0:0:0:0:
242,364,57299,1,8,0:0:0:0:
384,72,57527,1,0,0:0:0:0:
363,93,57754,1,2,0:0:0:0:
242,364,57981,1,2,0:0:0:0:
183,298,58095,1,2,0:0:0:0:
95,273,58208,5,6,0:0:0:0:
144,62,58436,1,2,0:0:0:0:
145,172,58549,1,2,0:0:0:0:
95,273,58663,1,2,0:0:0:0:
374,266,58890,1,0,0:0:0:0:
374,266,59117,1,8,0:0:0:0:
176,154,59345,1,2,0:0:0:0:
253,238,59458,1,2,0:0:0:0:
374,266,59572,1,2,0:0:0:0:
224,194,59799,1,2,0:0:0:0:
288,243,59913,1,2,0:0:0:0:
374,266,60027,5,6,0:0:0:0:
28,240,60254,1,0,0:0:0:0:
28,240,60481,1,2,0:0:0:0:
374,266,60708,1,0,0:0:0:0:
358,245,60936,1,8,0:0:0:0:
61,147,61163,1,2,0:0:0:0:
126,213,61277,1,2,0:0:0:0:
125,303,61390,1,2,0:0:0:0:
61,147,61617,1,2,0:0:0:0:
114,246,61731,1,2,0:0:0:0:
92,370,61845,5,6,0:0:0:0:
488,58,62072,1,0,0:0:0:0:
449,92,62299,1,2,0:0:0:0:
92,370,62527,1,0,0:0:0:0:
82,333,62754,1,8,0:0:0:0:
476,152,62981,1,2,0:0:0:0:
400,112,63095,1,2,0:0:0:0:
373,30,63208,1,2,0:0:0:0:
465,257,63436,1,0,0:0:0:0:
74,159,63663,5,4,0:0:0:0:
465,257,63890,1,0,0:0:0:0:
475,282,64117,1,2,0:0:0:0:
89,134,64345,1,0,0:0:0:0:
74,159,64572,1,8,0:0:0:0:
448,166,64799,1,2,0:0:0:0:
385,221,64913,1,2,0:0:0:0:
374,302,65027,1,2,0:0:0:0:
448,166,65254,1,2,0:0:0:0:
398,252,65367,1,2,0:0:0:0:
439,367,65481,5,6,0:0:0:0:
48,251,65708,1,0,0:0:0:0:
28,222,65936,1,2,0:0:0:0:
464,329,66163,1,0,0:0:0:0:
439,367,66390,1,8,0:0:0:0:
91,92,66617,1,2,0:0:0:0:
102,181,66731,1,2,0:0:0:0:
115,269,66845,1,2,0:0:0:0:
91,92,67072,1,2,0:0:0:0:
106,216,67186,1,2,0:0:0:0:
132,359,67299,5,6,0:0:0:0:
91,92,67527,1,0,0:0:0:0:
58,79,67754,1,2,0:0:0:0:
132,359,67981,1,0,0:0:0:0:
158,348,68208,1,8,0:0:0:0:
330,66,68436,1,2,0:0:0:0:
204,39,68549,1,2,0:0:0:0:
91,92,68663,1,2,0:0:0:0:
259,96,68890,1,2,0:0:0:0:
174,79,69004,1,2,0:0:0:0:
91,92,69117,5,6,0:0:0:0:
294,351,69345,1,0,0:0:0:0:
306,297,69572,1,2,0:0:0:0:
91,92,69799,1,0,0:0:0:0:
91,118,70027,1,8,0:0:0:0:
378,307,70254,1,2,0:0:0:0:
239,262,70367,1,2,0:0:0:0:
125,329,70481,1,2,0:0:0:0:
299,306,70708,1,2,0:0:0:0:
212,299,70822,1,2,0:0:0:0:
125,329,70936,5,6,0:0:0:0:
393,189,71163,1,0,0:0:0:0:
386,146,71390,1,2,0:0:0:0:
125,329,71617,1,0,0:0:0:0:
126,364,71845,1,8,0:0:0:0:
393,189,72072,1,0,0:0:0:0:
393,189,72299,1,2,0:0:0:0:
133,229,72527,1,2,0:0:0:0:
157,311,72640,1,2,0:0:0:0:
228,365,72754,6,0,B|234:351|234:351|238:378,3,39.9999988079071,4|0|2|0,0:0|0:0|0:0|0:0,0:0:0:0:
200,283,73663,1,8,0:0:0:0:
205,262,73890,1,0,0:0:0:0:
133,229,74117,1,2,0:0:0:0:
115,235,74345,1,0,0:0:0:0:
247,361,74572,6,0,B|261:368|261:368|270:358|270:358|286:370,3,39.9999988079071,4|0|2|0,0:0|0:0|0:0|0:0,0:0:0:0:
214,280,75481,1,8,0:0:0:0:
193,306,75708,1,0,0:0:0:0:
147,226,75936,1,2,0:0:0:0:
158,252,76163,1,0,0:0:0:0:
304,363,76390,6,0,B|310:375|310:375|323:355|323:355|330:364,3,39.9999988079071,4|0|2|0,0:0|0:0|0:0|0:0,0:0:0:0:
225,273,77299,1,8,0:0:0:0:
249,287,77527,1,0,0:0:0:0:
154,213,77754,1,2,0:0:0:0:
133,198,77981,1,0,0:0:0:0:
307,353,78208,6,0,B|330:347|330:347|354:357,3,39.9999988079071,4|0|2|0,0:0|0:0|0:0|0:0,0:0:0:0:
235,268,79117,1,8,0:0:0:0:
270,276,79345,1,0,0:0:0:0:
154,213,79572,1,2,0:0:0:0:
143,177,79799,1,0,0:0:0:0:
258,362,80027,6,0,B|267:373|267:373|272:346,1,39.9999988079071,4|0,0:0|0:0,0:0:0:0:
438,325,80481,2,0,L|483:344,1,39.9999988079071,2|0,0:0|0:0,0:0:0:0:
235,268,80936,1,8,0:0:0:0:
307,211,81163,1,0,0:0:0:0:
154,213,81390,1,2,0:0:0:0:
97,133,81617,1,0,0:0:0:0:
177,355,81845,6,0,L|224:359,1,39.9999988079071,4|0,0:0|0:0,0:0:0:0:
379,323,82299,2,0,B|351:331|351:331|354:315,1,39.9999988079071,2|0,0:0|0:0,0:0:0:0:
235,268,82754,1,8,0:0:0:0:
317,207,82981,1,0,0:0:0:0:
154,213,83208,1,2,0:0:0:0:
167,105,83436,1,0,0:0:0:0:
258,362,83663,6,0,B|281:340|281:340|301:357,1,39.9999988079071,4|0,0:0|0:0,0:0:0:0:
461,287,84117,2,0,B|474:308|474:308|501:317,1,39.9999988079071,2|0,0:0|0:0,0:0:0:0:
235,268,84572,1,8,0:0:0:0:
344,183,84799,1,0,0:0:0:0:
154,213,85027,1,2,0:0:0:0:
92,63,85254,1,0,0:0:0:0:
193,357,85481,6,0,L|243:349,1,39.9999988079071,4|0,0:0|0:0,0:0:0:0:
363,275,85936,2,0,L|413:275,1,39.9999988079071,2|0,0:0|0:0,0:0:0:0:
235,268,86390,1,8,0:0:0:0:
372,135,86617,1,0,0:0:0:0:
154,213,86845,1,2,0:0:0:0:
168,23,87072,1,0,0:0:0:0:
195,342,87299,5,4,0:0:0:0:
102,178,87527,1,0,0:0:0:0:
114,292,87754,1,2,0:0:0:0:
333,240,87981,1,0,0:0:0:0:
195,342,88208,2,0,P|204:269|226:14,1,319.999990463257,8|2,0:0|0:0,0:0:0:0:
97,146,88890,1,0,0:0:0:0:
326,95,89117,5,4,0:0:0:0:
102,178,89345,1,0,0:0:0:0:
78,106,89572,1,2,0:0:0:0:
312,170,89799,1,0,0:0:0:0:
195,342,90027,2,0,P|203:184|226:14,1,319.999990463257,8|2,0:0|0:0,0:0:0:0:
318,227,90708,1,0,0:0:0:0:
71,67,90936,5,4,0:0:0:0:
334,250,91163,1,0,0:0:0:0:
315,212,91390,1,2,0:0:0:0:
85,35,91617,1,0,0:0:0:0:
128,308,91845,2,0,B|153:241|198:175|198:175|288:113|288:113|301:108|284:18,1,319.999990463257,8|2,0:0|0:0,0:0:0:0:
85,35,92527,1,0,0:0:0:0:
14,295,92754,5,4,0:0:0:0:
269,123,92981,1,0,0:0:0:0:
244,82,93208,1,2,0:0:0:0:
14,281,93436,1,0,0:0:0:0:
308,236,93663,2,0,B|199:200|162:162|162:162|129:186|129:186|94:147|94:147|70:153|55:200,1,319.999990463257,8|2,0:0|0:0,0:0:0:0:
240,190,94345,1,0,0:0:0:0:
14,281,94572,5,4,0:0:0:0:
89,49,94799,1,0,0:0:0:0:
103,69,95027,1,2,0:0:0:0:
14,281,95254,1,0,0:0:0:0:
308,236,95481,2,0,L|0:152,1,319.999990463257,8|2,0:0|0:0,0:0:0:0:
176,200,96163,1,0,0:0:0:0:
434,283,96390,5,4,0:0:0:0:
394,45,96617,1,0,0:0:0:0:
412,77,96845,1,2,0:0:0:0:
411,322,97072,1,0,0:0:0:0:
188,156,97299,2,0,B|186:171|186:171|218:153|218:153|445:184|445:184|461:207|461:207|483:191|483:191,1,319.999990463257,8|2,0:0|0:0,0:0:0:0:
512,91,97981,1,0,0:0:0:0:
191,38,98208,5,4,0:0:0:0:
236,264,98436,1,0,0:0:0:0:
257,227,98663,1,2,0:0:0:0:
320,25,98890,1,0,0:0:0:0:
129,110,99117,2,0,B|203:146|203:146|255:281|255:281|339:306|363:358,1,319.999990463257,8|2,0:0|0:0,0:0:0:0:
265,38,99799,1,0,0:0:0:0:
100,266,100027,5,4,0:0:0:0:
339,154,100254,1,0,0:0:0:0:
329,127,100481,1,2,0:0:0:0:
150,156,100708,1,0,0:0:0:0:
241,352,100936,2,0,P|215:203|166:255,1,319.999990463257,8|2,0:0|0:0,0:0:0:0:
96,65,101617,5,0,0:0:0:0:
244,278,101845,1,4,0:0:0:0:
34,61,102072,1,0,0:0:0:0:
55,56,102299,1,2,0:0:0:0:
292,293,102527,1,0,0:0:0:0:
302,265,102754,1,8,0:0:0:0:
55,56,102981,1,0,0:0:0:0:
54,84,103208,1,2,0:0:0:0:
292,293,103436,1,0,0:0:0:0:
148,242,103663,5,4,0:0:0:0:
350,36,103890,1,0,0:0:0:0:
325,19,104117,1,2,0:0:0:0:
148,242,104345,1,0,0:0:0:0:
135,194,104572,1,8,0:0:0:0:
350,36,104799,1,0,0:0:0:0:
350,36,105027,1,2,0:0:0:0:
148,242,105254,1,0,0:0:0:0:
106,117,105481,5,4,0:0:0:0:
281,320,105708,1,0,0:0:0:0:
269,344,105936,1,2,0:0:0:0:
106,117,106163,1,0,0:0:0:0:
93,136,106390,1,8,0:0:0:0:
269,344,106617,1,0,0:0:0:0:
269,344,106845,1,2,0:0:0:0:
106,117,107072,1,0,0:0:0:0:
249,196,107299,5,4,0:0:0:0:
35,182,107527,1,0,0:0:0:0:
10,126,107754,1,2,0:0:0:0:
254,159,107981,1,0,0:0:0:0:
249,196,108208,1,8,0:0:0:0:
4,154,108436,1,0,0:0:0:0:
10,126,108663,1,2,0:0:0:0:
159,243,108890,1,0,0:0:0:0:
249,196,109117,5,4,0:0:0:0:
10,126,109345,1,0,0:0:0:0:
16,89,109572,1,2,0:0:0:0:
252,232,109799,1,0,0:0:0:0:
249,196,110027,1,8,0:0:0:0:
39,159,110254,1,0,0:0:0:0:
10,126,110481,1,2,0:0:0:0:
159,243,110708,1,0,0:0:0:0:
256,152,110936,5,4,0:0:0:0:
39,146,111163,1,0,0:0:0:0:
10,126,111390,1,2,0:0:0:0:
280,190,111617,1,0,0:0:0:0:
249,196,111845,1,8,0:0:0:0:
18,98,112072,1,0,0:0:0:0:
10,126,112299,1,2,0:0:0:0:
165,261,112527,1,0,0:0:0:0:
257,215,112754,5,4,0:0:0:0:
64,79,112981,1,0,0:0:0:0:
18,98,113208,1,2,0:0:0:0:
249,196,113436,1,0,0:0:0:0:
249,196,113663,1,8,0:0:0:0:
10,126,113890,1,0,0:0:0:0:
10,126,114117,1,2,0:0:0:0:
167,273,114345,1,0,0:0:0:0:
262,166,114572,5,4,0:0:0:0:
33,68,114799,1,0,0:0:0:0:
40,128,115027,1,2,0:0:0:0:
268,155,115254,1,0,0:0:0:0:
249,196,115481,1,8,0:0:0:0:
30,94,115708,1,0,0:0:0:0:
10,126,115936,1,2,0:0:0:0:
159,243,116163,1,0,0:0:0:0:
448,52,116390,5,4,0:0:0:0:
305,331,116617,2,2,B|220:245|363:153|469:173|454:308|432:358,1,355.19999808609,0|2,0:0|0:0,0:0:0:0:
317,344,117072,1,0,0:0:0:0:
130,85,117299,1,8,0:0:0:0:
317,344,117527,1,2,0:0:0:0:
279,272,117640,1,2,0:0:0:0:
283,175,117754,1,2,0:0:0:0:
317,344,117981,1,2,0:0:0:0:
308,210,118095,1,2,0:0:0:0:
417,137,118208,6,2,B|443:226|443:226|362:320|316:384|215:352|215:352|195:165|65:288|65:288|83:172,1,710.39999617218,6|2,0:0|0:0,0:0:0:0:
417,137,118890,1,0,0:0:0:0:
38,331,119117,1,8,0:0:0:0:
38,331,119345,1,2,0:0:0:0:
115,287,119458,1,2,0:0:0:0:
209,314,119572,1,2,0:0:0:0:
38,331,119799,1,2,0:0:0:0:
141,323,119913,1,2,0:0:0:0:
245,380,120027,6,2,B|210:216|262:203|262:203|195:27,1,355.19999808609,4|0,0:0|0:0,0:0:0:0:
240,384,120481,1,2,0:0:0:0:
246,199,120708,1,0,0:0:0:0:
35,32,120936,1,8,0:0:0:0:
35,32,121163,1,2,0:0:0:0:
110,82,121277,1,2,0:0:0:0:
195,71,121390,1,2,0:0:0:0:
35,32,121617,1,2,0:0:0:0:
136,84,121731,1,2,0:0:0:0:
244,20,121845,6,2,P|424:160|98:263,1,710.39999617218,6|2,0:0|0:0,0:0:0:0:
243,12,122527,1,0,0:0:0:0:
222,32,122754,1,8,0:0:0:0:
369,326,122981,1,0,0:0:0:0:
344,352,123208,1,2,0:0:0:0:
243,12,123436,1,2,0:0:0:0:
309,78,123549,1,2,0:0:0:0:
394,89,123663,6,2,B|334:80|334:80|256:184|56:160,1,355.19999808609,4|0,0:0|0:0,0:0:0:0:
396,142,124117,1,2,0:0:0:0:
72,164,124345,1,0,0:0:0:0:
433,99,124572,1,8,0:0:0:0:
72,176,124799,1,2,0:0:0:0:
12,104,124913,1,2,0:0:0:0:
61,25,125027,1,2,0:0:0:0:
250,225,125254,1,0,0:0:0:0:
459,38,125481,6,2,B|258:72|258:72|305:112|305:112|204:106,1,355.19999808609,4|0,0:0|0:0,0:0:0:0:
203,113,125936,1,2,0:0:0:0:
201,94,126163,1,0,0:0:0:0:
489,41,126390,1,8,0:0:0:0:
489,41,126617,1,2,0:0:0:0:
432,113,126731,1,2,0:0:0:0:
417,201,126845,1,2,0:0:0:0:
489,41,127072,1,2,0:0:0:0:
448,162,127186,1,2,0:0:0:0:
493,320,127299,6,2,B|429:341|355:314|355:314|307:342|307:342|242:362|247:390|117:364,1,355.19999808609,4|0,0:0|0:0,0:0:0:0:
504,316,127754,1,2,0:0:0:0:
184,132,127981,1,0,0:0:0:0:
496,299,128208,2,2,B|431:331|431:331|345:304|345:304|297:344|297:344|232:320|215:346|190:327|290:279,1,355.19999808609,10|0,0:0|0:0,0:0:0:0:
298,206,128549,1,2,0:0:0:0:
405,176,128663,1,2,0:0:0:0:
131,362,128890,1,2,0:0:0:0:
40,240,129004,1,2,0:0:0:0:
72,96,129117,5,6,0:0:0:0:
280,372,129345,1,0,0:0:0:0:
280,372,129572,1,2,0:0:0:0:
270,20,129799,1,0,0:0:0:0:
283,43,130027,1,8,0:0:0:0:
128,312,130254,1,0,0:0:0:0:
121,292,130481,1,2,0:0:0:0:
270,20,130708,1,2,0:0:0:0:
329,86,130822,1,2,0:0:0:0:
417,111,130936,5,6,0:0:0:0:
356,295,131163,1,2,0:0:0:0:
414,202,131277,1,2,0:0:0:0:
435,92,131390,1,2,0:0:0:0:
138,118,131617,1,0,0:0:0:0:
130,137,131845,1,8,0:0:0:0:
336,230,132072,1,2,0:0:0:0:
243,177,132186,1,2,0:0:0:0:
138,118,132299,1,2,0:0:0:0:
316,211,132527,1,2,0:0:0:0:
252,132,132640,1,2,0:0:0:0:
139,148,132754,5,6,0:0:0:0:
482,127,132981,1,0,0:0:0:0:
484,144,133208,1,2,0:0:0:0:
128,102,133436,1,0,0:0:0:0:
138,118,133663,1,8,0:0:0:0:
451,237,133890,1,2,0:0:0:0:
386,171,134004,1,2,0:0:0:0:
387,81,134117,1,2,0:0:0:0:
451,237,134345,1,2,0:0:0:0:
415,150,134458,1,2,0:0:0:0:
420,14,134572,5,6,0:0:0:0:
24,326,134799,1,0,0:0:0:0:
0,297,135027,1,2,0:0:0:0:
413,41,135254,1,0,0:0:0:0:
420,14,135481,1,8,0:0:0:0:
36,232,135708,1,2,0:0:0:0:
106,291,135822,1,2,0:0:0:0:
143,372,135936,1,2,0:0:0:0:
44,96,136163,1,0,0:0:0:0:
438,225,136390,5,4,0:0:0:0:
102,81,136617,1,0,0:0:0:0:
52,129,136845,1,2,0:0:0:0:
459,167,137072,1,0,0:0:0:0:
438,225,137299,1,8,0:0:0:0:
64,218,137527,1,2,0:0:0:0:
93,144,137640,1,2,0:0:0:0:
138,82,137754,1,2,0:0:0:0:
64,218,137981,1,2,0:0:0:0:
104,122,138095,1,2,0:0:0:0:
73,17,138208,5,6,0:0:0:0:
458,151,138436,1,0,0:0:0:0:
464,133,138663,1,2,0:0:0:0:
73,17,138890,1,0,0:0:0:0:
77,28,139117,1,8,0:0:0:0:
421,292,139345,1,2,0:0:0:0:
440,212,139458,1,2,0:0:0:0:
429,133,139572,1,2,0:0:0:0:
421,292,139799,1,2,0:0:0:0:
406,168,139913,1,2,0:0:0:0:
362,72,140027,5,6,0:0:0:0:
428,304,140254,1,0,0:0:0:0:
421,292,140481,1,2,0:0:0:0:
349,29,140708,1,0,0:0:0:0:
380,25,140936,1,8,0:0:0:0:
182,318,141163,1,2,0:0:0:0:
300,338,141277,1,2,0:0:0:0:
395,280,141390,1,2,0:0:0:0:
271,288,141617,1,2,0:0:0:0:
357,308,141731,1,2,0:0:0:0:
443,271,141845,5,6,0:0:0:0:
218,33,142072,1,0,0:0:0:0:
213,46,142299,1,2,0:0:0:0:
416,274,142527,1,0,0:0:0:0:
421,292,142754,1,8,0:0:0:0:
134,77,142981,1,2,0:0:0:0:
273,122,143095,1,2,0:0:0:0:
387,55,143208,1,2,0:0:0:0:
213,78,143436,1,2,0:0:0:0:
300,85,143549,1,2,0:0:0:0:
387,55,143663,5,6,0:0:0:0:
116,215,143890,1,0,0:0:0:0:
119,195,144117,1,2,0:0:0:0:
387,55,144345,1,0,0:0:0:0:
392,31,144572,1,8,0:0:0:0:
119,195,144799,1,0,0:0:0:0:
119,195,145027,5,2,0:0:0:0:
379,155,145254,1,2,0:0:0:0:
317,120,145367,1,2,0:0:0:0:
256,192,145481,12,0,147299,0:0:0:0:
