osu file format v14

[General]
AudioFilename: audio.mp3
AudioLeadIn: 0
PreviewTime: 61511
Countdown: 0
SampleSet: Normal
StackLeniency: 0.4
Mode: 0
LetterboxInBreaks: 0
WidescreenStoryboard: 1

[Editor]
Bookmarks: 43670,87306
DistanceSpacing: 1.1
BeatDivisor: 4
GridSize: 4
TimelineZoom: 1.7

[Metadata]
Title:Stay Ugly
TitleUnicode:Stay Ugly
Artist:CRIM3S
ArtistUnicode:CRIM3S
Creator:riffy
Version:disgusting hyper
Source:
Tags:english electronic crimes witch house bakari experimental
BeatmapID:1917908
BeatmapSetID:814890

[Difficulty]
HPDrainRate:5
CircleSize:3
OverallDifficulty:7
ApproachRate:8
SliderMultiplier:2.29999990463257
SliderTickRate:2

[Events]
//Background and Video events
0,0,"u4.jpg",0,0
//Break Periods
//Storyboard Layer 0 (Background)
//Storyboard Layer 1 (Fail)
//Storyboard Layer 2 (Pass)
//Storyboard Layer 3 (Foreground)
//Storyboard Layer 4 (Overlay)
//Storyboard Sound Samples

[TimingPoints]
7300,454.545454545455,4,1,0,63,1,0
9117,-83.3333333333333,4,1,0,63,0,0
10936,-71.4285714285714,4,1,0,63,0,0
12754,-62.5,4,1,0,63,0,0
14572,-100,4,1,0,63,0,0
43663,-71.4285714285714,4,1,0,100,0,1
44231,-71.4285714285714,4,2,0,5,0,1
44345,-71.4285714285714,4,1,0,100,0,1
45822,-71.4285714285714,4,2,0,5,0,1
45936,-71.4285714285714,4,1,0,100,0,1
47868,-71.4285714285714,4,2,0,5,0,1
47982,-71.4285714285714,4,1,0,100,0,1
51504,-71.4285714285714,4,2,0,5,0,1
51618,-71.4285714285714,4,1,0,100,0,1
55140,-71.4285714285714,4,2,0,5,0,1
55254,-71.4285714285714,4,1,0,100,0,1
61504,-71.4285714285714,4,2,0,5,0,1
61618,-71.4285714285714,4,1,0,100,0,1
66050,-71.4285714285714,4,2,0,5,0,1
66164,-71.4285714285714,4,1,0,100,0,1
72754,-153.846153846153,4,3,0,63,0,0
87299,-100,4,1,0,63,0,0
116390,-71.4285714285714,4,1,0,100,0,1
116959,-71.4285714285714,4,2,0,5,0,1
117073,-71.4285714285714,4,1,0,100,0,1
118550,-71.4285714285714,4,2,0,5,0,1
118664,-71.4285714285714,4,1,0,100,0,1
120595,-71.4285714285714,4,2,0,5,0,1
120709,-71.4285714285714,4,1,0,100,0,1
124231,-71.4285714285714,4,2,0,5,0,1
124345,-71.4285714285714,4,1,0,100,0,1
127868,-71.4285714285714,4,2,0,5,0,1
127982,-71.4285714285714,4,1,0,100,0,1
132640,-71.4285714285714,4,2,0,5,0,1
132754,-71.4285714285714,4,1,0,100,0,1
138777,-71.4285714285714,4,2,0,5,0,1
138891,-71.4285714285714,4,1,0,100,0,1
145481,-45.045045045045,4,2,0,5,0,0

[Colours]
Combo1 : 244,240,55
Combo2 : 255,15,21
Combo3 : 64,170,83
Combo4 : 0,177,244
SliderTrackOverride : 69,69,69 Slider Border :
17,190,200

[HitObjects]
96,32,7300,5,0,0:0:0:0:
96,32,7754,1,0,0:0:0:0:
96,32,8209,1,0,0:0:0:0:
96,32,8663,1,0,0:0:0:0:
128,128,9118,5,0,0:0:0:0:
119,152,9572,1,0,0:0:0:0:
128,140,10027,1,0,0:0:0:0:
118,130,10481,1,0,0:0:0:0:
160,224,10936,5,0,0:0:0:0:
166,213,11390,1,0,0:0:0:0:
160,224,11845,1,0,0:0:0:0:
151,209,12300,1,0,0:0:0:0:
239,327,12754,5,0,0:0:0:0:
224,320,13209,1,0,0:0:0:0:
234,310,13663,1,0,0:0:0:0:
224,320,14118,1,0,0:0:0:0:
320,256,14572,5,4,0:0:0:0:
416,352,14800,1,0,0:0:0:0:
320,245,15027,5,2,0:0:0:0:
416,341,15254,1,0,0:0:0:0:
320,256,15481,5,8,0:0:0:0:
408,365,15709,1,0,0:0:0:0:
304,272,15936,5,2,0:0:0:0:
416,352,16163,1,0,0:0:0:0:
512,256,16390,5,4,0:0:0:0:
420,147,16618,1,0,0:0:0:0:
510,271,16845,5,2,0:0:0:0:
396,179,17072,1,0,0:0:0:0:
512,256,17300,5,8,0:0:0:0:
416,160,17527,1,0,0:0:0:0:
512,256,17754,5,2,0:0:0:0:
416,160,17981,1,0,0:0:0:0:
324,268,18209,5,4,0:0:0:0:
431,343,18436,1,0,0:0:0:0:
300,257,18663,5,2,0:0:0:0:
416,352,18890,1,0,0:0:0:0:
316,237,19118,5,8,0:0:0:0:
436,352,19345,1,0,0:0:0:0:
313,262,19572,5,2,0:0:0:0:
407,340,19800,1,0,0:0:0:0:
512,245,20027,5,4,0:0:0:0:
415,150,20254,1,0,0:0:0:0:
490,250,20481,5,2,0:0:0:0:
416,160,20709,1,0,0:0:0:0:
509,270,20936,5,8,0:0:0:0:
415,178,21163,1,0,0:0:0:0:
512,256,21390,5,2,0:0:0:0:
433,173,21618,1,0,0:0:0:0:
344,84,21845,5,4,0:0:0:0:
414,159,22072,1,0,0:0:0:0:
320,254,22300,1,0,0:0:0:0:
232,145,22527,1,2,0:0:0:0:
236,159,22754,1,8,0:0:0:0:
326,264,22981,1,0,0:0:0:0:
418,173,23209,1,2,0:0:0:0:
325,69,23436,1,0,0:0:0:0:
236,170,23663,5,4,0:0:0:0:
139,241,23890,1,0,0:0:0:0:
55,148,24118,1,0,0:0:0:0:
147,81,24345,1,2,0:0:0:0:
145,68,24572,1,8,0:0:0:0:
56,158,24800,1,0,0:0:0:0:
145,247,25027,1,2,0:0:0:0:
225,141,25254,1,0,0:0:0:0:
323,67,25481,5,4,0:0:0:0:
234,157,25709,1,0,0:0:0:0:
324,233,25936,1,2,0:0:0:0:
383,157,26163,1,0,0:0:0:0:
393,165,26390,1,8,0:0:0:0:
322,245,26618,1,0,0:0:0:0:
239,163,26845,1,2,0:0:0:0:
316,68,27072,1,0,0:0:0:0:
407,146,27300,5,4,0:0:0:0:
328,239,27527,1,0,0:0:0:0:
232,155,27754,1,2,0:0:0:0:
321,78,27981,1,0,0:0:0:0:
321,65,28209,1,8,0:0:0:0:
232,155,28436,1,0,0:0:0:0:
322,233,28663,1,2,0:0:0:0:
409,155,28890,1,0,0:0:0:0:
321,65,29118,5,4,0:0:0:0:
232,155,29345,1,0,0:0:0:0:
142,244,29572,1,2,0:0:0:0:
52,333,29800,1,0,0:0:0:0:
52,333,30027,1,8,0:0:0:0:
125,246,30254,1,0,0:0:0:0:
233,167,30481,1,2,0:0:0:0:
307,73,30709,1,0,0:0:0:0:
319,67,30936,5,4,0:0:0:0:
227,157,31163,1,0,0:0:0:0:
142,257,31390,1,2,0:0:0:0:
52,333,31618,1,0,0:0:0:0:
52,333,31845,1,8,0:0:0:0:
142,257,32072,1,0,0:0:0:0:
223,145,32300,1,2,0:0:0:0:
321,65,32527,1,0,0:0:0:0:
321,65,32754,5,4,0:0:0:0:
230,150,32981,1,0,0:0:0:0:
142,244,33209,1,2,0:0:0:0:
48,324,33436,1,0,0:0:0:0:
52,333,33663,1,8,0:0:0:0:
143,233,33890,1,0,0:0:0:0:
232,155,34118,1,2,0:0:0:0:
321,65,34345,1,0,0:0:0:0:
321,65,34572,5,4,0:0:0:0:
216,131,34800,1,0,0:0:0:0:
153,274,35027,1,2,0:0:0:0:
45,320,35254,1,0,0:0:0:0:
52,333,35481,1,8,0:0:0:0:
147,253,35709,1,0,0:0:0:0:
232,145,35936,1,2,0:0:0:0:
323,78,36163,5,0,0:0:0:0:
256,320,36390,2,0,B|296:309|296:309|330:319|384:320,1,114.999995231628,4|0,0:0|0:0,0:0:0:0:
321,65,37072,5,0,0:0:0:0:
256,320,37300,2,0,B|239:245|347:362|330:324|330:324|364:316,1,114.999995231628,8|0,0:0|0:0,0:0:0:0:
321,65,37981,5,0,0:0:0:0:
256,320,38209,2,0,B|261:369|347:362|330:324|330:324|364:316,1,114.999995231628,4|0,0:0|0:0,0:0:0:0:
436,253,38663,1,2,0:0:0:0:
370,156,38890,2,0,P|363:129|418:146,1,114.999995231628,0|8,0:0|0:0,0:0:0:0:
192,128,39800,5,0,0:0:0:0:
256,320,40027,2,0,B|301:324|335:260|384:320,1,114.999995231628,4|0,0:0|0:0,0:0:0:0:
192,128,40709,5,0,0:0:0:0:
256,320,40936,2,0,B|295:360|308:329|384:320,1,114.999995231628,8|0,0:0|0:0,0:0:0:0:
192,128,41618,5,0,0:0:0:0:
256,320,41845,2,0,B|306:338|309:334|309:334|384:320,1,114.999995231628,4|0,0:0|0:0,0:0:0:0:
452,238,42300,1,2,0:0:0:0:
370,156,42527,2,0,B|372:87|372:87|430:94,1,114.999995231628,0|8,0:0|0:0,0:0:0:0:
254,173,42981,1,0,0:0:0:0:
256,160,43209,1,2,0:0:0:0:
263,178,43436,1,0,0:0:0:0:
96,96,43663,5,4,0:0:0:0:
96,96,43890,2,2,L|86:353,1,241.499982616425,0|0,0:0|0:0,0:0:0:0:
96,256,44345,2,2,L|256:256,1,160.99998841095,0|8,0:0|0:0,0:0:0:0:
416,256,44800,2,0,L|416:352,2,80.4999942054751,2|2|2,0:0|0:0|0:0,0:0:0:0:
416,64,45254,2,0,L|421:157,1,80.4999942054751,2|2,0:0|0:0,0:0:0:0:
320,64,45481,6,2,L|325:326,1,241.499982616425,6|0,0:0|0:0,0:0:0:0:
224,304,45936,2,0,L|234:224,1,80.4999942054751,2|0,0:0|0:0,0:0:0:0:
224,128,46163,1,0,0:0:0:0:
64,128,46390,1,8,0:0:0:0:
64,304,46618,2,0,L|57:210,2,80.4999942054751,2|2|2,0:0|0:0|0:0,0:0:0:0:
224,304,47072,2,0,L|224:224,1,80.4999942054751,2|2,0:0|0:0,0:0:0:0:
234,128,47300,5,4,0:0:0:0:
384,128,47527,2,2,L|373:384,1,241.499982616425,0|0,0:0|0:0,0:0:0:0:
319,287,47981,2,2,L|479:287,2,160.99998841095,0|8|2,0:0|0:0|0:0,0:0:0:0:
224,288,48663,1,2,0:0:0:0:
224,128,48890,2,0,L|319:133,1,80.4999942054751,2|2,0:0|0:0,0:0:0:0:
320,32,49118,6,2,L|128:28,1,160.99998841095,6|0,0:0|0:0,0:0:0:0:
0,32,49572,1,2,0:0:0:0:
6,192,49800,1,0,0:0:0:0:
160,192,50027,1,8,0:0:0:0:
165,353,50254,1,0,0:0:0:0:
4,342,50481,1,2,0:0:0:0:
12,197,50709,1,2,0:0:0:0:
166,185,50936,5,4,0:0:0:0:
160,192,51163,2,2,P|261:185|415:183,1,241.499982616425,0|0,0:0|0:0,0:0:0:0:
320,192,51618,2,2,P|323:282|320:352,1,160.99998841095,0|8,0:0|0:0,0:0:0:0:
160,352,52072,2,0,L|172:255,2,80.4999942054751,2|2|2,0:0|0:0|0:0,0:0:0:0:
0,352,52527,2,0,L|45:273,1,80.4999942054751
17,187,52754,5,4,0:0:0:0:
161,172,52981,1,0,0:0:0:0:
322,186,53209,1,2,0:0:0:0:
480,160,53436,1,0,0:0:0:0:
320,160,53663,1,8,0:0:0:0:
159,165,53890,2,0,L|154:67,2,80.4999942054751,2|2|2,0:0|0:0|0:0,0:0:0:0:
0,160,54345,2,0,L|0:64,1,80.4999942054751,2|2,0:0|0:0,0:0:0:0:
0,256,54572,5,4,0:0:0:0:
0,256,54800,2,2,L|257:266,1,241.499982616425,0|0,0:0|0:0,0:0:0:0:
160,256,55254,2,0,L|165:159,1,80.4999942054751
160,64,55481,2,2,L|352:62,1,160.99998841095,10|0,0:0|0:0,0:0:0:0:
480,64,55936,1,2,0:0:0:0:
464,224,56163,1,2,0:0:0:0:
326,194,56390,5,6,0:0:0:0:
318,211,56618,1,0,0:0:0:0:
318,211,56845,1,2,0:0:0:0:
320,32,57072,1,0,0:0:0:0:
320,32,57300,1,8,0:0:0:0:
319,53,57527,2,0,L|223:53,2,80.4999942054751,0|0|2,0:0|0:0|0:0,0:0:0:0:
318,211,57981,2,0,L|197:185,1,80.4999942054751,2|2,0:0|0:0,0:0:0:0:
124,208,58209,5,6,0:0:0:0:
124,208,58436,2,0,L|142:84,2,80.4999942054751,2|2|2,0:0|0:0|0:0,0:0:0:0:
321,203,58890,1,0,0:0:0:0:
124,208,59118,1,8,0:0:0:0:
318,211,59345,1,2,0:0:0:0:
124,208,59572,1,2,0:0:0:0:
300,208,59800,2,0,L|286:113,1,80.4999942054751,2|2,0:0|0:0,0:0:0:0:
416,128,60027,6,2,L|406:320,1,160.99998841095,6|0,0:0|0:0,0:0:0:0:
416,289,60481,1,2,0:0:0:0:
224,128,60709,5,0,0:0:0:0:
235,128,60936,2,2,L|241:290,1,160.99998841095,8|2,0:0|0:0,0:0:0:0:
128,288,61277,1,2,0:0:0:0:
128,288,61390,2,0,L|128:189,1,80.4999942054751,2|0,0:0|0:0,0:0:0:0:
32,288,61618,5,2,0:0:0:0:
224,288,61845,1,6,0:0:0:0:
416,288,62072,1,0,0:0:0:0:
235,257,62300,1,2,0:0:0:0:
32,288,62527,1,0,0:0:0:0:
128,178,62754,1,8,0:0:0:0:
221,305,62981,1,2,0:0:0:0:
326,184,63209,1,2,0:0:0:0:
416,288,63436,5,0,0:0:0:0:
222,272,63663,1,4,0:0:0:0:
49,293,63890,1,0,0:0:0:0:
165,159,64118,2,0,L|154:63,2,80.4999942054751,2|0|0,0:0|0:0|0:0,0:0:0:0:
224,288,64572,1,8,0:0:0:0:
320,160,64800,1,2,0:0:0:0:
226,52,65027,1,2,0:0:0:0:
135,175,65254,1,2,0:0:0:0:
410,306,65481,5,6,0:0:0:0:
416,288,65709,2,2,L|160:288,1,241.499982616425,0|0,0:0|0:0,0:0:0:0:
256,288,66163,2,0,L|265:193,2,80.4999942054751,0|0|8,0:0|0:0|0:0,0:0:0:0:
253,101,66618,1,2,0:0:0:0:
413,109,66845,1,2,0:0:0:0:
416,288,67072,2,0,L|406:193,1,80.4999942054751,2|2,0:0|0:0,0:0:0:0:
416,96,67300,5,6,0:0:0:0:
229,107,67527,1,0,0:0:0:0:
43,82,67754,1,2,0:0:0:0:
224,96,67981,1,0,0:0:0:0:
415,87,68209,1,8,0:0:0:0:
314,222,68436,2,0,L|314:318,2,80.4999942054751,2|2|2,0:0|0:0|0:0,0:0:0:0:
231,107,68890,1,2,0:0:0:0:
142,229,69118,5,6,0:0:0:0:
412,101,69345,1,0,0:0:0:0:
416,96,69800,5,0,0:0:0:0:
127,223,70027,1,8,0:0:0:0:
281,153,70709,5,2,0:0:0:0:
289,162,70936,2,2,B|254:99|168:83|151:89|151:89|134:91|118:128|77:149|40:233,1,321.9999768219,6|2,0:0|0:0,0:0:0:0:
297,170,71618,1,0,0:0:0:0:
304,183,71845,2,2,B|245:140|245:140|215:126|195:144|195:144|145:155|145:155|130:182|130:182|61:196|61:196|55:254,1,321.9999768219,8|2,0:0|0:0,0:0:0:0:
256,320,72754,5,4,0:0:0:0:
256,320,73209,1,2,0:0:0:0:
256,320,73663,1,8,0:0:0:0:
256,320,74118,1,2,0:0:0:0:
256,256,74572,5,4,0:0:0:0:
255,240,75027,1,2,0:0:0:0:
256,256,75481,1,8,0:0:0:0:
241,272,75936,1,2,0:0:0:0:
266,174,76390,5,4,0:0:0:0:
256,160,76845,1,2,0:0:0:0:
256,160,77300,1,8,0:0:0:0:
256,160,77754,1,2,0:0:0:0:
246,43,78209,5,4,0:0:0:0:
272,14,78663,1,2,0:0:0:0:
256,0,79118,1,8,0:0:0:0:
268,30,79572,1,2,0:0:0:0:
268,236,80027,5,4,0:0:0:0:
233,209,80481,1,2,0:0:0:0:
256,224,80936,1,8,0:0:0:0:
256,224,81390,1,2,0:0:0:0:
32,96,81845,5,4,0:0:0:0:
127,103,82300,1,2,0:0:0:0:
124,202,82754,1,8,0:0:0:0:
33,210,83209,1,2,0:0:0:0:
128,192,83663,5,4,0:0:0:0:
258,201,84118,1,2,0:0:0:0:
262,326,84572,1,8,0:0:0:0:
127,326,85027,1,2,0:0:0:0:
252,109,85481,5,4,0:0:0:0:
420,126,85936,1,2,0:0:0:0:
418,290,86390,1,8,0:0:0:0:
249,282,86845,1,2,0:0:0:0:
192,128,87300,5,4,0:0:0:0:
118,28,87527,1,0,0:0:0:0:
203,128,87754,5,2,0:0:0:0:
92,39,87981,1,0,0:0:0:0:
192,128,88209,5,8,0:0:0:0:
89,23,88436,1,0,0:0:0:0:
192,128,88663,5,2,0:0:0:0:
96,32,88890,1,0,0:0:0:0:
9,138,89118,5,4,0:0:0:0:
124,200,89345,1,0,0:0:0:0:
19,121,89572,5,2,0:0:0:0:
104,241,89800,1,0,0:0:0:0:
9,138,90027,5,8,0:0:0:0:
108,206,90254,1,0,0:0:0:0:
0,128,90481,5,2,0:0:0:0:
96,224,90709,1,0,0:0:0:0:
217,150,90936,5,4,0:0:0:0:
96,32,91163,1,0,0:0:0:0:
212,181,91390,5,2,0:0:0:0:
102,28,91618,1,0,0:0:0:0:
211,163,91845,5,8,0:0:0:0:
133,12,92072,1,0,0:0:0:0:
211,163,92300,5,2,0:0:0:0:
96,32,92527,1,0,0:0:0:0:
0,128,92754,5,4,0:0:0:0:
122,204,92981,1,0,0:0:0:0:
0,128,93209,5,2,0:0:0:0:
111,213,93436,1,0,0:0:0:0:
0,128,93663,5,8,0:0:0:0:
96,224,93890,1,0,0:0:0:0:
12,117,94118,5,2,0:0:0:0:
77,224,94345,1,0,0:0:0:0:
193,311,94572,5,4,0:0:0:0:
87,232,94800,1,0,0:0:0:0:
171,149,95027,1,2,0:0:0:0:
273,218,95254,1,0,0:0:0:0:
276,225,95481,1,8,0:0:0:0:
185,152,95709,1,0,0:0:0:0:
115,233,95936,1,2,0:0:0:0:
187,315,96163,1,0,0:0:0:0:
268,236,96390,5,4,0:0:0:0:
363,162,96618,1,0,0:0:0:0:
455,233,96845,1,2,0:0:0:0:
360,295,97072,1,0,0:0:0:0:
367,316,97300,1,8,0:0:0:0:
453,246,97527,1,0,0:0:0:0:
367,137,97754,1,2,0:0:0:0:
277,215,97981,1,0,0:0:0:0:
206,320,98209,5,4,0:0:0:0:
278,227,98436,1,0,0:0:0:0:
187,153,98663,1,2,0:0:0:0:
113,245,98890,1,0,0:0:0:0:
102,232,99118,1,8,0:0:0:0:
193,146,99345,1,0,0:0:0:0:
277,235,99572,1,2,0:0:0:0:
197,296,99800,1,0,0:0:0:0:
100,228,100027,5,4,0:0:0:0:
191,154,100254,1,0,0:0:0:0:
273,242,100481,1,2,0:0:0:0:
190,308,100709,1,0,0:0:0:0:
191,319,100936,1,8,0:0:0:0:
280,229,101163,1,0,0:0:0:0:
191,140,101390,1,2,0:0:0:0:
102,230,101618,1,0,0:0:0:0:
195,304,101845,5,4,0:0:0:0:
280,229,102072,1,0,0:0:0:0:
372,159,102300,1,2,0:0:0:0:
460,51,102527,1,0,0:0:0:0:
460,51,102754,1,8,0:0:0:0:
370,140,102981,1,0,0:0:0:0:
301,227,103209,1,2,0:0:0:0:
191,319,103436,1,0,0:0:0:0:
191,319,103663,5,4,0:0:0:0:
270,241,103890,1,0,0:0:0:0:
371,151,104118,1,2,0:0:0:0:
447,52,104345,1,0,0:0:0:0:
460,51,104572,1,8,0:0:0:0:
370,140,104800,1,0,0:0:0:0:
290,235,105027,1,2,0:0:0:0:
187,302,105254,1,0,0:0:0:0:
191,319,105481,5,4,0:0:0:0:
280,229,105709,1,0,0:0:0:0:
371,155,105936,1,2,0:0:0:0:
446,60,106163,1,0,0:0:0:0:
460,51,106390,1,8,0:0:0:0:
367,135,106618,1,0,0:0:0:0:
283,245,106845,1,2,0:0:0:0:
200,294,107072,1,0,0:0:0:0:
191,319,107300,5,4,0:0:0:0:
283,245,107527,1,0,0:0:0:0:
367,135,107754,1,2,0:0:0:0:
470,70,107981,1,0,0:0:0:0:
460,51,108209,1,8,0:0:0:0:
376,158,108436,1,0,0:0:0:0:
268,209,108663,1,2,0:0:0:0:
191,319,108890,1,0,0:0:0:0:
256,64,109118,6,0,L|127:59,2,114.999995231628,4|0|2,0:0|0:0|0:0,0:0:0:0:
320,160,109800,5,0,0:0:0:0:
192,192,110027,2,0,L|64:192,2,114.999995231628,8|0|2,0:0|0:0|0:0,0:0:0:0:
315,166,110709,5,0,0:0:0:0:
250,57,110936,2,0,B|141:69|141:69|124:66,1,114.999995231628,4|0,0:0|0:0,0:0:0:0:
43,154,111390,1,2,0:0:0:0:
143,230,111618,2,0,B|135:333|135:333|139:362,2,114.999995231628,0|8|0,0:0|0:0|0:0,0:0:0:0:
244,177,112300,1,2,0:0:0:0:
332,270,112527,5,0,0:0:0:0:
390,168,112754,2,0,B|415:164|415:164|518:168,2,114.999995231628,4|0|2,0:0|0:0|0:0,0:0:0:0:
332,268,113436,5,0,0:0:0:0:
249,158,113663,2,0,L|377:158,2,114.999995231628,8|0|2,0:0|0:0|0:0,0:0:0:0:
332,268,114345,5,0,0:0:0:0:
153,165,114572,2,0,L|268:165,1,114.999995231628,4|0,0:0|0:0,0:0:0:0:
328,262,115027,1,2,0:0:0:0:
179,258,115254,2,0,L|185:386,1,114.999995231628,0|8,0:0|0:0,0:0:0:0:
264,208,115709,5,0,0:0:0:0:
264,208,115936,1,2,0:0:0:0:
264,208,116163,1,0,0:0:0:0:
416,288,116390,5,4,0:0:0:0:
401,289,116618,2,2,B|379:208|379:208|425:168|415:120|415:120|412:32,1,241.499982616425,0|0,0:0|0:0,0:0:0:0:
416,128,117072,2,2,B|383:128|354:104|354:104|337:117|294:130|294:130|252:119,1,160.99998841095,0|8,0:0|0:0,0:0:0:0:
96,128,117527,2,0,B|94:95|94:95|96:32,2,80.4999942054751,2|2|2,0:0|0:0|0:0,0:0:0:0:
96,320,117981,2,0,B|103:278|103:278|96:224,1,80.4999942054751,2|2,0:0|0:0,0:0:0:0:
192,320,118209,6,2,B|201:285|186:252|200:191|200:191|188:138|192:64,1,241.499982616425,6|0,0:0|0:0,0:0:0:0:
288,80,118663,2,0,B|288:122|288:122|283:160,1,80.4999942054751,2|0,0:0|0:0,0:0:0:0:
282,255,118890,1,0,0:0:0:0:
444,253,119118,1,8,0:0:0:0:
448,81,119345,2,0,L|455:181,2,80.4999942054751,2|2|2,0:0|0:0|0:0,0:0:0:0:
270,82,119800,2,0,L|274:169,1,80.4999942054751,2|2,0:0|0:0,0:0:0:0:
282,255,120027,5,4,0:0:0:0:
128,256,120254,2,2,L|128:0,1,241.499982616425,0|0,0:0|0:0,0:0:0:0:
128,96,120709,2,2,B|144:79|144:79|26:104|26:104|-32:96,2,160.99998841095,0|8|2,0:0|0:0|0:0,0:0:0:0:
288,96,121390,1,2,0:0:0:0:
277,250,121618,2,0,B|247:249|247:249|292:297,1,80.4999942054751,2|2,0:0|0:0,0:0:0:0:
209,337,121845,6,2,B|264:282|264:282|300:311|300:311|265:341|265:341|312:370,1,160.99998841095,6|0,0:0|0:0,0:0:0:0:
470,356,122300,1,2,0:0:0:0:
491,239,122527,1,0,0:0:0:0:
348,233,122754,1,8,0:0:0:0:
390,86,122981,1,0,0:0:0:0:
510,57,123209,1,2,0:0:0:0:
444,205,123436,1,2,0:0:0:0:
306,118,123663,5,4,0:0:0:0:
320,129,123890,2,2,B|276:76|276:76|283:141|283:141|204:109|204:109|162:105|150:129,1,241.499982616425,0|0,0:0|0:0,0:0:0:0:
193,165,124345,2,2,L|173:5,1,160.99998841095,0|8,0:0|0:0,0:0:0:0:
352,32,124800,2,0,L|345:128,2,80.4999942054751,2|2|2,0:0|0:0|0:0,0:0:0:0:
512,32,125254,2,0,B|512:78|512:78|454:36,1,80.4999942054751
489,191,125481,5,4,0:0:0:0:
359,210,125709,1,0,0:0:0:0:
206,180,125936,1,2,0:0:0:0:
74,183,126163,1,0,0:0:0:0:
199,212,126390,1,8,0:0:0:0:
352,224,126618,2,0,L|352:320,2,80.4999942054751,2|2|2,0:0|0:0|0:0,0:0:0:0:
512,208,127072,2,0,L|494:303,1,80.4999942054751,2|2,0:0|0:0,0:0:0:0:
512,121,127300,5,4,0:0:0:0:
512,128,127527,2,2,P|413:136|256:128,1,241.499982616425,0|0,0:0|0:0,0:0:0:0:
352,128,127981,2,0,B|357:140|357:140|344:153|344:153|353:171|353:171|341:187|341:187|354:210|354:210|352:224,1,80.4999942054751
354,309,128209,2,2,B|294:277|294:277|162:309,1,160.99998841095,10|0,0:0|0:0,0:0:0:0:
52,334,128663,1,2,0:0:0:0:
46,173,128890,1,2,0:0:0:0:
186,172,129118,5,6,0:0:0:0:
192,160,129345,1,0,0:0:0:0:
192,160,129572,1,2,0:0:0:0:
186,334,129800,1,0,0:0:0:0:
192,352,130027,1,8,0:0:0:0:
192,352,130254,2,0,B|235:346|235:346|288:352,2,80.4999942054751,0|0|2,0:0|0:0|0:0,0:0:0:0:
192,160,130709,2,0,L|289:191,1,80.4999942054751,2|2,0:0|0:0,0:0:0:0:
384,160,130936,5,6,0:0:0:0:
372,178,131163,2,0,L|363:303,2,80.4999942054751,2|2|2,0:0|0:0|0:0,0:0:0:0:
208,146,131618,1,0,0:0:0:0:
378,142,131845,1,8,0:0:0:0:
192,160,132072,1,2,0:0:0:0:
384,160,132300,1,2,0:0:0:0:
192,160,132527,2,0,B|194:207|194:207|192:256,1,80.4999942054751,2|2,0:0|0:0,0:0:0:0:
104,254,132754,6,2,P|105:175|104:62,1,160.99998841095,6|0,0:0|0:0,0:0:0:0:
96,95,133209,1,2,0:0:0:0:
272,258,133436,5,0,0:0:0:0:
288,256,133663,2,2,L|288:95,1,160.99998841095,8|2,0:0|0:0,0:0:0:0:
384,96,134004,2,0,L|377:195,2,80.4999942054751,2|2|0,0:0|0:0|0:0,0:0:0:0:
471,86,134345,5,2,0:0:0:0:
275,109,134572,1,6,0:0:0:0:
98,82,134800,1,0,0:0:0:0:
285,88,135027,1,2,0:0:0:0:
480,96,135254,1,0,0:0:0:0:
372,211,135481,1,8,0:0:0:0:
288,96,135709,1,2,0:0:0:0:
188,201,135936,1,2,0:0:0:0:
113,85,136163,5,0,0:0:0:0:
284,102,136390,1,4,0:0:0:0:
466,70,136618,1,0,0:0:0:0:
384,224,136845,2,0,B|381:264|381:264|384:320,2,80.4999942054751,2|0|0,0:0|0:0|0:0,0:0:0:0:
296,105,137300,1,8,0:0:0:0:
203,219,137527,1,2,0:0:0:0:
293,338,137754,1,2,0:0:0:0:
376,238,137981,1,2,0:0:0:0:
100,75,138209,5,6,0:0:0:0:
96,95,138436,2,2,B|142:117|142:117|156:102|156:102|181:102|181:102|210:114|210:114|242:103|242:103|266:112|266:112|284:103|309:115|309:115|352:95,1,241.499982616425,0|0,0:0|0:0,0:0:0:0:
256,96,138890,2,0,B|258:160|258:160|256:192,2,80.4999942054751,0|0|8,0:0|0:0|0:0,0:0:0:0:
247,286,139345,1,2,0:0:0:0:
106,292,139572,1,2,0:0:0:0:
96,96,139800,2,0,L|96:192,1,80.4999942054751,2|2,0:0|0:0,0:0:0:0:
96,288,140027,5,6,0:0:0:0:
289,265,140254,1,0,0:0:0:0:
480,288,140481,1,2,0:0:0:0:
286,305,140709,1,0,0:0:0:0:
115,288,140936,1,8,0:0:0:0:
200,178,141163,2,0,L|200:82,2,80.4999942054751,2|2|2,0:0|0:0|0:0,0:0:0:0:
317,292,141618,1,2,0:0:0:0:
397,176,141845,5,6,0:0:0:0:
134,277,142072,1,0,0:0:0:0:
118,281,142527,5,0,0:0:0:0:
384,160,142754,1,8,0:0:0:0:
231,231,143436,5,2,0:0:0:0:
223,222,143663,2,2,B|312:279|342:271|342:271|392:215|392:215|439:202|439:202|464:122,1,321.9999768219,6|2,0:0|0:0,0:0:0:0:
215,214,144345,1,0,0:0:0:0:
208,201,144572,2,2,B|297:258|319:241|525:201,2,321.9999768219,8|2|0,0:0|0:0|0:0,0:0:0:0:
