osu file format v14

[General]
AudioFilename: audio.mp3
AudioLeadIn: 0
PreviewTime: 39554
Countdown: 0
SampleSet: Soft
StackLeniency: 0.7
Mode: 0
LetterboxInBreaks: 0
WidescreenStoryboard: 1

[Editor]
DistanceSpacing: 1.3
BeatDivisor: 2
GridSize: 8
TimelineZoom: 1

[Metadata]
Title:Stay Ugly
TitleUnicode:Stay Ugly
Artist:CRIM3S
ArtistUnicode:CRIM3S
Creator:Melsoon
Version:Normal
Source:
Tags:crim3s crimes sadie pinn rou rot story of isaac 2013 witch house experimental london uk united kingdom
BeatmapID:1276882
BeatmapSetID:603457

[Difficulty]
HPDrainRate:5
CircleSize:3.5
OverallDifficulty:5
ApproachRate:5
SliderMultiplier:1.2
SliderTickRate:2

[Events]
//Background and Video events
0,0,"background.jpg",0,0
//Break Periods
//Storyboard Layer 0 (Background)
//Storyboard Layer 1 (Fail)
//Storyboard Layer 2 (Pass)
//Storyboard Layer 3 (Foreground)
//Storyboard Sound Samples

[TimingPoints]
7282,454.545454545455,4,2,0,25,1,0
7282,-117.647058823529,4,2,0,25,0,0
10918,-105.263157894737,4,2,0,35,0,0
14554,-100,4,2,0,40,0,0
43645,-90.9090909090909,4,2,2,80,0,1
72736,-100,4,2,0,30,0,0

[Colours]
Combo1 : 7,184,140
Combo2 : 146,24,24
Combo3 : 48,16,69
Combo4 : 0,134,157

[HitObjects]
64,160,7282,6,0,P|112:96|178:85,1,102.000001945496
176,200,8191,1,0,0:0:0:0:
296,200,8645,1,0,0:0:0:0:
342,88,9100,2,0,P|385:115|409:160,1,102.000001945496
296,200,10009,1,0,0:0:0:0:
176,200,10463,1,0,0:0:0:0:
296,200,10918,6,0,P|272:280|239:306,1,113.999996955872
160,192,11827,1,0,0:0:0:0:
56,96,12282,1,0,0:0:0:0:
256,192,12736,12,0,14554,0:0:0:0:
120,112,15009,5,0,0:0:0:0:
232,24,15463,2,0,P|264:136|248:168,1,120
160,232,16372,1,0,0:0:0:0:
264,132,16827,2,0,P|315:161|352:208,1,120
392,344,17736,1,0,0:0:0:0:
264,288,18191,6,0,P|168:240|152:216,2,120
268,161,19554,1,0,0:0:0:0:
392,120,20009,2,0,P|336:56|296:40,2,120
248,184,21372,1,0,0:0:0:0:
192,240,21600,1,0,0:0:0:0:
256,312,21827,6,0,L|304:347,1,60
360,288,22282,2,0,L|296:240,1,60
360,288,22736,2,0,P|424:240|432:112,1,180
440,72,23645,2,0,L|352:72,1,60
304,72,24100,2,0,L|208:72,1,60
224,144,24554,2,0,L|360:144,1,120
360,72,25236,5,0,0:0:0:0:
424,88,25463,2,0,P|432:184|400:240,1,120
392,264,26145,1,0,0:0:0:0:
336,304,26372,2,0,P|248:320|200:304,1,120
160,280,27054,1,0,0:0:0:0:
112,240,27282,2,0,P|45:162|39:132,2,120
176,112,28645,1,0,0:0:0:0:
336,72,29100,6,0,L|416:136,2,60
280,32,29782,1,0,0:0:0:0:
224,72,30009,2,0,L|177:109,2,60
288,112,30691,1,0,0:0:0:0:
344,64,30918,2,0,P|359:124|292:190,2,120
222,164,32282,1,0,0:0:0:0:
186,65,32736,6,0,P|91:98|74:145,1,120
56,176,33418,1,0,0:0:0:0:
128,216,33645,2,0,P|186:210|230:160,1,120
152,136,34327,1,0,0:0:0:0:
186,65,34554,2,0,P|282:105|306:153,1,120
349,61,35236,1,0,0:0:0:0:
376,136,35463,2,0,P|472:160|496:224,1,120
408,211,36145,5,0,0:0:0:0:
366,277,36372,2,0,L|312:349,1,60
200,304,37054,5,0,0:0:0:0:
144,248,37282,2,0,L|64:168,1,60
153,46,37963,5,0,0:0:0:0:
153,46,38191,2,0,P|257:37|298:60,1,120
216,176,39100,1,0,0:0:0:0:
256,192,40009,12,0,43645,0:0:0:0:
72,80,44100,5,0,0:0:0:0:
232,88,44554,2,0,P|224:128|160:216,1,132.00000402832,8|0,0:0|0:0,0:0:0:0:
24,256,45463,2,0,P|64:320|168:352,2,132.00000402832,0|0|8,0:0|0:0|0:0,0:0:0:0:
168,200,46827,1,0,0:0:0:0:
256,72,47282,6,0,L|360:72,1,66.0000020141602
480,72,47963,1,0,0:0:0:0:
480,72,48191,2,0,P|480:200|456:248,1,132.00000402832,8|0,0:0|0:0,0:0:0:0:
416,344,49100,2,0,P|304:352|232:320,2,132.00000402832,0|0|8,0:0|0:0|0:0,0:0:0:0:
352,200,50463,1,0,0:0:0:0:
320,48,50918,6,0,P|168:88|80:160,1,264.000008056641,0|8,0:0|0:0,0:0:0:0:
24,296,52282,1,0,0:0:0:0:
176,352,52736,2,0,P|304:324|409:246,1,264.000008056641,0|8,0:0|0:0,0:0:0:0:
464,96,54100,1,0,0:0:0:0:
304,112,54554,6,0,L|160:136,1,132.00000402832,8|0,0:0|0:0,0:0:0:0:
312,216,55463,2,0,L|128:248,1,132.00000402832,8|0,0:0|0:0,0:0:0:0:
176,80,56372,2,0,P|72:112|48:144,2,132.00000402832,0|0|8,0:0|0:0|0:0,0:0:0:0:
168,240,57736,1,0,0:0:0:0:
284,146,58191,6,0,P|220:90|140:82,1,132.00000402832
167,232,59100,2,0,P|212:278|275:298,1,132.00000402832,8|0,0:0|0:0,0:0:0:0:
426,289,60009,2,0,P|437:193|421:145,2,132.00000402832,0|0|8,0:0|0:0|0:0,0:0:0:0:
288,224,61372,1,0,0:0:0:0:
427,160,61827,6,0,P|371:72|275:32,2,198.000006042481,8|8|2,0:0|0:0|0:0,0:0:0:0:
368,208,63418,1,0,0:0:0:0:
288,224,63645,2,0,P|192:184|136:96,2,198.000006042481,8|8|2,0:0|0:0|0:0,0:0:0:0:
368,240,65236,1,0,0:0:0:0:
448,256,65463,5,0,0:0:0:0:
280,312,65918,2,0,P|152:288|128:272,1,132.00000402832,0|8,0:0|0:0,0:0:0:0:
448,184,67282,5,0,0:0:0:0:
320,88,67736,2,0,P|258:65|192:64,1,132.00000402832,0|8,0:0|0:0,0:0:0:0:
64,160,69100,6,0,P|90:285|152:336,2,198.000006042481,8|8|0,0:0|0:0|0:0,0:0:0:0:
144,176,70691,1,0,0:0:0:0:
224,176,70918,2,0,P|168:64|80:32,2,198.000006042481,8|8|2,0:0|0:0|0:0,0:0:0:0:
208,256,72509,1,0,0:0:0:0:
256,192,72736,12,0,76145,0:0:0:0:
