osu file format v14

[General]
AudioFilename: audio.mp3
AudioLeadIn: 0
PreviewTime: 179492
Countdown: 0
SampleSet: Drum
StackLeniency: 0.7
Mode: 0
LetterboxInBreaks: 0
WidescreenStoryboard: 1

[Editor]
DistanceSpacing: 1
BeatDivisor: 4
GridSize: 8
TimelineZoom: 3.099999

[Metadata]
Title:Disco Crimson
TitleUnicode:Disco Crimson
Artist:CQ
ArtistUnicode:CQ
Creator:Laissez faire
Version:crunchy vanilla
Source:
Tags:
BeatmapID:4440673
BeatmapSetID:2103780

[Difficulty]
HPDrainRate:3.9
CircleSize:4.3
OverallDifficulty:8.5
ApproachRate:10
SliderMultiplier:1.4
SliderTickRate:1

[Events]
//Background and Video events
0,0,"1.png",0,0
//Break Periods
2,158425,162526
//Storyboard Layer 0 (Background)
//Storyboard Layer 1 (Fail)
//Storyboard Layer 2 (Pass)
//Storyboard Layer 3 (Foreground)
//Storyboard Layer 4 (Overlay)
//Storyboard Sound Samples

[TimingPoints]
276,379.746835443038,4,3,1,50,1,0
655,-333.333333333333,4,3,1,80,0,0
940,-100,4,3,1,80,0,0
1415,-40,4,3,1,80,0,0
1605,-100,4,3,1,80,0,0
2174,-40,4,3,1,80,0,0
2364,-100,4,3,1,80,0,0
2554,-133.333333333333,4,3,1,80,0,0
2934,-40,4,3,1,80,0,0
3124,-133.333333333333,4,3,1,80,0,0
3693,-40,4,3,1,80,0,0
4073,-133.333333333333,4,3,1,80,0,0
4453,-40,4,3,1,80,0,0
5212,-333.333333333333,4,3,1,80,0,0
5402,-100,4,3,1,80,0,0
5972,-40,4,3,1,80,0,0
6162,-100,4,3,1,80,0,0
6731,-333.333333333333,4,3,1,80,0,0
6921,-100,4,3,1,80,0,0
7491,-40,4,3,1,80,0,0
7681,-100,4,3,1,80,0,0
11668,-66.6666666666667,4,3,1,80,0,0
11763,-66.6666666666667,4,3,1,50,0,0
12427,-66.6666666666667,4,3,1,80,0,0
14326,-33.3333333333333,4,3,1,80,0,0
14516,-66.6666666666667,4,3,1,80,0,0
14896,-66.6666666666667,4,3,1,80,0,0
18883,-33.3333333333333,4,3,1,80,0,0
19073,-66.6666666666667,4,3,1,80,0,0
19263,-133.333333333333,4,3,1,80,0,0
19643,-33.3333333333333,4,3,1,80,0,0
20022,-66.6666666666667,4,3,1,80,0,0
20402,-33.3333333333333,4,3,1,80,0,0
20592,-66.6666666666667,4,3,1,80,0,0
21162,-33.3333333333333,4,3,1,80,0,0
21351,-66.6666666666667,4,3,1,80,0,0
21921,-33.3333333333333,4,3,1,80,0,0
22111,-66.6666666666667,4,3,1,80,0,0
22681,-33.3333333333333,4,3,1,80,0,0
22870,-66.6666666666667,4,3,1,80,0,0
23440,-33.3333333333333,4,3,1,80,0,0
23630,-66.6666666666667,4,3,1,80,0,0
24200,-33.3333333333333,4,3,1,80,0,0
24389,-66.6666666666667,4,3,1,80,0,0
24959,-33.3333333333333,4,3,1,80,0,0
25149,-66.6666666666667,4,3,1,80,0,0
25719,-33.3333333333333,4,3,1,80,0,0
25908,-66.6666666666667,4,3,1,80,0,0
26478,-33.3333333333333,4,3,1,80,0,0
26668,-66.6666666666667,4,3,1,80,0,0
27238,-33.3333333333333,4,3,1,80,0,0
27427,-66.6666666666667,4,3,1,80,0,0
27997,-33.3333333333333,4,3,1,80,0,0
28187,-66.6666666666667,4,3,1,80,0,0
28757,-33.3333333333333,4,3,1,80,0,0
28946,-66.6666666666667,4,3,1,80,0,0
29516,-33.3333333333333,4,3,1,80,0,0
29706,-66.6666666666667,4,3,1,80,0,0
30276,-33.3333333333333,4,3,1,80,0,0
30465,-66.6666666666667,4,3,1,80,0,0
31035,-33.3333333333333,4,3,1,80,0,0
31225,-66.6666666666667,4,3,1,80,0,0
31794,-33.3333333333333,4,3,1,80,0,0
31984,-66.6666666666667,4,3,1,80,0,0
32554,-33.3333333333333,4,3,1,80,0,0
32744,-66.6666666666667,4,3,1,80,0,0
33313,-33.3333333333333,4,3,1,80,0,0
33503,-66.6666666666667,4,3,1,80,0,0
34073,-33.3333333333333,4,3,1,80,0,0
34263,-66.6666666666667,4,3,1,80,0,0
34832,-33.3333333333333,4,3,1,80,0,0
35022,-66.6666666666667,4,3,1,80,0,0
35592,-33.3333333333333,4,3,1,80,0,0
35782,-66.6666666666667,4,3,1,80,0,0
36731,-100,4,3,1,80,0,0
60252,379.746835443038,4,3,1,50,1,0
60252,-50,4,3,1,80,0,0
61011,-133.333333333333,4,3,1,80,0,0
61391,-33.3333333333333,4,3,1,80,0,0
61581,-50,4,3,1,80,0,0
62910,-33.3333333333333,4,3,1,80,0,0
63100,-50,4,3,1,80,0,0
63669,-33.3333333333333,4,3,1,80,0,0
63859,-50,4,3,1,80,0,0
64429,-33.3333333333333,4,3,1,80,0,0
64619,-50,4,3,1,80,0,0
65186,-33.3333333333333,4,3,1,80,0,0
65378,-50,4,3,1,80,0,0
65948,-33.3333333333333,4,3,1,80,0,0
66138,-50,4,3,1,80,0,0
66707,-33.3333333333333,4,3,1,80,0,0
66897,-50,4,3,1,80,0,0
68986,-33.3333333333333,4,3,1,80,0,0
70884,-50,4,3,1,80,0,0
85315,-50,4,3,1,80,0,0
109642,379.746835443038,4,3,1,50,1,0
109642,-50,4,3,1,80,0,0
139642,-31.8233069579715,4,3,1,80,0,0
140782,-50,4,3,1,80,0,0
158225,379.746835443038,4,3,1,50,1,0
158226,-133.333333333333,4,3,1,80,0,0
164326,379.746835443038,4,3,1,80,1,0
170401,-133.333333333333,4,3,1,80,0,0
178163,379.746835443038,4,3,1,80,1,0
178163,-50,4,3,1,80,0,1
179492,189.873417721519,4,3,1,80,1,1
203795,379.746835443038,4,3,1,80,1,0
203795,-50,4,3,1,80,0,0
204198,379.746835443038,4,3,1,80,1,0
204198,-66.6666666666667,4,3,1,80,0,0
227362,-50,4,3,1,80,0,0
232109,-40,4,3,2,80,0,0
232489,-20,4,3,2,100,0,0
232868,-50,4,3,1,100,0,0
238185,-20,4,3,2,100,0,0
238375,-50,4,3,1,100,0,0
242932,-33.3333333333333,4,3,2,100,0,0
243122,-50,4,3,1,100,0,0
244261,-14.2857142857143,4,3,2,100,0,0
244641,-50,4,3,1,100,0,0
249387,-50,4,3,1,80,0,0
252235,-20,4,3,2,80,0,0
252425,-50,4,3,1,80,0,0

[HitObjects]
104,112,276,5,2,0:0:0:0:
249,179,465,1,2,0:0:0:0:
411,250,655,2,8,L|430:258,1,20.9999993591309,0|0,0:0|0:0,0:0:0:0:
474,274,940,1,0,0:0:0:0:
474,274,1035,1,10,0:0:0:0:
200,173,1225,5,2,0:0:0:0:
305,157,1415,2,8,P|235:111|203:181,1,175,0|0,0:0|0:0,0:0:0:0:
274,369,1794,5,10,0:0:0:0:
252,44,1984,1,2,0:0:0:0:
206,101,2079,1,0,0:0:0:0:
134,123,2174,6,8,P|66:119|52:-13,1,175,0|0,0:0|0:0,0:0:0:0:
36,15,2554,2,0,L|45:68,1,52.5000020027161
125,356,2934,6,8,B|154:287|154:287|169:272|169:272|206:175,1,175,0|0,0:0|0:0,0:0:0:0:
215,166,3313,1,2,0:0:0:0:
371,58,3503,5,2,0:0:0:0:
475,171,3693,2,8,B|402:162|402:162|379:173|379:173|275:153,1,175,0|0,0:0|0:0,0:0:0:0:
393,351,4073,2,0,B|377:339|363:340|363:340|368:321|362:300,1,52.5000020027161
360,219,4453,2,8,B|337:198|337:198|161:212,1,175,0|0,0:0|0:0,0:0:0:0:
80,224,4832,5,2,0:0:0:0:
192,160,5022,1,0,0:0:0:0:
208,288,5212,2,8,L|192:272,1,20.9999993591309,0|0,0:0|0:0,0:0:0:0:
144,221,5592,5,2,0:0:0:0:
220,181,5782,1,2,0:0:0:0:
293,140,5972,2,8,B|358:109|358:109|369:81|369:81|441:44,1,175,0|0,0:0|0:0,0:0:0:0:
484,39,6351,2,0,B|462:49|462:49|396:34,1,70
340,0,6636,1,0,0:0:0:0:
256,58,6731,6,8,L|249:82,1,20.9999993591309,0|0,0:0|0:0,0:0:0:0:
193,199,7111,1,2,0:0:0:0:
40,36,7301,1,2,0:0:0:0:
407,334,7491,6,8,P|393:266|354:323,1,175,0|0,0:0|0:0,0:0:0:0:
347,177,7870,6,8,P|329:163|275:160,1,70,0|0,0:0|0:0,0:0:0:0:
191,135,8155,1,0,0:0:0:0:
227,296,8250,2,0,P|252:286|272:228,1,70,8|8,0:0|0:0,0:0:0:0:
359,134,8630,6,8,P|329:125|270:135,1,70,0|0,0:0|0:0,0:0:0:0:
134,159,8915,1,0,0:0:0:0:
269,342,9010,2,0,P|297:316|306:268,1,70,8|8,0:0|0:0,0:0:0:0:
339,74,9389,6,8,P|303:66|263:90,1,70,0|0,0:0|0:0,0:0:0:0:
102,217,9674,1,0,0:0:0:0:
298,347,9769,2,0,P|321:314|319:273,1,70,8|8,0:0|0:0,0:0:0:0:
310,17,10149,6,8,P|275:20|246:47,1,70,0|0,0:0|0:0,0:0:0:0:
79,345,10434,1,0,0:0:0:0:
411,369,10529,2,0,P|428:332|414:286,1,70,8|8,0:0|0:0,0:0:0:0:
257,0,10813,5,0,0:0:0:0:
224,289,10908,1,8,0:0:0:0:
192,172,11668,5,10,0:0:0:0:
317,193,11763,1,8,0:0:0:0:
208,264,11858,5,10,0:0:0:0:
263,149,11953,1,8,0:0:0:0:
343,290,12048,5,10,0:0:0:0:
314,131,12143,1,8,0:0:0:0:
128,259,12238,5,10,0:0:0:0:
340,347,12332,1,8,0:0:0:0:
396,131,12427,5,2,0:0:0:0:
354,221,12617,1,2,0:0:0:0:
444,217,12807,1,10,0:0:0:0:
308,285,12996,5,2,0:0:0:0:
224,336,13091,1,0,0:0:0:0:
140,195,13187,1,8,0:0:0:0:
281,114,13376,5,2,0:0:0:0:
212,261,13471,1,0,0:0:0:0:
128,120,13567,1,8,0:0:0:0:
137,106,13757,5,2,0:0:0:0:
279,191,13851,1,0,0:0:0:0:
209,340,13946,1,8,0:0:0:0:
352,261,14136,5,2,0:0:0:0:
267,119,14231,1,0,0:0:0:0:
136,197,14326,2,8,B|98:194|69:222|69:222|94:151|46:130|-2:143|42:198,1,210.000008010865,0|0,0:0|0:0,0:0:0:0:
55,351,14611,1,0,0:0:0:0:
197,272,14706,2,8,P|150:252|169:296,1,105.000004005432,0|0,0:0|0:0,0:0:0:0:
313,288,15086,5,8,0:0:0:0:
452,207,15276,1,0,0:0:0:0:
334,95,15370,1,0,0:0:0:0:
190,173,15465,2,10,B|172:150|155:140|155:140|181:127|226:145,1,105.000004005432,0|0,0:0|0:0,0:0:0:0:
352,224,15845,2,10,B|390:205|393:171|393:171|364:183|345:169,1,105.000004005432,0|0,0:0|0:0,0:0:0:0:
242,62,16225,5,10,0:0:0:0:
194,148,16415,1,2,0:0:0:0:
252,184,16510,1,0,0:0:0:0:
308,152,16605,1,10,0:0:0:0:
381,57,16794,1,0,0:0:0:0:
326,92,16889,1,0,0:0:0:0:
308,152,16984,6,0,P|322:200|374:231,1,105.000004005432
416,228,17364,1,10,0:0:0:0:
333,87,17554,2,2,P|283:108|273:173,1,105.000004005432,0|0,0:0|0:0,0:0:0:0:
198,302,17934,2,0,P|233:288|241:275,1,52.5000020027161
323,135,18124,5,8,0:0:0:0:
180,53,18313,2,8,B|145:47|117:70|117:70|140:83|156:108,1,105.000004005432,0|0,0:0|0:0,0:0:0:0:
262,197,18693,5,8,0:0:0:0:
373,324,18883,2,0,B|359:357|397:395|397:395|320:342|212:373,1,210.000008010865
132,281,19263,2,2,P|158:291|175:321,1,52.5000020027161,0|0,0:0|0:0,0:0:0:0:
201,352,19643,6,8,B|231:338|213:257|213:257|202:187|241:142,1,210.000008010865,0|0,0:0|0:0,0:0:0:0:
292,41,20022,1,2,0:0:0:0:
286,54,20212,1,2,0:0:0:0:
325,304,20402,6,0,P|234:333|161:204,1,210.000008010865
94,85,20782,1,2,0:0:0:0:
86,119,20972,1,2,0:0:0:0:
111,64,21162,6,8,B|168:22|249:65|215:163|115:145,1,210.000008010865,0|0,0:0|0:0,0:0:0:0:
116,65,21541,1,2,0:0:0:0:
31,39,21731,1,2,0:0:0:0:
202,94,21921,6,0,B|276:106|203:212|62:194,1,210.000008010865
188,292,22301,1,2,0:0:0:0:
80,384,22490,1,2,0:0:0:0:
332,336,22681,6,0,B|354:292|303:262|303:262|282:250|282:250|232:212|261:168,1,210.000008010865
169,53,23060,1,2,0:0:0:0:
233,141,23250,1,2,0:0:0:0:
61,37,23440,6,0,B|25:78|36:137|62:149|62:149|113:101|161:147,1,210.000008010865
455,274,23820,1,2,0:0:0:0:
474,340,24010,1,2,0:0:0:0:
442,211,24200,6,0,B|421:111|421:111|447:100|447:100|429:-19,1,210.000008010865
180,101,24580,1,2,0:0:0:0:
310,304,24769,1,2,0:0:0:0:
23,269,24959,6,0,B|108:286|108:286|122:300|122:300|257:326,1,210.000008010865
332,101,25339,1,2,0:0:0:0:
202,304,25528,1,2,0:0:0:0:
512,175,25719,6,0,B|410:187|410:187|394:200|394:200|308:212,1,210.000008010865
294,15,26098,1,2,0:0:0:0:
85,239,26288,1,2,0:0:0:0:
133,114,26478,6,0,B|181:142|235:124|235:124|305:110|369:160,1,210.000008010865
273,251,26858,1,2,0:0:0:0:
207,29,27048,1,2,0:0:0:0:
328,208,27238,6,0,B|440:199|460:372,1,210.000008010865
453,146,27617,1,2,0:0:0:0:
333,344,27807,1,2,0:0:0:0:
237,93,27997,6,0,B|190:69|154:85|154:85|131:54|131:54|73:70|19:15,1,210.000008010865
167,240,28377,1,2,0:0:0:0:
305,180,28567,1,2,0:0:0:0:
275,361,28757,6,0,B|231:349|205:375|205:375|196:321|169:300|169:300|170:333|108:365,1,210.000008010865
140,176,29136,1,2,0:0:0:0:
0,259,29326,1,2,0:0:0:0:
255,295,29516,6,0,B|288:265|339:280|339:280|395:301|428:268|397:232|358:253,1,210.000008010865
182,197,29896,1,2,0:0:0:0:
327,111,30086,1,2,0:0:0:0:
182,36,30276,6,0,B|156:26|156:-7|156:-7|130:14|120:68|120:68|95:42|51:54,1,210.000008010865
285,117,30656,1,2,0:0:0:0:
139,198,30845,1,2,0:0:0:0:
283,280,31035,6,0,B|230:297|191:279|191:279|194:310|194:310|137:294|43:333,1,210.000008010865
450,189,31415,1,2,0:0:0:0:
369,331,31605,1,2,0:0:0:0:
306,109,31794,6,0,B|281:75|239:115|249:161|249:161|192:182|142:108,1,210.000008010865
154,229,32174,1,2,0:0:0:0:
73,84,32364,1,2,0:0:0:0:
296,315,32554,6,0,P|427:328|464:208,1,210.000008010865
213,173,32934,1,2,0:0:0:0:
213,173,33124,1,2,0:0:0:0:
326,54,33313,6,0,P|443:52|446:165,1,210.000008010865
319,370,33693,1,2,0:0:0:0:
464,287,33883,1,2,0:0:0:0:
233,225,34073,6,0,P|269:150|286:246,1,210.000008010865
273,202,34453,1,2,0:0:0:0:
273,202,34644,1,2,0:0:0:0:
369,239,34833,6,0,B|319:200|273:231|273:231|214:277|92:193,1,210.000008010865
121,180,35212,1,2,0:0:0:0:
381,220,35402,1,2,0:0:0:0:
381,220,35592,6,0,P|426:130|371:46,1,210.000008010865
280,8,35972,1,2,0:0:0:0:
256,192,36162,5,10,0:0:0:0:
188,92,36257,1,8,0:0:0:0:
251,312,36351,1,8,0:0:0:0:
329,96,36446,1,8,0:0:0:0:
139,225,36541,1,8,0:0:0:0:
369,233,36636,1,8,0:0:0:0:
277,145,36731,6,0,B|255:126|255:126|185:130,1,70
91,109,37111,1,0,0:0:0:0:
60,133,37301,6,0,B|52:151|52:151|58:227,1,70
197,346,37681,2,0,B|204:326|204:326|191:268,1,70
140,172,38060,5,0,0:0:0:0:
87,53,38250,1,0,0:0:0:0:
340,186,38630,5,0,0:0:0:0:
181,69,39010,1,0,0:0:0:0:
187,84,39389,1,0,0:0:0:0:
395,148,39769,5,0,0:0:0:0:
382,173,40149,1,0,0:0:0:0:
160,176,40529,6,0,P|147:209|164:263,1,70
206,266,40908,2,0,P|245:292|284:278,1,70
300,248,41288,6,0,P|333:235|352:192,1,70
344,152,41667,2,0,P|336:105|299:85,1,70
192,32,42048,6,0,P|136:71|164:150,1,140
162,150,42807,1,0,0:0:0:0:
238,211,43187,6,0,P|251:240|246:308,1,70
210,354,43567,1,0,0:0:0:0:
309,152,43757,6,0,P|296:181|301:249,1,70
337,295,44137,1,0,0:0:0:0:
311,322,44326,6,0,P|269:346|184:281,1,140
128,233,45086,5,0,0:0:0:0:
107,211,45465,1,0,0:0:0:0:
87,151,45845,5,0,0:0:0:0:
105,77,46225,1,0,0:0:0:0:
204,146,46605,2,0,B|212:141|222:146|222:146|216:177|170:186,1,70
197,216,46985,2,0,B|207:214|212:228|212:228|186:252|140:229,1,70
138,258,47364,2,0,B|147:262|144:277|144:277|109:282|83:237,1,70
48,248,47744,6,0,B|23:211|-6:210|-6:210|8:176|0:136,1,140
259,366,48503,5,0,0:0:0:0:
271,342,48883,1,0,0:0:0:0:
300,284,49263,1,0,0:0:0:0:
262,114,49453,6,0,B|246:108|231:120|231:120|242:148|288:150,1,70
367,159,49832,2,0,B|382:153|397:166|397:166|388:192|340:195,1,70
229,258,50212,6,0,B|221:290|190:266|201:211,1,70
170,104,50782,5,0,0:0:0:0:
208,81,51162,1,0,0:0:0:0:
267,70,51541,5,0,0:0:0:0:
346,81,51921,1,0,0:0:0:0:
428,134,52301,1,0,0:0:0:0:
220,152,52681,6,0,B|204:156|196:184|196:184|224:192|230:225,1,70
254,288,53060,1,0,0:0:0:0:
336,352,53250,6,0,B|352:348|360:320|360:320|332:312|326:279,1,70
268,248,53630,1,0,0:0:0:0:
208,176,53820,1,0,0:0:0:0:
184,80,54010,6,0,P|148:84|106:123,2,70
336,120,54579,1,0,0:0:0:0:
164,332,54959,5,0,0:0:0:0:
316,152,55339,1,0,0:0:0:0:
268,240,55529,2,0,P|264:276|286:327,1,70
400,352,55908,2,0,P|408:312|392:268,1,70
351,182,56288,5,0,0:0:0:0:
346,156,56478,2,0,P|387:121|424:186,1,140
277,214,57238,1,0,0:0:0:0:
275,213,57617,5,0,0:0:0:0:
274,211,57997,1,0,0:0:0:0:
273,207,58377,5,0,0:0:0:0:
183,119,58757,2,0,L|271:125,1,70
394,138,59136,1,0,0:0:0:0:
165,231,59326,1,0,0:0:0:0:
395,311,59516,2,0,L|298:313,1,70
211,320,59896,5,0,0:0:0:0:
258,48,60086,1,0,0:0:0:0:
73,45,60252,5,8,0:0:0:0:
109,210,60346,1,8,0:0:0:0:
183,45,60441,1,8,0:0:0:0:
219,210,60536,1,8,0:0:0:0:
288,48,60632,1,8,0:0:0:0:
329,210,60727,1,8,0:0:0:0:
397,48,60822,1,8,0:0:0:0:
446,207,60917,1,8,0:0:0:0:
336,337,61012,6,0,P|303:338|280:320,1,52.5000020027161
72,288,61391,2,0,P|165:248|272:312,1,210.000008010865
336,337,61771,1,8,0:0:0:0:
232,176,62150,5,8,0:0:0:0:
71,315,62340,5,0,0:0:0:0:
311,244,62530,1,0,0:0:0:0:
311,244,62720,1,0,0:0:0:0:
124,62,62910,6,0,B|181:47|224:80|224:80|296:129|349:84,1,210.000008010865
443,73,63289,1,0,0:0:0:0:
280,344,63669,6,0,B|278:268|278:268|235:185|235:185|241:105,1,210.000008010865
258,22,64049,1,0,0:0:0:0:
95,178,64429,6,0,B|151:144|200:186|200:186|259:233|322:197,1,210.000008010865
447,170,64808,5,0,0:0:0:0:
184,56,65188,6,0,P|112:16|176:72,1,210.000008010865
256,192,65568,1,0,0:0:0:0:
205,304,65948,6,0,P|283:357|336:239,1,210.000008010865
453,77,66327,1,0,0:0:0:0:
235,140,66707,6,0,P|213:252|275:351,1,210.000008010865
435,332,67087,1,0,0:0:0:0:
346,179,67277,5,0,0:0:0:0:
114,322,67467,1,8,0:0:0:0:
260,54,67657,1,0,0:0:0:0:
434,160,67846,6,0,B|410:172|410:172|266:152,1,140
141,158,68226,1,8,0:0:0:0:
387,282,68416,1,0,0:0:0:0:
239,304,68606,5,0,0:0:0:0:
390,42,68796,1,0,0:0:0:0:
87,98,68986,2,0,B|114:122|152:115|152:115|214:142|214:142|235:177|275:168,1,210.000008010865
438,196,69365,1,0,0:0:0:0:
227,275,69745,2,0,B|262:267|316:300|316:300|327:217|399:181,1,210.000008010865
132,328,70125,1,0,0:0:0:0:
85,367,70505,6,0,P|93:274|184:294,1,210.000008010865
145,42,70884,2,0,P|193:61|138:51,1,140
127,59,71264,5,8,0:0:0:0:
231,209,71454,2,0,P|306:216|353:156,1,140
375,64,71834,1,0,0:0:0:0:
316,198,72024,1,8,0:0:0:0:
177,249,72214,1,0,0:0:0:0:
48,179,72403,2,0,P|18:211|47:191,1,140
272,345,72783,6,0,L|293:263,2,70
323,255,73163,2,0,B|335:198|335:198|317:165|317:165|331:84,1,140
348,29,73544,5,8,0:0:0:0:
203,159,73923,2,0,B|226:172|226:172|348:180,1,140
441,184,74208,1,0,0:0:0:0:
441,184,74303,1,8,0:0:0:0:
67,137,74493,5,0,0:0:0:0:
133,224,74588,2,0,P|161:239|213:226,1,70
369,37,74873,2,0,P|373:71|358:102,1,70
301,168,75062,5,8,0:0:0:0:
155,56,75253,2,0,B|148:77|148:77|157:138,1,70
218,337,75442,6,0,B|232:308|232:308|225:172,1,140
215,120,75727,1,0,0:0:0:0:
210,28,75822,1,8,0:0:0:0:
403,61,76012,6,0,P|423:95|420:142,1,70
393,207,76202,2,0,B|358:220|327:197|327:197|281:175|231:205,1,140
127,233,76582,5,8,0:0:0:0:
206,303,76771,1,0,0:0:0:0:
306,333,76961,2,0,P|367:310|398:195,1,140
310,239,77341,5,8,0:0:0:0:
191,101,77531,2,0,L|219:191,1,70
355,273,77721,1,0,0:0:0:0:
145,258,77911,1,0,0:0:0:0:
260,65,78101,5,8,0:0:0:0:
217,326,78290,2,0,L|312:294,1,70
372,273,78480,1,0,0:0:0:0:
211,142,78670,1,0,0:0:0:0:
234,356,78860,5,8,0:0:0:0:
395,275,79050,2,0,L|337:203,1,70
245,85,79240,1,0,0:0:0:0:
104,281,79430,2,0,L|211:251,1,70
322,209,79620,5,8,0:0:0:0:
216,349,79809,1,0,0:0:0:0:
124,197,79999,1,0,0:0:0:0:
252,65,80379,5,8,0:0:0:0:
290,229,80568,2,0,L|344:163,1,70
422,77,80758,1,0,0:0:0:0:
186,144,80948,1,0,0:0:0:0:
337,340,81138,5,8,0:0:0:0:
450,174,81328,2,0,L|360:155,1,70
204,113,81518,1,0,0:0:0:0:
203,323,81708,2,0,L|231:249,1,70
299,52,81898,5,8,0:0:0:0:
296,349,82087,1,0,0:0:0:0:
42,214,82278,1,0,0:0:0:0:
392,328,82468,1,0,0:0:0:0:
250,5,82658,5,8,0:0:0:0:
189,382,82846,1,0,0:0:0:0:
423,120,83036,1,0,0:0:0:0:
56,223,83227,1,0,0:0:0:0:
297,384,83417,5,8,0:0:0:0:
145,34,83607,1,0,0:0:0:0:
99,322,83796,1,0,0:0:0:0:
353,36,83987,1,0,0:0:0:0:
72,115,84177,5,8,0:0:0:0:
433,230,84366,1,0,0:0:0:0:
296,348,84556,5,0,0:0:0:0:
183,341,84651,1,0,0:0:0:0:
104,277,84746,1,8,0:0:0:0:
88,162,84840,1,0,0:0:0:0:
156,63,84936,1,8,0:0:0:0:
281,42,85030,1,8,0:0:0:0:
384,128,85125,1,8,0:0:0:0:
384,260,85220,1,8,0:0:0:0:
320,360,85315,6,8,B|315:381|293:376|293:376|269:385|244:382|224:371|224:371|201:374|199:353|199:353|182:333|176:308|180:285|180:285|169:265|189:256|189:256|200:236|218:225,1,280,0|0,0:0|0:0,0:0:0:0:
268,292,85884,1,2,0:0:0:0:
268,292,85979,1,0,0:0:0:0:
268,292,86074,1,8,0:0:0:0:
375,103,86265,5,2,0:0:0:0:
321,59,86359,1,0,0:0:0:0:
252,54,86454,1,8,0:0:0:0:
193,90,86549,1,0,0:0:0:0:
141,137,86644,2,0,P|64:156|-10:110,1,140
208,321,87024,5,2,0:0:0:0:
286,339,87118,1,0,0:0:0:0:
357,305,87214,2,10,P|349:219|289:183,1,140,2|2,0:0|0:0,0:0:0:0:
227,151,87498,1,0,0:0:0:0:
141,262,87593,2,2,P|83:212|114:103,1,140,0|0,0:0|0:0,0:0:0:0:
227,151,87878,1,0,0:0:0:0:
260,330,87973,2,10,B|291:358|329:345|329:345|346:301|421:308,1,140,2|2,0:0|0:0,0:0:0:0:
466,203,88258,5,0,0:0:0:0:
446,158,88353,2,2,B|402:117|346:124|346:124|388:137|389:186,1,140,0|0,0:0|0:0,0:0:0:0:
42,129,88638,5,0,0:0:0:0:
69,79,88733,2,0,P|115:73|161:116,1,70
208,94,88922,2,2,P|222:116|217:190,1,70,0|0,0:0|0:0,0:0:0:0:
229,250,89112,2,2,B|232:274|217:297|217:297|184:292|184:292|182:333|119:371,1,140,0|0,0:0|0:0,0:0:0:0:
70,282,89492,2,10,B|73:258|58:235|58:235|25:240|25:240|23:199|-40:161,1,140,2|2,0:0|0:0,0:0:0:0:
23,83,89777,1,0,0:0:0:0:
100,44,89872,6,2,P|126:0|90:29,1,140,0|0,0:0|0:0,0:0:0:0:
155,137,90157,1,0,0:0:0:0:
247,237,90252,2,10,P|199:219|236:254,1,140,2|2,0:0|0:0,0:0:0:0:
428,272,90631,5,8,0:0:0:0:
416,266,90821,1,2,0:0:0:0:
315,231,90915,1,0,0:0:0:0:
251,320,91011,6,8,P|228:351|177:326,1,70,0|0,0:0|0:0,0:0:0:0:
70,262,91201,2,2,B|27:248|27:199|27:199|73:190|67:125,1,140,0|0,0:0|0:0,0:0:0:0:
95,97,91581,5,2,0:0:0:0:
118,161,91675,1,0,0:0:0:0:
180,191,91770,1,8,0:0:0:0:
314,252,91960,1,2,0:0:0:0:
335,296,92055,1,0,0:0:0:0:
305,333,92150,6,2,B|263:343|238:315|208:292|161:314,1,140,0|0,0:0|0:0,0:0:0:0:
133,357,92435,1,0,0:0:0:0:
133,357,92530,1,8,0:0:0:0:
166,82,92720,2,2,B|200:44|253:75|253:75|253:110|226:114,1,140,0|0,0:0|0:0,0:0:0:0:
147,213,93100,6,2,P|179:240|229:230,1,70,0|0,0:0|0:0,0:0:0:0:
303,220,93289,1,8,0:0:0:0:
455,265,93479,2,2,P|423:238|373:248,1,70,0|0,0:0|0:0,0:0:0:0:
223,264,93669,2,2,B|173:272|168:327|168:327|204:298|255:336,1,140,0|0,0:0|0:0,0:0:0:0:
302,341,93954,1,0,0:0:0:0:
437,210,94049,2,10,B|441:164|396:143|396:143|377:177|336:171,1,140,2|2,0:0|0:0,0:0:0:0:
270,252,94334,5,0,0:0:0:0:
250,227,94429,1,0,0:0:0:0:
167,147,94619,5,2,0:0:0:0:
101,159,94713,1,0,0:0:0:0:
79,222,94808,1,8,0:0:0:0:
167,315,94998,1,2,0:0:0:0:
219,357,95092,1,0,0:0:0:0:
282,334,95187,1,8,0:0:0:0:
346,195,95378,5,2,0:0:0:0:
329,114,95472,1,0,0:0:0:0:
268,66,95568,2,10,B|214:59|177:88|177:88|222:75|251:108,1,140,2|2,0:0|0:0,0:0:0:0:
115,147,95853,1,0,0:0:0:0:
115,147,95948,1,8,0:0:0:0:
356,220,96138,5,0,0:0:0:0:
356,220,96233,1,0,0:0:0:0:
356,220,96327,1,8,0:0:0:0:
166,338,96517,5,0,0:0:0:0:
166,338,96612,1,0,0:0:0:0:
166,338,96707,1,8,0:0:0:0:
241,45,96897,5,0,0:0:0:0:
357,349,97087,1,0,0:0:0:0:
492,75,97277,1,0,0:0:0:0:
180,144,97466,5,2,0:0:0:0:
472,229,97656,1,2,0:0:0:0:
220,352,97846,1,8,0:0:0:0:
348,28,98036,2,0,P|313:28|284:82,1,70
275,107,98226,2,0,B|255:134|218:139|218:139|196:104|157:109,1,140
100,116,98511,5,0,0:0:0:0:
68,165,98606,1,8,0:0:0:0:
78,227,98701,1,0,0:0:0:0:
103,300,98796,2,0,B|95:350|40:355|40:355|69:319|31:268,1,140
154,66,99176,6,2,B|173:46|208:49|208:49|195:70|174:70,1,70,0|0,0:0|0:0,0:0:0:0:
169,162,99365,1,8,0:0:0:0:
291,324,99555,6,2,B|272:344|237:341|237:341|250:320|271:320,1,70,0|0,0:0|0:0,0:0:0:0:
252,231,99745,1,8,0:0:0:0:
329,49,99935,6,2,L|340:120,1,70,0|0,0:0|0:0,0:0:0:0:
366,222,100124,1,8,0:0:0:0:
162,289,100315,6,0,L|173:218,1,70
193,95,100504,1,8,0:0:0:0:
319,244,100695,1,2,0:0:0:0:
156,211,100884,1,8,0:0:0:0:
380,166,101074,1,2,0:0:0:0:
187,309,101264,1,8,0:0:0:0:
358,93,101454,1,2,0:0:0:0:
257,368,101644,1,8,0:0:0:0:
264,28,101834,1,2,0:0:0:0:
156,351,102024,5,8,0:0:0:0:
405,101,102214,1,2,0:0:0:0:
330,353,102403,1,8,0:0:0:0:
140,55,102593,1,2,0:0:0:0:
428,172,102783,1,8,0:0:0:0:
103,323,102973,1,2,0:0:0:0:
321,18,103163,1,8,0:0:0:0:
435,359,103353,1,2,0:0:0:0:
306,156,103543,6,8,B|314:135|293:128|293:128|277:108|250:102|228:111|228:111|206:107|203:129|203:129|187:149|187:177|200:197|200:197|200:219|222:217|222:217|235:224|250:225|264:221,1,280,0|0,0:0|0:0,0:0:0:0:
291,244,104112,1,0,0:0:0:0:
274,289,104302,2,0,P|243:337|144:272,1,140
88,108,104682,5,8,0:0:0:0:
95,90,104872,2,0,P|159:66|196:138,1,140
238,263,105252,1,0,0:0:0:0:
253,286,105441,1,8,0:0:0:0:
290,304,105631,6,0,B|353:295|432:201|396:102|396:102|300:134|317:244,1,420
238,188,106391,1,0,0:0:0:0:
280,285,106581,6,8,B|266:371|170:380|170:380|221:317|155:229,1,280,0|0,0:0|0:0,0:0:0:0:
304,340,107150,1,0,0:0:0:0:
304,43,107340,1,8,0:0:0:0:
129,283,107530,1,0,0:0:0:0:
412,192,107720,1,8,0:0:0:0:
129,100,107910,1,0,0:0:0:0:
457,192,108100,1,8,0:0:0:0:
92,310,108289,1,0,0:0:0:0:
318,0,108479,1,8,0:0:0:0:
318,383,108669,1,0,0:0:0:0:
193,94,108859,5,8,0:0:0:0:
168,31,108953,1,0,0:0:0:0:
107,4,109048,1,8,0:0:0:0:
45,24,109143,1,8,0:0:0:0:
13,98,109238,1,8,0:0:0:0:
34,193,109333,1,8,0:0:0:0:
122,250,109428,1,8,0:0:0:0:
223,232,109523,1,8,0:0:0:0:
307,161,109642,6,0,P|373:206|344:282,1,140
233,330,110022,2,0,P|199:268|228:178,1,140
239,103,110402,6,0,P|275:83|330:94,1,70
436,34,110592,2,0,P|430:75|399:102,1,70
379,242,110782,2,8,P|351:205|350:170,1,70,0|0,0:0|0:0,0:0:0:0:
111,27,110972,6,0,L|198:46,1,70
314,76,111160,1,8,0:0:0:0:
114,344,111541,5,8,0:0:0:0:
267,129,111920,2,0,B|289:117|280:84|280:84|229:60|196:89,1,140
401,281,112300,2,0,B|424:293|415:326|415:326|353:352|313:303,1,140
171,278,112680,5,0,0:0:0:0:
128,246,113059,2,8,P|87:262|128:243,1,140,0|0,0:0|0:0,0:0:0:0:
180,48,113439,2,0,B|191:37|206:39|206:39|183:63|195:133,1,70
323,324,113629,2,0,B|313:343|290:330|290:330|307:313|303:280|339:256,1,70
257,191,113819,1,8,0:0:0:0:
83,138,114009,6,0,P|105:167|149:181,1,70
257,191,114198,1,0,0:0:0:0:
430,211,114388,2,0,P|401:173|336:173,1,70
339,349,114578,5,8,0:0:0:0:
228,259,114768,2,0,B|199:217|208:176|208:176|240:199|273:186,1,140
442,60,115148,2,8,B|471:102|462:143|462:143|430:120|397:133,1,140,0|0,0:0|0:0,0:0:0:0:
246,92,115528,5,0,0:0:0:0:
383,292,115718,1,8,0:0:0:0:
303,155,116097,1,8,0:0:0:0:
430,328,116287,6,0,P|391:338|319:293,1,70
261,270,116478,1,8,0:0:0:0:
216,274,116667,6,0,P|191:291|196:375,1,70
183,360,116858,1,0,0:0:0:0:
140,334,117047,2,0,P|174:206|297:355,1,420
270,360,117806,2,0,L|197:362,2,70
149,301,118186,5,0,0:0:0:0:
358,95,118376,1,8,0:0:0:0:
159,58,118755,5,0,0:0:0:0:
181,79,118944,1,0,0:0:0:0:
477,178,119135,5,8,0:0:0:0:
139,243,119325,1,8,0:0:0:0:
259,198,119515,5,0,0:0:0:0:
259,198,119705,1,0,0:0:0:0:
207,272,119895,6,8,P|200:304|300:336,1,140,0|0,0:0|0:0,0:0:0:0:
361,298,120275,1,0,0:0:0:0:
271,32,120464,2,0,P|204:66|224:153,1,140
343,308,120843,1,0,0:0:0:0:
184,272,121033,1,0,0:0:0:0:
193,251,121224,5,0,0:0:0:0:
244,231,121414,1,0,0:0:0:0:
300,255,121604,1,0,0:0:0:0:
263,344,121793,6,0,P|228:358|121:319,1,140
11,160,122173,2,0,P|96:138|168:188,1,140
447,194,122552,6,0,L|370:218,1,70
218,280,122742,1,0,0:0:0:0:
337,357,122932,5,8,0:0:0:0:
381,215,123122,2,0,L|400:131,1,70
421,34,123312,1,8,0:0:0:0:
274,185,123501,5,0,0:0:0:0:
137,1,123692,2,8,L|158:92,1,70,0|0,0:0|0:0,0:0:0:0:
188,210,123882,1,0,0:0:0:0:
261,307,124072,2,8,P|328:314|381:248,1,140,0|0,0:0|0:0,0:0:0:0:
404,131,124452,5,8,0:0:0:0:
301,46,124831,2,0,P|261:102|295:179,1,140
381,247,125211,1,8,0:0:0:0:
290,32,125591,6,0,L|319:122,1,70
350,182,125781,1,0,0:0:0:0:
198,356,125971,2,0,L|209:257,1,70
230,100,126161,1,0,0:0:0:0:
405,162,126350,2,0,L|313:176,1,70
83,207,126540,5,0,0:0:0:0:
341,283,126730,1,8,0:0:0:0:
141,96,126920,1,0,0:0:0:0:
418,188,127109,1,8,0:0:0:0:
146,298,127299,1,0,0:0:0:0:
292,384,127489,6,8,P|306:342|297:296,1,70,0|0,0:0|0:0,0:0:0:0:
298,207,127679,2,0,P|257:271|272:381,1,140
168,380,128059,5,0,0:0:0:0:
358,291,128249,1,8,0:0:0:0:
188,80,128439,1,0,0:0:0:0:
289,329,128629,1,8,0:0:0:0:
312,33,128819,1,0,0:0:0:0:
118,181,129009,5,8,0:0:0:0:
422,210,129199,1,0,0:0:0:0:
280,338,129388,6,0,P|249:301|245:262,1,70
204,163,129578,2,0,P|195:121|175:100,1,70
80,29,129769,1,8,0:0:0:0:
205,248,129958,5,0,0:0:0:0:
268,24,130148,1,8,0:0:0:0:
171,323,130338,1,0,0:0:0:0:
367,31,130528,6,8,L|376:106,1,70,0|0,0:0|0:0,0:0:0:0:
428,348,130718,1,0,0:0:0:0:
250,213,130908,1,8,0:0:0:0:
444,63,131097,1,0,0:0:0:0:
320,276,131287,5,8,0:0:0:0:
189,33,131477,1,0,0:0:0:0:
30,292,131667,2,0,L|159:206,1,140
340,68,132047,5,8,0:0:0:0:
173,257,132237,1,0,0:0:0:0:
394,350,132427,1,8,0:0:0:0:
92,336,132616,1,0,0:0:0:0:
64,56,132806,1,8,0:0:0:0:
234,18,132996,2,0,P|246:51|229:102,1,70
206,166,133186,5,8,0:0:0:0:
239,215,133281,1,0,0:0:0:0:
292,236,133376,1,8,0:0:0:0:
384,221,133471,5,8,0:0:0:0:
434,247,133566,1,8,0:0:0:0:
453,302,133661,1,8,0:0:0:0:
428,353,133756,1,8,0:0:0:0:
373,356,133851,1,8,0:0:0:0:
173,326,133946,2,0,P|160:229|209:178,1,140
315,55,134326,5,8,0:0:0:0:
251,262,134516,1,0,0:0:0:0:
206,55,134706,1,0,0:0:0:0:
255,307,134896,1,0,0:0:0:0:
108,79,135086,5,8,0:0:0:0:
385,188,135274,1,0,0:0:0:0:
97,305,135465,1,0,0:0:0:0:
411,191,135655,1,0,0:0:0:0:
406,27,135845,5,8,0:0:0:0:
67,196,136035,1,0,0:0:0:0:
422,347,136225,1,8,0:0:0:0:
236,16,136415,1,0,0:0:0:0:
112,340,136605,5,8,0:0:0:0:
252,184,136794,1,0,0:0:0:0:
338,131,136984,2,0,B|368:101|368:101|424:146|474:129,1,140
228,228,137364,2,8,B|204:212|204:212|184:240|132:244,1,70,0|0,0:0|0:0,0:0:0:0:
49,255,137554,1,0,0:0:0:0:
143,352,137744,2,0,B|159:380|203:376|203:376|195:308|239:276,1,140
245,105,138123,5,8,0:0:0:0:
326,199,138217,2,8,L|444:190,1,70,0|0,0:0|0:0,0:0:0:0:
443,191,138503,5,0,0:0:0:0:
180,272,138693,1,0,0:0:0:0:
312,80,138883,1,8,0:0:0:0:
264,348,139073,1,0,0:0:0:0:
184,48,139263,1,0,0:0:0:0:
464,99,139453,1,0,0:0:0:0:
191,164,139642,6,0,B|161:210|185:271|241:291|287:273|309:238|309:238|347:185|435:198|464:274|433:331|385:346,2,439.929136955097
455,40,140782,2,0,L|427:137,1,70
354,273,140972,1,0,0:0:0:0:
248,164,141160,5,8,0:0:0:0:
160,296,141351,1,0,0:0:0:0:
100,141,141445,2,0,L|87:72,1,70
208,31,141731,2,0,P|276:35|296:151,1,140
431,188,142110,6,0,B|384:181|384:181|353:193|353:193|250:170,2,140
131,324,142679,6,0,P|185:280|248:356,2,140
333,182,143249,2,0,L|261:172,1,70
258,61,143440,5,8,0:0:0:0:
143,330,143630,1,0,0:0:0:0:
398,293,143820,1,0,0:0:0:0:
157,113,144010,1,0,0:0:0:0:
270,349,144198,5,8,0:0:0:0:
338,102,144389,1,0,0:0:0:0:
83,208,144578,1,0,0:0:0:0:
407,189,144769,1,0,0:0:0:0:
89,42,144959,5,8,0:0:0:0:
249,333,145148,1,0,0:0:0:0:
367,230,145338,6,0,L|376:155,1,70
382,64,145528,1,0,0:0:0:0:
198,41,145717,6,0,L|215:132,1,70
235,198,145907,1,0,0:0:0:0:
372,48,146098,5,8,0:0:0:0:
102,144,146288,1,0,0:0:0:0:
297,367,146478,1,8,0:0:0:0:
245,24,146668,1,0,0:0:0:0:
96,325,146858,5,8,0:0:0:0:
421,305,147048,1,0,0:0:0:0:
94,32,147236,1,8,0:0:0:0:
399,33,147426,1,0,0:0:0:0:
252,352,147616,5,8,0:0:0:0:
252,22,147806,1,0,0:0:0:0:
65,226,147996,1,8,0:0:0:0:
331,382,148187,1,0,0:0:0:0:
267,15,148377,5,8,0:0:0:0:
511,200,148567,1,0,0:0:0:0:
260,382,148756,1,8,0:0:0:0:
4,263,148946,1,0,0:0:0:0:
139,100,149136,6,8,L|163:192,1,70,0|0,0:0|0:0,0:0:0:0:
190,267,149326,1,0,0:0:0:0:
267,116,149516,6,8,L|275:210,1,70,0|0,0:0|0:0,0:0:0:0:
291,284,149706,1,0,0:0:0:0:
405,180,149896,6,8,L|397:257,1,70,0|0,0:0|0:0,0:0:0:0:
390,332,150086,1,0,0:0:0:0:
225,179,150274,1,0,0:0:0:0:
411,47,150465,1,0,0:0:0:0:
107,187,150655,6,8,L|201:200,1,70,0|0,0:0|0:0,0:0:0:0:
359,226,150845,1,0,0:0:0:0:
218,362,151034,5,8,0:0:0:0:
248,20,151225,1,8,0:0:0:0:
458,80,151415,5,8,0:0:0:0:
318,375,151605,1,8,0:0:0:0:
61,31,151793,5,8,0:0:0:0:
190,379,151984,1,8,0:0:0:0:
320,238,152174,6,8,P|320:128|243:206,1,280,0|0,0:0|0:0,0:0:0:0:
296,183,152934,5,8,0:0:0:0:
228,324,153124,1,0,0:0:0:0:
129,83,153313,2,0,L|214:73,1,70
317,51,153503,1,0,0:0:0:0:
211,239,153692,5,8,0:0:0:0:
456,142,153883,1,0,0:0:0:0:
33,134,154073,1,0,0:0:0:0:
329,314,154263,6,0,L|238:305,1,70
37,262,154453,1,0,0:0:0:0:
229,52,154643,1,0,0:0:0:0:
135,333,154832,2,0,L|225:311,1,70
422,221,155022,1,0,0:0:0:0:
366,42,155211,5,0,0:0:0:0:
326,350,155402,1,0,0:0:0:0:
80,149,155592,5,8,0:0:0:0:
436,169,155782,1,0,0:0:0:0:
83,285,155972,5,0,0:0:0:0:
430,305,156160,1,0,0:0:0:0:
122,29,156351,5,8,0:0:0:0:
212,367,156541,1,0,0:0:0:0:
400,24,156731,5,0,0:0:0:0:
287,369,156921,1,0,0:0:0:0:
471,164,157111,5,8,0:0:0:0:
83,299,157301,1,0,0:0:0:0:
215,363,157491,6,8,B|252:357|252:357|296:333,1,70,0|0,0:0|0:0,0:0:0:0:
321,352,157679,2,8,B|349:321|349:321|361:280,1,70,0|0,0:0|0:0,0:0:0:0:
402,281,157870,2,8,B|397:238|397:238|373:196,1,70,0|0,0:0|0:0,0:0:0:0:
410,185,158060,2,8,B|381:152|381:152|325:136,1,70,0|0,0:0|0:0,0:0:0:0:
256,192,158225,5,14,0:0:0:0:
352,37,164326,5,2,0:0:0:0:
317,136,165085,1,2,0:0:0:0:
417,199,165465,1,2,0:0:0:0:
365,374,165844,1,2,0:0:0:0:
82,356,166605,5,2,0:0:0:0:
166,194,166984,1,2,0:0:0:0:
82,133,167363,1,2,0:0:0:0:
127,0,168123,5,2,0:0:0:0:
372,84,168503,5,2,0:0:0:0:
129,156,168882,1,2,0:0:0:0:
339,254,169263,1,2,0:0:0:0:
248,348,169643,5,2,0:0:0:0:
243,37,170023,1,2,0:0:0:0:
391,147,170402,6,0,L|373:257,1,105.000004005432
365,301,171162,2,0,L|255:339,1,105.000004005432
231,318,171921,6,0,L|132:262,1,105.000004005432
103,236,172681,2,0,L|81:132,1,105.000004005432
98,90,173440,6,0,L|209:54,1,105.000004005432
227,83,174200,2,0,L|320:143,1,105.000004005432
331,168,174959,6,0,L|343:289,1,105.000004005432
340,322,175719,5,0,0:0:0:0:
320,344,176098,5,0,0:0:0:0:
281,352,176478,5,0,0:0:0:0:
245,340,176858,5,0,0:0:0:0:
213,308,177238,5,0,0:0:0:0:
201,264,177617,5,0,0:0:0:0:
232,184,177997,5,0,0:0:0:0:
88,70,178163,5,8,0:0:0:0:
176,322,178352,1,8,0:0:0:0:
383,38,178733,5,8,0:0:0:0:
320,327,178922,1,8,0:0:0:0:
125,147,179112,1,0,0:0:0:0:
126,44,179492,5,2,0:0:0:0:
211,202,179681,1,2,0:0:0:0:
193,62,179871,1,10,0:0:0:0:
249,275,180061,1,2,0:0:0:0:
386,340,180251,5,2,0:0:0:0:
288,123,180440,1,2,0:0:0:0:
299,363,180630,1,10,0:0:0:0:
210,48,180820,1,2,0:0:0:0:
112,304,181010,5,2,0:0:0:0:
384,96,181199,1,2,0:0:0:0:
96,96,181389,1,10,0:0:0:0:
384,304,181579,1,2,0:0:0:0:
272,0,181770,5,2,0:0:0:0:
448,224,181960,1,2,0:0:0:0:
192,368,182150,1,10,0:0:0:0:
64,128,182340,1,2,0:0:0:0:
240,0,182529,5,2,0:0:0:0:
64,224,182719,1,2,0:0:0:0:
320,368,182909,1,10,0:0:0:0:
448,128,183099,1,2,0:0:0:0:
304,352,183289,5,2,0:0:0:0:
208,0,183479,1,2,0:0:0:0:
16,288,183669,1,10,0:0:0:0:
320,112,183859,1,2,0:0:0:0:
208,352,184048,5,2,0:0:0:0:
304,0,184238,1,2,0:0:0:0:
496,288,184428,1,10,0:0:0:0:
192,112,184618,1,2,0:0:0:0:
512,192,184808,5,2,0:0:0:0:
0,192,184998,1,2,0:0:0:0:
512,192,185188,1,10,0:0:0:0:
0,192,185378,1,2,0:0:0:0:
384,384,185567,5,2,0:0:0:0:
304,0,185757,1,2,0:0:0:0:
112,384,185948,1,10,0:0:0:0:
208,0,186137,1,2,0:0:0:0:
256,384,186327,5,2,0:0:0:0:
256,0,186517,1,2,0:0:0:0:
256,384,186707,1,10,0:0:0:0:
256,0,186897,1,2,0:0:0:0:
0,382,187086,5,2,0:0:0:0:
512,0,187277,1,2,0:0:0:0:
512,384,187467,5,10,0:0:0:0:
0,0,187656,1,2,0:0:0:0:
256,384,187846,5,2,0:0:0:0:
256,0,188036,1,2,0:0:0:0:
0,192,188226,5,10,0:0:0:0:
512,192,188416,1,2,0:0:0:0:
411,347,188605,5,2,0:0:0:0:
411,43,188795,1,2,0:0:0:0:
107,43,188985,1,10,0:0:0:0:
107,340,189175,1,2,0:0:0:0:
411,36,189365,5,2,0:0:0:0:
411,340,189555,1,2,0:0:0:0:
107,340,189745,1,10,0:0:0:0:
107,43,189935,1,2,0:0:0:0:
411,347,190124,5,2,0:0:0:0:
411,43,190314,1,2,0:0:0:0:
107,43,190504,1,10,0:0:0:0:
107,340,190694,1,2,0:0:0:0:
256,80,190884,5,2,0:0:0:0:
256,320,191074,1,2,0:0:0:0:
384,32,191264,1,10,0:0:0:0:
128,32,191454,1,2,0:0:0:0:
256,368,191644,5,2,0:0:0:0:
48,144,191834,1,2,0:0:0:0:
480,144,192023,1,10,0:0:0:0:
256,0,192213,1,2,0:0:0:0:
432,191,192403,5,2,0:0:0:0:
432,343,192498,1,2,0:0:0:0:
280,343,192593,1,2,0:0:0:0:
280,195,192688,1,2,0:0:0:0:
160,192,192783,5,10,0:0:0:0:
160,41,192878,1,2,0:0:0:0:
8,41,192973,1,2,0:0:0:0:
8,189,193068,1,2,0:0:0:0:
12,328,193162,5,2,0:0:0:0:
12,328,193352,1,2,0:0:0:0:
472,306,193542,1,10,0:0:0:0:
136,248,193732,1,2,0:0:0:0:
192,0,193922,5,2,0:0:0:0:
48,280,194112,1,2,0:0:0:0:
440,64,194302,1,10,0:0:0:0:
368,360,194492,1,2,0:0:0:0:
40,56,194681,5,2,0:0:0:0:
440,104,194871,1,2,0:0:0:0:
32,312,195061,1,10,0:0:0:0:
416,336,195251,1,2,0:0:0:0:
87,57,195441,5,2,0:0:0:0:
0,170,195536,1,2,0:0:0:0:
113,256,195631,1,2,0:0:0:0:
196,145,195726,1,2,0:0:0:0:
291,210,195821,5,10,0:0:0:0:
376,96,195916,1,2,0:0:0:0:
490,183,196011,1,2,0:0:0:0:
407,294,196106,1,2,0:0:0:0:
256,336,196200,5,2,0:0:0:0:
256,336,196390,1,2,0:0:0:0:
256,32,196580,5,10,0:0:0:0:
256,32,196770,1,2,0:0:0:0:
304,352,196960,5,2,0:0:0:0:
128,48,197150,1,2,0:0:0:0:
400,288,197340,1,10,0:0:0:0:
64,112,197529,1,2,0:0:0:0:
448,192,197719,5,2,0:0:0:0:
32,192,197909,1,2,0:0:0:0:
432,96,198099,1,10,0:0:0:0:
32,288,198289,1,2,0:0:0:0:
297,327,198479,5,2,0:0:0:0:
322,66,198574,1,2,0:0:0:0:
120,233,198668,1,2,0:0:0:0:
391,150,198764,1,2,0:0:0:0:
214,56,198858,1,10,0:0:0:0:
189,317,198953,1,2,0:0:0:0:
381,258,199048,1,2,0:0:0:0:
130,125,199143,1,2,0:0:0:0:
258,195,199238,5,2,0:0:0:0:
258,195,199428,1,2,0:0:0:0:
150,40,199618,1,10,0:0:0:0:
319,76,199808,1,2,0:0:0:0:
385,243,199998,1,2,0:0:0:0:
220,342,200188,1,2,0:0:0:0:
45,328,200377,5,10,0:0:0:0:
217,158,200567,1,2,0:0:0:0:
424,222,200757,1,2,0:0:0:0:
231,354,200947,1,2,0:0:0:0:
257,146,201137,5,10,0:0:0:0:
444,8,201326,1,2,0:0:0:0:
419,255,201516,1,2,0:0:0:0:
213,330,201707,1,2,0:0:0:0:
39,155,201897,5,10,0:0:0:0:
274,0,202087,1,2,0:0:0:0:
193,194,202276,5,2,0:0:0:0:
296,233,202371,1,2,0:0:0:0:
236,238,202465,1,2,0:0:0:0:
292,123,202560,1,2,0:0:0:0:
322,178,202656,5,10,0:0:0:0:
174,106,202750,1,2,0:0:0:0:
236,96,202845,1,2,0:0:0:0:
119,212,202940,1,2,0:0:0:0:
129,151,203035,5,10,0:0:0:0:
199,327,203130,1,2,0:0:0:0:
140,278,203226,5,10,0:0:0:0:
351,328,203321,1,2,0:0:0:0:
274,345,203416,1,2,0:0:0:0:
445,196,203510,1,2,0:0:0:0:
408,273,203605,1,10,0:0:0:0:
402,33,203700,1,10,0:0:0:0:
401,32,203795,6,0,P|349:140|262:57,1,280
338,69,204387,2,0,L|352:141,2,52.5000020027161
348,198,204767,1,0,0:0:0:0:
332,272,204862,1,0,0:0:0:0:
317,344,204957,1,8,0:0:0:0:
435,59,205147,6,0,L|415:181,1,105.000004005432
386,261,205527,1,2,0:0:0:0:
300,59,205716,1,8,0:0:0:0:
395,216,205906,5,2,0:0:0:0:
277,74,206096,1,0,0:0:0:0:
359,274,206286,5,2,0:0:0:0:
193,67,206476,1,8,0:0:0:0:
396,25,206666,1,2,0:0:0:0:
278,305,206856,6,0,L|260:239,1,52.5000020027161
219,87,207047,1,0,0:0:0:0:
375,156,207235,5,0,0:0:0:0:
108,291,207425,2,0,L|176:267,1,52.5000020027161
366,176,207615,5,0,0:0:0:0:
218,320,207805,1,2,0:0:0:0:
224,60,207995,5,8,0:0:0:0:
447,173,208185,1,2,0:0:0:0:
209,367,208375,5,8,0:0:0:0:
122,43,208565,1,2,0:0:0:0:
370,42,208754,5,8,0:0:0:0:
283,355,208944,1,2,0:0:0:0:
74,232,209134,5,8,0:0:0:0:
458,187,209324,1,2,0:0:0:0:
141,28,209514,5,8,0:0:0:0:
339,358,209704,1,2,0:0:0:0:
408,38,209894,5,8,0:0:0:0:
163,347,210084,1,2,0:0:0:0:
251,0,210273,5,8,0:0:0:0:
488,231,210463,1,2,0:0:0:0:
372,358,210653,6,0,L|363:307,1,52.5000020027161
328,169,210843,1,0,0:0:0:0:
220,46,211033,2,0,L|205:100,1,52.5000020027161
147,229,211223,5,0,0:0:0:0:
381,148,211413,1,0,0:0:0:0:
103,117,211603,1,0,0:0:0:0:
240,365,211792,1,8,0:0:0:0:
369,213,211982,6,0,L|357:141,1,52.5000020027161
332,39,212172,1,0,0:0:0:0:
136,184,212362,1,0,0:0:0:0:
263,344,212552,6,0,L|335:332,1,52.5000020027161
452,286,212742,1,0,0:0:0:0:
232,148,212932,5,2,0:0:0:0:
358,359,213122,1,2,0:0:0:0:
384,57,213311,1,8,0:0:0:0:
107,192,213501,1,2,0:0:0:0:
468,245,213691,5,2,0:0:0:0:
57,44,213881,1,2,0:0:0:0:
282,356,214071,1,8,0:0:0:0:
394,52,214261,1,2,0:0:0:0:
98,210,214451,5,2,0:0:0:0:
365,377,214641,1,0,0:0:0:0:
110,6,214830,1,8,0:0:0:0:
29,348,215020,1,2,0:0:0:0:
151,172,215210,6,0,L|213:192,1,52.5000020027161
329,225,215400,1,0,0:0:0:0:
201,52,215590,1,0,0:0:0:0:
412,340,215780,6,0,L|393:252,1,52.5000020027161
312,56,215970,1,0,0:0:0:0:
242,327,216160,1,0,0:0:0:0:
459,217,216349,1,8,0:0:0:0:
190,94,216539,1,0,0:0:0:0:
334,345,216729,1,0,0:0:0:0:
384,21,216919,1,0,0:0:0:0:
69,140,217109,5,8,0:0:0:0:
467,227,217299,1,0,0:0:0:0:
132,356,217489,1,0,0:0:0:0:
200,0,217679,1,0,0:0:0:0:
373,366,217868,5,8,0:0:0:0:
394,14,218058,1,0,0:0:0:0:
123,145,218248,1,0,0:0:0:0:
461,268,218438,1,0,0:0:0:0:
149,375,218628,5,8,0:0:0:0:
329,98,218818,1,0,0:0:0:0:
382,256,219008,2,0,L|300:275,1,52.5000020027161
88,322,219198,1,0,0:0:0:0:
222,38,219387,1,0,0:0:0:0:
294,260,219577,6,0,L|239:279,1,52.5000020027161
71,345,219767,1,0,0:0:0:0:
180,72,219957,5,0,0:0:0:0:
307,360,220147,2,8,L|333:291,1,52.5000020027161,0|0,0:0|0:0,0:0:0:0:
400,84,220337,5,2,0:0:0:0:
164,50,220527,1,8,0:0:0:0:
301,360,220716,1,2,0:0:0:0:
465,143,220906,1,8,0:0:0:0:
126,375,221096,1,2,0:0:0:0:
288,17,221286,1,8,0:0:0:0:
464,354,221476,1,2,0:0:0:0:
288,190,221666,5,8,0:0:0:0:
109,104,221856,2,0,P|86:147|123:222,1,105.000004005432
189,333,222425,1,0,0:0:0:0:
312,17,222805,6,8,L|289:82,1,52.5000020027161,0|0,0:0|0:0,0:0:0:0:
235,177,222995,1,2,0:0:0:0:
219,178,223185,1,8,0:0:0:0:
25,70,223375,6,0,L|40:122,1,52.5000020027161
85,226,223565,1,8,0:0:0:0:
301,42,223754,1,2,0:0:0:0:
365,179,223944,6,8,L|427:199,1,52.5000020027161,0|0,0:0|0:0,0:0:0:0:
224,228,224134,1,2,0:0:0:0:
431,333,224324,5,8,0:0:0:0:
340,95,224514,1,2,0:0:0:0:
249,349,224704,1,8,0:0:0:0:
68,24,224894,1,2,0:0:0:0:
3,358,225084,1,8,0:0:0:0:
38,325,225463,5,8,0:0:0:0:
309,269,225653,1,2,0:0:0:0:
115,157,225843,1,8,0:0:0:0:
364,74,226033,1,2,0:0:0:0:
307,360,226223,5,8,0:0:0:0:
165,30,226413,1,2,0:0:0:0:
467,34,226603,1,8,0:0:0:0:
315,335,226792,1,2,0:0:0:0:
64,97,226982,5,8,0:0:0:0:
400,142,227172,1,2,0:0:0:0:
264,201,227362,1,10,0:0:0:0:
261,292,227456,1,8,0:0:0:0:
190,351,227551,1,10,0:0:0:0:
101,336,227646,1,8,0:0:0:0:
51,239,227742,1,10,0:0:0:0:
82,114,227836,1,0,0:0:0:0:
149,21,227932,1,2,0:0:0:0:
415,46,228122,5,2,0:0:0:0:
337,347,228311,1,0,0:0:0:0:
101,135,228501,5,2,0:0:0:0:
442,156,228691,1,0,0:0:0:0:
207,344,228881,5,2,0:0:0:0:
274,28,229071,1,0,0:0:0:0:
361,337,229261,5,8,0:0:0:0:
78,139,229451,1,0,0:0:0:0:
409,120,229641,5,2,0:0:0:0:
228,355,229830,5,0,0:0:0:0:
288,24,230020,1,8,0:0:0:0:
423,342,230210,5,0,0:0:0:0:
98,114,230400,1,8,0:0:0:0:
419,98,230590,5,0,0:0:0:0:
92,384,230780,1,8,0:0:0:0:
221,4,230970,1,0,0:0:0:0:
461,339,231160,5,10,0:0:0:0:
445,311,231539,1,0,0:0:0:0:
233,68,231729,2,0,B|228:82|217:95|217:95|237:89|260:114,1,70
360,160,231919,1,0,0:0:0:0:
392,40,232109,2,2,B|418:10|467:37|467:37|429:77|459:143,1,175,0|0,0:0|0:0,0:0:0:0:
337,275,232489,2,8,B|318:324|326:375|326:375|218:273|58:320,1,350,0|0,0:0|0:0,0:0:0:0:
156,190,232868,1,8,0:0:0:0:
33,95,233058,2,8,P|-13:133|43:116,2,140,0|0|0,0:0|0:0|0:0,0:0:0:0:
253,343,233628,5,10,0:0:0:0:
385,269,233723,1,8,0:0:0:0:
388,118,233818,1,10,0:0:0:0:
258,40,233913,1,8,0:0:0:0:
126,114,234008,1,10,0:0:0:0:
123,265,234103,1,0,0:0:0:0:
258,356,234198,6,0,B|303:367|303:367|399:329,1,140
462,257,234577,1,0,0:0:0:0:
251,219,234767,1,2,0:0:0:0:
353,338,234957,1,8,0:0:0:0:
274,85,235147,1,2,0:0:0:0:
132,317,235337,5,8,0:0:0:0:
421,186,235527,1,2,0:0:0:0:
224,0,235716,1,8,0:0:0:0:
279,293,235906,1,2,0:0:0:0:
453,63,236096,5,8,0:0:0:0:
161,117,236286,1,2,0:0:0:0:
394,350,236476,1,8,0:0:0:0:
54,329,236666,1,2,0:0:0:0:
200,234,236856,2,8,B|275:239|275:239|285:252|285:252|315:259|323:232,1,140,0|0,0:0|0:0,0:0:0:0:
416,93,237235,5,0,0:0:0:0:
286,109,237615,2,8,B|245:115|245:115|219:94|219:94|155:83,1,140,0|0,0:0|0:0,0:0:0:0:
48,68,237995,1,8,0:0:0:0:
70,36,238185,6,2,B|210:-10|234:317,1,350,0|0,0:0|0:0,0:0:0:0:
247,348,238565,1,0,0:0:0:0:
396,17,238754,1,8,0:0:0:0:
394,239,238944,1,2,0:0:0:0:
231,32,239134,1,8,0:0:0:0:
382,328,239324,1,2,0:0:0:0:
427,39,239514,1,8,0:0:0:0:
271,359,239704,6,0,L|258:268,1,70
221,34,239894,1,8,0:0:0:0:
145,131,240084,2,0,L|132:222,1,70
80,317,240274,1,8,0:0:0:0:
361,104,240463,1,0,0:0:0:0:
368,372,240653,5,8,0:0:0:0:
257,95,240843,1,0,0:0:0:0:
466,352,241033,1,8,0:0:0:0:
151,162,241223,1,0,0:0:0:0:
493,279,241413,5,8,0:0:0:0:
92,232,241603,1,0,0:0:0:0:
493,194,241792,1,8,0:0:0:0:
67,320,241982,1,0,0:0:0:0:
467,103,242172,5,8,0:0:0:0:
118,384,242362,1,0,0:0:0:0:
409,37,242552,1,8,0:0:0:0:
214,376,242742,1,0,0:0:0:0:
251,110,242932,6,2,B|191:93|191:93|109:110|109:110|6:219,1,210.000008010865,0|0,0:0|0:0,0:0:0:0:
425,327,243311,1,8,0:0:0:0:
263,12,243691,1,0,0:0:0:0:
168,384,243881,1,0,0:0:0:0:
385,226,244071,1,0,0:0:0:0:
220,147,244261,6,0,P|152:146|223:150,1,245.000002336502,0|2,0:0|0:0,0:0:0:0:
190,183,244451,1,0,0:0:0:0:
264,361,244641,6,0,L|281:268,1,70
321,38,244830,1,0,0:0:0:0:
146,303,245020,1,0,0:0:0:0:
358,15,245210,1,0,0:0:0:0:
412,347,245400,1,0,0:0:0:0:
305,196,245590,1,0,0:0:0:0:
201,90,245780,6,0,B|177:90|166:69|166:69|139:70|129:106,1,70
63,159,245970,2,0,B|54:175|33:183|33:183|57:198|61:242,1,70
131,293,246160,2,0,B|134:321|157:326|157:326|175:283|206:291,1,70
249,206,246349,5,0,0:0:0:0:
425,41,246539,1,0,0:0:0:0:
282,363,246729,1,0,0:0:0:0:
123,48,246919,1,0,0:0:0:0:
445,181,247109,1,0,0:0:0:0:
48,330,247299,1,0,0:0:0:0:
194,12,247489,1,0,0:0:0:0:
486,0,247679,1,0,0:0:0:0:
324,357,247868,5,8,0:0:0:0:
255,371,247963,1,8,0:0:0:0:
420,260,248058,5,8,0:0:0:0:
382,318,248153,1,8,0:0:0:0:
129,318,248248,5,8,0:0:0:0:
187,357,248343,1,8,0:0:0:0:
76,191,248438,5,8,0:0:0:0:
90,260,248533,1,8,0:0:0:0:
129,65,248628,5,8,0:0:0:0:
90,123,248723,1,8,0:0:0:0:
256,12,248818,5,8,0:0:0:0:
187,26,248913,1,8,0:0:0:0:
382,65,249008,5,8,0:0:0:0:
324,26,249103,1,8,0:0:0:0:
435,192,249198,5,8,0:0:0:0:
421,123,249292,1,8,0:0:0:0:
276,176,249387,2,0,P|262:169|282:184,1,140
384,172,249767,5,8,0:0:0:0:
132,240,249957,1,0,0:0:0:0:
348,369,250147,2,0,B|357:349|357:349|348:310|348:310|360:277,1,70
391,8,250337,2,0,B|379:28|379:28|386:62|386:62|379:96,1,70
365,187,250527,5,8,0:0:0:0:
126,158,250716,2,0,L|6:142,1,70
294,176,250906,1,0,0:0:0:0:
126,158,251096,2,0,L|217:171,1,70
426,194,251286,5,8,0:0:0:0:
318,340,251476,2,0,L|325:223,1,70
340,72,251666,1,0,0:0:0:0:
327,200,251856,2,0,L|318:311,1,70
344,32,252046,5,8,0:0:0:0:
313,343,252141,1,0,0:0:0:0:
320,330,252235,2,2,L|-46:235,1,350,0|0,0:0|0:0,0:0:0:0:
42,184,252615,1,0,0:0:0:0:
51,174,252710,1,0,0:0:0:0:
276,0,252805,5,8,0:0:0:0:
472,325,252995,1,0,0:0:0:0:
411,231,253184,1,0,0:0:0:0:
301,228,253375,1,0,0:0:0:0:
492,56,253564,5,8,0:0:0:0:
229,355,253754,1,0,0:0:0:0:
337,357,253944,1,0,0:0:0:0:
387,263,254134,1,0,0:0:0:0:
0,384,254324,5,8,0:0:0:0:
124,332,254514,2,0,L|100:232,1,70
68,124,254704,1,0,0:0:0:0:
68,124,254894,1,0,0:0:0:0:
512,383,255084,5,8,0:0:0:0:
264,220,255273,2,0,L|288:124,1,70
512,0,255463,5,8,0:0:0:0:
288,236,255653,2,0,L|268:332,1,70
332,48,255843,1,0,0:0:0:0:
168,76,256033,5,0,0:0:0:0:
154,144,256127,1,0,0:0:0:0:
141,213,256222,1,0,0:0:0:0:
168,76,256413,5,0,0:0:0:0:
146,188,256507,1,0,0:0:0:0:
124,301,256602,1,8,0:0:0:0:
224,370,256792,2,8,P|261:375|255:333,1,70,0|0,0:0|0:0,0:0:0:0:
261,175,256982,5,10,0:0:0:0:
341,118,257077,1,8,0:0:0:0:
438,152,257172,2,10,P|456:175|466:219,1,70,0|0,0:0|0:0,0:0:0:0:
339,236,257362,5,10,0:0:0:0:
249,305,257457,1,8,0:0:0:0:
126,280,257551,2,10,P|98:249|106:201,1,70,0|0,0:0|0:0,0:0:0:0:
112,52,257742,5,10,0:0:0:0:
292,164,257837,1,8,0:0:0:0:
126,280,257931,5,10,0:0:0:0:
152,144,258026,1,8,0:0:0:0:
272,56,258122,1,10,0:0:0:0:
424,56,258216,1,8,0:0:0:0:
512,184,258311,5,10,0:0:0:0:
296,280,258406,1,8,0:0:0:0:
96,368,258501,1,10,0:0:0:0:
