osu file format v14

[General]
AudioFilename: audio.mp3
AudioLeadIn: 0
PreviewTime: -1
Countdown: 1
SampleSet: Normal
StackLeniency: 0.7
Mode: 1
LetterboxInBreaks: 0
WidescreenStoryboard: 1

[Editor]
DistanceSpacing: 0.8
BeatDivisor: 4
GridSize: 32
TimelineZoom: 2.6

[Metadata]
Title:FUJIN Rumble (tpz Overheat Remix)
TitleUnicode:FUJIN Rumble (tpz Overheat Remix)
Artist:COSIO(ZUNTATA)
ArtistUnicode:COSIO(ZUNTATA)
Creator:jyake_ou
Version:Jiro Oni (remake)
Source:GROOVE COASTER ORIGINAL SOUNDTRACK BOOST
Tags:hot
BeatmapID:1526737
BeatmapSetID:702807

[Difficulty]
HPDrainRate:7
CircleSize:5
OverallDifficulty:6
ApproachRate:5
SliderMultiplier:1.4
SliderTickRate:1

[Events]
//Background and Video events
0,0,"3948272938-volcano_1024.jpg",0,0
//Break Periods
//Storyboard Layer 0 (Background)
//Storyboard Layer 1 (Fail)
//Storyboard Layer 2 (Pass)
//Storyboard Layer 3 (Foreground)
//Storyboard Sound Samples

[TimingPoints]
156,352.941176470588,4,1,0,100,1,0
11450,-100,4,1,0,100,0,1
34038,-100,4,1,0,100,0,0
67920,-100,4,1,0,100,0,1
89097,-100,4,1,0,100,0,0
90508,-100,4,1,0,100,0,1
113097,-100,4,1,0,100,0,0

[HitObjects]
256,192,156,5,0,0:0:0:0:
256,192,420,1,0,0:0:0:0:
256,192,685,1,0,0:0:0:0:
256,192,1038,1,0,0:0:0:0:
256,192,1214,1,0,0:0:0:0:
256,192,1567,1,0,0:0:0:0:
256,192,1832,1,0,0:0:0:0:
256,192,2097,1,0,0:0:0:0:
256,192,2450,1,0,0:0:0:0:
256,192,2626,1,0,0:0:0:0:
256,192,2714,1,0,0:0:0:0:
256,192,2803,1,0,0:0:0:0:
256,192,2979,1,0,0:0:0:0:
256,192,3244,1,0,0:0:0:0:
256,192,3508,1,0,0:0:0:0:
256,192,3861,1,0,0:0:0:0:
256,192,4038,1,0,0:0:0:0:
256,192,4391,1,0,0:0:0:0:
256,192,4567,1,0,0:0:0:0:
256,192,4655,1,0,0:0:0:0:
256,192,4744,1,0,0:0:0:0:
256,192,4920,1,0,0:0:0:0:
256,192,5097,1,0,0:0:0:0:
256,192,5185,1,0,0:0:0:0:
256,192,5273,1,0,0:0:0:0:
256,192,5361,1,0,0:0:0:0:
256,192,5450,1,0,0:0:0:0:
256,192,5626,1,8,0:0:0:0:
256,192,5803,1,0,0:0:0:0:
256,192,5979,1,8,0:0:0:0:
256,192,6067,1,0,0:0:0:0:
256,192,6244,1,0,0:0:0:0:
256,192,6332,1,8,0:0:0:0:
256,192,6508,1,0,0:0:0:0:
256,192,6685,1,8,0:0:0:0:
256,192,6861,1,0,0:0:0:0:
256,192,7038,1,8,0:0:0:0:
256,192,7126,1,8,0:0:0:0:
256,192,7214,1,0,0:0:0:0:
256,192,7391,1,8,0:0:0:0:
256,192,7479,1,0,0:0:0:0:
256,192,7655,1,0,0:0:0:0:
256,192,7744,1,8,0:0:0:0:
256,192,7920,1,0,0:0:0:0:
256,192,8097,1,8,0:0:0:0:
256,192,8273,1,0,0:0:0:0:
256,192,8361,1,0,0:0:0:0:
256,192,8450,1,8,0:0:0:0:
256,192,8626,1,0,0:0:0:0:
256,192,8803,1,8,0:0:0:0:
256,192,8891,1,0,0:0:0:0:
256,192,9067,1,0,0:0:0:0:
256,192,9155,1,8,0:0:0:0:
256,192,9332,1,8,0:0:0:0:
256,192,9391,1,8,0:0:0:0:
256,192,9450,1,8,0:0:0:0:
256,192,9508,1,0,0:0:0:0:
256,192,9597,1,8,0:0:0:0:
256,192,9685,1,0,0:0:0:0:
256,192,9773,1,0,0:0:0:0:
256,192,9861,1,8,0:0:0:0:
256,192,9950,1,8,0:0:0:0:
256,192,10038,1,0,0:0:0:0:
256,192,10214,1,0,0:0:0:0:
256,192,10391,1,0,0:0:0:0:
256,192,10567,1,0,0:0:0:0:
256,192,10744,1,12,0:0:0:0:
256,192,11097,1,8,0:0:0:0:
256,192,11185,1,8,0:0:0:0:
256,192,11273,1,0,0:0:0:0:
256,192,11361,1,0,0:0:0:0:
256,192,11450,1,0,0:0:0:0:
256,192,11626,1,8,0:0:0:0:
256,192,11714,1,0,0:0:0:0:
256,192,11891,1,8,0:0:0:0:
256,192,11979,1,8,0:0:0:0:
256,192,12067,1,0,0:0:0:0:
256,192,12155,1,0,0:0:0:0:
256,192,12332,1,0,0:0:0:0:
256,192,12508,1,8,0:0:0:0:
256,192,12597,1,8,0:0:0:0:
256,192,12685,1,0,0:0:0:0:
256,192,12773,1,0,0:0:0:0:
256,192,12861,1,0,0:0:0:0:
256,192,13038,1,8,0:0:0:0:
256,192,13126,1,0,0:0:0:0:
256,192,13303,1,0,0:0:0:0:
256,192,13391,1,0,0:0:0:0:
256,192,13479,1,8,0:0:0:0:
256,192,13567,1,8,0:0:0:0:
256,192,13744,1,0,0:0:0:0:
256,192,13920,1,8,0:0:0:0:
256,192,14008,1,8,0:0:0:0:
256,192,14097,1,0,0:0:0:0:
256,192,14185,1,0,0:0:0:0:
256,192,14273,1,0,0:0:0:0:
256,192,14450,1,8,0:0:0:0:
256,192,14538,1,8,0:0:0:0:
256,192,14714,1,0,0:0:0:0:
256,192,14803,1,8,0:0:0:0:
256,192,14891,1,8,0:0:0:0:
256,192,14979,1,8,0:0:0:0:
256,192,15155,1,8,0:0:0:0:
256,192,15332,1,8,0:0:0:0:
256,192,15420,1,0,0:0:0:0:
256,192,15508,1,8,0:0:0:0:
256,192,15597,1,8,0:0:0:0:
256,192,15685,1,0,0:0:0:0:
256,192,15773,1,0,0:0:0:0:
256,192,15861,1,8,0:0:0:0:
256,192,15950,1,0,0:0:0:0:
256,192,16038,1,0,0:0:0:0:
256,192,16126,1,0,0:0:0:0:
256,192,16214,1,8,0:0:0:0:
256,192,16303,1,8,0:0:0:0:
256,192,16391,1,0,0:0:0:0:
256,192,16479,1,8,0:0:0:0:
256,192,16567,1,8,0:0:0:0:
256,192,16655,1,8,0:0:0:0:
256,192,16744,1,0,0:0:0:0:
256,192,16832,1,0,0:0:0:0:
256,192,16920,1,8,0:0:0:0:
256,192,17008,1,8,0:0:0:0:
256,192,17097,1,0,0:0:0:0:
256,192,17273,1,8,0:0:0:0:
256,192,17361,1,0,0:0:0:0:
256,192,17538,1,8,0:0:0:0:
256,192,17626,1,0,0:0:0:0:
256,192,17714,1,8,0:0:0:0:
256,192,17803,1,0,0:0:0:0:
256,192,17891,1,0,0:0:0:0:
256,192,17979,1,8,0:0:0:0:
256,192,18155,1,0,0:0:0:0:
256,192,18244,1,8,0:0:0:0:
256,192,18332,1,0,0:0:0:0:
256,192,18420,1,0,0:0:0:0:
256,192,18508,1,8,0:0:0:0:
256,192,18597,1,0,0:0:0:0:
256,192,18685,1,0,0:0:0:0:
256,192,18773,1,8,0:0:0:0:
256,192,18950,1,0,0:0:0:0:
256,192,19038,1,8,0:0:0:0:
256,192,19126,1,8,0:0:0:0:
256,192,19214,1,0,0:0:0:0:
256,192,19391,1,8,0:0:0:0:
256,192,19567,1,8,0:0:0:0:
256,192,19655,1,0,0:0:0:0:
256,192,19744,1,8,0:0:0:0:
256,192,19832,1,8,0:0:0:0:
256,192,19920,1,0,0:0:0:0:
256,192,20008,1,8,0:0:0:0:
256,192,20097,1,8,0:0:0:0:
256,192,20185,1,0,0:0:0:0:
256,192,20361,1,0,0:0:0:0:
256,192,20450,1,8,0:0:0:0:
256,192,20538,1,8,0:0:0:0:
256,192,20626,1,0,0:0:0:0:
256,192,20803,1,8,0:0:0:0:
256,192,20979,1,8,0:0:0:0:
256,192,21067,1,0,0:0:0:0:
256,192,21155,1,8,0:0:0:0:
256,192,21332,1,4,0:0:0:0:
256,192,21508,1,4,0:0:0:0:
256,192,21685,1,8,0:0:0:0:
256,192,21773,1,0,0:0:0:0:
256,192,21861,1,8,0:0:0:0:
256,192,21950,1,8,0:0:0:0:
256,192,22038,1,0,0:0:0:0:
256,192,22126,1,8,0:0:0:0:
256,192,22214,1,0,0:0:0:0:
256,192,22303,1,0,0:0:0:0:
256,192,22391,1,8,0:0:0:0:
256,192,22567,1,0,0:0:0:0:
256,192,22744,1,8,0:0:0:0:
256,192,22832,1,0,0:0:0:0:
256,192,22920,1,8,0:0:0:0:
256,192,23008,1,8,0:0:0:0:
256,192,23097,1,8,0:0:0:0:
256,192,23185,1,0,0:0:0:0:
256,192,23273,1,8,0:0:0:0:
256,192,23361,1,8,0:0:0:0:
256,192,23450,1,0,0:0:0:0:
256,192,23538,1,0,0:0:0:0:
256,192,23626,1,8,0:0:0:0:
256,192,23803,1,0,0:0:0:0:
256,192,23891,1,8,0:0:0:0:
256,192,23979,1,8,0:0:0:0:
256,192,24067,1,8,0:0:0:0:
256,192,24155,1,0,0:0:0:0:
256,192,24332,1,8,0:0:0:0:
256,192,24420,1,0,0:0:0:0:
256,192,24597,1,0,0:0:0:0:
256,192,24685,1,0,0:0:0:0:
256,192,24773,1,8,0:0:0:0:
256,192,24861,1,8,0:0:0:0:
256,192,25038,1,0,0:0:0:0:
256,192,25214,1,8,0:0:0:0:
256,192,25303,1,8,0:0:0:0:
256,192,25391,1,0,0:0:0:0:
256,192,25479,1,0,0:0:0:0:
256,192,25567,1,0,0:0:0:0:
256,192,25744,1,8,0:0:0:0:
256,192,25832,1,8,0:0:0:0:
256,192,26008,1,0,0:0:0:0:
256,192,26097,1,8,0:0:0:0:
256,192,26185,1,8,0:0:0:0:
256,192,26273,1,8,0:0:0:0:
256,192,26450,1,8,0:0:0:0:
256,192,26626,1,8,0:0:0:0:
256,192,26714,1,0,0:0:0:0:
256,192,26803,1,8,0:0:0:0:
256,192,26891,1,8,0:0:0:0:
256,192,26979,1,0,0:0:0:0:
256,192,27067,1,0,0:0:0:0:
256,192,27155,1,8,0:0:0:0:
256,192,27244,1,0,0:0:0:0:
256,192,27332,1,0,0:0:0:0:
256,192,27420,1,0,0:0:0:0:
256,192,27508,1,8,0:0:0:0:
256,192,27597,1,8,0:0:0:0:
256,192,27685,1,0,0:0:0:0:
256,192,27773,1,8,0:0:0:0:
256,192,27861,1,0,0:0:0:0:
256,192,27950,1,8,0:0:0:0:
256,192,28038,1,0,0:0:0:0:
256,192,28126,1,0,0:0:0:0:
256,192,28214,1,8,0:0:0:0:
256,192,28303,1,8,0:0:0:0:
256,192,28391,1,0,0:0:0:0:
256,192,28567,1,8,0:0:0:0:
256,192,28655,1,0,0:0:0:0:
256,192,28832,1,8,0:0:0:0:
256,192,28920,1,8,0:0:0:0:
256,192,29008,1,0,0:0:0:0:
256,192,29097,1,0,0:0:0:0:
256,192,29273,1,8,0:0:0:0:
256,192,29361,1,8,0:0:0:0:
256,192,29450,1,0,0:0:0:0:
256,192,29538,1,0,0:0:0:0:
256,192,29626,1,0,0:0:0:0:
256,192,29714,1,0,0:0:0:0:
256,192,29803,1,8,0:0:0:0:
256,192,29979,1,0,0:0:0:0:
256,192,30067,1,8,0:0:0:0:
256,192,30244,1,0,0:0:0:0:
256,192,30332,1,0,0:0:0:0:
256,192,30420,1,8,0:0:0:0:
256,192,30508,1,8,0:0:0:0:
256,192,30685,1,8,0:0:0:0:
256,192,30773,1,8,0:0:0:0:
256,192,30861,1,0,0:0:0:0:
256,192,30950,1,0,0:0:0:0:
256,192,31038,1,0,0:0:0:0:
256,192,31126,1,0,0:0:0:0:
256,192,31214,1,8,0:0:0:0:
256,192,31391,1,8,0:0:0:0:
256,192,31479,1,8,0:0:0:0:
256,192,31567,1,0,0:0:0:0:
256,192,31655,1,0,0:0:0:0:
256,192,31744,1,8,0:0:0:0:
256,192,31832,1,8,0:0:0:0:
256,192,31920,1,0,0:0:0:0:
256,192,32008,1,0,0:0:0:0:
256,192,32097,1,8,0:0:0:0:
256,192,32185,1,8,0:0:0:0:
256,192,32273,1,0,0:0:0:0:
256,192,32361,1,8,0:0:0:0:
256,192,32450,1,0,0:0:0:0:
256,192,32538,1,8,0:0:0:0:
256,192,32626,1,0,0:0:0:0:
256,192,32979,1,8,0:0:0:0:
256,192,33038,1,8,0:0:0:0:
256,192,33097,1,8,0:0:0:0:
256,192,33155,1,8,0:0:0:0:
256,192,33214,1,8,0:0:0:0:
256,192,33273,1,8,0:0:0:0:
256,192,33332,1,8,0:0:0:0:
256,192,33391,1,8,0:0:0:0:
256,192,33450,1,8,0:0:0:0:
256,192,33508,1,8,0:0:0:0:
256,192,33567,1,8,0:0:0:0:
256,192,33626,1,8,0:0:0:0:
256,192,33685,1,0,0:0:0:0:
256,192,34038,1,0,0:0:0:0:
256,192,34391,1,8,0:0:0:0:
256,192,34744,1,0,0:0:0:0:
256,192,34920,1,8,0:0:0:0:
256,192,35097,1,0,0:0:0:0:
256,192,35273,1,0,0:0:0:0:
256,192,35626,1,0,0:0:0:0:
256,192,35803,1,8,0:0:0:0:
256,192,35979,1,0,0:0:0:0:
256,192,36332,1,0,0:0:0:0:
256,192,36685,1,0,0:0:0:0:
256,192,37391,1,0,0:0:0:0:
256,192,37567,1,8,0:0:0:0:
256,192,37832,1,8,0:0:0:0:
256,192,37920,1,0,0:0:0:0:
256,192,38097,1,0,0:0:0:0:
256,192,38450,1,0,0:0:0:0:
256,192,38626,1,0,0:0:0:0:
256,192,38803,1,0,0:0:0:0:
256,192,38979,1,8,0:0:0:0:
256,192,39244,1,8,0:0:0:0:
256,192,39332,1,0,0:0:0:0:
256,192,39508,1,0,0:0:0:0:
256,192,39685,1,0,0:0:0:0:
256,192,40038,1,8,0:0:0:0:
256,192,40391,1,0,0:0:0:0:
256,192,40567,1,8,0:0:0:0:
256,192,40744,1,0,0:0:0:0:
256,192,40920,1,0,0:0:0:0:
256,192,41273,1,0,0:0:0:0:
256,192,41450,1,8,0:0:0:0:
256,192,41626,1,0,0:0:0:0:
256,192,41803,1,0,0:0:0:0:
256,192,41979,1,0,0:0:0:0:
256,192,42155,1,8,0:0:0:0:
256,192,42332,1,0,0:0:0:0:
256,192,43038,1,0,0:0:0:0:
256,192,43214,1,8,0:0:0:0:
256,192,43479,1,8,0:0:0:0:
256,192,43567,1,0,0:0:0:0:
256,192,43744,1,0,0:0:0:0:
256,192,44097,1,0,0:0:0:0:
256,192,44273,1,0,0:0:0:0:
256,192,44450,1,0,0:0:0:0:
256,192,44538,1,8,0:0:0:0:
256,192,44626,1,8,0:0:0:0:
256,192,44803,1,0,0:0:0:0:
256,192,44891,1,0,0:0:0:0:
256,192,44979,1,8,0:0:0:0:
256,192,45155,1,8,0:0:0:0:
256,192,45332,1,0,0:0:0:0:
256,192,45508,1,0,0:0:0:0:
256,192,45685,1,8,0:0:0:0:
256,192,45861,1,8,0:0:0:0:
256,192,45950,1,8,0:0:0:0:
256,192,46038,1,0,0:0:0:0:
256,192,46214,1,0,0:0:0:0:
256,192,46391,1,8,0:0:0:0:
256,192,46567,1,0,0:0:0:0:
256,192,46655,1,0,0:0:0:0:
256,192,46744,1,0,0:0:0:0:
256,192,46832,1,0,0:0:0:0:
256,192,46920,1,0,0:0:0:0:
256,192,47008,1,0,0:0:0:0:
256,192,47097,1,8,0:0:0:0:
256,192,47273,1,0,0:0:0:0:
256,192,47361,1,0,0:0:0:0:
256,192,47450,1,0,0:0:0:0:
256,192,47626,1,0,0:0:0:0:
256,192,47803,1,0,0:0:0:0:
256,192,47891,1,0,0:0:0:0:
256,192,47979,1,8,0:0:0:0:
256,192,48067,1,8,0:0:0:0:
256,192,48155,1,0,0:0:0:0:
256,192,48244,1,0,0:0:0:0:
256,192,48420,1,0,0:0:0:0:
256,192,48508,1,8,0:0:0:0:
256,192,48685,1,0,0:0:0:0:
256,192,48773,1,0,0:0:0:0:
256,192,48861,1,8,0:0:0:0:
256,192,49126,1,8,0:0:0:0:
256,192,49214,1,8,0:0:0:0:
256,192,49391,1,8,0:0:0:0:
256,192,49567,1,8,0:0:0:0:
256,192,49744,1,8,0:0:0:0:
256,192,49832,1,0,0:0:0:0:
256,192,49920,1,8,0:0:0:0:
256,192,50097,1,8,0:0:0:0:
256,192,50273,1,0,0:0:0:0:
256,192,50361,1,0,0:0:0:0:
256,192,50450,1,0,0:0:0:0:
256,192,50538,1,8,0:0:0:0:
256,192,50626,1,8,0:0:0:0:
256,192,50803,1,8,0:0:0:0:
256,192,50979,1,0,0:0:0:0:
256,192,51332,1,8,0:0:0:0:
256,192,51685,1,0,0:0:0:0:
256,192,51861,1,8,0:0:0:0:
256,192,52038,1,0,0:0:0:0:
256,192,52214,1,0,0:0:0:0:
256,192,52567,1,0,0:0:0:0:
256,192,52744,1,8,0:0:0:0:
256,192,52920,1,0,0:0:0:0:
256,192,53097,1,0,0:0:0:0:
256,192,53273,1,0,0:0:0:0:
256,192,53450,1,8,0:0:0:0:
256,192,53538,1,0,0:0:0:0:
256,192,53626,1,8,0:0:0:0:
256,192,53803,1,8,0:0:0:0:
256,192,53891,1,8,0:0:0:0:
256,192,54067,1,8,0:0:0:0:
256,192,54244,1,0,0:0:0:0:
256,192,54332,1,0,0:0:0:0:
256,192,54508,1,8,0:0:0:0:
256,192,54773,1,8,0:0:0:0:
256,192,54861,1,0,0:0:0:0:
256,192,54950,1,0,0:0:0:0:
256,192,55038,1,8,0:0:0:0:
256,192,55214,1,0,0:0:0:0:
256,192,55391,1,8,0:0:0:0:
256,192,55479,1,8,0:0:0:0:
256,192,55744,1,8,0:0:0:0:
256,192,55832,1,8,0:0:0:0:
256,192,56097,1,8,0:0:0:0:
256,192,56185,1,8,0:0:0:0:
256,192,56273,1,0,0:0:0:0:
256,192,56361,1,0,0:0:0:0:
256,192,56450,1,8,0:0:0:0:
256,192,56626,1,0,0:0:0:0:
256,192,56803,1,8,0:0:0:0:
256,192,56979,1,8,0:0:0:0:
256,192,57067,1,8,0:0:0:0:
256,192,57244,1,0,0:0:0:0:
256,192,57420,1,0,0:0:0:0:
256,192,57508,1,8,0:0:0:0:
256,192,57685,1,0,0:0:0:0:
256,192,57861,1,8,0:0:0:0:
256,192,57950,1,8,0:0:0:0:
256,192,58038,1,0,0:0:0:0:
256,192,58214,1,8,0:0:0:0:
256,192,58391,1,8,0:0:0:0:
256,192,58479,1,8,0:0:0:0:
256,192,58655,1,0,0:0:0:0:
256,192,58744,1,0,0:0:0:0:
256,192,58920,1,8,0:0:0:0:
256,192,59008,1,0,0:0:0:0:
256,192,59097,1,8,0:0:0:0:
256,192,59273,1,4,0:0:0:0:
256,192,59450,1,4,0:0:0:0:
256,192,59626,1,8,0:0:0:0:
256,192,59803,1,0,0:0:0:0:
256,192,59891,1,0,0:0:0:0:
256,192,60067,1,0,0:0:0:0:
256,192,60155,1,8,0:0:0:0:
256,192,60332,1,0,0:0:0:0:
256,192,60420,1,0,0:0:0:0:
256,192,60508,1,0,0:0:0:0:
256,192,60685,1,4,0:0:0:0:
256,192,60861,1,4,0:0:0:0:
256,192,61038,1,8,0:0:0:0:
256,192,61126,1,0,0:0:0:0:
256,192,61214,1,8,0:0:0:0:
256,192,61391,1,0,0:0:0:0:
256,192,61567,1,8,0:0:0:0:
256,192,61744,1,0,0:0:0:0:
256,192,61832,1,8,0:0:0:0:
256,192,62008,1,0,0:0:0:0:
256,192,62097,1,8,0:0:0:0:
256,192,62155,1,8,0:0:0:0:
256,192,62214,1,8,0:0:0:0:
256,192,62273,1,0,0:0:0:0:
256,192,62538,1,8,0:0:0:0:
256,192,62626,1,0,0:0:0:0:
256,192,62803,1,12,0:0:0:0:
256,192,62979,1,4,0:0:0:0:
256,192,63244,1,8,0:0:0:0:
256,192,63332,1,0,0:0:0:0:
256,192,63508,1,12,0:0:0:0:
256,192,63685,1,4,0:0:0:0:
256,192,63861,1,8,0:0:0:0:
256,192,63950,1,8,0:0:0:0:
256,192,64038,1,0,0:0:0:0:
256,192,64214,1,12,0:0:0:0:
256,192,64391,1,4,0:0:0:0:
256,192,64567,1,8,0:0:0:0:
256,192,64655,1,8,0:0:0:0:
256,192,64744,1,0,0:0:0:0:
256,192,64920,1,12,0:0:0:0:
256,192,65097,1,4,0:0:0:0:
256,192,65273,1,8,0:0:0:0:
256,192,65361,1,8,0:0:0:0:
256,192,65450,1,0,0:0:0:0:
256,192,65626,1,8,0:0:0:0:
256,192,65714,1,8,0:0:0:0:
256,192,65803,1,0,0:0:0:0:
256,192,65891,1,0,0:0:0:0:
256,192,65979,1,8,0:0:0:0:
256,192,66067,1,8,0:0:0:0:
256,192,66155,1,0,0:0:0:0:
256,192,66244,1,8,0:0:0:0:
256,192,66332,1,0,0:0:0:0:
256,192,66420,1,8,0:0:0:0:
256,192,67920,1,0,0:0:0:0:
256,192,68097,1,0,0:0:0:0:
256,192,68185,1,0,0:0:0:0:
256,192,68273,1,8,0:0:0:0:
256,192,68361,1,8,0:0:0:0:
256,192,68450,1,0,0:0:0:0:
256,192,68538,1,0,0:0:0:0:
256,192,68626,1,0,0:0:0:0:
256,192,68714,1,8,0:0:0:0:
256,192,68803,1,8,0:0:0:0:
256,192,68891,1,0,0:0:0:0:
256,192,68979,1,8,0:0:0:0:
256,192,69067,1,0,0:0:0:0:
256,192,69155,1,8,0:0:0:0:
256,192,69244,1,8,0:0:0:0:
256,192,69332,1,0,0:0:0:0:
256,192,69508,1,0,0:0:0:0:
256,192,69597,1,0,0:0:0:0:
256,192,69685,1,8,0:0:0:0:
256,192,69773,1,8,0:0:0:0:
256,192,69861,1,0,0:0:0:0:
256,192,69950,1,0,0:0:0:0:
256,192,70038,1,0,0:0:0:0:
256,192,70126,1,8,0:0:0:0:
256,192,70214,1,8,0:0:0:0:
256,192,70303,1,0,0:0:0:0:
256,192,70391,1,8,0:0:0:0:
256,192,70479,1,0,0:0:0:0:
256,192,70567,1,8,0:0:0:0:
256,192,70655,1,0,0:0:0:0:
256,192,70744,1,0,0:0:0:0:
256,192,70832,1,0,0:0:0:0:
256,192,70920,1,8,0:0:0:0:
256,192,71008,1,8,0:0:0:0:
256,192,71097,1,0,0:0:0:0:
256,192,71185,1,0,0:0:0:0:
256,192,71273,1,8,0:0:0:0:
256,192,71361,1,8,0:0:0:0:
256,192,71450,1,8,0:0:0:0:
256,192,71538,1,0,0:0:0:0:
256,192,71626,1,0,0:0:0:0:
256,192,71714,1,0,0:0:0:0:
256,192,71803,1,8,0:0:0:0:
256,192,71891,1,8,0:0:0:0:
256,192,71979,1,0,0:0:0:0:
256,192,72067,1,0,0:0:0:0:
256,192,72155,1,8,0:0:0:0:
256,192,72244,1,8,0:0:0:0:
256,192,72332,1,0,0:0:0:0:
256,192,72420,1,0,0:0:0:0:
256,192,72508,1,8,0:0:0:0:
256,192,72597,1,8,0:0:0:0:
256,192,72685,1,0,0:0:0:0:
256,192,72773,1,0,0:0:0:0:
256,192,72861,1,0,0:0:0:0:
256,192,72950,1,8,0:0:0:0:
256,192,73038,1,0,0:0:0:0:
256,192,73126,1,0,0:0:0:0:
256,192,73303,1,0,0:0:0:0:
256,192,73391,1,8,0:0:0:0:
256,192,73567,1,0,0:0:0:0:
256,192,73744,1,0,0:0:0:0:
256,192,73832,1,0,0:0:0:0:
256,192,73920,1,8,0:0:0:0:
256,192,74008,1,8,0:0:0:0:
256,192,74097,1,0,0:0:0:0:
256,192,74185,1,0,0:0:0:0:
256,192,74273,1,0,0:0:0:0:
256,192,74361,1,8,0:0:0:0:
256,192,74450,1,8,0:0:0:0:
256,192,74538,1,0,0:0:0:0:
256,192,74626,1,8,0:0:0:0:
256,192,74714,1,0,0:0:0:0:
256,192,74803,1,8,0:0:0:0:
256,192,74891,1,8,0:0:0:0:
256,192,74979,1,0,0:0:0:0:
256,192,75155,1,0,0:0:0:0:
256,192,75244,1,0,0:0:0:0:
256,192,75332,1,8,0:0:0:0:
256,192,75420,1,8,0:0:0:0:
256,192,75508,1,0,0:0:0:0:
256,192,75597,1,0,0:0:0:0:
256,192,75685,1,0,0:0:0:0:
256,192,75773,1,8,0:0:0:0:
256,192,75861,1,8,0:0:0:0:
256,192,75950,1,0,0:0:0:0:
256,192,76038,1,8,0:0:0:0:
256,192,76126,1,0,0:0:0:0:
256,192,76214,1,8,0:0:0:0:
256,192,76303,1,0,0:0:0:0:
256,192,76391,1,0,0:0:0:0:
256,192,76479,1,0,0:0:0:0:
256,192,76567,1,8,0:0:0:0:
256,192,76655,1,8,0:0:0:0:
256,192,76744,1,0,0:0:0:0:
256,192,76832,1,0,0:0:0:0:
256,192,76920,1,8,0:0:0:0:
256,192,77008,1,8,0:0:0:0:
256,192,77097,1,8,0:0:0:0:
256,192,77185,1,0,0:0:0:0:
256,192,77273,1,0,0:0:0:0:
256,192,77361,1,0,0:0:0:0:
256,192,77450,1,8,0:0:0:0:
256,192,77538,1,8,0:0:0:0:
256,192,77626,1,0,0:0:0:0:
256,192,77714,1,0,0:0:0:0:
256,192,77803,1,8,0:0:0:0:
256,192,77891,1,8,0:0:0:0:
256,192,77979,1,0,0:0:0:0:
256,192,78067,1,0,0:0:0:0:
256,192,78155,1,8,0:0:0:0:
256,192,78244,1,8,0:0:0:0:
256,192,78332,1,0,0:0:0:0:
256,192,78420,1,0,0:0:0:0:
256,192,78508,1,0,0:0:0:0:
256,192,78597,1,8,0:0:0:0:
256,192,78685,1,0,0:0:0:0:
256,192,78773,1,8,0:0:0:0:
256,192,78861,1,0,0:0:0:0:
256,192,78950,1,0,0:0:0:0:
256,192,79038,1,8,0:0:0:0:
256,192,79126,1,8,0:0:0:0:
256,192,79214,1,0,0:0:0:0:
256,192,79332,1,0,0:0:0:0:
256,192,79450,1,0,0:0:0:0:
256,192,79567,1,8,0:0:0:0:
256,192,79685,1,8,0:0:0:0:
256,192,79803,1,8,0:0:0:0:
256,192,79920,1,0,0:0:0:0:
256,192,80038,1,0,0:0:0:0:
256,192,80097,1,0,0:0:0:0:
256,192,80155,1,8,0:0:0:0:
256,192,80273,1,8,0:0:0:0:
256,192,80391,1,8,0:0:0:0:
256,192,80508,1,0,0:0:0:0:
256,192,80626,1,8,0:0:0:0:
256,192,80744,1,8,0:0:0:0:
256,192,80861,1,0,0:0:0:0:
256,192,80979,1,8,0:0:0:0:
256,192,81097,1,8,0:0:0:0:
256,192,81214,1,0,0:0:0:0:
256,192,81332,1,0,0:0:0:0:
256,192,81450,1,0,0:0:0:0:
256,192,81508,1,0,0:0:0:0:
256,192,81567,1,8,0:0:0:0:
256,192,81685,1,0,0:0:0:0:
256,192,81803,1,8,0:0:0:0:
256,192,81920,1,0,0:0:0:0:
256,192,82038,1,8,0:0:0:0:
256,192,82155,1,8,0:0:0:0:
256,192,82273,1,0,0:0:0:0:
256,192,82391,1,8,0:0:0:0:
256,192,82508,1,8,0:0:0:0:
256,192,82626,1,8,0:0:0:0:
256,192,82744,1,0,0:0:0:0:
256,192,82861,1,8,0:0:0:0:
256,192,82979,1,8,0:0:0:0:
256,192,83097,1,0,0:0:0:0:
256,192,83214,1,0,0:0:0:0:
256,192,83273,1,0,0:0:0:0:
256,192,83332,1,8,0:0:0:0:
256,192,83450,1,8,0:0:0:0:
256,192,83567,1,8,0:0:0:0:
256,192,83685,1,0,0:0:0:0:
256,192,83803,1,8,0:0:0:0:
256,192,83920,1,0,0:0:0:0:
256,192,84038,1,0,0:0:0:0:
256,192,84155,1,0,0:0:0:0:
256,192,84244,1,0,0:0:0:0:
256,192,84332,1,8,0:0:0:0:
256,192,84420,1,8,0:0:0:0:
256,192,84508,1,0,0:0:0:0:
256,192,84597,1,0,0:0:0:0:
256,192,84685,1,8,0:0:0:0:
256,192,84773,1,8,0:0:0:0:
256,192,84861,1,0,0:0:0:0:
256,192,84950,1,8,0:0:0:0:
256,192,85038,1,8,0:0:0:0:
256,192,85126,1,0,0:0:0:0:
256,192,85214,1,8,0:0:0:0:
256,192,85332,1,8,0:0:0:0:
256,192,85450,1,0,0:0:0:0:
256,192,85567,1,0,0:0:0:0:
256,192,85655,1,8,0:0:0:0:
256,192,85744,1,8,0:0:0:0:
256,192,85832,1,0,0:0:0:0:
256,192,85920,1,8,0:0:0:0:
256,192,86038,1,8,0:0:0:0:
256,192,86155,1,0,0:0:0:0:
256,192,86273,1,8,0:0:0:0:
256,192,86391,1,8,0:0:0:0:
256,192,86508,1,0,0:0:0:0:
256,192,86626,1,8,0:0:0:0:
256,192,86714,1,8,0:0:0:0:
256,192,86803,1,0,0:0:0:0:
256,192,86891,1,0,0:0:0:0:
256,192,86979,1,8,0:0:0:0:
256,192,87067,1,0,0:0:0:0:
256,192,87155,1,8,0:0:0:0:
256,192,87244,1,8,0:0:0:0:
256,192,87332,1,0,0:0:0:0:
256,192,87450,1,8,0:0:0:0:
256,192,87567,1,8,0:0:0:0:
256,192,87685,1,0,0:0:0:0:
256,192,87773,1,8,0:0:0:0:
256,192,87861,1,0,0:0:0:0:
256,192,87950,1,0,0:0:0:0:
256,192,88038,1,8,0:0:0:0:
256,192,88155,1,8,0:0:0:0:
256,192,88273,1,8,0:0:0:0:
256,192,88391,1,0,0:0:0:0:
256,192,88508,1,8,0:0:0:0:
256,192,88626,1,8,0:0:0:0:
256,192,88744,1,0,0:0:0:0:
256,192,88832,1,0,0:0:0:0:
256,192,88920,1,8,0:0:0:0:
256,192,89008,1,8,0:0:0:0:
256,192,89097,1,0,0:0:0:0:
256,192,89361,5,8,0:0:0:0:
256,192,89450,1,0,0:0:0:0:
256,192,89714,1,8,0:0:0:0:
256,192,89803,1,0,0:0:0:0:
256,192,90155,1,8,0:0:0:0:
256,192,90244,1,8,0:0:0:0:
256,192,90332,1,0,0:0:0:0:
256,192,90420,1,0,0:0:0:0:
256,192,90508,1,0,0:0:0:0:
256,192,90685,1,8,0:0:0:0:
256,192,90773,1,0,0:0:0:0:
256,192,90950,1,8,0:0:0:0:
256,192,91038,1,8,0:0:0:0:
256,192,91126,1,0,0:0:0:0:
256,192,91214,1,0,0:0:0:0:
256,192,91391,1,0,0:0:0:0:
256,192,91567,1,8,0:0:0:0:
256,192,91655,1,8,0:0:0:0:
256,192,91744,1,0,0:0:0:0:
256,192,91832,1,0,0:0:0:0:
256,192,91920,1,0,0:0:0:0:
256,192,92097,1,8,0:0:0:0:
256,192,92185,1,0,0:0:0:0:
256,192,92361,1,0,0:0:0:0:
256,192,92450,1,0,0:0:0:0:
256,192,92538,1,8,0:0:0:0:
256,192,92626,1,8,0:0:0:0:
256,192,92803,1,0,0:0:0:0:
256,192,92979,1,8,0:0:0:0:
256,192,93067,1,8,0:0:0:0:
256,192,93155,1,0,0:0:0:0:
256,192,93244,1,0,0:0:0:0:
256,192,93332,1,0,0:0:0:0:
256,192,93508,1,8,0:0:0:0:
256,192,93597,1,8,0:0:0:0:
256,192,93773,1,0,0:0:0:0:
256,192,93861,1,8,0:0:0:0:
256,192,93950,1,8,0:0:0:0:
256,192,94038,1,8,0:0:0:0:
256,192,94214,1,8,0:0:0:0:
256,192,94391,1,8,0:0:0:0:
256,192,94479,1,0,0:0:0:0:
256,192,94567,1,8,0:0:0:0:
256,192,94655,1,8,0:0:0:0:
256,192,94744,1,0,0:0:0:0:
256,192,94832,1,0,0:0:0:0:
256,192,94920,1,8,0:0:0:0:
256,192,95008,1,0,0:0:0:0:
256,192,95097,1,0,0:0:0:0:
256,192,95185,1,0,0:0:0:0:
256,192,95273,1,8,0:0:0:0:
256,192,95361,1,8,0:0:0:0:
256,192,95450,1,0,0:0:0:0:
256,192,95538,1,8,0:0:0:0:
256,192,95626,1,8,0:0:0:0:
256,192,95714,1,8,0:0:0:0:
256,192,95803,1,0,0:0:0:0:
256,192,95891,1,0,0:0:0:0:
256,192,95979,1,8,0:0:0:0:
256,192,96067,1,8,0:0:0:0:
256,192,96155,1,0,0:0:0:0:
256,192,96332,1,8,0:0:0:0:
256,192,96420,1,0,0:0:0:0:
256,192,96597,1,8,0:0:0:0:
256,192,96685,1,0,0:0:0:0:
256,192,96773,1,8,0:0:0:0:
256,192,96861,1,0,0:0:0:0:
256,192,96950,1,0,0:0:0:0:
256,192,97038,1,8,0:0:0:0:
256,192,97214,1,0,0:0:0:0:
256,192,97303,1,8,0:0:0:0:
256,192,97391,1,0,0:0:0:0:
256,192,97479,1,0,0:0:0:0:
256,192,97567,1,8,0:0:0:0:
256,192,97655,1,0,0:0:0:0:
256,192,97744,1,0,0:0:0:0:
256,192,97832,1,8,0:0:0:0:
256,192,98008,1,0,0:0:0:0:
256,192,98097,1,8,0:0:0:0:
256,192,98185,1,8,0:0:0:0:
256,192,98273,1,0,0:0:0:0:
256,192,98450,1,8,0:0:0:0:
256,192,98626,1,8,0:0:0:0:
256,192,98714,1,0,0:0:0:0:
256,192,98803,1,8,0:0:0:0:
256,192,98891,1,8,0:0:0:0:
256,192,98979,1,0,0:0:0:0:
256,192,99067,1,8,0:0:0:0:
256,192,99155,1,8,0:0:0:0:
256,192,99244,1,0,0:0:0:0:
256,192,99420,1,0,0:0:0:0:
256,192,99508,1,8,0:0:0:0:
256,192,99597,1,8,0:0:0:0:
256,192,99685,1,0,0:0:0:0:
256,192,99861,1,8,0:0:0:0:
256,192,100038,1,8,0:0:0:0:
256,192,100126,1,0,0:0:0:0:
256,192,100214,1,8,0:0:0:0:
256,192,100391,1,4,0:0:0:0:
256,192,100567,1,4,0:0:0:0:
256,192,100744,1,8,0:0:0:0:
256,192,100832,1,0,0:0:0:0:
256,192,100920,1,8,0:0:0:0:
256,192,101008,1,8,0:0:0:0:
256,192,101097,1,0,0:0:0:0:
256,192,101185,1,8,0:0:0:0:
256,192,101273,1,0,0:0:0:0:
256,192,101361,1,0,0:0:0:0:
256,192,101450,1,8,0:0:0:0:
256,192,101626,1,0,0:0:0:0:
256,192,101803,1,8,0:0:0:0:
256,192,101891,1,0,0:0:0:0:
256,192,101979,1,8,0:0:0:0:
256,192,102067,1,8,0:0:0:0:
256,192,102155,1,8,0:0:0:0:
256,192,102244,1,0,0:0:0:0:
256,192,102332,1,8,0:0:0:0:
256,192,102420,1,8,0:0:0:0:
256,192,102508,1,0,0:0:0:0:
256,192,102597,1,0,0:0:0:0:
256,192,102685,1,8,0:0:0:0:
256,192,102861,1,0,0:0:0:0:
256,192,102950,1,8,0:0:0:0:
256,192,103038,1,8,0:0:0:0:
256,192,103126,1,8,0:0:0:0:
256,192,103214,1,0,0:0:0:0:
256,192,103391,1,8,0:0:0:0:
256,192,103479,1,0,0:0:0:0:
256,192,103655,1,0,0:0:0:0:
256,192,103744,1,0,0:0:0:0:
256,192,103832,1,8,0:0:0:0:
256,192,103920,1,8,0:0:0:0:
256,192,104097,1,0,0:0:0:0:
256,192,104273,1,8,0:0:0:0:
256,192,104361,1,8,0:0:0:0:
256,192,104450,1,0,0:0:0:0:
256,192,104538,1,0,0:0:0:0:
256,192,104626,1,0,0:0:0:0:
256,192,104803,1,8,0:0:0:0:
256,192,104891,1,8,0:0:0:0:
256,192,105067,1,0,0:0:0:0:
256,192,105155,1,8,0:0:0:0:
256,192,105244,1,8,0:0:0:0:
256,192,105332,1,8,0:0:0:0:
256,192,105508,1,8,0:0:0:0:
256,192,105685,1,8,0:0:0:0:
256,192,105773,1,0,0:0:0:0:
256,192,105861,1,8,0:0:0:0:
256,192,105950,1,8,0:0:0:0:
256,192,106038,1,0,0:0:0:0:
256,192,106126,1,0,0:0:0:0:
256,192,106214,1,8,0:0:0:0:
256,192,106303,1,0,0:0:0:0:
256,192,106391,1,0,0:0:0:0:
256,192,106479,1,0,0:0:0:0:
256,192,106567,1,8,0:0:0:0:
256,192,106655,1,8,0:0:0:0:
256,192,106744,1,0,0:0:0:0:
256,192,106832,1,8,0:0:0:0:
256,192,106920,1,0,0:0:0:0:
256,192,107008,1,8,0:0:0:0:
256,192,107097,1,0,0:0:0:0:
256,192,107185,1,0,0:0:0:0:
256,192,107273,1,8,0:0:0:0:
256,192,107361,1,8,0:0:0:0:
256,192,107450,1,0,0:0:0:0:
256,192,107626,1,8,0:0:0:0:
256,192,107714,1,0,0:0:0:0:
256,192,107891,1,8,0:0:0:0:
256,192,107979,1,0,0:0:0:0:
256,192,108067,1,8,0:0:0:0:
256,192,108155,1,0,0:0:0:0:
256,192,108244,1,0,0:0:0:0:
256,192,108332,1,8,0:0:0:0:
256,192,108508,1,0,0:0:0:0:
256,192,108597,1,0,0:0:0:0:
256,192,108685,1,0,0:0:0:0:
256,192,108773,1,0,0:0:0:0:
256,192,108861,1,8,0:0:0:0:
256,192,109038,1,0,0:0:0:0:
256,192,109126,1,8,0:0:0:0:
256,192,109303,1,0,0:0:0:0:
256,192,109391,1,8,0:0:0:0:
256,192,109479,1,0,0:0:0:0:
256,192,109567,1,0,0:0:0:0:
256,192,109655,1,8,0:0:0:0:
256,192,109744,1,8,0:0:0:0:
256,192,109920,1,0,0:0:0:0:
256,192,110008,1,0,0:0:0:0:
256,192,110097,1,0,0:0:0:0:
256,192,110185,1,0,0:0:0:0:
256,192,110273,1,8,0:0:0:0:
256,192,110450,1,8,0:0:0:0:
256,192,110538,1,8,0:0:0:0:
256,192,110626,1,0,0:0:0:0:
256,192,110803,1,8,0:0:0:0:
256,192,110891,1,0,0:0:0:0:
256,192,110979,1,8,0:0:0:0:
256,192,111067,1,8,0:0:0:0:
256,192,111155,1,8,0:0:0:0:
256,192,111244,1,0,0:0:0:0:
256,192,111332,1,8,0:0:0:0:
256,192,111420,1,0,0:0:0:0:
256,192,111508,1,8,0:0:0:0:
256,192,111597,1,8,0:0:0:0:
256,192,111685,1,0,0:0:0:0:
256,192,112038,5,8,0:0:0:0:
256,192,112097,1,8,0:0:0:0:
256,192,112155,1,8,0:0:0:0:
256,192,112214,1,8,0:0:0:0:
256,192,112273,1,8,0:0:0:0:
256,192,112332,1,8,0:0:0:0:
256,192,112391,1,8,0:0:0:0:
256,192,112450,1,8,0:0:0:0:
256,192,112508,1,8,0:0:0:0:
256,192,112567,1,8,0:0:0:0:
256,192,112626,1,8,0:0:0:0:
256,192,112685,1,8,0:0:0:0:
256,192,112744,1,0,0:0:0:0:
256,192,113097,1,0,0:0:0:0:
256,192,113450,1,8,0:0:0:0:
256,192,113803,1,0,0:0:0:0:
256,192,113979,1,8,0:0:0:0:
256,192,114155,1,0,0:0:0:0:
256,192,114332,1,0,0:0:0:0:
256,192,114685,1,0,0:0:0:0:
256,192,114861,1,8,0:0:0:0:
256,192,115038,1,0,0:0:0:0:
256,192,115391,1,0,0:0:0:0:
256,192,115744,1,0,0:0:0:0:
