osu file format v14

[General]
AudioFilename: audio.mp3
AudioLeadIn: 0
PreviewTime: 32636
Countdown: 0
SampleSet: Normal
StackLeniency: 0.7
Mode: 1
LetterboxInBreaks: 0
WidescreenStoryboard: 1

[Editor]
Bookmarks: 5136,10136,20136,32948,42948,50448,59354,69354,79354,90291,95291,100448,105291
DistanceSpacing: 0.1
BeatDivisor: 3
GridSize: 32
TimelineZoom: 1.7

[Metadata]
Title:FUJIN Rumble
TitleUnicode:FUJIN Rumble
Artist:COSIO(ZUNTATA)
ArtistUnicode:COSIO(ZUNTATA)
Creator:gaston_2199
Version:Shoshinsha
Source:GROOVE COASTER EX
Tags:TAITO 2: heavenly festival EXTENDED PLAY ORIGINAL SOUNDTRACK BOOST グルーヴコースター cytus 2 II jubeat saucer fulfill maimai ORANGE 太鼓の達人 キミドリVer. Taiko no Tatsujin Kimidori Ver. Lanota WACCA S 天下一音ゲ祭 Tenkaichi otogesai 小塩広和 Hirokazu Koshio 風神 E.G.G. electronic video game instrumental reficul midnaait megafan
BeatmapID:2736861
BeatmapSetID:1116903

[Difficulty]
HPDrainRate:9
CircleSize:2
OverallDifficulty:2
ApproachRate:10
SliderMultiplier:1.4
SliderTickRate:1

[Events]
//Background and Video events
0,0,"BG.jpg",0,70
//Break Periods
//Storyboard Layer 0 (Background)
//Storyboard Layer 1 (Fail)
//Storyboard Layer 2 (Pass)
//Storyboard Layer 3 (Foreground)
//Storyboard Layer 4 (Overlay)
//Storyboard Sound Samples

[TimingPoints]
136,312.5,4,1,0,10,1,0
136,-111.111111111111,4,1,0,10,0,0
5136,-111.111111111111,4,1,0,60,0,0
10133,-111.111111111111,4,1,0,80,0,0
32636,312.5,4,1,0,80,1,8
32636,-111.111111111111,4,1,0,80,0,8
32948,312.5,4,1,0,90,1,1
32948,-111.111111111111,4,1,0,90,0,1
42948,-111.111111111111,4,1,0,80,0,0
52791,312.5,4,1,0,80,1,0
53103,-111.111111111111,4,1,0,70,0,0
56538,-111.111111111111,4,1,0,60,0,0
57791,-111.111111111111,4,1,0,80,0,0
59041,312.5,4,1,0,80,1,8
59354,312.5,4,1,0,90,1,1
59354,-111.111111111111,4,1,0,90,0,1
79354,-111.111111111111,4,1,0,80,0,0
90291,312.5,4,1,0,90,1,1
90291,-111.111111111111,4,1,0,90,0,1
110291,-111.111111111111,4,1,0,80,0,0

[HitObjects]
256,192,136,12,0,4511,0:0:0:0:
256,192,5136,5,0,0:0:0:0:
256,192,6386,1,8,0:0:0:0:
254,181,7636,1,0,0:0:0:0:
184,8,8886,1,8,0:0:0:0:
256,96,10136,5,4,0:0:0:0:
256,192,11386,1,0,0:0:0:0:
256,192,12948,1,8,0:0:0:0:
256,192,13886,1,0,0:0:0:0:
256,192,15136,1,0,0:0:0:0:
256,192,16386,1,0,0:0:0:0:
256,192,17948,1,8,0:0:0:0:
256,192,18886,1,0,0:0:0:0:
256,96,20136,5,12,0:0:0:0:
256,192,22011,1,8,0:0:0:0:
256,192,22636,1,8,0:0:0:0:
256,192,23886,1,8,0:0:0:0:
256,192,25136,1,0,0:0:0:0:
256,192,26386,1,0,0:0:0:0:
256,192,27636,1,0,0:0:0:0:
256,192,28261,1,8,0:0:0:0:
256,192,28886,12,0,30136,0:0:0:0:
256,96,32948,5,4,0:0:0:0:
256,192,34198,1,0,0:0:0:0:
256,192,34823,1,8,0:0:0:0:
256,192,35448,1,0,0:0:0:0:
256,192,36698,1,0,0:0:0:0:
253,177,37010,1,0,0:0:0:0:
256,192,37323,1,8,0:0:0:0:
256,192,37948,1,0,0:0:0:0:
256,192,39198,1,0,0:0:0:0:
256,192,39823,1,8,0:0:0:0:
256,192,40448,1,0,0:0:0:0:
256,192,41385,1,8,0:0:0:0:
256,192,41698,1,0,0:0:0:0:
256,192,42323,1,8,0:0:0:0:
256,96,42948,5,4,0:0:0:0:
256,96,44354,5,12,0:0:0:0:
256,96,45135,5,4,0:0:0:0:
256,96,48260,5,4,0:0:0:0:
256,96,49666,5,12,0:0:0:0:
256,96,50448,5,4,0:0:0:0:
256,96,52791,5,12,0:0:0:0:
256,96,55291,5,12,0:0:0:0:
256,192,57791,1,0,0:0:0:0:
256,96,59354,5,4,0:0:0:0:
256,192,60604,1,0,0:0:0:0:
256,192,61229,1,8,0:0:0:0:
256,192,61854,1,0,0:0:0:0:
256,192,63104,1,0,0:0:0:0:
256,192,63416,1,0,0:0:0:0:
256,177,63729,1,8,0:0:0:0:
256,192,64354,1,0,0:0:0:0:
256,192,65604,1,0,0:0:0:0:
256,192,66229,1,8,0:0:0:0:
256,192,66854,1,0,0:0:0:0:
256,192,67791,1,8,0:0:0:0:
256,192,68104,1,0,0:0:0:0:
256,192,68729,1,8,0:0:0:0:
256,96,69354,5,4,0:0:0:0:
256,192,70604,1,0,0:0:0:0:
256,192,71229,1,8,0:0:0:0:
256,192,71854,1,0,0:0:0:0:
256,192,72479,1,8,0:0:0:0:
256,192,73104,1,0,0:0:0:0:
256,192,73416,1,0,0:0:0:0:
256,192,73729,1,8,0:0:0:0:
256,192,74354,1,0,0:0:0:0:
256,192,75604,1,0,0:0:0:0:
256,192,76229,1,8,0:0:0:0:
256,192,76854,1,0,0:0:0:0:
256,192,77479,1,8,0:0:0:0:
256,192,77791,1,8,0:0:0:0:
256,192,78104,1,0,0:0:0:0:
256,192,78729,1,8,0:0:0:0:
256,96,79354,5,4,0:0:0:0:
256,192,80604,1,0,0:0:0:0:
256,192,81854,1,0,0:0:0:0:
256,192,82479,1,8,0:0:0:0:
256,192,83104,1,0,0:0:0:0:
256,192,84354,1,0,0:0:0:0:
256,192,85604,1,0,0:0:0:0:
256,192,86854,1,0,0:0:0:0:
256,192,87479,1,0,0:0:0:0:
256,192,88104,12,0,89354,0:0:0:0:
256,192,90291,5,8,0:0:0:0:
256,192,90916,1,0,0:0:0:0:
256,192,91541,1,8,0:0:0:0:
256,192,92791,1,0,0:0:0:0:
256,192,94041,1,8,0:0:0:0:
256,192,94666,1,8,0:0:0:0:
256,192,95291,1,0,0:0:0:0:
256,192,95916,1,0,0:0:0:0:
256,192,96541,1,8,0:0:0:0:
256,192,97791,1,0,0:0:0:0:
252,166,98416,1,8,0:0:0:0:
256,192,99041,1,8,0:0:0:0:
246,167,99666,1,8,0:0:0:0:
256,96,100291,5,4,0:0:0:0:
256,192,101541,1,8,0:0:0:0:
193,112,102166,1,0,0:0:0:0:
256,192,102791,1,8,0:0:0:0:
256,192,104041,1,8,0:0:0:0:
194,58,104666,1,8,0:0:0:0:
256,192,105291,1,4,0:0:0:0:
256,192,106541,1,8,0:0:0:0:
246,43,107166,1,0,0:0:0:0:
256,192,107791,1,8,0:0:0:0:
256,192,109041,1,8,0:0:0:0:
205,34,109353,1,0,0:0:0:0:
228,41,109666,1,8,0:0:0:0:
256,192,110134,1,8,0:0:0:0:
256,96,112791,5,12,0:0:0:0:
256,192,115291,1,0,0:0:0:0:
256,192,116541,1,0,0:0:0:0:
256,192,117166,1,8,0:0:0:0:
256,96,119041,5,4,0:0:0:0:
