osu file format v14

[General]
AudioFilename: audio.mp3
AudioLeadIn: 0
PreviewTime: 32636
Countdown: 0
SampleSet: Normal
StackLeniency: 0.7
Mode: 1
LetterboxInBreaks: 0
WidescreenStoryboard: 1

[Editor]
Bookmarks: 5136,10136,20136,32948,42948,50448,59354,69354,79354,90291,95291,100448,105291
DistanceSpacing: 0.1
BeatDivisor: 4
GridSize: 32
TimelineZoom: 1.8

[Metadata]
Title:FUJIN Rumble
TitleUnicode:FUJIN Rumble
Artist:COSIO(ZUNTATA)
ArtistUnicode:COSIO(ZUNTATA)
Creator:gaston_2199
Version:Oni
Source:GROOVE COASTER EX
Tags:TAITO 2: heavenly festival EXTENDED PLAY ORIGINAL SOUNDTRACK BOOST グルーヴコースター cytus 2 II jubeat saucer fulfill maimai ORANGE 太鼓の達人 キミドリVer. Taiko no Tatsujin Kimidori Ver. Lanota WACCA S 天下一音ゲ祭 Tenkaichi otogesai 小塩広和 Hirokazu Koshio 風神 E.G.G. electronic video game instrumental reficul midnaait megafan
BeatmapID:2333206
BeatmapSetID:1116903

[Difficulty]
HPDrainRate:5
CircleSize:2
OverallDifficulty:6
ApproachRate:10
SliderMultiplier:1.4
SliderTickRate:1

[Events]
//Background and Video events
0,0,"BG.jpg",0,70
//Break Periods
//Storyboard Layer 0 (Background)
//Storyboard Layer 1 (Fail)
//Storyboard Layer 2 (Pass)
//Storyboard Layer 3 (Foreground)
//Storyboard Layer 4 (Overlay)
//Storyboard Sound Samples

[TimingPoints]
136,312.5,4,1,0,10,1,0
136,-125,4,1,0,10,0,0
5136,-125,4,1,0,60,0,0
10133,-111.111111111111,4,1,0,60,0,0
27789,-109.756097560976,4,1,0,80,0,0
27945,-107.142857142857,4,1,0,80,0,0
28101,-105.882352941176,4,1,0,80,0,0
28258,-104.651162790698,4,1,0,80,0,0
28414,-103.448275862069,4,1,0,80,0,0
28570,-101.123595505618,4,1,0,80,0,0
28726,-100,4,1,0,80,0,0
32636,312.5,4,1,0,80,1,8
32948,312.5,4,1,0,90,1,1
42948,-90.9090909090909,4,1,0,80,0,0
52791,312.5,4,1,0,80,1,0
52791,-90.9090909090909,4,1,0,80,0,0
52945,-100,4,1,0,70,0,0
56538,-111.111111111111,4,1,0,60,0,0
57788,-100,4,1,0,80,0,0
59041,312.5,4,1,0,80,1,8
59354,312.5,4,1,0,90,1,1
77163,-99.5260663507109,4,1,0,90,0,1
77319,-99.0566037735849,4,1,0,90,0,1
77397,-98.5915492957747,4,1,0,90,0,1
77476,-98.1308411214953,4,1,0,90,0,1
77632,-97.6744186046512,4,1,0,90,0,1
77788,-97.2222222222222,4,1,0,90,0,1
77866,-96.7741935483871,4,1,0,90,0,1
77944,-96.3302752293578,4,1,0,90,0,1
78022,-95.8904109589041,4,1,0,90,0,1
78101,-95.4545454545455,4,1,0,90,0,1
78257,-95.0226244343891,4,1,0,90,0,1
78335,-94.5945945945946,4,1,0,90,0,1
78413,-94.1704035874439,4,1,0,90,0,1
78569,-93.75,4,1,0,90,0,1
78726,-93.3333333333333,4,1,0,90,0,1
78882,-92.9203539823009,4,1,0,90,0,1
78960,-92.511013215859,4,1,0,90,0,1
79038,-92.1052631578947,4,1,0,90,0,1
79116,-91.7030567685589,4,1,0,90,0,1
79194,-91.304347826087,4,1,0,90,0,1
79354,-90.9090909090909,4,1,0,80,0,0
79658,-100,4,1,0,80,0,0
87057,-102.272704028931,4,1,0,80,0,0
87161,-103.448240190262,4,1,0,80,0,0
87474,-107.142895408177,4,1,0,80,0,0
87682,-109.756110945867,4,1,0,80,0,0
87786,-111.111111111111,4,1,0,80,0,0
88099,-100,4,1,0,80,0,0
89971,-111.111111111111,4,1,0,80,0,0
90291,312.5,4,1,0,90,1,1
110291,-100,4,1,0,80,0,0
114038,-111.111111111111,4,1,0,70,0,0
115288,-100,4,1,0,80,0,0
119038,-83.3333333333333,4,1,0,80,0,8

[HitObjects]
256,192,136,12,0,4511,0:0:0:0:
256,192,5136,5,0,0:0:0:0:
172,111,5604,1,0,0:0:0:0:
256,192,6073,1,8,0:0:0:0:
256,192,6229,1,0,0:0:0:0:
275,114,6542,1,8,0:0:0:0:
256,192,6854,1,0,0:0:0:0:
256,192,7011,1,8,0:0:0:0:
256,192,7323,1,8,0:0:0:0:
181,3,7479,1,0,0:0:0:0:
76,88,7636,1,0,0:0:0:0:
186,116,7948,1,8,0:0:0:0:
252,91,8104,1,0,0:0:0:0:
194,2,8261,1,8,0:0:0:0:
256,128,8573,1,8,0:0:0:0:
159,10,8729,1,0,0:0:0:0:
217,15,9042,1,0,0:0:0:0:
164,17,9354,1,0,0:0:0:0:
256,128,9511,1,8,0:0:0:0:
256,96,9823,1,8,0:0:0:0:
256,128,10136,1,4,0:0:0:0:
267,149,10448,1,8,0:0:0:0:
267,149,10604,1,0,0:0:0:0:
267,149,10917,1,0,0:0:0:0:
267,149,11073,1,8,0:0:0:0:
267,149,11386,1,0,0:0:0:0:
267,149,11698,1,8,0:0:0:0:
267,149,11854,1,0,0:0:0:0:
267,149,12167,1,0,0:0:0:0:
267,149,12323,1,8,0:0:0:0:
267,149,12479,1,0,0:0:0:0:
267,149,12636,1,0,0:0:0:0:
267,149,12948,1,8,0:0:0:0:
267,149,13261,1,8,0:0:0:0:
267,149,13417,1,0,0:0:0:0:
267,149,13729,1,8,0:0:0:0:
267,149,13886,1,0,0:0:0:0:
267,149,14042,1,8,0:0:0:0:
267,149,14354,1,8,0:0:0:0:
267,149,14511,1,0,0:0:0:0:
267,149,14667,1,8,0:0:0:0:
267,149,14823,1,8,0:0:0:0:
256,128,15136,1,0,0:0:0:0:
267,149,15448,1,8,0:0:0:0:
267,149,15604,1,0,0:0:0:0:
267,149,15917,1,0,0:0:0:0:
267,149,16073,1,8,0:0:0:0:
267,149,16386,1,0,0:0:0:0:
267,149,16698,1,8,0:0:0:0:
267,149,16854,1,0,0:0:0:0:
267,149,17167,1,0,0:0:0:0:
267,149,17323,1,8,0:0:0:0:
267,149,17479,1,0,0:0:0:0:
267,149,17636,1,0,0:0:0:0:
267,149,17948,1,8,0:0:0:0:
267,149,18261,1,8,0:0:0:0:
268,112,18417,1,0,0:0:0:0:
267,149,18729,1,8,0:0:0:0:
267,149,18886,1,0,0:0:0:0:
267,149,19042,1,8,0:0:0:0:
267,149,19354,1,8,0:0:0:0:
267,149,19511,1,0,0:0:0:0:
267,149,19667,1,8,0:0:0:0:
267,149,19823,1,8,0:0:0:0:
267,149,20136,1,12,0:0:0:0:
265,123,20448,1,8,0:0:0:0:
255,191,20761,1,8,0:0:0:0:
255,191,21073,1,8,0:0:0:0:
255,191,21386,1,8,0:0:0:0:
255,191,21698,1,8,0:0:0:0:
255,191,22011,1,8,0:0:0:0:
255,191,22323,1,8,0:0:0:0:
255,191,22479,1,8,0:0:0:0:
255,191,22636,1,8,0:0:0:0:
255,191,22948,1,8,0:0:0:0:
255,191,23261,1,8,0:0:0:0:
255,191,23573,1,8,0:0:0:0:
255,191,23886,1,8,0:0:0:0:
255,191,24042,1,8,0:0:0:0:
255,191,24198,1,8,0:0:0:0:
255,191,24511,1,8,0:0:0:0:
255,191,24745,1,8,0:0:0:0:
255,191,24823,1,8,0:0:0:0:
255,191,24979,1,8,0:0:0:0:
255,191,25136,1,0,0:0:0:0:
255,191,25448,1,8,0:0:0:0:
255,191,25604,1,0,0:0:0:0:
255,191,25917,1,0,0:0:0:0:
255,191,26073,1,8,0:0:0:0:
255,191,26386,1,0,0:0:0:0:
255,191,26698,1,8,0:0:0:0:
255,191,26854,1,0,0:0:0:0:
255,191,27011,1,8,0:0:0:0:
255,191,27167,1,8,0:0:0:0:
255,191,27323,1,0,0:0:0:0:
255,191,27479,1,8,0:0:0:0:
255,191,27636,1,0,0:0:0:0:
255,191,27792,1,0,0:0:0:0:
255,191,27948,1,8,0:0:0:0:
255,191,28104,1,0,0:0:0:0:
255,191,28261,1,8,0:0:0:0:
255,191,28417,1,0,0:0:0:0:
255,191,28573,1,0,0:0:0:0:
255,191,28729,1,0,0:0:0:0:
255,191,28886,1,8,0:0:0:0:
256,192,28990,1,8,0:0:0:0:
256,192,29094,1,8,0:0:0:0:
256,192,29198,1,8,0:0:0:0:
256,192,29302,1,8,0:0:0:0:
256,192,29406,1,8,0:0:0:0:
256,192,29511,1,8,0:0:0:0:
256,192,29615,1,8,0:0:0:0:
256,192,29719,1,8,0:0:0:0:
256,192,29823,1,8,0:0:0:0:
256,192,29927,1,8,0:0:0:0:
253,187,30031,1,8,0:0:0:0:
270,191,32948,1,4,0:0:0:0:
256,160,33260,1,8,0:0:0:0:
256,160,33416,1,0,0:0:0:0:
256,160,33573,1,0,0:0:0:0:
256,160,33729,1,8,0:0:0:0:
256,160,33885,1,8,0:0:0:0:
256,160,33963,1,0,0:0:0:0:
256,160,34041,1,0,0:0:0:0:
256,160,34198,1,0,0:0:0:0:
256,160,34510,1,8,0:0:0:0:
256,160,34666,1,8,0:0:0:0:
256,160,34823,1,0,0:0:0:0:
256,160,34979,1,8,0:0:0:0:
256,160,35135,1,8,0:0:0:0:
256,160,35213,1,0,0:0:0:0:
256,160,35291,1,8,0:0:0:0:
256,160,35448,1,0,0:0:0:0:
256,160,35760,1,8,0:0:0:0:
256,160,35916,1,8,0:0:0:0:
256,160,36073,1,0,0:0:0:0:
256,160,36229,1,8,0:0:0:0:
256,160,36385,1,8,0:0:0:0:
256,160,36463,1,8,0:0:0:0:
256,160,36541,1,8,0:0:0:0:
256,96,36698,1,0,0:0:0:0:
256,96,36854,1,0,0:0:0:0:
256,96,37010,1,8,0:0:0:0:
256,96,37166,1,0,0:0:0:0:
256,96,37323,1,8,0:0:0:0:
256,96,37401,1,0,0:0:0:0:
256,96,37479,1,8,0:0:0:0:
256,96,37557,1,8,0:0:0:0:
256,96,37635,1,0,0:0:0:0:
256,96,37791,1,8,0:0:0:0:
256,96,37948,1,0,0:0:0:0:
256,160,38260,1,0,0:0:0:0:
256,160,38416,1,8,0:0:0:0:
256,160,38573,1,0,0:0:0:0:
256,160,38729,1,8,0:0:0:0:
256,160,38885,1,8,0:0:0:0:
256,160,38963,1,0,0:0:0:0:
256,160,39041,1,0,0:0:0:0:
256,160,39198,1,0,0:0:0:0:
256,160,39510,1,0,0:0:0:0:
256,160,39666,1,8,0:0:0:0:
181,75,39744,1,0,0:0:0:0:
256,160,39823,1,0,0:0:0:0:
256,160,39979,1,8,0:0:0:0:
256,160,40135,1,8,0:0:0:0:
256,160,40291,1,0,0:0:0:0:
256,160,40369,1,8,0:0:0:0:
256,160,40448,1,0,0:0:0:0:
256,160,40760,1,0,0:0:0:0:
256,160,40916,1,8,0:0:0:0:
256,160,41073,1,0,0:0:0:0:
256,160,41229,1,8,0:0:0:0:
256,160,41385,1,8,0:0:0:0:
256,160,41463,1,8,0:0:0:0:
256,160,41541,1,8,0:0:0:0:
256,96,41698,1,0,0:0:0:0:
256,96,41854,1,0,0:0:0:0:
256,96,42010,1,8,0:0:0:0:
256,96,42166,1,0,0:0:0:0:
256,96,42323,1,8,0:0:0:0:
256,96,42479,1,8,0:0:0:0:
256,96,42557,1,8,0:0:0:0:
256,96,42635,1,0,0:0:0:0:
256,96,42713,1,0,0:0:0:0:
256,96,42791,1,8,0:0:0:0:
256,96,42948,1,4,0:0:0:0:
256,128,43416,1,4,0:0:0:0:
256,96,43885,1,4,0:0:0:0:
256,96,44041,1,4,0:0:0:0:
256,160,44354,1,12,0:0:0:0:
256,160,44823,1,12,0:0:0:0:
256,160,45135,1,4,0:0:0:0:
256,160,45604,1,4,0:0:0:0:
256,160,46073,1,4,0:0:0:0:
256,160,46229,1,4,0:0:0:0:
256,160,46541,1,12,0:0:0:0:
256,160,47010,1,12,0:0:0:0:
256,160,47166,1,4,0:0:0:0:
256,160,47323,1,12,0:0:0:0:
256,160,47791,1,12,0:0:0:0:
256,160,48260,1,4,0:0:0:0:
256,160,48729,1,4,0:0:0:0:
256,160,49198,1,4,0:0:0:0:
256,160,49354,1,4,0:0:0:0:
256,160,49666,1,12,0:0:0:0:
256,160,50135,1,12,0:0:0:0:
256,160,50448,1,4,0:0:0:0:
256,160,50916,1,4,0:0:0:0:
256,160,51385,1,4,0:0:0:0:
256,160,51541,1,4,0:0:0:0:
256,160,51854,1,12,0:0:0:0:
256,160,52323,1,12,0:0:0:0:
256,160,52479,1,4,0:0:0:0:
256,128,52791,1,12,0:0:0:0:
303,149,53103,1,8,0:0:0:0:
288,160,53416,1,8,0:0:0:0:
303,149,53728,1,8,0:0:0:0:
288,160,54041,1,8,0:0:0:0:
303,149,54353,1,8,0:0:0:0:
288,160,54666,1,8,0:0:0:0:
303,149,54978,1,8,0:0:0:0:
288,160,55291,1,12,0:0:0:0:
256,192,56541,1,0,0:0:0:0:
256,192,56697,1,0,0:0:0:0:
256,192,56775,1,0,0:0:0:0:
256,192,56853,1,8,0:0:0:0:
256,192,57009,1,8,0:0:0:0:
256,192,57166,1,0,0:0:0:0:
256,192,57478,1,12,0:0:0:0:
288,128,57791,1,0,0:0:0:0:
288,128,57895,1,0,0:0:0:0:
288,128,57999,1,0,0:0:0:0:
288,128,58103,1,0,0:0:0:0:
288,128,58207,1,0,0:0:0:0:
288,128,58311,1,0,0:0:0:0:
288,128,58416,1,0,0:0:0:0:
288,128,58520,1,0,0:0:0:0:
288,128,58728,1,12,0:0:0:0:
270,191,59354,1,4,0:0:0:0:
256,160,59666,1,8,0:0:0:0:
256,160,59822,1,0,0:0:0:0:
256,160,59979,1,0,0:0:0:0:
256,160,60135,1,8,0:0:0:0:
256,160,60291,1,8,0:0:0:0:
217,173,60369,1,0,0:0:0:0:
256,160,60447,1,0,0:0:0:0:
256,160,60604,1,0,0:0:0:0:
256,160,60916,1,8,0:0:0:0:
256,160,61072,1,8,0:0:0:0:
256,160,61229,1,0,0:0:0:0:
256,160,61385,1,8,0:0:0:0:
256,160,61541,1,8,0:0:0:0:
256,160,61619,1,0,0:0:0:0:
256,160,61697,1,8,0:0:0:0:
256,160,61854,1,0,0:0:0:0:
256,160,62166,1,8,0:0:0:0:
256,160,62322,1,8,0:0:0:0:
256,160,62479,1,0,0:0:0:0:
256,160,62635,1,8,0:0:0:0:
256,160,62791,1,8,0:0:0:0:
256,160,62869,1,8,0:0:0:0:
256,160,62947,1,8,0:0:0:0:
256,96,63104,1,0,0:0:0:0:
256,96,63260,1,0,0:0:0:0:
256,96,63416,1,8,0:0:0:0:
256,96,63572,1,0,0:0:0:0:
256,96,63729,1,8,0:0:0:0:
256,96,63807,1,0,0:0:0:0:
256,96,63885,1,8,0:0:0:0:
256,96,63963,1,8,0:0:0:0:
256,96,64041,1,0,0:0:0:0:
256,96,64197,1,8,0:0:0:0:
256,96,64354,1,0,0:0:0:0:
256,160,64666,1,0,0:0:0:0:
256,160,64822,1,8,0:0:0:0:
256,160,64979,1,0,0:0:0:0:
256,160,65135,1,8,0:0:0:0:
256,160,65291,1,8,0:0:0:0:
256,160,65369,1,0,0:0:0:0:
256,160,65447,1,0,0:0:0:0:
256,160,65604,1,0,0:0:0:0:
256,160,65916,1,0,0:0:0:0:
256,160,66072,1,8,0:0:0:0:
149,220,66150,1,0,0:0:0:0:
256,160,66229,1,0,0:0:0:0:
256,160,66385,1,8,0:0:0:0:
256,160,66541,1,8,0:0:0:0:
256,160,66697,1,0,0:0:0:0:
256,160,66775,1,8,0:0:0:0:
256,160,66854,1,0,0:0:0:0:
256,160,67166,1,0,0:0:0:0:
256,160,67322,1,8,0:0:0:0:
256,160,67479,1,0,0:0:0:0:
256,160,67635,1,8,0:0:0:0:
256,160,67791,1,8,0:0:0:0:
256,160,67869,1,8,0:0:0:0:
256,160,67947,1,8,0:0:0:0:
256,96,68104,1,0,0:0:0:0:
256,96,68260,1,0,0:0:0:0:
256,96,68416,1,8,0:0:0:0:
256,96,68572,1,0,0:0:0:0:
256,96,68729,1,8,0:0:0:0:
256,96,68885,1,8,0:0:0:0:
256,96,68963,1,8,0:0:0:0:
256,96,69041,1,0,0:0:0:0:
256,96,69119,1,0,0:0:0:0:
256,96,69197,1,8,0:0:0:0:
270,191,69354,1,4,0:0:0:0:
256,160,69666,1,8,0:0:0:0:
127,88,69822,1,0,0:0:0:0:
127,88,69900,1,8,0:0:0:0:
256,160,69979,1,0,0:0:0:0:
256,160,70135,1,8,0:0:0:0:
256,160,70291,1,8,0:0:0:0:
256,160,70369,1,0,0:0:0:0:
256,160,70447,1,0,0:0:0:0:
256,160,70604,1,0,0:0:0:0:
256,160,70916,1,8,0:0:0:0:
256,160,71072,1,8,0:0:0:0:
127,88,71150,1,8,0:0:0:0:
256,160,71229,1,0,0:0:0:0:
256,160,71385,1,8,0:0:0:0:
256,160,71541,1,8,0:0:0:0:
256,160,71619,1,0,0:0:0:0:
256,160,71697,1,8,0:0:0:0:
256,160,71854,1,0,0:0:0:0:
256,160,72166,1,8,0:0:0:0:
256,160,72322,1,8,0:0:0:0:
127,88,72400,1,0,0:0:0:0:
127,88,72479,1,8,0:0:0:0:
256,160,72635,1,0,0:0:0:0:
256,160,72791,1,8,0:0:0:0:
256,160,72869,1,8,0:0:0:0:
256,160,72947,1,8,0:0:0:0:
256,96,73104,1,0,0:0:0:0:
256,96,73260,1,0,0:0:0:0:
272,98,73338,1,0,0:0:0:0:
256,96,73416,1,8,0:0:0:0:
256,96,73572,1,0,0:0:0:0:
256,96,73729,1,8,0:0:0:0:
256,96,73807,1,0,0:0:0:0:
256,96,73885,1,8,0:0:0:0:
256,96,73963,1,8,0:0:0:0:
256,96,74041,1,0,0:0:0:0:
256,96,74197,1,8,0:0:0:0:
256,96,74354,1,0,0:0:0:0:
187,34,74666,1,0,0:0:0:0:
256,160,74822,1,8,0:0:0:0:
187,34,74900,1,8,0:0:0:0:
256,160,74979,1,0,0:0:0:0:
256,160,75135,1,8,0:0:0:0:
256,160,75291,1,8,0:0:0:0:
181,75,75369,1,0,0:0:0:0:
256,160,75447,1,0,0:0:0:0:
256,160,75604,1,0,0:0:0:0:
256,160,75916,1,0,0:0:0:0:
256,160,76072,1,8,0:0:0:0:
246,36,76150,1,0,0:0:0:0:
256,160,76229,1,0,0:0:0:0:
192,23,76307,1,0,0:0:0:0:
256,160,76385,1,8,0:0:0:0:
256,160,76541,1,8,0:0:0:0:
256,160,76697,1,0,0:0:0:0:
256,96,76775,1,8,0:0:0:0:
256,160,76854,1,0,0:0:0:0:
256,160,77166,1,8,0:0:0:0:
256,160,77322,1,8,0:0:0:0:
256,32,77400,1,8,0:0:0:0:
256,160,77479,1,0,0:0:0:0:
256,160,77635,1,8,0:0:0:0:
256,160,77791,1,8,0:0:0:0:
256,160,77869,1,0,0:0:0:0:
256,160,77947,1,0,0:0:0:0:
214,37,78025,1,0,0:0:0:0:
256,96,78104,1,8,0:0:0:0:
256,96,78260,1,0,0:0:0:0:
256,96,78338,1,8,0:0:0:0:
237,77,78416,1,0,0:0:0:0:
256,96,78572,1,0,0:0:0:0:
245,86,78729,1,8,0:0:0:0:
256,96,78885,1,8,0:0:0:0:
256,96,78963,1,8,0:0:0:0:
256,96,79041,1,0,0:0:0:0:
166,2,79119,1,0,0:0:0:0:
256,96,79197,1,8,0:0:0:0:
256,96,79354,1,4,0:0:0:0:
256,32,79666,1,8,0:0:0:0:
256,32,79822,1,0,0:0:0:0:
256,32,79979,1,8,0:0:0:0:
256,32,80291,1,8,0:0:0:0:
256,32,80447,1,8,0:0:0:0:
256,32,80604,1,0,0:0:0:0:
256,32,80916,1,8,0:0:0:0:
256,32,81072,1,0,0:0:0:0:
256,32,81229,1,0,0:0:0:0:
256,32,81541,1,0,0:0:0:0:
256,32,81697,1,8,0:0:0:0:
256,32,81854,1,0,0:0:0:0:
256,32,82166,1,8,0:0:0:0:
256,32,82322,1,0,0:0:0:0:
256,32,82479,1,8,0:0:0:0:
256,32,82635,1,8,0:0:0:0:
256,32,82947,1,8,0:0:0:0:
256,32,83104,1,0,0:0:0:0:
256,32,83260,1,8,0:0:0:0:
256,32,83338,1,0,0:0:0:0:
256,32,83572,1,0,0:0:0:0:
256,32,83729,1,8,0:0:0:0:
256,32,83885,1,0,0:0:0:0:
256,32,83963,1,0,0:0:0:0:
250,43,84041,1,8,0:0:0:0:
256,32,84197,1,8,0:0:0:0:
256,32,84354,1,0,0:0:0:0:
256,32,84510,1,0,0:0:0:0:
256,32,84666,1,8,0:0:0:0:
256,32,84822,1,0,0:0:0:0:
256,32,84979,1,8,0:0:0:0:
256,32,85135,1,8,0:0:0:0:
256,32,85291,1,0,0:0:0:0:
256,32,85447,1,8,0:0:0:0:
256,32,85604,1,0,0:0:0:0:
256,32,85760,1,0,0:0:0:0:
256,32,85916,1,8,0:0:0:0:
256,32,86072,1,0,0:0:0:0:
256,32,86229,1,0,0:0:0:0:
256,32,86307,1,0,0:0:0:0:
256,32,86385,1,0,0:0:0:0:
256,32,86541,1,8,0:0:0:0:
256,32,86697,1,8,0:0:0:0:
256,32,86854,1,0,0:0:0:0:
288,128,87062,1,0,0:0:0:0:
288,128,87166,1,8,0:0:0:0:
288,128,87479,1,8,0:0:0:0:
288,128,87687,1,8,0:0:0:0:
288,128,87791,1,8,0:0:0:0:
288,128,88104,1,8,0:0:0:0:
320,96,88260,1,8,0:0:0:0:
320,96,88338,1,0,0:0:0:0:
320,96,88416,1,8,0:0:0:0:
320,96,88572,1,0,0:0:0:0:
320,96,88729,1,8,0:0:0:0:
320,96,88885,1,0,0:0:0:0:
320,96,88963,1,0,0:0:0:0:
320,96,89041,1,8,0:0:0:0:
288,32,89119,1,8,0:0:0:0:
320,96,89197,1,8,0:0:0:0:
320,96,89275,1,8,0:0:0:0:
288,64,89979,1,12,0:0:0:0:
288,64,90291,1,4,0:0:0:0:
288,96,90447,1,8,0:0:0:0:
288,96,90603,1,0,0:0:0:0:
288,96,90681,1,8,0:0:0:0:
288,96,90916,1,0,0:0:0:0:
288,96,91072,1,0,0:0:0:0:
288,96,91228,1,8,0:0:0:0:
288,96,91306,1,0,0:0:0:0:
288,96,91384,1,8,0:0:0:0:
288,96,91541,1,0,0:0:0:0:
288,96,91697,1,8,0:0:0:0:
288,96,91853,1,0,0:0:0:0:
288,96,91931,1,8,0:0:0:0:
288,96,92166,1,0,0:0:0:0:
282,92,92322,1,0,0:0:0:0:
256,64,92478,1,8,0:0:0:0:
256,64,92634,1,0,0:0:0:0:
256,64,92791,1,8,0:0:0:0:
256,64,92869,1,0,0:0:0:0:
256,64,93103,1,8,0:0:0:0:
256,64,93259,1,0,0:0:0:0:
256,64,93416,1,8,0:0:0:0:
256,64,93572,1,0,0:0:0:0:
256,64,93650,1,0,0:0:0:0:
256,64,93728,1,8,0:0:0:0:
256,64,94041,1,8,0:0:0:0:
205,6,94197,1,0,0:0:0:0:
256,64,94353,1,8,0:0:0:0:
201,30,94431,1,8,0:0:0:0:
256,64,94509,1,0,0:0:0:0:
256,64,94666,1,8,0:0:0:0:
256,64,94822,1,0,0:0:0:0:
256,64,94978,1,8,0:0:0:0:
256,64,95134,1,0,0:0:0:0:
256,64,95212,1,0,0:0:0:0:
256,64,95291,1,0,0:0:0:0:
288,96,95447,1,8,0:0:0:0:
288,96,95603,1,0,0:0:0:0:
288,96,95681,1,8,0:0:0:0:
288,96,95916,1,0,0:0:0:0:
288,96,96072,1,0,0:0:0:0:
288,96,96228,1,8,0:0:0:0:
288,96,96306,1,0,0:0:0:0:
288,96,96384,1,8,0:0:0:0:
288,96,96541,1,0,0:0:0:0:
288,96,96697,1,8,0:0:0:0:
288,96,96853,1,0,0:0:0:0:
285,94,96931,1,8,0:0:0:0:
288,96,97166,1,0,0:0:0:0:
288,64,97322,1,0,0:0:0:0:
256,64,97478,1,8,0:0:0:0:
256,64,97634,1,0,0:0:0:0:
256,64,97791,1,8,0:0:0:0:
256,64,97869,1,0,0:0:0:0:
198,4,97947,1,0,0:0:0:0:
288,64,98103,1,8,0:0:0:0:
256,64,98259,1,0,0:0:0:0:
256,64,98416,1,8,0:0:0:0:
218,23,98494,1,0,0:0:0:0:
256,64,98572,1,0,0:0:0:0:
222,21,98650,1,0,0:0:0:0:
256,64,98728,1,8,0:0:0:0:
256,64,99041,1,8,0:0:0:0:
146,18,99119,1,8,0:0:0:0:
342,22,99197,1,0,0:0:0:0:
256,64,99353,1,8,0:0:0:0:
222,21,99431,1,8,0:0:0:0:
272,72,99509,1,0,0:0:0:0:
197,26,99587,1,0,0:0:0:0:
288,96,99666,1,8,0:0:0:0:
256,64,99822,1,0,0:0:0:0:
256,64,99978,1,8,0:0:0:0:
288,96,100056,1,0,0:0:0:0:
272,72,100134,1,8,0:0:0:0:
256,64,100291,1,12,0:0:0:0:
320,96,100603,1,0,0:0:0:0:
320,96,100811,1,0,0:0:0:0:
320,96,100916,1,8,0:0:0:0:
320,96,101228,1,8,0:0:0:0:
320,96,101436,1,0,0:0:0:0:
320,96,101541,1,8,0:0:0:0:
320,64,101853,1,0,0:0:0:0:
283,73,102009,1,0,0:0:0:0:
320,64,102166,1,8,0:0:0:0:
320,64,102478,1,0,0:0:0:0:
256,64,102686,1,0,0:0:0:0:
288,64,102791,1,8,0:0:0:0:
288,64,102999,1,8,0:0:0:0:
288,64,103207,1,8,0:0:0:0:
288,64,103416,1,8,0:0:0:0:
288,64,103728,1,8,0:0:0:0:
288,64,103884,1,0,0:0:0:0:
284,63,103962,1,0,0:0:0:0:
288,64,104041,1,8,0:0:0:0:
298,84,104249,1,0,0:0:0:0:
288,91,104353,1,8,0:0:0:0:
263,52,104509,1,0,0:0:0:0:
285,83,104666,1,8,0:0:0:0:
285,83,104822,1,8,0:0:0:0:
285,83,104978,1,0,0:0:0:0:
282,81,105056,1,0,0:0:0:0:
309,93,105134,1,0,0:0:0:0:
320,108,105291,1,12,0:0:0:0:
320,96,105603,1,0,0:0:0:0:
320,96,105811,1,0,0:0:0:0:
320,96,105916,1,8,0:0:0:0:
320,96,106228,1,8,0:0:0:0:
320,96,106436,1,0,0:0:0:0:
320,96,106541,1,8,0:0:0:0:
320,64,106853,1,0,0:0:0:0:
256,64,107009,1,0,0:0:0:0:
320,64,107166,1,8,0:0:0:0:
309,59,107478,1,0,0:0:0:0:
288,64,107686,1,0,0:0:0:0:
288,64,107791,1,8,0:0:0:0:
288,64,107999,1,8,0:0:0:0:
288,64,108207,1,8,0:0:0:0:
288,64,108416,1,8,0:0:0:0:
288,64,108728,1,8,0:0:0:0:
288,64,108884,1,0,0:0:0:0:
288,64,108962,1,0,0:0:0:0:
288,64,109041,1,8,0:0:0:0:
297,60,109249,1,0,0:0:0:0:
288,91,109353,1,8,0:0:0:0:
285,83,109509,1,0,0:0:0:0:
285,83,109666,1,8,0:0:0:0:
285,83,109822,1,8,0:0:0:0:
285,83,109900,1,8,0:0:0:0:
282,82,109978,1,0,0:0:0:0:
288,91,110056,1,0,0:0:0:0:
285,83,110134,1,8,0:0:0:0:
250,182,112791,1,12,0:0:0:0:
266,193,114353,1,8,0:0:0:0:
266,193,114666,1,0,0:0:0:0:
266,193,114978,1,8,0:0:0:0:
266,193,115291,1,0,0:0:0:0:
266,193,115603,1,8,0:0:0:0:
266,193,115759,1,0,0:0:0:0:
266,193,115916,1,0,0:0:0:0:
266,193,116072,1,0,0:0:0:0:
266,193,116228,1,8,0:0:0:0:
266,193,116384,1,0,0:0:0:0:
266,193,116462,1,0,0:0:0:0:
266,193,116541,1,0,0:0:0:0:
266,193,116697,1,0,0:0:0:0:
266,193,116853,1,8,0:0:0:0:
266,193,117009,1,0,0:0:0:0:
266,193,117166,1,0,0:0:0:0:
266,193,117244,1,0,0:0:0:0:
266,193,117322,1,0,0:0:0:0:
266,193,117400,1,0,0:0:0:0:
266,193,117478,1,8,0:0:0:0:
266,193,117556,1,0,0:0:0:0:
266,193,117634,1,8,0:0:0:0:
256,188,119041,1,4,0:0:0:0:
