osu file format v14

[General]
AudioFilename: audio.mp3
AudioLeadIn: 0
PreviewTime: 60169
Countdown: 0
SampleSet: None
StackLeniency: 0.3
Mode: 0
LetterboxInBreaks: 0
WidescreenStoryboard: 1

[Editor]
Bookmarks: 6263,11263,21263,31263,34075,44075,53918,60480,70480,80480,91417,101417,111417,116417,120167
DistanceSpacing: 1.1
BeatDivisor: 4
GridSize: 4
TimelineZoom: 2

[Metadata]
Title:FUJIN Rumble
TitleUnicode:FUJIN Rumble
Artist:COSIO (ZUNTATA)
ArtistUnicode:COSIO (ZUNTATA)
Creator:- AzRaeL -
Version:Hullabaloo
Source:Cytus II
Tags:Electronic Instrumental GROOVE COASTER EX Jubeat Saucer Fulfill 「グルーヴコースター」より Maimai Orange
BeatmapID:3154784
BeatmapSetID:881119

[Difficulty]
HPDrainRate:6
CircleSize:4
OverallDifficulty:8.5
ApproachRate:9.5
SliderMultiplier:1.9
SliderTickRate:1

[Events]
//Background and Video events
0,0,"BG.png",0,0
//Break Periods
2,31358,33193
//Storyboard Layer 0 (Background)
//Storyboard Layer 1 (Fail)
//Storyboard Layer 2 (Pass)
//Storyboard Layer 3 (Foreground)
//Storyboard Layer 4 (Overlay)
//Storyboard Sound Samples

[TimingPoints]
1263,312.5,4,2,2,80,1,0
11263,-83.3333333333333,4,2,2,80,0,0
21263,-83.3333333333333,4,2,1,80,0,0
34075,312.5,4,2,1,80,1,0
34075,-66.6666666666667,4,2,1,80,0,1
44075,-66.6666666666667,4,2,1,80,0,0
53918,312.5,4,2,1,80,1,0
53918,-166.666666666667,4,2,1,80,0,0
57668,-166.666666666667,4,3,0,80,0,0
58605,-83.3333333333334,4,2,1,80,0,0
60480,312.5,4,2,1,80,1,0
60480,-66.6666666666667,4,2,1,80,0,1
80480,-83.3333333333333,4,2,1,80,0,0
91417,312.5,4,2,1,80,1,0
91417,-66.6666666666667,4,2,1,80,0,1
111417,-66.6666666666667,4,2,1,80,0,0

[HitObjects]
256,192,1263,12,0,5794,0:0:0:0:
225,130,5950,5,2,0:0:0:0:
225,130,6028,1,2,0:0:0:0:
225,130,6106,1,2,0:0:0:0:
225,130,6184,1,2,0:0:0:0:
225,130,6263,6,0,P|263:104|311:103,1,95,2|0,3:2|0:0,0:0:0:0:
155,193,6575,2,0,P|108:192|68:166,1,95,0|0,3:0|0:0,0:0:0:0:
146,6,6888,2,0,L|135:101,1,95,0|0,3:0|0:0,0:0:0:0:
244,222,7200,1,0,3:0:0:0:
244,222,7356,1,2,0:0:0:0:
155,193,7513,5,0,3:0:0:0:
106,348,7669,2,0,P|192:375|262:312,1,190,2|0,0:0|0:0,0:0:0:0:
155,193,8138,2,0,P|153:246|187:297,1,95,2|0,3:2|0:0,0:0:0:0:
333,254,8450,1,0,3:0:0:0:
333,254,8763,6,0,L|345:153,1,95,0|0,3:0|0:0,0:0:0:0:
239,40,9075,2,0,B|233:87|233:87|257:128,1,95,2|0,3:2|0:0,0:0:0:0:
500,125,9388,2,0,B|453:137|405:105|425:89|381:52|318:68,1,190,2|0,3:2|3:0,0:0:0:0:
376,335,10013,6,0,B|392:243|392:243|336:147,1,190,0|0,3:0|3:0,0:0:0:0:
192,187,10481,2,0,B|176:279|176:279|232:375,1,190,2|0,0:0|0:0,0:0:0:0:
284,259,10950,1,2,3:2:0:0:
284,259,11028,1,2,0:0:0:0:
284,259,11106,1,2,3:2:0:0:
284,259,11184,1,2,0:0:0:0:
284,259,11263,6,0,B|312:103|312:103|224:155,1,227.999993041992,6|0,3:0|3:0,0:0:0:0:
112,217,11731,2,0,P|184:297|300:213,1,227.999993041992,0|0,1:0|0:0,0:0:0:0:
165,99,12200,2,0,L|45:111,1,113.999996520996,2|0,3:0|0:0,0:0:0:0:
252,138,12513,6,0,P|256:76|222:24,1,113.999996520996,2|0,3:0|0:0,0:0:0:0:
51,110,12825,1,0,3:0:0:0:
189,228,12981,2,0,B|281:236|281:236|317:208|317:208|433:217,1,227.999993041992,0|0,1:0|0:0,0:0:0:0:
326,128,13450,1,2,3:0:0:0:
344,297,13606,1,0,0:0:0:0:
189,228,13763,6,0,P|226:301|278:319,1,113.999996520996,2|0,3:0|0:0,0:0:0:0:
326,128,14075,2,0,P|281:196|291:250,1,113.999996520996,2|0,3:2|1:0,0:0:0:0:
374,209,14388,1,2,3:2:0:0:
212,112,14544,2,0,B|92:124,1,113.999996520996,2|2,0:0|3:0,0:0:0:0:
116,264,14856,6,0,P|180:240|212:184,1,113.999996520996,2|2,0:0|3:0,0:0:0:0:
18,75,15169,2,0,P|6:142|39:198,1,113.999996520996,2|0,0:0|3:0,0:0:0:0:
212,112,15481,2,0,B|220:64|188:28|188:28|92:88|160:184,1,227.999993041992,2|0,1:2|0:0,0:0:0:0:
263,296,15950,1,2,3:0:0:0:
404,141,16263,6,0,B|464:87|464:87|474:240,1,227.999993041992,2|0,3:0|3:0,0:0:0:0:
315,216,16731,2,0,B|307:100|307:100|395:24,1,227.999993041992,0|0,1:0|0:0,0:0:0:0:
370,297,17200,2,0,B|315:315|315:315|254:293,1,113.999996520996,2|0,3:0|0:0,0:0:0:0:
149,127,17513,6,0,L|17:139,2,113.999996520996,2|0|0,3:0|0:0|3:0,0:0:0:0:
219,44,17981,2,0,B|227:104|291:124|291:124|215:148|219:244,1,227.999993041992,0|0,1:0|0:0,0:0:0:0:
311,31,18449,1,2,3:0:0:0:
149,127,18606,1,0,0:0:0:0:
315,216,18763,6,0,L|435:207,1,113.999996520996,2|0,3:0|0:0,0:0:0:0:
283,307,19075,2,0,L|403:298,1,113.999996520996,2|0,3:2|1:0,0:0:0:0:
220,233,19388,1,2,3:2:0:0:
252,142,19544,2,0,L|383:132,1,113.999996520996,2|2,0:0|3:0,0:0:0:0:
220,233,19856,6,0,P|171:191|159:123,1,113.999996520996,2|2,0:0|3:0,0:0:0:0:
428,207,20169,2,0,P|416:270|363:314,1,113.999996520996,2|0,0:0|3:0,0:0:0:0:
302,40,20481,2,0,P|362:18|427:42,1,113.999996520996,2|0,1:2|3:0,0:0:0:0:
316,160,20794,1,0,0:0:0:0:
80,92,20950,1,2,3:2:0:0:
83,77,21028,1,2,0:0:0:0:
86,62,21106,1,2,3:2:0:0:
89,47,21185,1,2,0:0:0:0:
92,32,21263,5,12,0:0:0:0:
156,288,21575,1,8,0:0:0:0:
191,46,21888,5,8,0:0:0:0:
56,273,22200,1,8,0:0:0:0:
10,92,22513,5,8,0:0:0:0:
237,227,22825,1,8,0:0:0:0:
0,192,23138,5,8,0:0:0:0:
252,128,23450,1,8,0:0:0:0:
124,160,23606,1,8,0:0:0:0:
0,192,23763,5,8,0:0:0:0:
237,227,24075,1,8,0:0:0:0:
74,98,24388,5,8,0:0:0:0:
162,320,24700,1,8,0:0:0:0:
192,115,25013,5,8,0:0:0:0:
118,209,25169,1,8,0:0:0:0:
44,303,25325,1,8,0:0:0:0:
74,98,25638,5,8,0:0:0:0:
118,209,25872,1,8,0:0:0:0:
118,209,25950,1,8,0:0:0:0:
162,320,26106,1,8,0:0:0:0:
237,227,26263,6,0,L|372:208,1,113.999996520996,8|0,1:2|0:0,0:0:0:0:
439,246,26575,1,8,0:0:0:0:
252,321,26731,2,0,L|387:302,1,113.999996520996,0|8,1:0|0:0,0:0:0:0:
439,246,27044,1,0,0:0:0:0:
166,166,27200,2,0,B|136:209|136:209|156:293,1,113.999996520996,8|0,1:2|0:0,0:0:0:0:
254,133,27513,6,0,P|208:80|160:72,1,113.999996520996,8|0,1:2|0:0,0:0:0:0:
85,117,27825,1,8,0:0:0:0:
237,227,27981,1,0,1:0:0:0:
348,150,28138,1,8,0:0:0:0:
331,244,28294,1,8,0:0:0:0:
254,133,28450,1,8,1:2:0:0:
237,227,28606,1,8,0:0:0:0:
421,212,28763,5,8,1:2:0:0:
254,133,28919,1,0,1:0:0:0:
270,317,29075,1,8,1:2:0:0:
348,150,29231,1,0,1:0:0:0:
165,166,29388,5,8,1:2:0:0:
331,244,29544,1,0,1:0:0:0:
160,315,29700,2,0,L|149:259,1,56.9999982604981,8|0,1:2|3:0,0:0:0:0:
260,76,29856,2,0,L|251:158,1,56.9999982604981,0|0,1:0|3:0,0:0:0:0:
331,244,30013,5,8,3:2:0:0:
379,262,30117,1,0,3:0:0:0:
429,250,30221,1,0,3:0:0:0:
463,210,30325,1,8,3:2:0:0:
469,158,30429,1,0,3:0:0:0:
443,113,30533,1,0,3:0:0:0:
397,91,30638,1,8,3:2:0:0:
345,99,30742,1,0,3:0:0:0:
308,134,30846,1,0,3:0:0:0:
267,167,30950,1,8,3:2:0:0:
216,177,31054,1,0,3:0:0:0:
165,166,31158,1,0,3:0:0:0:
386,131,33763,5,2,0:0:0:0:
385,145,33841,1,2,0:0:0:0:
384,159,33919,1,2,0:0:0:0:
383,173,33997,1,2,0:0:0:0:
382,187,34075,6,0,P|329:174|300:146,1,71.2500027179719,4|0,3:2|0:0,0:0:0:0:
382,37,34231,1,10,0:0:0:0:
382,37,34309,2,0,P|435:50|464:78,1,71.2500027179719,2|0,0:0|3:0,0:0:0:0:
227,197,34465,1,2,0:0:0:0:
223,149,34543,1,10,0:0:0:0:
219,102,34621,1,2,0:0:0:0:
215,54,34700,2,0,L|119:46,1,71.2500027179719,0|0,3:0|0:0,0:0:0:0:
74,113,34856,2,0,L|2:118,1,71.2500027179719,10|0,0:0|0:0,0:0:0:0:
183,281,35012,1,0,3:0:0:0:
216,290,35090,1,2,0:0:0:0:
251,288,35168,1,10,0:0:0:0:
134,200,35325,6,0,P|106:227|88:277,1,71.2500027179719,0|0,3:0|0:0,0:0:0:0:
346,284,35481,1,10,0:0:0:0:
346,284,35559,2,0,P|335:246|301:206,1,71.2500027179719,2|0,0:0|3:0,0:0:0:0:
240,56,35715,1,2,0:0:0:0:
235,103,35793,1,10,0:0:0:0:
231,150,35871,1,2,0:0:0:0:
227,197,35949,1,0,3:0:0:0:
415,108,36106,2,0,L|402:16,1,71.2500027179719,10|0,0:0|0:0,0:0:0:0:
317,220,36262,1,2,3:2:0:0:
349,214,36340,1,2,0:0:0:0:
414,204,36418,1,10,3:2:0:0:
447,199,36496,1,2,0:0:0:0:
512,188,36575,6,0,L|502:258,1,71.2500027179719,0|0,3:0|0:0,0:0:0:0:
362,308,36731,1,10,0:0:0:0:
362,308,36809,2,0,L|371:378,1,71.2500027179719,2|0,0:0|3:0,0:0:0:0:
176,104,36965,1,2,0:0:0:0:
233,66,37043,1,10,0:0:0:0:
299,87,37121,1,2,0:0:0:0:
327,149,37200,2,0,L|317:219,1,71.2500027179719,0|0,3:0|0:0,0:0:0:0:
102,163,37356,2,0,B|82:132|82:132|83:85,1,71.2500027179719,10|0,0:0|0:0,0:0:0:0:
227,183,37512,1,0,3:0:0:0:
220,230,37590,1,2,0:0:0:0:
213,277,37668,1,10,0:0:0:0:
12,310,37825,5,2,3:2:0:0:
79,295,37903,1,2,0:0:0:0:
130,323,37981,1,10,0:0:0:0:
164,358,38059,1,2,0:0:0:0:
203,372,38137,1,0,3:0:0:0:
238,369,38215,1,0,0:0:0:0:
264,356,38293,2,0,P|305:350|353:369,1,71.2500027179719,10|2,0:0|0:0,0:0:0:0:
444,203,38450,5,0,3:0:0:0:
462,186,38528,1,2,0:0:0:0:
469,160,38606,1,10,0:0:0:0:
455,131,38684,1,2,0:0:0:0:
421,120,38762,1,2,3:2:0:0:
382,136,38841,1,2,0:0:0:0:
355,176,38919,1,10,3:2:0:0:
355,232,38997,1,2,0:0:0:0:
393,283,39075,6,0,P|418:315|426:366,1,71.2500027179719,4|0,3:2|0:0,0:0:0:0:
262,164,39231,1,10,0:0:0:0:
262,164,39309,2,0,P|272:130|295:103,1,71.2500027179719,2|0,0:0|3:0,0:0:0:0:
452,61,39465,1,2,0:0:0:0:
449,108,39543,1,10,0:0:0:0:
447,155,39621,1,2,0:0:0:0:
444,203,39699,1,0,3:0:0:0:
207,241,39856,2,0,P|182:215|170:181,1,71.2500027179719,10|0,0:0|0:0,0:0:0:0:
301,253,40012,1,0,3:0:0:0:
291,286,40090,1,2,0:0:0:0:
268,313,40168,1,10,0:0:0:0:
224,95,40325,6,0,L|302:103,1,71.2500027179719,0|0,3:0|0:0,0:0:0:0:
346,25,40481,1,10,0:0:0:0:
346,25,40559,2,0,L|416:17,1,71.2500027179719,2|0,0:0|3:0,0:0:0:0:
154,32,40715,1,2,0:0:0:0:
132,73,40793,1,10,0:0:0:0:
133,120,40871,1,2,0:0:0:0:
156,161,40950,2,0,P|174:197|170:253,1,71.2500027179719,0|0,3:0|0:0,0:0:0:0:
86,258,41106,2,0,P|68:222|72:166,1,71.2500027179719,10|0,0:0|0:0,0:0:0:0:
224,95,41262,1,2,3:2:0:0:
262,89,41340,1,2,0:0:0:0:
318,125,41418,1,10,3:2:0:0:
356,131,41496,1,2,0:0:0:0:
412,95,41575,6,0,L|405:24,1,71.2500027179719,0|0,3:0|0:0,0:0:0:0:
235,219,41731,1,10,0:0:0:0:
235,219,41809,2,0,P|237:254|253:286,1,71.2500027179719,2|0,0:0|3:0,0:0:0:0:
458,233,41965,1,2,0:0:0:0:
416,254,42043,1,10,0:0:0:0:
369,252,42121,1,2,0:0:0:0:
328,228,42200,2,0,P|355:191|409:173,1,71.2500027179719,0|0,3:0|0:0,0:0:0:0:
509,78,42356,2,0,L|502:149,1,71.2500027179719,10|0,0:0|0:0,0:0:0:0:
467,327,42512,1,0,3:0:0:0:
462,280,42590,1,2,0:0:0:0:
458,233,42668,1,10,0:0:0:0:
194,105,42825,5,2,3:2:0:0:
259,124,42903,1,2,0:0:0:0:
312,100,42981,1,10,0:0:0:0:
329,55,43059,1,2,0:0:0:0:
309,20,43138,1,0,3:0:0:0:
275,14,43216,1,0,0:0:0:0:
250,29,43293,2,0,P|246:66|266:110,1,71.2500027179719,10|2,0:0|0:0,0:0:0:0:
328,228,43450,5,0,3:0:0:0:
345,251,43528,1,2,0:0:0:0:
352,282,43606,1,10,0:0:0:0:
343,318,43684,1,2,0:0:0:0:
313,347,43762,1,2,3:2:0:0:
266,354,43841,1,2,0:0:0:0:
219,327,43919,1,10,3:2:0:0:
160,307,43997,1,2,0:0:0:0:
93,336,44075,6,0,B|64:192|64:192|88:229|141:237,1,213.750008153916,6|0,1:2|0:0,0:0:0:0:
208,212,44387,1,8,0:0:0:0:
61,98,44543,2,0,B|84:43|143:38|143:38|143:38|143:38|173:89|143:141,1,213.750008153916,2|0,1:2|0:0,0:0:0:0:
64,192,44856,1,8,0:0:0:0:
208,212,45012,2,0,P|249:228|301:219,1,71.2500027179719,2|0,1:2|0:0,0:0:0:0:
409,58,45168,2,0,P|450:41|502:50,1,71.2500027179719,2|0,0:0|0:0,0:0:0:0:
463,148,45325,1,8,0:0:0:0:
260,133,45481,2,0,B|345:126|345:126|377:154|377:154|481:146,1,213.750008153916,2|0,1:2|0:0,0:0:0:0:
409,58,45793,1,8,0:0:0:0:
313,224,45950,2,0,B|304:316|304:316|364:264,1,142.500005435944,2|8,1:2|0:0,0:0:0:0:
260,133,46262,6,0,B|219:99|169:111|169:111|127:169|45:137,1,213.750008153916,6|0,1:2|0:0,0:0:0:0:
95,53,46575,1,8,0:0:0:0:
195,203,46731,2,0,B|240:252|210:319|210:319|159:339|123:294,1,213.750008153916,2|0,1:2|0:0,0:0:0:0:
67,230,47043,1,8,0:0:0:0:
260,133,47200,2,0,L|336:144,1,71.2500027179719,2|0,1:2|0:0,0:0:0:0:
423,301,47356,2,0,B|387:303|387:303|361:279,1,71.2500027179719,2|0,0:0|0:0,0:0:0:0:
512,216,47512,1,8,0:0:0:0:
389,5,47668,2,0,B|397:75|397:75|428:108|428:108|420:206,1,213.750008153916,2|0,1:2|0:0,0:0:0:0:
423,301,47981,1,8,0:0:0:0:
330,143,48137,2,0,P|284:151|240:195,1,71.2500027179719,2|0,1:2|0:0,0:0:0:0:
171,178,48293,2,0,P|172:143|186:110,1,71.2500027179719,10|0,0:0|0:0,0:0:0:0:
322,238,48450,2,0,B|355:281|319:349|245:342|218:291|233:251|233:251|191:284|129:267,1,285.000010871888,2|0,1:2|0:0,0:0:0:0:
84,138,48918,2,0,B|53:89|91:44|91:44|171:52|193:128|171:178,1,285.000010871888,2|0,1:2|0:0,0:0:0:0:
8,308,49387,6,0,B|-6:164|-6:164|6:207|56:229,1,213.750008153916,6|0,1:2|0:0,0:0:0:0:
119,258,49700,1,8,0:0:0:0:
279,92,49856,2,0,B|243:77|204:87|181:114|181:114|155:142|116:150|84:137,1,213.750008153916,2|0,1:2|0:0,0:0:0:0:
114,48,50168,1,8,0:0:0:0:
332,171,50325,2,0,P|360:142|373:87,1,71.2500027179719,2|0,1:2|0:0,0:0:0:0:
466,108,50481,2,0,P|454:69|413:30,1,71.2500027179719,2|0,0:0|0:0,0:0:0:0:
279,92,50637,1,8,0:0:0:0:
425,262,50793,2,0,B|439:239|469:226|469:226|421:218|389:246|389:246|357:274|304:261,1,213.750008153916,2|0,1:2|0:0,0:0:0:0:
249,200,51106,1,8,0:0:0:0:
251,331,51262,2,0,B|222:264|222:264|250:196,1,142.500005435944,2|8,1:2|0:0,0:0:0:0:
279,92,51575,6,0,P|212:168|106:124,1,213.750008153916,6|0,1:2|0:0,0:0:0:0:
186,76,51887,1,8,0:0:0:0:
323,264,52043,2,0,B|388:312|456:268|456:268|412:260|387:206,1,213.750008153916,2|0,1:2|0:0,0:0:0:0:
360,143,52356,1,8,0:0:0:0:
485,105,52512,2,0,L|477:176,1,71.2500027179719,2|0,1:2|0:0,0:0:0:0:
275,182,52668,2,0,B|260:148|260:148|272:108,1,71.2500027179719,2|0,0:0|0:0,0:0:0:0:
338,50,52825,1,8,0:0:0:0:
323,264,52981,2,0,B|267:292|223:260|223:260|179:227|122:256,1,213.750008153916,2|0,1:2|0:0,0:0:0:0:
31,284,53293,1,8,0:0:0:0:
61,120,53450,2,0,L|51:207,1,71.2500027179719,2|0,1:2|0:0,0:0:0:0:
100,348,53606,2,0,P|136:349|170:338,1,71.2500027179719,2|0,1:2|0:0,0:0:0:0:
275,182,53762,1,0,1:0:0:0:
379,272,53918,6,0,L|299:260,1,56.9999982604981,2|0,0:0|0:0,0:0:0:0:
275,182,54230,2,0,L|287:102,1,56.9999982604981,2|0,0:0|0:0,0:0:0:0:
365,78,54543,2,0,L|445:90,1,56.9999982604981,2|0,0:0|0:0,0:0:0:0:
469,168,54855,2,0,L|457:248,1,56.9999982604981,2|0,0:0|0:0,0:0:0:0:
379,272,55168,6,0,L|299:260,1,56.9999982604981,2|0,0:0|0:0,0:0:0:0:
275,182,55480,2,0,L|219:190,1,56.9999982604981,2|0,0:0|0:0,0:0:0:0:
180,278,55793,2,0,L|100:266,1,56.9999982604981,2|0,0:0|0:0,0:0:0:0:
76,188,56105,2,0,L|20:196,1,56.9999982604981,2|0,0:0|0:0,0:0:0:0:
37,103,56418,5,2,0:0:0:0:
91,96,56496,1,2,0:0:0:0:
134,114,56574,1,2,0:0:0:0:
168,138,56652,1,2,0:0:0:0:
203,146,56730,1,2,0:0:0:0:
235,143,56809,1,2,0:0:0:0:
259,132,56887,1,2,0:0:0:0:
274,113,56965,1,2,0:0:0:0:
279,93,57043,1,2,0:0:0:0:
274,75,57121,1,2,0:0:0:0:
266,62,57199,1,2,0:0:0:0:
255,53,57277,1,2,0:0:0:0:
244,48,57356,1,2,0:0:0:0:
233,47,57434,1,2,0:0:0:0:
224,48,57512,1,2,0:0:0:0:
216,49,57590,1,2,0:0:0:0:
210,52,57668,6,0,L|203:126,1,56.9999982604981
196,203,57980,1,0,0:0:0:0:
125,90,58136,2,0,L|121:127,1,28.4999991302491
119,147,58293,1,0,0:0:0:0:
119,147,58605,6,0,L|3:157,1,113.999996520996,8|0,0:0|0:0,0:0:0:0:
196,203,58918,6,0,L|312:213,2,75.9999976806641,0|0|0,3:0|3:0|3:0,0:0:0:0:
136,276,59230,2,0,L|168:344,2,75.9999976806641,0|0|0,3:0|3:0|3:0,0:0:0:0:
306,298,59543,2,0,L|239:393,1,75.9999976806641,0|0,3:0|3:0,0:0:0:0:
102,187,59855,1,8,0:0:0:0:
372,64,60168,5,2,0:0:0:0:
373,78,60246,1,2,0:0:0:0:
374,92,60324,1,2,0:0:0:0:
375,106,60402,1,2,0:0:0:0:
376,120,60480,6,0,B|340:112|340:112|296:140,1,71.2500027179719,4|0,3:2|0:0,0:0:0:0:
328,224,60636,1,10,0:0:0:0:
328,224,60714,2,0,B|364:232|364:232|408:204,1,71.2500027179719,2|0,0:0|3:0,0:0:0:0:
218,124,60870,1,2,0:0:0:0:
226,172,60949,1,10,0:0:0:0:
234,218,61027,1,2,0:0:0:0:
245,267,61105,2,0,L|160:256,1,71.2500027179719,0|0,3:0|0:0,0:0:0:0:
100,200,61261,2,0,L|29:209,1,71.2500027179719,10|0,0:0|0:0,0:0:0:0:
187,35,61417,1,0,3:0:0:0:
222,29,61495,1,2,0:0:0:0:
256,37,61573,1,10,0:0:0:0:
218,124,61730,6,0,L|147:114,1,71.2500027179719,0|0,3:0|0:0,0:0:0:0:
346,5,61886,1,10,0:0:0:0:
346,5,61964,2,0,B|359:38|359:38|333:96,1,71.2500027179719,2|0,0:0|3:0,0:0:0:0:
312,172,62120,1,2,0:0:0:0:
359,167,62198,1,10,0:0:0:0:
406,162,62276,1,2,0:0:0:0:
453,157,62354,1,0,3:0:0:0:
363,327,62511,2,0,L|352:257,1,71.2500027179719,10|0,0:0|0:0,0:0:0:0:
253,70,62667,1,2,3:2:0:0:
249,102,62745,1,2,0:0:0:0:
201,146,62823,1,10,3:2:0:0:
205,178,62901,1,2,0:0:0:0:
241,234,62980,6,0,P|244:272|231:307,1,71.2500027179719,0|0,3:0|0:0,0:0:0:0:
87,286,63136,1,10,0:0:0:0:
87,286,63214,2,0,P|121:278|150:258,1,71.2500027179719,2|0,0:0|3:0,0:0:0:0:
98,51,63371,1,2,0:0:0:0:
92,98,63449,1,10,0:0:0:0:
87,145,63527,1,2,0:0:0:0:
82,192,63605,2,0,L|0:204,1,71.2500027179719,0|0,3:0|0:0,0:0:0:0:
211,75,63761,2,0,L|199:157,1,71.2500027179719,10|0,0:0|0:0,0:0:0:0:
233,302,63917,1,0,3:0:0:0:
279,307,63995,1,2,0:0:0:0:
323,289,64073,1,10,0:0:0:0:
344,116,64230,5,2,3:2:0:0:
387,64,64308,1,2,0:0:0:0:
442,74,64386,1,10,0:0:0:0:
467,116,64464,1,2,0:0:0:0:
459,156,64542,1,0,3:0:0:0:
434,179,64621,1,0,0:0:0:0:
406,186,64698,2,0,L|315:197,1,71.2500027179719,10|2,0:0|0:0,0:0:0:0:
108,201,64855,5,0,3:0:0:0:
130,189,64933,1,2,0:0:0:0:
157,183,65011,1,10,0:0:0:0:
189,186,65089,1,2,0:0:0:0:
222,202,65168,1,2,3:2:0:0:
249,235,65246,1,2,0:0:0:0:
280,272,65324,1,10,3:2:0:0:
332,290,65402,1,2,0:0:0:0:
392,271,65480,6,0,L|475:260,1,71.2500027179719,4|0,3:2|0:0,0:0:0:0:
345,124,65636,1,10,0:0:0:0:
345,124,65714,2,0,L|335:194,1,71.2500027179719,2|0,0:0|3:0,0:0:0:0:
164,302,65870,1,2,0:0:0:0:
192,265,65948,1,10,0:0:0:0:
237,253,66026,1,2,0:0:0:0:
280,272,66105,2,0,L|290:342,1,71.2500027179719,0|0,3:0|0:0,0:0:0:0:
73,324,66261,2,0,B|66:289|66:289|83:254,1,71.2500027179719,10|0,0:0|0:0,0:0:0:0:
113,167,66417,1,0,3:0:0:0:
67,163,66495,1,2,0:0:0:0:
24,182,66573,1,10,0:0:0:0:
160,20,66730,6,0,L|170:90,1,71.2500027179719,0|0,3:0|0:0,0:0:0:0:
247,144,66886,1,10,0:0:0:0:
247,144,66964,2,0,L|257:74,1,71.2500027179719,2|0,0:0|3:0,0:0:0:0:
325,8,67120,1,2,0:0:0:0:
372,14,67198,1,10,0:0:0:0:
419,21,67276,1,2,0:0:0:0:
466,28,67355,2,0,P|480:64|476:120,1,71.2500027179719,0|0,3:0|0:0,0:0:0:0:
491,192,67511,2,0,P|452:186|406:154,1,71.2500027179719,10|0,0:0|0:0,0:0:0:0:
247,144,67667,1,2,3:2:0:0:
253,176,67745,1,2,0:0:0:0:
263,241,67823,1,10,3:2:0:0:
268,274,67901,1,2,0:0:0:0:
279,339,67980,6,0,L|209:329,1,71.2500027179719,0|0,3:0|0:0,0:0:0:0:
140,264,68136,1,10,0:0:0:0:
140,264,68214,2,0,L|70:274,1,71.2500027179719,2|0,0:0|3:0,0:0:0:0:
106,83,68370,1,2,0:0:0:0:
166,50,68448,1,10,0:0:0:0:
229,77,68526,1,2,0:0:0:0:
247,144,68605,2,0,P|203:164|143:152,1,71.2500027179719,0|0,3:0|0:0,0:0:0:0:
298,14,68761,2,0,P|333:18|364:35,1,71.2500027179719,10|0,0:0|0:0,0:0:0:0:
448,136,68917,1,0,3:0:0:0:
450,100,68995,1,2,0:0:0:0:
453,64,69073,1,10,0:0:0:0:
247,144,69230,5,2,3:2:0:0:
314,145,69308,1,2,0:0:0:0:
363,177,69386,1,10,0:0:0:0:
395,214,69464,1,2,0:0:0:0:
433,230,69542,1,0,3:0:0:0:
467,229,69621,1,0,0:0:0:0:
494,218,69698,2,0,L|486:302,1,71.2500027179719,10|2,0:0|0:0,0:0:0:0:
342,325,69855,5,0,3:0:0:0:
336,301,69933,1,2,0:0:0:0:
323,275,70011,1,10,0:0:0:0:
300,252,70089,1,2,0:0:0:0:
265,238,70168,1,2,3:2:0:0:
223,239,70246,1,2,0:0:0:0:
185,267,70324,1,10,3:2:0:0:
188,319,70402,1,2,0:0:0:0:
247,331,70480,6,0,P|268:304|255:223,1,71.2500027179719,4|0,3:2|0:0,0:0:0:0:
247,144,70636,1,10,0:0:0:0:
247,144,70714,2,0,L|155:156,1,71.2500027179719,2|0,0:0|3:0,0:0:0:0:
43,248,70870,1,2,0:0:0:0:
90,254,70948,1,10,0:0:0:0:
137,260,71026,1,2,0:0:0:0:
185,267,71104,1,0,3:0:0:0:
104,96,71261,2,0,P|84:144|94:198,1,71.2500027179719,10|0,0:0|0:0,0:0:0:0:
247,144,71417,1,0,3:0:0:0:
244,108,71495,1,2,0:0:0:0:
241,72,71573,2,0,L|234:-16,1,71.2500027179719,10|0,0:0|0:0,0:0:0:0:
440,60,71730,6,0,B|451:94|451:94|434:131,1,71.2500027179719,0|0,3:0|0:0,0:0:0:0:
342,120,71886,1,10,0:0:0:0:
342,120,71964,2,0,B|331:86|331:86|345:53,1,71.2500027179719,2|0,0:0|3:0,0:0:0:0:
456,245,72120,1,2,0:0:0:0:
418,216,72198,1,10,0:0:0:0:
371,210,72276,1,2,0:0:0:0:
328,227,72355,1,0,3:0:0:0:
374,374,72511,2,0,L|381:304,1,71.2500027179719,10|0,0:0|0:0,0:0:0:0:
238,198,72667,1,2,3:2:0:0:
234,230,72745,1,2,0:0:0:0:
258,290,72823,1,10,3:2:0:0:
254,322,72901,1,2,0:0:0:0:
230,382,72980,6,0,P|186:376|136:313,1,71.2500027179719,0|0,3:0|0:0,0:0:0:0:
29,280,73136,1,10,0:0:0:0:
29,280,73214,2,0,P|72:285|122:348,1,71.2500027179719,2|0,0:0|3:0,0:0:0:0:
238,198,73370,1,2,0:0:0:0:
190,193,73448,1,10,0:0:0:0:
144,190,73526,1,2,0:0:0:0:
96,186,73605,2,0,L|109:105,1,71.2500027179719,0|0,3:0|0:0,0:0:0:0:
190,72,73761,2,0,L|178:1,1,71.2500027179719,10|0,0:0|0:0,0:0:0:0:
319,150,73917,1,0,3:0:0:0:
332,195,73995,1,2,0:0:0:0:
322,240,74073,1,10,0:0:0:0:
122,273,74230,5,2,3:2:0:0:
189,258,74308,1,2,0:0:0:0:
240,286,74386,1,10,0:0:0:0:
274,321,74464,1,2,0:0:0:0:
313,335,74542,1,0,3:0:0:0:
348,332,74620,1,0,0:0:0:0:
374,319,74698,2,0,P|415:313|463:332,1,71.2500027179719,10|2,0:0|0:0,0:0:0:0:
409,208,74855,5,0,3:0:0:0:
416,185,74933,1,2,0:0:0:0:
414,158,75011,1,10,0:0:0:0:
399,130,75089,1,2,0:0:0:0:
369,110,75168,1,2,3:2:0:0:
327,110,75246,1,2,0:0:0:0:
289,139,75324,1,10,3:2:0:0:
280,193,75402,1,2,0:0:0:0:
322,240,75480,6,0,L|218:228,1,71.2500027179719,4|0,3:2|0:0,0:0:0:0:
192,158,75636,1,10,0:0:0:0:
192,158,75714,2,0,L|121:166,1,71.2500027179719,2|0,0:0|3:0,0:0:0:0:
250,15,75870,1,2,0:0:0:0:
284,48,75948,1,10,0:0:0:0:
298,93,76026,1,2,0:0:0:0:
289,139,76104,1,0,3:0:0:0:
30,191,76261,2,0,P|34:131|62:95,1,71.2500027179719,10|0,0:0|0:0,0:0:0:0:
192,158,76417,1,0,3:0:0:0:
186,205,76495,1,2,0:0:0:0:
181,252,76573,1,10,0:0:0:0:
98,334,76730,6,0,L|88:263,1,71.2500027179719,0|0,3:0|0:0,0:0:0:0:
277,226,76886,1,10,0:0:0:0:
277,226,76964,2,0,L|267:297,1,71.2500027179719,2|0,0:0|3:0,0:0:0:0:
368,352,77120,1,2,0:0:0:0:
396,314,77198,1,10,0:0:0:0:
440,301,77276,1,2,0:0:0:0:
484,317,77355,2,0,P|472:281|480:229,1,71.2500027179719,0|0,3:0|0:0,0:0:0:0:
393,201,77511,2,0,P|418:173|467:154,1,71.2500027179719,10|0,0:0|0:0,0:0:0:0:
480,68,77667,1,2,3:2:0:0:
448,62,77745,1,2,0:0:0:0:
383,52,77823,1,10,3:2:0:0:
350,47,77901,1,2,0:0:0:0:
285,36,77980,6,0,L|295:106,1,71.2500027179719,0|0,3:0|0:0,0:0:0:0:
115,194,78136,1,10,0:0:0:0:
100,132,78214,1,2,0:0:0:0:
138,94,78292,1,2,3:2:0:0:
182,97,78370,1,2,0:0:0:0:
208,124,78448,1,10,0:0:0:0:
212,153,78526,2,0,L|202:223,1,71.2500027179719,2|0,0:0|3:0,0:0:0:0:
160,312,78683,1,2,0:0:0:0:
207,319,78761,1,10,0:0:0:0:
251,304,78839,1,2,0:0:0:0:
285,271,78917,1,2,3:2:0:0:
318,238,78995,1,2,0:0:0:0:
363,223,79073,1,10,0:0:0:0:
409,229,79151,1,2,0:0:0:0:
420,240,79230,6,0,L|412:320,1,71.2500027179719,0|0,3:0|0:0,0:0:0:0:
201,223,79386,1,10,0:0:0:0:
172,208,79464,2,0,B|156:176|156:176|168:132,1,71.2500027179719,2|0,0:0|3:0,0:0:0:0:
326,93,79620,1,2,0:0:0:0:
372,89,79698,1,10,0:0:0:0:
411,114,79776,1,2,0:0:0:0:
428,158,79855,5,2,3:2:0:0:
403,172,79933,1,2,0:0:0:0:
372,177,80011,1,10,0:0:0:0:
336,169,80089,1,2,0:0:0:0:
304,143,80168,1,2,3:2:0:0:
286,98,80246,1,2,0:0:0:0:
298,45,80324,1,10,0:0:0:0:
347,6,80402,1,2,0:0:0:0:
419,0,80480,6,0,L|411:113,1,113.999996520996,4|0,3:2|0:0,0:0:0:0:
327,282,80792,2,0,L|336:167,1,113.999996520996,0|0,3:0|0:0,0:0:0:0:
504,128,81105,2,0,L|496:241,1,113.999996520996,0|0,3:0|0:0,0:0:0:0:
377,364,81417,2,0,B|423:331|423:331|486:336,1,113.999996520996,8|0,3:2|0:0,0:0:0:0:
285,380,81730,6,0,P|291:324|327:281,1,113.999996520996,0|0,3:0|0:0,0:0:0:0:
376,163,82042,2,0,P|324:185|269:176,1,113.999996520996,0|0,3:0|0:0,0:0:0:0:
143,193,82355,2,0,P|188:226|207:278,1,113.999996520996,0|0,3:0|0:0,0:0:0:0:
58,291,82667,2,0,L|118:283,1,56.9999982604981,8|0,3:2|0:0,0:0:0:0:
165,360,82823,1,0,3:0:0:0:
52,375,82980,6,0,L|181:357,1,113.999996520996,0|0,3:0|0:0,0:0:0:0:
236,178,83292,2,0,B|200:222|200:222|208:290,1,113.999996520996,2|0,3:2|0:0,0:0:0:0:
256,355,83605,1,2,3:2:0:0:
410,266,83761,2,0,L|298:251,1,113.999996520996,2|8,0:0|3:2,0:0:0:0:
172,110,84073,6,0,P|208:86|306:114,1,113.999996520996,2|0,0:0|3:0,0:0:0:0:
460,115,84386,2,0,P|447:139|427:158,1,56.9999982604981,2|0,0:0|3:0,0:0:0:0:
332,168,84542,1,8,0:0:0:0:
302,1,84698,2,0,P|340:21|365:119,1,113.999996520996,2|8,3:2|3:2,0:0:0:0:
243,234,85011,1,0,3:0:0:0:
243,234,85089,1,0,3:0:0:0:
243,234,85167,2,0,L|233:161,1,56.9999982604981,8|0,3:2|0:0,0:0:0:0:
167,64,85323,1,0,3:0:0:0:
163,92,85401,1,0,3:0:0:0:
159,120,85479,5,8,3:2:0:0:
53,202,85636,1,0,3:0:0:0:
65,108,85792,1,8,3:2:0:0:
147,214,85948,1,0,3:0:0:0:
235,63,86105,5,8,3:2:0:0:
341,145,86262,1,0,3:0:0:0:
329,51,86418,1,8,3:2:0:0:
247,157,86574,1,0,3:0:0:0:
416,87,86730,5,8,3:2:0:0:
235,63,86886,1,0,3:0:0:0:
300,240,87042,1,8,3:2:0:0:
329,51,87198,1,0,3:0:0:0:
159,120,87355,1,8,3:2:0:0:
159,120,87433,1,0,3:0:0:0:
159,120,87511,2,0,L|84:112,1,56.9999982604981,0|0,3:0|0:0,0:0:0:0:
56,31,87667,1,8,3:2:0:0:
56,31,87745,1,0,3:0:0:0:
56,31,87823,2,0,L|0:37,1,56.9999982604981,0|0,3:0|3:0,0:0:0:0:
34,250,87980,5,8,3:2:0:0:
87,264,88084,1,0,3:0:0:0:
139,243,88188,1,0,3:0:0:0:
168,195,88292,2,0,L|158:114,1,75.9999976806641,8|0,3:2|0:0,0:0:0:0:
205,44,88500,1,0,3:0:0:0:
199,34,88605,5,8,3:2:0:0:
246,5,88709,1,0,3:0:0:0:
302,8,88813,1,0,3:0:0:0:
347,43,88918,2,0,P|387:56|450:39,1,75.9999976806641,8|0,3:2|0:0,0:0:0:0:
496,15,89125,1,0,3:0:0:0:
505,22,89230,6,0,L|497:98,3,56.9999982604981,0|0|0|0,3:0|3:0|3:0|3:0,0:0:0:0:
434,147,89542,2,0,L|439:203,3,56.9999982604981,0|0|0|0,3:0|3:0|3:0|3:0,0:0:0:0:
488,328,89855,1,0,3:0:0:0:
457,298,89933,1,0,3:0:0:0:
417,284,90011,1,0,3:0:0:0:
375,289,90089,1,0,3:0:0:0:
340,313,90167,2,0,L|355:354,1,28.4999991302491,0|0,3:0|3:0,0:0:0:0:
304,336,90245,2,0,L|311:380,1,28.4999991302491,0|0,3:0|3:0,0:0:0:0:
263,342,90323,2,0,L|262:387,1,28.4999991302491,0|0,3:0|3:0,0:0:0:0:
222,328,90401,2,0,L|213:373,1,28.4999991302491,0|0,3:0|3:0,0:0:0:0:
272,248,91105,5,8,0:0:0:0:
272,248,91417,2,0,P|284:220|280:164,1,71.2500027179719,6|0,3:2|0:0,0:0:0:0:
139,150,91573,2,0,P|157:174|207:198,1,71.2500027179719,10|0,0:0|0:0,0:0:0:0:
290,83,91729,1,2,3:2:0:0:
290,83,91807,2,0,P|259:86|213:118,1,71.2500027179719,2|8,0:0|0:0,0:0:0:0:
370,214,91963,1,2,0:0:0:0:
373,166,92041,1,2,3:2:0:0:
377,119,92120,2,0,P|407:122|453:154,1,71.2500027179719,2|8,0:0|0:0,0:0:0:0:
375,309,92276,2,0,P|344:305|298:273,1,71.2500027179719,2|0,0:0|3:0,0:0:0:0:
191,195,92432,1,2,0:0:0:0:
143,192,92510,1,10,0:0:0:0:
103,216,92588,1,2,0:0:0:0:
82,257,92667,6,0,P|125:273|183:259,1,71.2500027179719,2|0,3:2|0:0,0:0:0:0:
285,203,92823,2,0,P|277:156|236:113,1,71.2500027179719,10|0,0:0|0:0,0:0:0:0:
137,55,92979,1,2,3:2:0:0:
137,55,93057,2,0,P|100:84|84:142,1,71.2500027179719,2|8,0:0|0:0,0:0:0:0:
241,287,93213,1,2,0:0:0:0:
286,297,93291,1,2,3:2:0:0:
331,285,93370,2,0,P|358:263|380:208,1,71.2500027179719,2|8,0:0|0:0,0:0:0:0:
247,117,93526,1,2,0:0:0:0:
305,149,93604,1,2,3:2:0:0:
340,143,93682,1,2,0:0:0:0:
375,137,93760,1,10,3:2:0:0:
410,131,93838,1,2,0:0:0:0:
445,125,93916,5,2,3:2:0:0:
452,112,93995,2,0,B|467:79|467:79|455:27,1,71.2500027179719,2|8,0:0|0:0,0:0:0:0:
272,24,94151,1,2,0:0:0:0:
253,46,94229,1,2,3:2:0:0:
253,46,94307,2,0,L|245:130,1,71.2500027179719,2|8,0:0|0:0,0:0:0:0:
285,249,94463,1,2,0:0:0:0:
280,232,94542,1,2,3:2:0:0:
234,221,94620,1,2,0:0:0:0:
189,234,94698,1,10,0:0:0:0:
156,267,94776,1,2,0:0:0:0:
113,286,94854,1,2,3:2:0:0:
66,283,94932,2,0,B|58:248|58:248|73:215,1,71.2500027179719,2|8,0:0|0:0,0:0:0:0:
236,316,95088,1,2,0:0:0:0:
259,336,95167,5,2,3:2:0:0:
259,336,95245,2,0,L|341:328,1,71.2500027179719,2|8,0:0|0:0,0:0:0:0:
119,174,95400,1,2,0:0:0:0:
96,194,95479,1,2,3:2:0:0:
96,194,95557,2,0,L|14:186,1,71.2500027179719,2|8,0:0|3:2,0:0:0:0:
256,59,95713,1,2,0:0:0:0:
277,82,95792,1,2,3:2:0:0:
275,100,95870,1,2,0:0:0:0:
274,117,95948,1,10,3:2:0:0:
272,135,96026,1,2,0:0:0:0:
225,174,96104,1,0,3:0:0:0:
227,209,96182,1,2,3:2:0:0:
230,245,96260,1,10,3:2:0:0:
233,280,96338,1,2,3:2:0:0:
236,316,96417,6,0,P|284:312|320:284,1,71.2500027179719,6|0,3:2|0:0,0:0:0:0:
365,150,96573,2,0,P|344:193|350:238,1,71.2500027179719,10|0,3:2|0:0,0:0:0:0:
444,344,96729,1,2,3:2:0:0:
444,344,96807,2,0,P|416:304|374:287,1,71.2500027179719,2|8,0:0|3:2,0:0:0:0:
311,73,96963,1,2,0:0:0:0:
378,55,97041,1,2,3:2:0:0:
438,89,97120,2,0,B|458:120|458:120|453:174,1,71.2500027179719,2|8,0:0|3:2,0:0:0:0:
235,128,97276,2,0,B|215:97|215:97|220:43,1,71.2500027179719,2|0,0:0|3:0,0:0:0:0:
131,24,97432,1,2,0:0:0:0:
126,72,97510,1,10,3:2:0:0:
121,119,97588,1,2,0:0:0:0:
116,166,97667,6,0,B|80:164|80:164|36:196,1,71.2500027179719,2|0,3:2|0:0,0:0:0:0:
187,316,97823,2,0,B|206:285|206:285|201:231,1,71.2500027179719,10|0,3:2|0:0,0:0:0:0:
21,302,97979,1,2,3:2:0:0:
21,302,98057,2,0,B|37:334|37:334|86:356,1,71.2500027179719,2|8,0:0|3:2,0:0:0:0:
235,128,98214,1,2,3:2:0:0:
292,120,98292,1,2,3:2:0:0:
349,112,98370,2,0,L|340:212,1,71.2500027179719,2|8,0:0|3:2,0:0:0:0:
174,200,98526,1,2,0:0:0:0:
138,156,98604,1,2,3:2:0:0:
142,120,98682,1,2,3:2:0:0:
147,85,98760,1,10,3:2:0:0:
151,49,98838,1,2,0:0:0:0:
155,13,98916,5,2,3:2:0:0:
144,1,98995,2,0,L|60:13,1,71.2500027179719,2|8,3:2|3:2,0:0:0:0:
144,281,99151,1,2,0:0:0:0:
166,295,99229,1,2,3:2:0:0:
166,295,99307,2,0,B|200:295|200:295|238:271,1,71.2500027179719,2|8,0:0|0:0,0:0:0:0:
312,106,99463,1,2,0:0:0:0:
315,91,99542,1,2,3:2:0:0:
303,48,99620,1,2,3:2:0:0:
262,27,99698,1,10,3:2:0:0:
220,48,99776,1,2,0:0:0:0:
207,92,99854,1,2,3:2:0:0:
235,128,99932,2,0,P|252:168|247:212,1,71.2500027179719,2|8,0:0|0:0,0:0:0:0:
73,344,100088,1,2,3:2:0:0:
46,320,100167,5,2,3:2:0:0:
46,320,100245,2,0,L|54:236,1,71.2500027179719,2|8,0:0|3:2,0:0:0:0:
158,183,100401,1,2,0:0:0:0:
158,183,100479,2,0,L|166:267,1,71.2500027179719,2|0,3:2|3:0,0:0:0:0:
256,344,100635,1,10,3:2:0:0:
289,311,100713,1,2,0:0:0:0:
335,302,100791,1,2,3:2:0:0:
381,314,100870,1,2,3:2:0:0:
427,320,100948,1,10,3:2:0:0:
472,307,101026,1,2,3:2:0:0:
497,268,101104,1,2,3:2:0:0:
491,222,101182,1,2,3:2:0:0:
458,191,101260,1,10,3:2:0:0:
412,190,101338,1,2,3:2:0:0:
376,219,101417,5,6,1:2:0:0:
377,201,101495,1,0,0:0:0:0:
378,183,101573,1,0,0:0:0:0:
380,165,101651,1,0,0:0:0:0:
381,147,101729,6,0,P|341:159|284:141,1,95.0000036239625,2|2,3:2|0:0,0:0:0:0:
140,60,101937,1,2,3:2:0:0:
88,120,102042,5,2,1:2:0:0:
118,137,102120,1,0,0:0:0:0:
153,139,102198,1,0,3:0:0:0:
186,126,102276,1,0,0:0:0:0:
210,100,102354,6,0,P|196:144|208:190,1,95.0000036239625,2|2,3:2|0:0,0:0:0:0:
304,364,102562,1,2,3:2:0:0:
315,283,102667,5,2,1:2:0:0:
250,264,102771,1,0,3:0:0:0:
191,296,102875,1,0,3:0:0:0:
142,343,102980,5,2,3:2:0:0:
125,349,103058,1,2,0:0:0:0:
106,352,103136,1,2,3:2:0:0:
90,351,103214,1,2,0:0:0:0:
72,347,103292,6,0,L|65:275,1,71.2500027179719,2|0,1:2|0:0,0:0:0:0:
215,119,103448,2,0,L|208:189,1,71.2500027179719,0|0,3:0|0:0,0:0:0:0:
379,355,103604,5,2,3:2:0:0:
410,292,103708,1,2,3:2:0:0:
390,226,103812,1,2,3:2:0:0:
367,159,103917,5,2,1:2:0:0:
363,141,103995,1,0,0:0:0:0:
362,123,104073,1,0,3:0:0:0:
365,106,104151,1,0,0:0:0:0:
370,89,104229,6,0,L|483:74,2,95.0000036239625,2|2|2,3:2|3:2|3:2,0:0:0:0:
244,36,104542,5,2,1:2:0:0:
177,29,104646,1,0,3:0:0:0:
111,23,104750,1,0,3:0:0:0:
44,16,104854,5,2,3:2:0:0:
65,44,104932,1,2,3:2:0:0:
74,78,105010,1,2,3:2:0:0:
71,113,105088,1,2,3:2:0:0:
55,145,105167,6,0,P|35:189|59:273,2,95.0000036239625,2|0|0,1:2|3:0|3:0,0:0:0:0:
236,128,105479,5,2,3:2:0:0:
234,145,105557,1,2,0:0:0:0:
232,163,105635,1,2,3:2:0:0:
230,181,105713,1,2,0:0:0:0:
228,198,105792,5,2,1:2:0:0:
273,209,105870,1,2,3:2:0:0:
317,195,105948,1,2,3:2:0:0:
346,158,106026,1,2,3:2:0:0:
354,112,106104,1,2,1:2:0:0:
379,72,106182,1,2,3:2:0:0:
422,54,106260,1,2,3:2:0:0:
468,61,106338,1,2,3:2:0:0:
508,132,106417,5,6,1:2:0:0:
506,149,106495,1,0,0:0:0:0:
504,167,106573,1,0,0:0:0:0:
502,185,106651,1,0,0:0:0:0:
500,202,106729,6,0,L|512:306,1,95.0000036239625,2|2,3:2|0:0,0:0:0:0:
408,376,106937,1,2,3:2:0:0:
388,293,107042,5,2,1:2:0:0:
360,270,107120,1,0,0:0:0:0:
326,260,107198,1,0,3:0:0:0:
291,263,107276,1,0,0:0:0:0:
260,280,107354,6,0,P|203:288|143:246,1,95.0000036239625,2|2,3:2|0:0,0:0:0:0:
77,111,107562,1,2,3:2:0:0:
142,58,107667,5,2,1:2:0:0:
160,121,107771,1,0,3:0:0:0:
126,179,107875,1,0,3:0:0:0:
85,232,107979,5,2,3:2:0:0:
78,248,108057,1,2,0:0:0:0:
75,265,108135,1,2,3:2:0:0:
76,283,108213,1,2,0:0:0:0:
79,300,108292,6,0,P|120:300|160:276,1,71.2500027179719,2|0,1:2|0:0,0:0:0:0:
332,268,108448,2,0,P|332:309|308:349,1,71.2500027179719,0|0,3:0|0:0,0:0:0:0:
240,284,108604,5,2,3:2:0:0:
215,218,108708,1,2,3:2:0:0:
242,154,108812,1,2,3:2:0:0:
305,125,108916,5,2,1:2:0:0:
322,127,108995,1,0,0:0:0:0:
340,129,109073,1,0,3:0:0:0:
358,131,109151,1,0,0:0:0:0:
375,133,109229,6,0,L|475:145,2,95.0000036239625,2|2|2,3:2|3:2|3:2,0:0:0:0:
202,19,109542,5,2,1:2:0:0:
206,85,109646,1,0,3:0:0:0:
211,151,109750,1,0,3:0:0:0:
215,218,109854,5,2,3:2:0:0:
181,207,109932,1,2,3:2:0:0:
145,210,110010,1,2,3:2:0:0:
113,225,110088,1,2,3:2:0:0:
88,250,110167,6,0,P|121:284|188:294,1,95.0000036239625,2|0,1:2|3:0,0:0:0:0:
343,115,110375,1,0,3:0:0:0:
304,180,110479,5,2,3:2:0:0:
306,216,110557,1,2,0:0:0:0:
309,252,110635,2,0,L|317:364,1,71.2500027179719,2|2,3:2|0:0,0:0:0:0:
85,173,110792,5,2,1:2:0:0:
75,146,110870,1,2,3:2:0:0:
79,114,110948,1,2,3:2:0:0:
102,83,111026,1,2,3:2:0:0:
144,69,111104,1,2,1:2:0:0:
191,89,111183,1,2,3:2:0:0:
210,145,111261,1,2,3:2:0:0:
169,200,111339,1,2,3:2:0:0:
246,158,113604,5,2,0:0:0:0:
251,175,113682,1,2,0:0:0:0:
256,192,113760,1,2,0:0:0:0:
261,209,113838,1,2,0:0:0:0:
266,226,113916,1,6,0:0:0:0:
256,192,116417,5,0,1:0:0:0:
292,103,116730,5,0,3:0:0:0:
219,280,116885,1,0,3:0:0:0:
197,116,117042,5,0,3:0:0:0:
314,267,117197,1,0,3:0:0:0:
350,178,117354,5,0,3:0:0:0:
161,205,117509,1,0,3:0:0:0:
161,205,117588,1,0,0:0:0:0:
161,205,117667,6,0,P|124:176|108:136,1,71.2500027179719,2|0,3:2|0:0,0:0:0:0:
314,267,117823,2,0,P|307:313|280:347,1,71.2500027179719,2|0,3:2|0:0,0:0:0:0:
292,103,117979,2,0,P|332:84|376:88,1,71.2500027179719,2|0,3:2|0:0,0:0:0:0:
219,280,118135,2,0,P|179:299|135:295,1,71.2500027179719,2|0,3:2|0:0,0:0:0:0:
350,178,118292,5,2,3:2:0:0:
350,178,118370,1,0,3:0:0:0:
350,178,118448,2,0,P|386:203|404:243,1,71.2500027179719,2|0,3:2|3:0,0:0:0:0:
197,116,118604,1,2,3:2:0:0:
197,116,118682,1,0,3:0:0:0:
197,116,118760,2,0,P|200:71|226:35,1,71.2500027179719,2|0,3:2|3:0,0:0:0:0:
256,192,119854,5,2,0:0:0:0:
256,192,119932,1,2,0:0:0:0:
256,192,120010,1,2,0:0:0:0:
256,192,120088,1,2,0:0:0:0:
256,192,120167,1,6,0:0:0:0:
