osu file format v14

[General]
AudioFilename: Black MInd.mp3
AudioLeadIn: 0
PreviewTime: 35098
Countdown: 0
SampleSet: Normal
StackLeniency: 0.7
Mode: 1
LetterboxInBreaks: 0
WidescreenStoryboard: 1

[Editor]
DistanceSpacing: 0.9
BeatDivisor: 2
GridSize: 16
TimelineZoom: 1.5

[Metadata]
Title:Black MInD
TitleUnicode:Black MInD
Artist:COSIO (ZUNTATA)
ArtistUnicode:COSIO (ZUNTATA)
Creator:Chocola_2287
Version:Futsuu
Source:GROOVE COASTER 2 HEAVENLY FESTIVAL
Tags:Rhythmvaders Original Link Fever 天下一音ゲ祭
BeatmapID:1030553
BeatmapSetID:482988

[Difficulty]
HPDrainRate:6
CircleSize:5
OverallDifficulty:4
ApproachRate:5
SliderMultiplier:1.4
SliderTickRate:1

[Events]
//Background and Video events
0,0,"The_abyss_by_alexiuss-d5im6xf.jpg",0,0
//Break Periods
//Storyboard Layer 0 (Background)
//Storyboard Layer 1 (Fail)
//Storyboard Layer 2 (Pass)
//Storyboard Layer 3 (Foreground)
//Storyboard Layer 4 (Overlay)
//Storyboard Sound Samples

[TimingPoints]
177,312.5,4,1,0,95,1,0
35177,-100,4,1,0,95,0,1
55177,-100,4,1,0,95,0,0
95177,-100,4,1,0,95,0,1
115177,-100,4,1,0,95,0,1
125177,-100,4,1,0,95,0,0

[HitObjects]
256,224,177,5,4,0:0:0:0:
256,192,2677,12,0,4864,0:0:0:0:
240,208,5177,5,0,0:0:0:0:
224,208,7364,1,8,0:0:0:0:
224,208,7677,1,4,0:0:0:0:
208,176,8145,1,4,0:0:0:0:
208,176,8614,1,12,0:0:0:0:
208,176,8927,1,4,0:0:0:0:
208,176,9239,1,12,0:0:0:0:
224,208,9552,1,8,0:0:0:0:
224,208,9708,1,8,0:0:0:0:
224,208,9864,1,8,0:0:0:0:
224,208,10177,1,0,0:0:0:0:
208,192,10489,1,8,0:0:0:0:
208,192,10645,1,0,0:0:0:0:
208,192,10958,1,8,0:0:0:0:
208,192,11270,1,8,0:0:0:0:
208,192,11895,1,8,0:0:0:0:
208,192,12208,1,0,0:0:0:0:
208,192,12364,1,0,0:0:0:0:
208,192,12677,1,0,0:0:0:0:
208,192,12989,1,8,0:0:0:0:
208,192,13145,1,0,0:0:0:0:
208,192,13458,1,8,0:0:0:0:
208,192,13770,1,8,0:0:0:0:
208,192,14395,1,8,0:0:0:0:
208,192,14708,1,0,0:0:0:0:
208,192,14864,1,8,0:0:0:0:
208,192,15177,1,0,0:0:0:0:
208,192,15489,1,8,0:0:0:0:
208,192,15645,1,0,0:0:0:0:
208,192,15958,1,8,0:0:0:0:
208,192,16270,1,8,0:0:0:0:
208,192,16895,1,8,0:0:0:0:
208,192,17208,1,0,0:0:0:0:
208,192,17364,1,0,0:0:0:0:
208,192,17677,1,0,0:0:0:0:
208,192,17989,1,8,0:0:0:0:
208,192,18145,1,0,0:0:0:0:
208,192,18458,1,8,0:0:0:0:
208,192,18770,1,8,0:0:0:0:
208,192,19395,1,8,0:0:0:0:
208,192,19708,1,8,0:0:0:0:
208,192,19864,1,8,0:0:0:0:
208,192,20177,1,0,0:0:0:0:
208,208,20489,1,8,0:0:0:0:
208,208,20645,1,0,0:0:0:0:
208,208,20958,1,8,0:0:0:0:
208,208,21270,1,8,0:0:0:0:
208,208,21895,1,8,0:0:0:0:
208,208,22208,1,0,0:0:0:0:
208,208,22364,1,0,0:0:0:0:
208,208,22677,1,0,0:0:0:0:
208,208,22989,1,8,0:0:0:0:
208,208,23145,1,0,0:0:0:0:
208,208,23458,1,8,0:0:0:0:
208,208,23770,1,8,0:0:0:0:
208,208,24395,1,8,0:0:0:0:
208,208,24708,1,0,0:0:0:0:
208,208,24864,1,8,0:0:0:0:
112,208,25177,1,0,0:0:0:0:
208,208,25489,1,8,0:0:0:0:
208,208,25645,1,0,0:0:0:0:
208,208,25958,1,8,0:0:0:0:
208,208,26270,1,8,0:0:0:0:
208,208,26895,1,8,0:0:0:0:
208,208,27208,1,0,0:0:0:0:
208,208,27364,1,0,0:0:0:0:
208,208,27677,1,0,0:0:0:0:
208,208,27833,1,0,0:0:0:0:
208,208,27989,1,8,0:0:0:0:
208,208,28302,1,0,0:0:0:0:
208,208,28458,1,0,0:0:0:0:
208,208,28614,1,8,0:0:0:0:
112,288,28927,2,0,P|176:128|432:64,1,420
208,208,30177,1,12,0:0:0:0:
208,208,30489,1,4,0:0:0:0:
208,208,30645,1,12,0:0:0:0:
208,208,30958,1,4,0:0:0:0:
208,208,31114,1,4,0:0:0:0:
208,208,31270,1,12,0:0:0:0:
208,208,31739,1,12,0:0:0:0:
208,208,32052,1,12,0:0:0:0:
208,208,32364,1,12,0:0:0:0:
208,208,32677,1,12,0:0:0:0:
192,160,32989,1,12,0:0:0:0:
192,160,33302,1,12,0:0:0:0:
192,160,33458,1,12,0:0:0:0:
192,160,33614,1,12,0:0:0:0:
192,160,33770,1,12,0:0:0:0:
256,192,34239,12,0,34864,0:0:0:0:
272,176,35177,5,4,0:0:0:0:
272,176,35489,1,0,0:0:0:0:
272,176,35802,1,0,0:0:0:0:
272,176,35958,1,0,0:0:0:0:
272,176,36114,1,0,0:0:0:0:
272,176,36427,1,8,0:0:0:0:
272,176,36583,1,8,0:0:0:0:
272,176,36739,1,8,0:0:0:0:
272,176,37052,1,8,0:0:0:0:
272,176,37677,1,0,0:0:0:0:
272,176,37989,1,0,0:0:0:0:
272,176,38302,1,0,0:0:0:0:
272,176,38458,1,0,0:0:0:0:
272,176,38614,1,8,0:0:0:0:
272,176,38927,1,8,0:0:0:0:
272,176,39083,1,8,0:0:0:0:
272,176,39239,1,8,0:0:0:0:
272,176,39552,1,0,0:0:0:0:
272,176,40177,1,0,0:0:0:0:
272,176,40489,1,0,0:0:0:0:
272,176,40802,1,0,0:0:0:0:
272,176,40958,1,0,0:0:0:0:
272,176,41114,1,0,0:0:0:0:
272,176,41427,1,8,0:0:0:0:
272,176,41583,1,8,0:0:0:0:
272,176,41739,1,8,0:0:0:0:
272,176,42052,1,0,0:0:0:0:
272,176,42677,1,0,0:0:0:0:
272,176,42989,1,8,0:0:0:0:
272,176,43302,1,0,0:0:0:0:
272,176,43458,1,0,0:0:0:0:
272,176,43614,1,8,0:0:0:0:
272,176,43927,1,8,0:0:0:0:
272,176,44083,1,8,0:0:0:0:
272,176,44239,1,8,0:0:0:0:
272,176,44552,1,0,0:0:0:0:
272,176,45177,5,4,0:0:0:0:
272,176,45489,1,0,0:0:0:0:
272,176,45802,1,0,0:0:0:0:
272,176,45958,1,0,0:0:0:0:
272,176,46114,1,0,0:0:0:0:
272,176,46427,1,8,0:0:0:0:
272,176,46583,1,8,0:0:0:0:
272,176,46739,1,8,0:0:0:0:
272,176,47052,1,8,0:0:0:0:
272,176,47677,1,0,0:0:0:0:
272,176,47989,1,0,0:0:0:0:
272,176,48302,1,0,0:0:0:0:
272,176,48458,1,0,0:0:0:0:
272,176,48614,1,8,0:0:0:0:
272,176,48927,1,8,0:0:0:0:
272,176,49083,1,8,0:0:0:0:
272,176,49239,1,8,0:0:0:0:
272,176,49552,1,0,0:0:0:0:
272,176,50177,1,0,0:0:0:0:
272,176,50489,1,0,0:0:0:0:
272,176,50802,1,0,0:0:0:0:
272,176,50958,1,0,0:0:0:0:
272,176,51114,1,0,0:0:0:0:
272,176,51427,1,8,0:0:0:0:
272,176,51583,1,8,0:0:0:0:
272,176,51739,1,8,0:0:0:0:
272,176,52052,1,0,0:0:0:0:
272,176,52677,1,0,0:0:0:0:
272,176,52989,5,8,0:0:0:0:
272,176,53302,1,0,0:0:0:0:
272,176,53458,1,0,0:0:0:0:
272,176,53614,1,8,0:0:0:0:
96,208,53927,2,0,L|192:208,6,70
224,176,55177,1,4,0:0:0:0:
224,176,55489,1,8,0:0:0:0:
224,176,55802,1,0,0:0:0:0:
224,176,56270,1,0,0:0:0:0:
224,176,56583,1,8,0:0:0:0:
224,176,56739,1,0,0:0:0:0:
256,224,57052,1,8,0:0:0:0:
224,208,57677,1,0,0:0:0:0:
224,208,57989,1,8,0:0:0:0:
224,208,58302,1,0,0:0:0:0:
224,208,58770,1,0,0:0:0:0:
224,208,59083,1,8,0:0:0:0:
224,208,59239,1,0,0:0:0:0:
224,208,59552,1,8,0:0:0:0:
224,208,60177,1,0,0:0:0:0:
224,208,60489,1,8,0:0:0:0:
224,208,60802,1,0,0:0:0:0:
224,208,61270,1,0,0:0:0:0:
224,208,61583,1,8,0:0:0:0:
224,208,61739,1,0,0:0:0:0:
224,208,62052,1,8,0:0:0:0:
288,112,62677,1,0,0:0:0:0:
288,112,62989,1,8,0:0:0:0:
288,112,63302,1,0,0:0:0:0:
288,112,63770,1,0,0:0:0:0:
288,112,64083,1,8,0:0:0:0:
288,112,64239,1,0,0:0:0:0:
288,112,64552,1,8,0:0:0:0:
112,304,65177,2,0,B|112:224|192:144|416:144|320:256,2,350
224,192,67052,1,0,0:0:0:0:
224,192,67208,1,8,0:0:0:0:
240,160,67677,1,0,0:0:0:0:
128,208,67885,1,0,0:0:0:0:
240,160,67989,1,0,0:0:0:0:
240,160,68302,1,0,0:0:0:0:
128,208,68510,1,0,0:0:0:0:
240,160,68614,1,0,0:0:0:0:
240,160,68927,1,0,0:0:0:0:
240,160,69239,1,8,0:0:0:0:
224,160,69552,1,8,0:0:0:0:
224,160,69708,1,8,0:0:0:0:
224,160,69864,1,0,0:0:0:0:
224,192,70177,1,0,0:0:0:0:
224,192,70489,1,8,0:0:0:0:
224,192,70802,1,0,0:0:0:0:
224,192,71270,1,0,0:0:0:0:
224,192,71583,1,8,0:0:0:0:
224,192,71739,1,0,0:0:0:0:
224,192,72052,1,8,0:0:0:0:
224,192,72208,1,8,0:0:0:0:
224,192,72677,1,0,0:0:0:0:
224,192,72989,1,8,0:0:0:0:
224,192,73302,1,0,0:0:0:0:
240,144,73770,1,0,0:0:0:0:
240,144,74083,1,8,0:0:0:0:
240,144,74239,1,0,0:0:0:0:
240,144,74552,1,0,0:0:0:0:
240,144,74708,1,0,0:0:0:0:
240,144,74864,1,8,0:0:0:0:
128,336,75177,2,0,B|96:256|192:112|352:304,2,350
240,144,77052,1,0,0:0:0:0:
240,144,77208,1,8,0:0:0:0:
256,176,77677,1,0,0:0:0:0:
256,176,77885,1,0,0:0:0:0:
256,176,77989,1,0,0:0:0:0:
256,176,78302,1,0,0:0:0:0:
256,176,78510,1,0,0:0:0:0:
256,176,78614,1,0,0:0:0:0:
256,176,78927,1,0,0:0:0:0:
256,176,79239,1,8,0:0:0:0:
256,176,79552,1,8,0:0:0:0:
256,176,79708,1,8,0:0:0:0:
256,176,79864,1,0,0:0:0:0:
240,144,80177,1,0,0:0:0:0:
240,144,80489,1,8,0:0:0:0:
240,144,80802,1,0,0:0:0:0:
240,144,81270,1,0,0:0:0:0:
240,144,81583,1,8,0:0:0:0:
240,144,81739,1,0,0:0:0:0:
240,144,82052,1,8,0:0:0:0:
240,144,82208,1,8,0:0:0:0:
240,144,82677,1,0,0:0:0:0:
240,144,82989,1,8,0:0:0:0:
240,144,83302,1,0,0:0:0:0:
272,160,83770,1,0,0:0:0:0:
272,160,84083,1,8,0:0:0:0:
272,160,84239,1,0,0:0:0:0:
272,160,84552,1,8,0:0:0:0:
272,160,84708,1,8,0:0:0:0:
272,160,84864,1,0,0:0:0:0:
256,192,85177,12,0,89864,0:0:0:0:
256,208,90177,5,0,0:0:0:0:
256,208,90489,1,0,0:0:0:0:
256,208,90802,1,0,0:0:0:0:
256,208,91114,1,0,0:0:0:0:
256,208,91427,1,0,0:0:0:0:
256,208,91739,1,0,0:0:0:0:
256,208,92052,1,0,0:0:0:0:
256,208,92364,1,0,0:0:0:0:
256,208,92677,1,0,0:0:0:0:
256,208,92833,1,0,0:0:0:0:
256,208,92989,1,0,0:0:0:0:
256,208,93302,1,0,0:0:0:0:
256,208,93458,1,0,0:0:0:0:
256,208,93614,1,0,0:0:0:0:
256,208,93927,1,0,0:0:0:0:
256,208,94239,1,0,0:0:0:0:
256,208,94552,1,4,0:0:0:0:
256,208,94864,1,12,0:0:0:0:
272,176,95177,5,4,0:0:0:0:
272,176,95489,1,0,0:0:0:0:
272,176,95802,1,0,0:0:0:0:
272,176,95958,1,0,0:0:0:0:
272,176,96114,1,0,0:0:0:0:
272,176,96427,1,8,0:0:0:0:
272,176,96583,1,8,0:0:0:0:
272,176,96739,1,8,0:0:0:0:
272,176,97052,1,8,0:0:0:0:
272,176,97677,1,0,0:0:0:0:
272,176,97989,1,0,0:0:0:0:
272,176,98302,1,0,0:0:0:0:
272,176,98458,1,0,0:0:0:0:
272,176,98614,1,8,0:0:0:0:
272,176,98927,1,8,0:0:0:0:
272,176,99083,1,8,0:0:0:0:
272,176,99239,1,8,0:0:0:0:
272,176,99552,1,0,0:0:0:0:
272,176,100177,1,0,0:0:0:0:
272,176,100489,1,0,0:0:0:0:
272,176,100802,1,0,0:0:0:0:
272,176,100958,1,0,0:0:0:0:
272,176,101114,1,0,0:0:0:0:
272,176,101427,1,8,0:0:0:0:
272,176,101583,1,8,0:0:0:0:
272,176,101739,1,8,0:0:0:0:
272,176,102052,1,0,0:0:0:0:
272,176,102677,1,0,0:0:0:0:
272,176,102989,1,8,0:0:0:0:
272,176,103302,1,0,0:0:0:0:
272,176,103458,1,0,0:0:0:0:
272,176,103614,1,8,0:0:0:0:
272,176,103927,1,8,0:0:0:0:
272,176,104083,1,8,0:0:0:0:
272,176,104239,1,8,0:0:0:0:
272,176,104552,1,0,0:0:0:0:
272,176,105177,5,4,0:0:0:0:
272,176,105489,1,0,0:0:0:0:
272,176,105802,1,0,0:0:0:0:
272,176,105958,1,0,0:0:0:0:
272,176,106114,1,0,0:0:0:0:
272,176,106427,1,8,0:0:0:0:
272,176,106583,1,8,0:0:0:0:
272,176,106739,1,8,0:0:0:0:
272,176,107052,1,8,0:0:0:0:
272,176,107677,1,0,0:0:0:0:
272,176,107989,1,0,0:0:0:0:
272,176,108302,1,0,0:0:0:0:
272,176,108458,1,0,0:0:0:0:
272,176,108614,1,8,0:0:0:0:
272,176,108927,1,8,0:0:0:0:
272,176,109083,1,8,0:0:0:0:
272,176,109239,1,8,0:0:0:0:
272,176,109552,1,0,0:0:0:0:
272,176,110177,1,0,0:0:0:0:
272,176,110489,1,0,0:0:0:0:
272,176,110802,1,0,0:0:0:0:
272,176,110958,1,0,0:0:0:0:
272,176,111114,1,0,0:0:0:0:
272,176,111427,1,8,0:0:0:0:
272,176,111583,1,8,0:0:0:0:
272,176,111739,1,8,0:0:0:0:
272,176,112052,1,0,0:0:0:0:
272,176,112677,1,0,0:0:0:0:
272,176,112989,5,8,0:0:0:0:
272,176,113302,1,0,0:0:0:0:
272,176,113458,1,0,0:0:0:0:
272,176,113614,1,8,0:0:0:0:
96,208,113927,2,0,L|192:208,6,70
208,176,115177,1,4,0:0:0:0:
208,176,115489,1,8,0:0:0:0:
208,176,115645,1,8,0:0:0:0:
208,176,115802,1,8,0:0:0:0:
208,176,116114,1,8,0:0:0:0:
208,176,116427,1,0,0:0:0:0:
176,176,117052,1,8,0:0:0:0:
176,176,117208,1,8,0:0:0:0:
176,176,117364,1,8,0:0:0:0:
208,176,117677,1,0,0:0:0:0:
208,176,117989,1,0,0:0:0:0:
208,176,118145,1,0,0:0:0:0:
208,176,118302,1,0,0:0:0:0:
208,176,118614,1,8,0:0:0:0:
208,176,118927,1,0,0:0:0:0:
176,160,119552,1,0,0:0:0:0:
160,192,119708,1,0,0:0:0:0:
160,192,119864,1,0,0:0:0:0:
208,176,120177,1,0,0:0:0:0:
208,176,120489,1,8,0:0:0:0:
208,176,120645,1,8,0:0:0:0:
208,176,120802,1,8,0:0:0:0:
208,176,121114,1,8,0:0:0:0:
208,176,121427,1,0,0:0:0:0:
208,176,122052,1,8,0:0:0:0:
208,176,122208,1,8,0:0:0:0:
208,176,122365,1,8,0:0:0:0:
208,176,122677,1,0,0:0:0:0:
208,176,122989,1,0,0:0:0:0:
208,176,123145,1,0,0:0:0:0:
208,176,123302,1,0,0:0:0:0:
208,176,123614,1,8,0:0:0:0:
208,176,123927,1,0,0:0:0:0:
208,176,124239,1,0,0:0:0:0:
208,176,124395,1,0,0:0:0:0:
208,176,124552,1,8,0:0:0:0:
208,176,124864,1,8,0:0:0:0:
256,192,125177,12,0,126114,0:0:0:0:
160,224,126427,5,4,0:0:0:0:
256,208,126739,1,4,0:0:0:0:
256,208,127052,1,4,0:0:0:0:
