osu file format v14

[General]
AudioFilename: audio.ogg
AudioLeadIn: 0
PreviewTime: 62208
Countdown: 0
SampleSet: Normal
StackLeniency: 0.7
Mode: 1
LetterboxInBreaks: 0
WidescreenStoryboard: 0

[Editor]
Bookmarks: 62380
DistanceSpacing: 0.1
BeatDivisor: 4
GridSize: 8
TimelineZoom: 1.6

[Metadata]
Title:YOIMACHI CANTARE (nenpulse bootleg remix)
TitleUnicode:よいまちカンターレ (nenpulse bootleg remix)
Artist:CORO MACHIKADO
ArtistUnicode:コーロまちカド
Creator:Seren58
Version:Cantare
Source:まちカドまぞく
Tags:Japanese 日本語 Anime Hardcore J-Core J-POP jpop jcore electronic Core POP Ending ED Machikado Mazoku The Demon Girl Next Door 芳文社 Houbunsha 小原好美 Kohara Konomi 鬼頭明里 Kitou Kito Akari 高橋未奈美 Takahashi Minami 高柳知葉 Takayanagi Tomoyo 伊藤いづも Itou Izumo 藤本功一 Fujimoto Kouichi リミックス 吉田優子 Yoshida Yuko Yuuko シャミ子 Shamiko 千代田桃 Chiyoda Momo リリス Lilith 陽夏木ミカン Hinatsuki Mikan
BeatmapID:2302587
BeatmapSetID:1102194

[Difficulty]
HPDrainRate:5.5
CircleSize:5
OverallDifficulty:6
ApproachRate:5
SliderMultiplier:1.4
SliderTickRate:1

[Events]
//Background and Video events
0,0,"background.jpg",0,0
//Break Periods
2,214808,221637
//Storyboard Layer 0 (Background)
//Storyboard Layer 1 (Fail)
//Storyboard Layer 2 (Pass)
//Storyboard Layer 3 (Foreground)
//Storyboard Layer 4 (Overlay)
//Storyboard Sound Samples

[TimingPoints]
666,342.857142857143,4,1,0,75,1,0
666,-100,4,1,0,75,0,0
44508,-117.647058823529,4,1,0,55,0,0
55480,-113.636363636364,4,1,0,59,0,0
56851,-109.89010989011,4,1,0,63,0,0
58223,-106.382978723404,4,1,0,67,0,0
59594,-103.092783505155,4,1,0,71,0,0
60966,-100,4,1,0,75,0,0
62337,-90.9090909090909,4,1,0,90,0,0
62380,-90.9090909090909,4,1,0,90,0,1
84323,-90.9090909090909,4,1,0,90,0,0
84451,-93.7558597412338,4,1,0,85,0,0
84623,-96.7773153972709,4,1,0,80,0,0
84794,-100,4,1,0,75,0,0
150108,-117.647058823529,4,1,0,55,0,0
161080,-113.636363636364,4,1,0,59,0,0
162451,-109.89010989011,4,1,0,63,0,0
163823,-106.382978723404,4,1,0,67,0,0
165194,-103.092783505155,4,1,0,71,0,0
166566,-100,4,1,0,75,0,0
167937,-90.9090909090909,4,1,0,90,0,0
167980,-90.9090909090909,4,1,0,95,0,1
189923,-90.9090909090909,4,1,0,95,0,0
190094,-100,4,1,0,75,0,0
214780,-100,4,1,0,35,0,0
215980,-105.263157894737,4,1,0,35,0,0
217351,-111.111111111111,4,1,0,35,0,0
218723,-117.647058823529,4,1,0,35,0,0
220094,-125,4,1,0,35,0,0
221466,-133.333333333333,4,1,0,35,0,0
225580,-100,4,1,0,50,0,0
225751,-100,4,1,0,55,0,0
225837,-100,4,1,0,58,0,0
225923,-100,4,1,0,61,0,0
226008,-100,4,1,0,64,0,0
226094,-100,4,1,0,67,0,0
226266,-100,4,1,0,72,0,0
226351,-100,4,1,0,75,0,0
226437,-100,4,1,0,78,0,0
226494,-100,4,1,0,81,0,0
226551,-100,4,1,0,84,0,0
226608,-100,4,1,0,87,0,0
226951,-90.9090909090909,4,1,0,100,0,1
248894,-90.9090909090909,4,1,0,100,0,0
249023,-93.7558597412338,4,1,0,93,0,0
249194,-96.7773153972709,4,1,0,86,0,0
249366,-100,4,1,0,80,0,0

[HitObjects]
256,192,666,5,4,0:0:0:0:
256,192,1008,1,2,0:0:0:0:
256,192,1351,1,0,0:0:0:0:
256,192,1694,1,2,0:0:0:0:
256,192,2037,1,0,0:0:0:0:
256,192,2380,1,2,0:0:0:0:
256,192,2723,1,0,0:0:0:0:
256,192,3066,1,2,0:0:0:0:
256,192,3408,1,0,0:0:0:0:
256,192,3751,1,2,0:0:0:0:
256,192,4094,1,0,0:0:0:0:
256,192,4437,1,2,0:0:0:0:
256,192,4780,1,0,0:0:0:0:
256,192,5123,1,2,0:0:0:0:
256,192,5466,1,0,0:0:0:0:
256,192,5808,1,2,0:0:0:0:
256,192,5980,1,0,0:0:0:0:
256,192,6151,1,0,0:0:0:0:
256,192,6494,1,2,0:0:0:0:
256,192,6837,1,0,0:0:0:0:
256,192,7180,1,2,0:0:0:0:
256,192,7523,1,0,0:0:0:0:
256,192,7866,1,2,0:0:0:0:
256,192,8208,1,0,0:0:0:0:
256,192,8551,1,2,0:0:0:0:
256,192,8894,1,0,0:0:0:0:
256,192,9237,1,2,0:0:0:0:
256,192,9580,1,0,0:0:0:0:
256,192,9923,1,2,0:0:0:0:
256,192,10266,1,0,0:0:0:0:
256,192,10608,1,2,0:0:0:0:
256,192,10951,1,0,0:0:0:0:
256,192,11294,1,2,0:0:0:0:
256,192,11466,1,2,0:0:0:0:
256,192,11637,1,4,0:0:0:0:
256,192,11980,1,2,0:0:0:0:
256,192,12323,1,2,0:0:0:0:
256,192,12666,1,2,0:0:0:0:
256,192,13008,1,0,0:0:0:0:
256,192,13351,1,2,0:0:0:0:
256,192,13694,1,2,0:0:0:0:
256,192,14037,1,2,0:0:0:0:
256,192,14208,1,2,0:0:0:0:
256,192,14380,1,4,0:0:0:0:
256,192,14723,1,2,0:0:0:0:
256,192,15066,1,2,0:0:0:0:
256,192,15408,1,2,0:0:0:0:
256,192,15751,1,0,0:0:0:0:
256,192,16094,1,2,0:0:0:0:
256,192,16437,1,2,0:0:0:0:
256,192,16780,1,2,0:0:0:0:
256,192,16951,1,0,0:0:0:0:
256,192,17123,1,4,0:0:0:0:
256,192,17294,1,2,0:0:0:0:
256,192,17466,1,2,0:0:0:0:
256,192,17551,1,2,0:0:0:0:
256,192,17637,1,2,0:0:0:0:
256,192,17723,1,2,0:0:0:0:
256,192,17808,1,0,0:0:0:0:
256,192,17980,1,2,0:0:0:0:
256,192,18151,1,0,0:0:0:0:
256,192,18323,1,2,0:0:0:0:
256,192,18494,1,4,0:0:0:0:
256,192,18666,1,2,0:0:0:0:
256,192,18837,1,2,0:0:0:0:
256,192,18923,1,2,0:0:0:0:
256,192,19008,1,2,0:0:0:0:
256,192,19094,1,2,0:0:0:0:
256,192,19180,1,0,0:0:0:0:
256,192,19351,1,2,0:0:0:0:
256,192,19523,1,2,0:0:0:0:
256,192,19694,1,2,0:0:0:0:
256,192,19866,1,4,0:0:0:0:
256,192,20037,1,2,0:0:0:0:
256,192,20380,1,4,0:0:0:0:
256,192,20551,1,2,0:0:0:0:
256,192,20894,1,4,0:0:0:0:
256,192,21066,1,2,0:0:0:0:
256,192,21408,1,4,0:0:0:0:
256,192,21580,1,2,0:0:0:0:
256,192,21923,1,6,0:0:0:0:
256,192,22094,1,0,0:0:0:0:
256,192,22151,1,0,0:0:0:0:
256,192,22208,1,0,0:0:0:0:
256,192,22266,1,2,0:0:0:0:
256,192,22608,1,4,0:0:0:0:
256,192,22780,1,0,0:0:0:0:
256,192,22951,1,2,0:0:0:0:
256,192,23123,1,0,0:0:0:0:
256,192,23208,1,0,0:0:0:0:
256,192,23294,1,2,0:0:0:0:
256,192,23551,1,0,0:0:0:0:
256,192,23808,1,2,0:0:0:0:
256,192,23980,1,4,0:0:0:0:
256,192,24151,1,0,0:0:0:0:
256,192,24323,1,2,0:0:0:0:
256,192,24494,1,2,0:0:0:0:
256,192,24580,1,0,0:0:0:0:
256,192,24666,1,2,0:0:0:0:
256,192,24751,1,2,0:0:0:0:
256,192,24923,1,0,0:0:0:0:
256,192,25180,1,6,0:0:0:0:
256,192,25351,1,4,0:0:0:0:
256,192,25523,1,0,0:0:0:0:
256,192,25694,1,2,0:0:0:0:
256,192,25866,1,0,0:0:0:0:
256,192,25951,1,0,0:0:0:0:
256,192,26037,1,2,0:0:0:0:
256,192,26294,1,0,0:0:0:0:
256,192,26551,1,2,0:0:0:0:
256,192,26723,1,4,0:0:0:0:
256,192,27066,1,2,0:0:0:0:
256,192,27408,1,0,0:0:0:0:
256,192,27751,1,2,0:0:0:0:
256,192,28094,1,4,0:0:0:0:
256,192,28266,1,0,0:0:0:0:
256,192,28351,1,0,0:0:0:0:
256,192,28437,1,2,0:0:0:0:
256,192,28608,1,0,0:0:0:0:
256,192,28780,1,2,0:0:0:0:
256,192,29037,1,0,0:0:0:0:
256,192,29208,1,2,0:0:0:0:
256,192,29294,1,0,0:0:0:0:
256,192,29466,1,6,0:0:0:0:
256,192,29637,1,0,0:0:0:0:
256,192,29723,1,0,0:0:0:0:
256,192,29808,1,2,0:0:0:0:
256,192,29980,1,0,0:0:0:0:
256,192,30151,1,2,0:0:0:0:
256,192,30408,1,0,0:0:0:0:
256,192,30666,1,2,0:0:0:0:
256,192,30837,1,4,0:0:0:0:
256,192,31180,1,2,0:0:0:0:
256,192,31523,1,4,0:0:0:0:
256,192,31866,1,0,0:0:0:0:
256,192,32037,1,6,0:0:0:0:
256,192,32380,1,6,0:0:0:0:
256,192,32723,1,4,0:0:0:0:
256,192,33066,5,0,0:0:0:0:
256,192,33123,1,0,0:0:0:0:
256,192,33180,1,0,0:0:0:0:
256,192,33237,1,2,0:0:0:0:
256,192,33580,1,4,0:0:0:0:
256,192,33751,1,2,0:0:0:0:
256,192,33837,1,2,0:0:0:0:
256,192,33923,1,0,0:0:0:0:
256,192,34094,1,0,0:0:0:0:
256,192,34266,1,2,0:0:0:0:
256,192,34437,1,0,0:0:0:0:
256,192,34523,1,2,0:0:0:0:
256,192,34694,1,0,0:0:0:0:
256,192,34780,1,2,0:0:0:0:
256,192,34951,1,0,0:0:0:0:
256,192,35123,1,2,0:0:0:0:
256,192,35208,1,0,0:0:0:0:
256,192,35294,1,2,0:0:0:0:
256,192,35466,1,0,0:0:0:0:
256,192,35637,1,2,0:0:0:0:
256,192,35808,1,2,0:0:0:0:
256,192,35894,1,0,0:0:0:0:
256,192,36066,1,0,0:0:0:0:
256,192,36151,1,2,0:0:0:0:
256,192,36323,1,0,0:0:0:0:
256,192,36494,1,0,0:0:0:0:
256,192,36580,1,0,0:0:0:0:
256,192,36666,1,2,0:0:0:0:
256,192,36837,1,0,0:0:0:0:
256,192,37008,1,2,0:0:0:0:
256,192,37180,1,0,0:0:0:0:
256,192,37266,1,2,0:0:0:0:
256,192,37437,1,2,0:0:0:0:
256,192,37523,1,0,0:0:0:0:
256,192,37694,1,2,0:0:0:0:
256,192,37866,1,0,0:0:0:0:
256,192,37951,1,2,0:0:0:0:
256,192,38037,1,2,0:0:0:0:
256,192,38208,1,2,0:0:0:0:
256,192,38380,1,0,0:0:0:0:
256,192,38551,1,2,0:0:0:0:
256,192,38723,1,2,0:0:0:0:
256,192,39066,1,4,0:0:0:0:
256,192,39237,1,0,0:0:0:0:
256,192,39323,1,0,0:0:0:0:
256,192,39408,1,2,0:0:0:0:
256,192,39580,1,0,0:0:0:0:
256,192,39751,1,6,0:0:0:0:
256,192,39923,1,0,0:0:0:0:
256,192,40008,1,2,0:0:0:0:
256,192,40180,1,2,0:0:0:0:
256,192,40266,1,0,0:0:0:0:
256,192,40437,1,6,0:0:0:0:
256,192,40608,1,0,0:0:0:0:
256,192,40694,1,0,0:0:0:0:
256,192,40780,1,2,0:0:0:0:
256,192,40951,1,0,0:0:0:0:
256,192,41123,1,2,0:0:0:0:
256,192,41294,1,0,0:0:0:0:
256,192,41380,1,2,0:0:0:0:
256,192,41466,1,0,0:0:0:0:
256,192,41637,1,2,0:0:0:0:
256,192,41808,1,6,0:0:0:0:
256,192,42151,1,0,0:0:0:0:
256,192,42494,1,6,0:0:0:0:
256,192,42837,1,0,0:0:0:0:
256,192,43008,1,6,0:0:0:0:
256,192,43351,1,4,0:0:0:0:
256,192,43694,1,4,0:0:0:0:
256,192,43866,1,4,0:0:0:0:
256,192,44037,1,0,0:0:0:0:
256,192,44094,1,0,0:0:0:0:
256,192,44151,1,0,0:0:0:0:
256,192,44208,1,2,0:0:0:0:
256,192,44551,1,0,0:0:0:0:
256,192,44723,1,0,0:0:0:0:
256,192,44808,1,0,0:0:0:0:
256,192,44894,1,2,0:0:0:0:
256,192,45066,1,0,0:0:0:0:
256,192,45408,1,0,0:0:0:0:
256,192,45580,1,2,0:0:0:0:
256,192,45751,1,2,0:0:0:0:
256,192,45923,1,0,0:0:0:0:
256,192,46094,1,2,0:0:0:0:
256,192,46180,1,2,0:0:0:0:
256,192,46266,1,2,0:0:0:0:
256,192,46437,1,0,0:0:0:0:
256,192,46780,1,0,0:0:0:0:
256,192,46951,1,2,0:0:0:0:
256,192,47294,1,0,0:0:0:0:
256,192,47466,1,0,0:0:0:0:
256,192,47551,1,0,0:0:0:0:
256,192,47637,1,2,0:0:0:0:
256,192,47808,1,0,0:0:0:0:
256,192,48151,1,0,0:0:0:0:
256,192,48323,1,2,0:0:0:0:
256,192,48494,1,2,0:0:0:0:
256,192,48666,1,0,0:0:0:0:
256,192,48837,1,2,0:0:0:0:
256,192,48923,1,2,0:0:0:0:
256,192,49008,1,2,0:0:0:0:
256,192,49180,1,0,0:0:0:0:
256,192,49523,1,0,0:0:0:0:
256,192,49694,1,2,0:0:0:0:
256,192,50037,1,4,0:0:0:0:
256,192,50208,1,0,0:0:0:0:
256,192,50294,1,0,0:0:0:0:
256,192,50380,1,2,0:0:0:0:
256,192,50551,1,0,0:0:0:0:
256,192,50894,1,0,0:0:0:0:
256,192,51066,1,2,0:0:0:0:
256,192,51237,1,2,0:0:0:0:
256,192,51408,1,4,0:0:0:0:
256,192,51580,1,2,0:0:0:0:
256,192,51666,1,2,0:0:0:0:
256,192,51751,1,2,0:0:0:0:
256,192,51923,1,0,0:0:0:0:
256,192,52266,1,0,0:0:0:0:
256,192,52437,1,2,0:0:0:0:
256,192,52608,1,2,0:0:0:0:
256,192,52780,1,4,0:0:0:0:
256,192,52951,1,2,0:0:0:0:
256,192,53037,1,0,0:0:0:0:
256,192,53123,1,2,0:0:0:0:
256,192,53294,1,0,0:0:0:0:
256,192,53466,1,2,0:0:0:0:
256,192,53551,1,2,0:0:0:0:
256,192,53637,1,0,0:0:0:0:
256,192,53808,1,2,0:0:0:0:
256,192,53980,1,0,0:0:0:0:
256,192,54151,1,0,0:0:0:0:
256,192,54323,1,2,0:0:0:0:
256,192,54408,1,2,0:0:0:0:
256,192,54494,1,2,0:0:0:0:
256,192,54666,1,0,0:0:0:0:
256,192,54837,1,6,0:0:0:0:
256,192,55094,1,4,0:0:0:0:
256,192,55351,1,6,0:0:0:0:
256,192,55694,1,2,0:0:0:0:
256,192,55866,1,0,0:0:0:0:
256,192,55951,1,0,0:0:0:0:
256,192,56037,1,2,0:0:0:0:
256,192,56123,1,0,0:0:0:0:
256,192,56208,1,2,0:0:0:0:
256,192,56380,1,0,0:0:0:0:
256,192,56551,1,2,0:0:0:0:
256,192,56608,1,2,0:0:0:0:
256,192,56666,1,0,0:0:0:0:
256,192,56723,1,0,0:0:0:0:
256,192,56894,1,4,0:0:0:0:
256,192,57066,1,2,0:0:0:0:
256,192,57151,1,2,0:0:0:0:
256,192,57237,1,0,0:0:0:0:
256,192,57408,1,0,0:0:0:0:
256,192,57494,1,0,0:0:0:0:
256,192,57580,1,2,0:0:0:0:
256,192,57666,1,2,0:0:0:0:
256,192,57751,1,0,0:0:0:0:
256,192,57923,1,2,0:0:0:0:
256,192,57980,1,2,0:0:0:0:
256,192,58037,1,2,0:0:0:0:
256,192,58094,1,0,0:0:0:0:
256,192,58266,1,6,0:0:0:0:
256,192,58437,1,0,0:0:0:0:
256,192,58523,1,2,0:0:0:0:
256,192,58608,1,0,0:0:0:0:
256,192,58694,1,0,0:0:0:0:
256,192,58780,1,2,0:0:0:0:
256,192,58866,1,2,0:0:0:0:
256,192,58951,1,0,0:0:0:0:
256,192,59037,1,2,0:0:0:0:
256,192,59123,1,0,0:0:0:0:
256,192,59180,1,0,0:0:0:0:
256,192,59237,1,0,0:0:0:0:
256,192,59294,1,2,0:0:0:0:
256,192,59466,1,4,0:0:0:0:
256,192,59808,1,2,0:0:0:0:
256,192,59894,1,0,0:0:0:0:
256,192,59980,1,2,0:0:0:0:
256,192,60066,1,2,0:0:0:0:
256,192,60151,1,0,0:0:0:0:
256,192,60237,1,2,0:0:0:0:
256,192,60323,1,0,0:0:0:0:
256,192,60408,1,0,0:0:0:0:
256,192,60494,1,2,0:0:0:0:
256,192,60580,1,0,0:0:0:0:
256,192,60666,1,2,0:0:0:0:
256,192,60723,1,2,0:0:0:0:
256,192,60780,1,2,0:0:0:0:
256,192,60837,1,0,0:0:0:0:
256,192,61180,1,6,0:0:0:0:
256,192,61351,1,6,0:0:0:0:
256,192,61866,1,0,0:0:0:0:
256,192,61923,1,0,0:0:0:0:
256,192,61980,1,0,0:0:0:0:
256,192,62037,1,2,0:0:0:0:
256,192,62380,1,4,0:0:0:0:
256,192,62551,1,0,0:0:0:0:
256,192,62723,1,2,0:0:0:0:
256,192,62894,1,0,0:0:0:0:
256,192,62980,1,0,0:0:0:0:
256,192,63066,1,2,0:0:0:0:
256,192,63151,1,0,0:0:0:0:
256,192,63237,1,2,0:0:0:0:
256,192,63408,1,0,0:0:0:0:
256,192,63580,1,2,0:0:0:0:
256,192,63751,1,0,0:0:0:0:
256,192,63923,1,2,0:0:0:0:
256,192,64008,1,2,0:0:0:0:
256,192,64094,1,0,0:0:0:0:
256,192,64266,1,2,0:0:0:0:
256,192,64351,1,0,0:0:0:0:
256,192,64437,1,0,0:0:0:0:
256,192,64523,1,0,0:0:0:0:
256,192,64608,1,2,0:0:0:0:
256,192,64780,1,2,0:0:0:0:
256,192,64951,1,0,0:0:0:0:
256,192,65123,1,0,0:0:0:0:
256,192,65294,1,0,0:0:0:0:
256,192,65380,1,0,0:0:0:0:
256,192,65466,1,2,0:0:0:0:
256,192,65637,1,2,0:0:0:0:
256,192,65723,1,2,0:0:0:0:
256,192,65808,1,0,0:0:0:0:
256,192,65980,1,2,0:0:0:0:
256,192,66151,1,0,0:0:0:0:
256,192,66237,1,0,0:0:0:0:
256,192,66323,1,2,0:0:0:0:
256,192,66494,1,0,0:0:0:0:
256,192,66666,1,2,0:0:0:0:
256,192,66751,1,0,0:0:0:0:
256,192,66837,1,0,0:0:0:0:
256,192,67008,1,2,0:0:0:0:
256,192,67094,1,2,0:0:0:0:
256,192,67180,1,0,0:0:0:0:
256,192,67266,1,0,0:0:0:0:
256,192,67351,1,2,0:0:0:0:
256,192,67523,1,2,0:0:0:0:
256,192,67866,1,0,0:0:0:0:
256,192,68208,1,6,0:0:0:0:
256,192,68551,1,0,0:0:0:0:
256,192,68637,1,0,0:0:0:0:
256,192,68723,1,0,0:0:0:0:
256,192,68894,1,6,0:0:0:0:
256,192,69066,1,0,0:0:0:0:
256,192,69408,1,0,0:0:0:0:
256,192,69580,1,6,0:0:0:0:
256,192,69751,1,0,0:0:0:0:
256,192,69837,1,2,0:0:0:0:
256,192,69923,1,2,0:0:0:0:
256,192,70008,1,2,0:0:0:0:
256,192,70094,1,0,0:0:0:0:
256,192,70266,1,6,0:0:0:0:
256,192,70608,1,4,0:0:0:0:
256,192,70866,1,0,0:0:0:0:
256,192,70951,1,2,0:0:0:0:
256,192,71123,1,4,0:0:0:0:
256,192,71466,1,2,0:0:0:0:
256,192,71551,1,2,0:0:0:0:
256,192,71637,1,0,0:0:0:0:
256,192,71808,1,0,0:0:0:0:
256,192,71980,1,2,0:0:0:0:
256,192,72066,1,2,0:0:0:0:
256,192,72151,1,0,0:0:0:0:
256,192,72323,1,2,0:0:0:0:
256,192,72494,1,0,0:0:0:0:
256,192,72580,1,2,0:0:0:0:
256,192,72666,1,0,0:0:0:0:
256,192,72751,1,0,0:0:0:0:
256,192,72837,1,2,0:0:0:0:
256,192,72894,1,0,0:0:0:0:
256,192,72951,1,0,0:0:0:0:
256,192,73008,1,2,0:0:0:0:
256,192,73180,1,2,0:0:0:0:
256,192,73237,1,2,0:0:0:0:
256,192,73294,1,2,0:0:0:0:
256,192,73351,1,0,0:0:0:0:
256,192,73523,1,0,0:0:0:0:
256,192,73694,1,2,0:0:0:0:
256,192,73866,1,0,0:0:0:0:
256,192,73951,1,0,0:0:0:0:
256,192,74037,1,2,0:0:0:0:
256,192,74123,1,0,0:0:0:0:
256,192,74208,1,2,0:0:0:0:
256,192,74380,1,0,0:0:0:0:
256,192,74551,1,2,0:0:0:0:
256,192,74723,1,0,0:0:0:0:
256,192,74894,1,2,0:0:0:0:
256,192,74980,1,2,0:0:0:0:
256,192,75066,1,0,0:0:0:0:
256,192,75237,1,2,0:0:0:0:
256,192,75323,1,0,0:0:0:0:
256,192,75408,1,0,0:0:0:0:
256,192,75580,1,2,0:0:0:0:
256,192,75751,1,2,0:0:0:0:
256,192,75923,1,0,0:0:0:0:
256,192,76094,1,6,0:0:0:0:
256,192,76266,1,0,0:0:0:0:
256,192,76351,1,0,0:0:0:0:
256,192,76437,1,0,0:0:0:0:
256,192,76608,1,6,0:0:0:0:
256,192,76951,1,4,0:0:0:0:
256,192,77294,1,6,0:0:0:0:
256,192,77637,1,0,0:0:0:0:
256,192,77723,1,0,0:0:0:0:
256,192,77808,1,2,0:0:0:0:
256,192,77980,1,0,0:0:0:0:
256,192,78151,1,2,0:0:0:0:
256,192,78237,1,2,0:0:0:0:
256,192,78323,1,0,0:0:0:0:
256,192,78380,1,0,0:0:0:0:
256,192,78437,1,0,0:0:0:0:
256,192,78494,1,2,0:0:0:0:
256,192,78837,1,4,0:0:0:0:
256,192,79008,1,0,0:0:0:0:
256,192,79180,1,2,0:0:0:0:
256,192,79351,1,0,0:0:0:0:
256,192,79437,1,0,0:0:0:0:
256,192,79523,1,2,0:0:0:0:
256,192,79694,1,0,0:0:0:0:
256,192,79780,1,2,0:0:0:0:
256,192,79866,1,0,0:0:0:0:
256,192,80037,1,2,0:0:0:0:
256,192,80208,1,4,0:0:0:0:
256,192,80380,1,2,0:0:0:0:
256,192,80466,1,2,0:0:0:0:
256,192,80551,1,0,0:0:0:0:
256,192,80723,1,0,0:0:0:0:
256,192,80894,1,2,0:0:0:0:
256,192,80980,1,0,0:0:0:0:
256,192,81151,1,0,0:0:0:0:
256,192,81237,1,2,0:0:0:0:
256,192,81408,1,2,0:0:0:0:
256,192,81580,1,0,0:0:0:0:
256,192,81666,1,0,0:0:0:0:
256,192,81751,1,2,0:0:0:0:
256,192,81837,1,0,0:0:0:0:
256,192,81923,1,2,0:0:0:0:
256,192,82008,1,0,0:0:0:0:
256,192,82094,1,2,0:0:0:0:
256,192,82180,1,2,0:0:0:0:
256,192,82266,1,0,0:0:0:0:
256,192,82351,1,2,0:0:0:0:
256,192,82437,1,2,0:0:0:0:
256,192,82523,1,0,0:0:0:0:
256,192,82608,1,2,0:0:0:0:
256,192,82666,1,2,0:0:0:0:
256,192,82723,1,2,0:0:0:0:
256,192,82780,1,2,0:0:0:0:
256,192,82866,1,2,0:0:0:0:
256,192,82951,1,0,0:0:0:0:
256,192,83123,1,2,0:0:0:0:
256,192,83466,1,0,0:0:0:0:
260,195,83637,1,2,0:0:0:0:
260,195,83723,1,2,0:0:0:0:
260,195,83808,1,0,0:0:0:0:
260,195,83866,1,0,0:0:0:0:
260,195,83923,1,0,0:0:0:0:
260,195,83980,1,2,0:0:0:0:
260,195,84066,1,2,0:0:0:0:
260,195,84151,1,0,0:0:0:0:
260,195,84323,1,4,0:0:0:0:
256,192,84494,1,0,0:0:0:0:
256,192,84666,1,2,0:0:0:0:
256,192,84837,1,0,0:0:0:0:
256,192,84923,1,0,0:0:0:0:
256,192,85008,1,2,0:0:0:0:
256,192,85266,1,2,0:0:0:0:
256,192,85351,1,0,0:0:0:0:
256,192,85523,1,2,0:0:0:0:
256,192,85694,1,0,0:0:0:0:
256,192,85866,1,2,0:0:0:0:
256,192,85951,1,2,0:0:0:0:
256,192,86037,1,0,0:0:0:0:
256,192,86208,1,2,0:0:0:0:
256,192,86380,1,0,0:0:0:0:
256,192,86466,1,0,0:0:0:0:
256,192,86551,1,2,0:0:0:0:
256,192,86637,1,0,0:0:0:0:
256,192,86723,1,2,0:0:0:0:
256,192,86894,1,0,0:0:0:0:
256,192,87066,1,2,0:0:0:0:
256,192,87237,1,0,0:0:0:0:
256,192,87323,1,0,0:0:0:0:
256,192,87408,1,2,0:0:0:0:
256,192,87580,1,0,0:0:0:0:
256,192,87751,1,2,0:0:0:0:
256,192,87923,1,2,0:0:0:0:
256,192,88008,1,2,0:0:0:0:
256,192,88094,1,0,0:0:0:0:
256,192,88180,1,0,0:0:0:0:
256,192,88266,1,2,0:0:0:0:
256,192,88437,1,0,0:0:0:0:
256,192,88608,1,2,0:0:0:0:
256,192,88694,1,0,0:0:0:0:
256,192,88780,1,0,0:0:0:0:
256,192,88951,1,2,0:0:0:0:
256,192,89123,1,0,0:0:0:0:
256,192,89208,1,0,0:0:0:0:
256,192,89294,1,2,0:0:0:0:
256,192,89466,1,2,0:0:0:0:
256,192,89637,1,2,0:0:0:0:
256,192,89723,1,2,0:0:0:0:
256,192,89808,1,0,0:0:0:0:
256,192,90151,1,6,0:0:0:0:
256,192,90494,1,0,0:0:0:0:
256,192,90837,1,6,0:0:0:0:
256,192,91008,1,0,0:0:0:0:
256,192,91351,1,0,0:0:0:0:
256,192,91523,1,6,0:0:0:0:
256,192,91694,1,0,0:0:0:0:
256,192,92037,1,0,0:0:0:0:
256,192,92208,1,6,0:0:0:0:
256,192,92551,1,6,0:0:0:0:
256,192,92723,1,0,0:0:0:0:
256,192,92894,1,0,0:0:0:0:
256,192,93066,1,6,0:0:0:0:
256,192,93408,1,0,0:0:0:0:
256,192,93580,1,6,0:0:0:0:
256,192,93751,1,0,0:0:0:0:
256,192,93923,1,0,0:0:0:0:
256,192,94094,1,6,0:0:0:0:
256,192,94266,1,0,0:0:0:0:
256,192,94437,1,2,0:0:0:0:
256,192,94608,1,0,0:0:0:0:
256,192,94694,1,0,0:0:0:0:
256,192,94780,1,2,0:0:0:0:
256,192,94837,1,2,0:0:0:0:
256,192,94894,1,2,0:0:0:0:
256,192,94951,1,0,0:0:0:0:
256,192,95037,1,0,0:0:0:0:
256,192,95123,1,2,0:0:0:0:
256,192,95208,1,2,0:0:0:0:
256,192,95294,1,0,0:0:0:0:
256,192,95466,1,0,0:0:0:0:
256,192,95637,1,2,0:0:0:0:
256,192,95808,1,0,0:0:0:0:
256,192,95894,1,0,0:0:0:0:
256,192,95980,1,2,0:0:0:0:
256,192,96151,1,0,0:0:0:0:
256,192,96237,1,2,0:0:0:0:
256,192,96323,1,0,0:0:0:0:
256,192,96494,1,2,0:0:0:0:
256,192,96666,1,0,0:0:0:0:
256,192,96751,1,0,0:0:0:0:
256,192,96837,1,2,0:0:0:0:
256,192,97008,1,0,0:0:0:0:
256,192,97180,1,2,0:0:0:0:
256,192,97266,1,0,0:0:0:0:
256,192,97351,1,0,0:0:0:0:
256,192,97437,1,0,0:0:0:0:
256,192,97523,1,2,0:0:0:0:
256,192,97694,1,2,0:0:0:0:
256,192,97866,1,0,0:0:0:0:
256,192,98037,1,6,0:0:0:0:
256,192,98208,1,0,0:0:0:0:
256,192,98294,1,0,0:0:0:0:
256,192,98380,1,0,0:0:0:0:
256,192,98551,1,6,0:0:0:0:
256,192,98894,1,4,0:0:0:0:
256,192,99237,1,6,0:0:0:0:
256,192,99580,1,0,0:0:0:0:
256,192,99666,1,0,0:0:0:0:
256,192,99751,1,2,0:0:0:0:
256,192,99837,1,2,0:0:0:0:
256,192,99923,1,0,0:0:0:0:
256,192,100094,1,2,0:0:0:0:
256,192,100180,1,2,0:0:0:0:
256,192,100266,1,0,0:0:0:0:
256,192,100323,1,0,0:0:0:0:
256,192,100380,1,0,0:0:0:0:
256,192,100437,1,2,0:0:0:0:
256,192,100780,1,4,0:0:0:0:
256,192,100951,1,0,0:0:0:0:
256,192,101123,1,2,0:0:0:0:
256,192,101294,1,0,0:0:0:0:
256,192,101380,1,0,0:0:0:0:
256,192,101466,1,2,0:0:0:0:
256,192,101723,1,2,0:0:0:0:
256,192,101808,1,0,0:0:0:0:
256,192,101980,1,2,0:0:0:0:
256,192,102151,1,4,0:0:0:0:
256,192,102323,1,2,0:0:0:0:
256,192,102408,1,2,0:0:0:0:
256,192,102494,1,0,0:0:0:0:
256,192,102666,1,2,0:0:0:0:
256,192,102751,1,0,0:0:0:0:
256,192,102837,1,0,0:0:0:0:
256,192,103008,1,2,0:0:0:0:
256,192,103094,1,2,0:0:0:0:
256,192,103180,1,0,0:0:0:0:
256,192,103266,1,2,0:0:0:0:
256,192,103351,1,2,0:0:0:0:
256,192,103523,1,0,0:0:0:0:
256,192,103608,1,0,0:0:0:0:
256,192,103694,1,2,0:0:0:0:
256,192,103780,1,2,0:0:0:0:
256,192,103866,1,0,0:0:0:0:
256,192,103951,1,2,0:0:0:0:
256,192,104037,1,2,0:0:0:0:
256,192,104123,1,2,0:0:0:0:
256,192,104208,1,0,0:0:0:0:
256,192,104294,1,0,0:0:0:0:
256,192,104380,1,2,0:0:0:0:
256,192,104466,1,0,0:0:0:0:
256,192,104551,1,2,0:0:0:0:
256,192,104608,1,2,0:0:0:0:
256,192,104666,1,2,0:0:0:0:
256,192,104723,1,2,0:0:0:0:
256,192,104808,1,2,0:0:0:0:
256,192,104894,1,0,0:0:0:0:
256,192,105066,1,0,0:0:0:0:
256,192,105237,1,2,0:0:0:0:
256,192,105323,1,0,0:0:0:0:
256,192,105408,1,0,0:0:0:0:
256,192,105494,1,0,0:0:0:0:
256,192,105580,1,2,0:0:0:0:
256,192,105666,1,2,0:0:0:0:
256,192,105751,1,0,0:0:0:0:
256,192,105808,1,0,0:0:0:0:
256,192,105866,1,0,0:0:0:0:
256,192,105923,1,2,0:0:0:0:
256,192,106008,1,2,0:0:0:0:
256,192,106094,1,0,0:0:0:0:
256,192,106266,1,4,0:0:0:0:
256,192,106608,1,2,0:0:0:0:
256,192,106951,1,2,0:0:0:0:
256,192,107208,1,2,0:0:0:0:
256,192,107294,1,0,0:0:0:0:
256,192,107466,1,2,0:0:0:0:
256,192,107637,1,0,0:0:0:0:
256,192,107808,1,2,0:0:0:0:
256,192,107980,1,2,0:0:0:0:
256,192,108323,1,2,0:0:0:0:
256,192,108580,1,2,0:0:0:0:
256,192,108666,1,0,0:0:0:0:
256,192,108837,1,2,0:0:0:0:
256,192,109008,1,0,0:0:0:0:
256,192,109180,1,2,0:0:0:0:
256,192,109351,1,2,0:0:0:0:
256,192,109694,1,2,0:0:0:0:
256,192,109951,1,2,0:0:0:0:
256,192,110037,1,0,0:0:0:0:
256,192,110208,1,2,0:0:0:0:
256,192,110380,1,0,0:0:0:0:
256,192,110551,1,2,0:0:0:0:
256,192,110723,1,2,0:0:0:0:
256,192,111066,1,2,0:0:0:0:
256,192,111323,1,2,0:0:0:0:
256,192,111408,1,0,0:0:0:0:
256,192,111580,1,2,0:0:0:0:
256,192,111751,1,0,0:0:0:0:
256,192,111923,1,2,0:0:0:0:
256,192,112094,1,2,0:0:0:0:
256,192,112180,1,0,0:0:0:0:
256,192,112266,1,0,0:0:0:0:
256,192,112437,1,2,0:0:0:0:
256,192,112608,1,0,0:0:0:0:
256,192,112694,1,2,0:0:0:0:
256,192,112780,1,0,0:0:0:0:
256,192,112951,1,2,0:0:0:0:
256,192,113123,1,0,0:0:0:0:
256,192,113294,1,2,0:0:0:0:
256,192,113380,1,0,0:0:0:0:
256,192,113466,1,2,0:0:0:0:
256,192,113637,1,0,0:0:0:0:
256,192,113808,1,2,0:0:0:0:
256,192,113894,1,2,0:0:0:0:
256,192,113980,1,0,0:0:0:0:
256,192,114066,1,2,0:0:0:0:
256,192,114151,1,0,0:0:0:0:
256,192,114323,1,2,0:0:0:0:
256,192,114494,1,0,0:0:0:0:
256,192,114666,1,2,0:0:0:0:
256,192,114751,1,0,0:0:0:0:
256,192,114837,1,2,0:0:0:0:
256,192,115008,1,0,0:0:0:0:
256,192,115180,1,2,0:0:0:0:
256,192,115266,1,0,0:0:0:0:
256,192,115351,1,0,0:0:0:0:
256,192,115437,1,2,0:0:0:0:
256,192,115523,1,0,0:0:0:0:
256,192,115694,1,2,0:0:0:0:
256,192,115866,1,0,0:0:0:0:
256,192,116037,1,2,0:0:0:0:
256,192,116123,1,0,0:0:0:0:
256,192,116208,1,2,0:0:0:0:
256,192,116380,1,0,0:0:0:0:
256,192,116551,1,2,0:0:0:0:
256,192,116637,1,2,0:0:0:0:
256,192,116723,1,0,0:0:0:0:
256,192,116808,1,2,0:0:0:0:
256,192,116894,1,0,0:0:0:0:
256,192,116980,1,0,0:0:0:0:
256,192,117066,1,2,0:0:0:0:
256,192,117237,1,4,0:0:0:0:
256,192,117408,1,2,0:0:0:0:
256,192,117580,1,2,0:0:0:0:
256,192,117923,1,2,0:0:0:0:
256,192,118180,1,2,0:0:0:0:
256,192,118266,1,0,0:0:0:0:
256,192,118437,1,2,0:0:0:0:
256,192,118780,1,2,0:0:0:0:
256,192,118951,1,2,0:0:0:0:
256,192,119294,1,2,0:0:0:0:
256,192,119551,1,2,0:0:0:0:
256,192,119637,1,0,0:0:0:0:
256,192,119808,1,2,0:0:0:0:
256,192,119980,1,4,0:0:0:0:
256,192,120151,1,2,0:0:0:0:
256,192,120323,1,2,0:0:0:0:
256,192,120666,1,2,0:0:0:0:
256,192,120923,1,2,0:0:0:0:
256,192,121008,1,0,0:0:0:0:
256,192,121180,1,2,0:0:0:0:
256,192,121523,1,2,0:0:0:0:
256,192,121694,1,2,0:0:0:0:
256,192,122037,1,2,0:0:0:0:
256,192,122294,1,2,0:0:0:0:
256,192,122380,1,0,0:0:0:0:
256,192,122551,1,2,0:0:0:0:
256,192,122723,1,4,0:0:0:0:
256,192,122894,1,2,0:0:0:0:
256,192,123066,1,2,0:0:0:0:
256,192,123151,1,2,0:0:0:0:
256,192,123237,1,2,0:0:0:0:
256,192,123323,1,2,0:0:0:0:
256,192,123408,1,0,0:0:0:0:
256,192,123580,1,2,0:0:0:0:
256,192,123666,1,2,0:0:0:0:
256,192,123751,1,0,0:0:0:0:
256,192,123923,1,2,0:0:0:0:
256,192,124094,1,4,0:0:0:0:
256,192,124266,1,2,0:0:0:0:
256,192,124437,1,2,0:0:0:0:
256,192,124523,1,2,0:0:0:0:
256,192,124608,1,2,0:0:0:0:
256,192,124694,1,2,0:0:0:0:
256,192,124780,1,0,0:0:0:0:
256,192,124951,1,2,0:0:0:0:
256,192,125037,1,2,0:0:0:0:
256,192,125123,1,0,0:0:0:0:
256,192,125208,1,0,0:0:0:0:
256,192,125294,1,2,0:0:0:0:
256,192,125466,1,4,0:0:0:0:
256,192,125637,1,2,0:0:0:0:
256,192,125980,1,4,0:0:0:0:
256,192,126151,1,2,0:0:0:0:
256,192,126494,1,4,0:0:0:0:
256,192,126666,1,2,0:0:0:0:
256,192,127008,1,4,0:0:0:0:
256,192,127180,1,2,0:0:0:0:
256,192,127523,1,6,0:0:0:0:
256,192,127694,1,0,0:0:0:0:
256,192,127751,1,0,0:0:0:0:
256,192,127808,1,0,0:0:0:0:
256,192,127866,1,2,0:0:0:0:
256,192,128208,1,4,0:0:0:0:
256,192,128380,1,0,0:0:0:0:
256,192,128551,1,2,0:0:0:0:
256,192,128723,1,2,0:0:0:0:
256,192,128894,1,0,0:0:0:0:
256,192,128980,1,0,0:0:0:0:
256,192,129151,1,2,0:0:0:0:
256,192,129323,1,0,0:0:0:0:
256,192,129408,1,2,0:0:0:0:
256,192,129580,1,4,0:0:0:0:
256,192,129751,1,2,0:0:0:0:
256,192,129923,1,2,0:0:0:0:
256,192,130094,1,0,0:0:0:0:
256,192,130266,1,2,0:0:0:0:
256,192,130351,1,2,0:0:0:0:
256,192,130523,1,0,0:0:0:0:
256,192,130780,1,6,0:0:0:0:
256,192,130951,1,4,0:0:0:0:
256,192,131123,1,0,0:0:0:0:
256,192,131294,1,2,0:0:0:0:
256,192,131466,1,0,0:0:0:0:
256,192,131551,1,0,0:0:0:0:
256,192,131637,1,2,0:0:0:0:
256,192,131894,1,0,0:0:0:0:
256,192,132151,1,2,0:0:0:0:
256,192,132323,1,4,0:0:0:0:
256,192,132494,1,0,0:0:0:0:
256,192,132580,1,0,0:0:0:0:
256,192,132666,1,2,0:0:0:0:
256,192,132837,1,0,0:0:0:0:
256,192,133008,1,2,0:0:0:0:
256,192,133094,1,2,0:0:0:0:
256,192,133180,1,0,0:0:0:0:
256,192,133351,1,0,0:0:0:0:
256,192,133523,1,2,0:0:0:0:
256,192,133694,1,4,0:0:0:0:
256,192,133866,1,0,0:0:0:0:
256,192,134037,1,2,0:0:0:0:
256,192,134208,1,0,0:0:0:0:
256,192,134380,1,2,0:0:0:0:
256,192,134466,1,0,0:0:0:0:
256,192,134551,1,0,0:0:0:0:
256,192,134637,1,2,0:0:0:0:
256,192,134808,1,2,0:0:0:0:
256,192,134894,1,0,0:0:0:0:
256,192,135066,1,6,0:0:0:0:
256,192,135237,1,0,0:0:0:0:
256,192,135323,1,0,0:0:0:0:
256,192,135408,1,2,0:0:0:0:
256,192,135580,1,0,0:0:0:0:
256,192,135751,1,2,0:0:0:0:
256,192,136008,1,0,0:0:0:0:
256,192,136266,1,2,0:0:0:0:
256,192,136437,1,4,0:0:0:0:
256,192,136780,1,2,0:0:0:0:
256,192,137123,1,4,0:0:0:0:
256,192,137466,1,0,0:0:0:0:
256,192,137637,1,6,0:0:0:0:
256,192,137980,1,6,0:0:0:0:
256,192,138323,1,4,0:0:0:0:
256,192,138666,1,0,0:0:0:0:
256,192,138723,1,0,0:0:0:0:
256,192,138780,1,0,0:0:0:0:
256,192,138837,1,2,0:0:0:0:
256,192,139180,1,4,0:0:0:0:
256,192,139351,1,0,0:0:0:0:
256,192,139437,1,0,0:0:0:0:
256,192,139523,1,2,0:0:0:0:
256,192,139694,1,2,0:0:0:0:
256,192,139866,1,0,0:0:0:0:
256,192,140037,1,2,0:0:0:0:
256,192,140123,1,0,0:0:0:0:
256,192,140294,1,0,0:0:0:0:
256,192,140380,1,2,0:0:0:0:
256,192,140551,1,0,0:0:0:0:
256,192,140723,1,2,0:0:0:0:
256,192,140808,1,0,0:0:0:0:
256,192,140894,1,2,0:0:0:0:
256,192,141066,1,0,0:0:0:0:
256,192,141237,1,2,0:0:0:0:
256,192,141408,1,0,0:0:0:0:
256,192,141494,1,2,0:0:0:0:
256,192,141666,1,2,0:0:0:0:
256,192,141751,1,0,0:0:0:0:
256,192,141923,1,2,0:0:0:0:
256,192,142094,1,0,0:0:0:0:
256,192,142180,1,0,0:0:0:0:
256,192,142266,1,2,0:0:0:0:
256,192,142437,1,0,0:0:0:0:
256,192,142608,1,2,0:0:0:0:
256,192,142694,1,0,0:0:0:0:
256,192,142866,1,2,0:0:0:0:
256,192,143037,1,0,0:0:0:0:
256,192,143123,1,2,0:0:0:0:
256,192,143294,1,0,0:0:0:0:
256,192,143380,1,0,0:0:0:0:
256,192,143466,1,2,0:0:0:0:
256,192,143637,1,0,0:0:0:0:
256,192,143808,1,2,0:0:0:0:
256,192,143894,1,2,0:0:0:0:
256,192,143980,1,0,0:0:0:0:
256,192,144151,1,2,0:0:0:0:
256,192,144323,1,2,0:0:0:0:
256,192,144666,1,4,0:0:0:0:
256,192,144837,1,0,0:0:0:0:
256,192,144923,1,0,0:0:0:0:
256,192,145008,1,2,0:0:0:0:
256,192,145180,1,0,0:0:0:0:
256,192,145351,1,6,0:0:0:0:
256,192,145523,1,0,0:0:0:0:
256,192,145608,1,2,0:0:0:0:
256,192,145780,1,2,0:0:0:0:
256,192,145866,1,0,0:0:0:0:
256,192,146037,1,6,0:0:0:0:
256,192,146208,1,0,0:0:0:0:
256,192,146294,1,0,0:0:0:0:
256,192,146380,1,2,0:0:0:0:
256,192,146551,1,0,0:0:0:0:
256,192,146723,1,2,0:0:0:0:
256,192,146894,1,0,0:0:0:0:
256,192,146980,1,2,0:0:0:0:
256,192,147066,1,0,0:0:0:0:
256,192,147237,1,2,0:0:0:0:
256,192,147408,1,6,0:0:0:0:
256,192,147751,1,0,0:0:0:0:
256,192,148094,1,6,0:0:0:0:
256,192,148437,1,0,0:0:0:0:
256,192,148608,1,6,0:0:0:0:
256,192,148951,1,4,0:0:0:0:
256,192,149294,1,4,0:0:0:0:
256,192,149466,1,4,0:0:0:0:
256,192,149637,1,0,0:0:0:0:
256,192,149694,1,0,0:0:0:0:
256,192,149751,1,0,0:0:0:0:
256,192,149808,1,2,0:0:0:0:
256,192,150151,1,0,0:0:0:0:
256,192,150323,1,0,0:0:0:0:
256,192,150408,1,0,0:0:0:0:
256,192,150494,1,2,0:0:0:0:
256,192,150666,1,0,0:0:0:0:
256,192,150923,1,2,0:0:0:0:
256,192,151008,1,0,0:0:0:0:
256,192,151180,1,2,0:0:0:0:
256,192,151351,1,0,0:0:0:0:
256,192,151523,1,0,0:0:0:0:
256,192,151694,1,2,0:0:0:0:
256,192,151780,1,2,0:0:0:0:
256,192,151866,1,2,0:0:0:0:
256,192,152037,1,0,0:0:0:0:
256,192,152294,1,2,0:0:0:0:
256,192,152380,1,0,0:0:0:0:
256,192,152551,1,2,0:0:0:0:
256,192,152894,1,0,0:0:0:0:
256,192,153066,1,0,0:0:0:0:
256,192,153151,1,0,0:0:0:0:
256,192,153237,1,2,0:0:0:0:
256,192,153408,1,0,0:0:0:0:
256,192,153666,1,2,0:0:0:0:
256,192,153751,1,0,0:0:0:0:
256,192,153923,1,2,0:0:0:0:
256,192,154094,1,2,0:0:0:0:
256,192,154266,1,0,0:0:0:0:
256,192,154437,1,2,0:0:0:0:
256,192,154523,1,2,0:0:0:0:
256,192,154608,1,2,0:0:0:0:
256,192,154780,1,0,0:0:0:0:
256,192,155037,1,2,0:0:0:0:
256,192,155123,1,0,0:0:0:0:
256,192,155294,1,2,0:0:0:0:
256,192,155637,1,4,0:0:0:0:
256,192,155808,1,0,0:0:0:0:
256,192,155894,1,0,0:0:0:0:
256,192,155980,1,2,0:0:0:0:
256,192,156151,1,0,0:0:0:0:
256,192,156408,1,2,0:0:0:0:
256,192,156494,1,0,0:0:0:0:
256,192,156666,1,2,0:0:0:0:
256,192,156837,1,2,0:0:0:0:
256,192,157008,1,4,0:0:0:0:
256,192,157180,1,2,0:0:0:0:
256,192,157266,1,2,0:0:0:0:
256,192,157351,1,2,0:0:0:0:
256,192,157523,1,0,0:0:0:0:
256,192,157780,1,2,0:0:0:0:
256,192,157866,1,0,0:0:0:0:
256,192,158037,1,2,0:0:0:0:
256,192,158208,1,2,0:0:0:0:
256,192,158380,1,4,0:0:0:0:
256,192,158551,1,2,0:0:0:0:
256,192,158637,1,0,0:0:0:0:
256,192,158723,1,2,0:0:0:0:
256,192,158894,1,0,0:0:0:0:
256,192,159066,1,2,0:0:0:0:
256,192,159151,1,2,0:0:0:0:
256,192,159237,1,0,0:0:0:0:
256,192,159408,1,2,0:0:0:0:
256,192,159751,1,0,0:0:0:0:
256,192,159923,1,2,0:0:0:0:
256,192,160008,1,2,0:0:0:0:
256,192,160094,1,2,0:0:0:0:
256,192,160266,1,0,0:0:0:0:
256,192,160437,1,6,0:0:0:0:
256,192,160694,1,4,0:0:0:0:
256,192,160951,1,6,0:0:0:0:
256,192,161294,1,2,0:0:0:0:
256,192,161466,1,0,0:0:0:0:
256,192,161551,1,0,0:0:0:0:
256,192,161637,1,2,0:0:0:0:
256,192,161723,1,0,0:0:0:0:
256,192,161808,1,2,0:0:0:0:
256,192,161980,1,0,0:0:0:0:
256,192,162151,1,2,0:0:0:0:
256,192,162208,1,2,0:0:0:0:
256,192,162266,1,0,0:0:0:0:
256,192,162323,1,0,0:0:0:0:
256,192,162494,1,4,0:0:0:0:
256,192,162666,1,2,0:0:0:0:
256,192,162751,1,2,0:0:0:0:
256,192,162837,1,0,0:0:0:0:
256,192,163008,1,2,0:0:0:0:
256,192,163094,1,0,0:0:0:0:
256,192,163180,1,2,0:0:0:0:
256,192,163266,1,2,0:0:0:0:
256,192,163351,1,0,0:0:0:0:
256,192,163523,1,2,0:0:0:0:
256,192,163580,1,2,0:0:0:0:
256,192,163637,1,2,0:0:0:0:
256,192,163694,1,0,0:0:0:0:
256,192,163866,1,6,0:0:0:0:
256,192,164037,1,0,0:0:0:0:
256,192,164123,1,2,0:0:0:0:
256,192,164208,1,0,0:0:0:0:
256,192,164294,1,0,0:0:0:0:
256,192,164380,1,2,0:0:0:0:
256,192,164466,1,2,0:0:0:0:
256,192,164551,1,0,0:0:0:0:
256,192,164637,1,2,0:0:0:0:
256,192,164723,1,0,0:0:0:0:
256,192,164780,1,0,0:0:0:0:
256,192,164837,1,0,0:0:0:0:
256,192,164894,1,2,0:0:0:0:
256,192,165066,1,4,0:0:0:0:
256,192,165408,1,2,0:0:0:0:
256,192,165494,1,0,0:0:0:0:
256,192,165580,1,2,0:0:0:0:
256,192,165666,1,0,0:0:0:0:
256,192,165751,1,0,0:0:0:0:
256,192,165837,1,0,0:0:0:0:
256,192,165923,1,2,0:0:0:0:
256,192,166008,1,2,0:0:0:0:
256,192,166094,1,0,0:0:0:0:
256,192,166180,1,0,0:0:0:0:
256,192,166266,1,2,0:0:0:0:
256,192,166323,1,0,0:0:0:0:
256,192,166380,1,0,0:0:0:0:
256,192,166437,1,2,0:0:0:0:
256,192,166780,1,6,0:0:0:0:
256,192,166951,1,6,0:0:0:0:
256,192,167466,1,0,0:0:0:0:
256,192,167523,1,0,0:0:0:0:
256,192,167580,1,0,0:0:0:0:
256,192,167637,1,2,0:0:0:0:
256,192,167980,1,4,0:0:0:0:
256,192,168151,1,0,0:0:0:0:
256,192,168323,1,2,0:0:0:0:
256,192,168494,1,0,0:0:0:0:
256,192,168580,1,0,0:0:0:0:
256,192,168666,1,2,0:0:0:0:
256,192,168751,1,0,0:0:0:0:
256,192,168837,1,2,0:0:0:0:
256,192,169008,1,0,0:0:0:0:
256,192,169180,1,2,0:0:0:0:
256,192,169351,1,0,0:0:0:0:
256,192,169437,1,0,0:0:0:0:
256,192,169523,1,2,0:0:0:0:
256,192,169694,1,0,0:0:0:0:
256,192,169866,1,2,0:0:0:0:
256,192,169951,1,2,0:0:0:0:
256,192,170037,1,0,0:0:0:0:
256,192,170123,1,0,0:0:0:0:
256,192,170208,1,2,0:0:0:0:
256,192,170294,1,0,0:0:0:0:
256,192,170380,1,2,0:0:0:0:
256,192,170551,1,2,0:0:0:0:
256,192,170723,1,0,0:0:0:0:
256,192,170894,1,0,0:0:0:0:
256,192,170980,1,0,0:0:0:0:
256,192,171066,1,2,0:0:0:0:
256,192,171237,1,2,0:0:0:0:
256,192,171323,1,2,0:0:0:0:
256,192,171408,1,0,0:0:0:0:
256,192,171580,1,2,0:0:0:0:
256,192,171751,1,0,0:0:0:0:
256,192,171837,1,0,0:0:0:0:
256,192,171923,1,2,0:0:0:0:
256,192,172094,1,0,0:0:0:0:
256,192,172266,1,2,0:0:0:0:
256,192,172351,1,0,0:0:0:0:
256,192,172437,1,0,0:0:0:0:
256,192,172608,1,2,0:0:0:0:
256,192,172694,1,2,0:0:0:0:
256,192,172780,1,0,0:0:0:0:
256,192,172866,1,0,0:0:0:0:
256,192,172951,1,2,0:0:0:0:
256,192,173123,1,2,0:0:0:0:
260,195,173466,1,0,0:0:0:0:
260,195,173808,1,6,0:0:0:0:
256,192,174151,1,0,0:0:0:0:
260,195,174237,1,0,0:0:0:0:
260,195,174323,1,0,0:0:0:0:
260,195,174494,1,6,0:0:0:0:
260,195,174666,1,0,0:0:0:0:
260,195,175008,1,0,0:0:0:0:
256,192,175180,1,6,0:0:0:0:
260,195,175351,1,0,0:0:0:0:
260,195,175437,1,2,0:0:0:0:
260,195,175523,1,2,0:0:0:0:
260,195,175608,1,2,0:0:0:0:
260,195,175694,1,0,0:0:0:0:
260,195,175866,1,6,0:0:0:0:
260,195,176037,1,2,0:0:0:0:
260,195,176208,1,4,0:0:0:0:
260,195,176466,1,0,0:0:0:0:
260,195,176551,1,2,0:0:0:0:
260,195,176723,1,4,0:0:0:0:
260,195,177066,1,2,0:0:0:0:
260,195,177151,1,2,0:0:0:0:
260,195,177237,1,0,0:0:0:0:
260,195,177408,1,0,0:0:0:0:
260,195,177494,1,0,0:0:0:0:
260,195,177580,1,2,0:0:0:0:
260,195,177666,1,2,0:0:0:0:
260,195,177751,1,0,0:0:0:0:
252,193,177923,1,2,0:0:0:0:
252,193,178094,1,0,0:0:0:0:
252,193,178180,1,2,0:0:0:0:
252,193,178266,1,0,0:0:0:0:
260,195,178437,1,2,0:0:0:0:
260,195,178494,1,2,0:0:0:0:
260,195,178551,1,2,0:0:0:0:
260,195,178608,1,0,0:0:0:0:
260,195,178694,1,0,0:0:0:0:
260,195,178780,1,2,0:0:0:0:
260,195,178866,1,2,0:0:0:0:
260,195,178951,1,0,0:0:0:0:
260,195,179123,1,0,0:0:0:0:
260,195,179294,1,2,0:0:0:0:
260,195,179466,1,0,0:0:0:0:
260,195,179551,1,0,0:0:0:0:
260,195,179637,1,2,0:0:0:0:
260,195,179723,1,0,0:0:0:0:
260,195,179808,1,2,0:0:0:0:
260,195,179980,1,0,0:0:0:0:
260,195,180151,1,2,0:0:0:0:
260,195,180323,1,0,0:0:0:0:
260,195,180408,1,0,0:0:0:0:
260,195,180494,1,2,0:0:0:0:
260,195,180666,1,0,0:0:0:0:
260,195,180837,1,2,0:0:0:0:
260,195,180923,1,2,0:0:0:0:
260,195,181008,1,0,0:0:0:0:
260,195,181094,1,0,0:0:0:0:
260,195,181180,1,2,0:0:0:0:
260,195,181266,1,0,0:0:0:0:
260,195,181351,1,2,0:0:0:0:
260,195,181523,1,0,0:0:0:0:
260,195,181694,1,6,0:0:0:0:
260,195,181866,1,0,0:0:0:0:
260,195,181951,1,0,0:0:0:0:
260,195,182037,1,0,0:0:0:0:
260,195,182208,1,6,0:0:0:0:
260,195,182551,1,4,0:0:0:0:
260,195,182894,1,6,0:0:0:0:
260,195,183237,1,0,0:0:0:0:
260,195,183323,1,0,0:0:0:0:
260,195,183408,1,2,0:0:0:0:
260,195,183580,1,0,0:0:0:0:
260,195,183751,1,2,0:0:0:0:
260,195,183837,1,2,0:0:0:0:
260,195,183923,1,0,0:0:0:0:
260,195,183980,1,0,0:0:0:0:
260,195,184037,1,0,0:0:0:0:
260,195,184094,1,2,0:0:0:0:
260,195,184180,1,2,0:0:0:0:
260,195,184266,1,0,0:0:0:0:
260,195,184437,1,4,0:0:0:0:
260,195,184608,1,0,0:0:0:0:
260,195,184780,1,2,0:0:0:0:
260,195,184951,1,0,0:0:0:0:
260,195,185037,1,0,0:0:0:0:
260,195,185123,1,2,0:0:0:0:
260,195,185294,1,0,0:0:0:0:
260,195,185380,1,2,0:0:0:0:
260,195,185466,1,0,0:0:0:0:
260,195,185637,1,2,0:0:0:0:
260,195,185808,1,4,0:0:0:0:
260,195,185980,1,2,0:0:0:0:
260,195,186066,1,0,0:0:0:0:
260,195,186151,1,2,0:0:0:0:
260,195,186323,1,0,0:0:0:0:
260,195,186408,1,0,0:0:0:0:
260,195,186494,1,2,0:0:0:0:
260,195,186580,1,0,0:0:0:0:
260,195,186751,1,0,0:0:0:0:
260,195,186837,1,2,0:0:0:0:
260,195,187008,1,2,0:0:0:0:
260,195,187180,1,0,0:0:0:0:
260,195,187266,1,0,0:0:0:0:
260,195,187351,1,2,0:0:0:0:
260,195,187437,1,2,0:0:0:0:
260,195,187523,1,0,0:0:0:0:
260,195,187608,1,2,0:0:0:0:
260,195,187694,1,0,0:0:0:0:
260,195,187780,1,2,0:0:0:0:
260,195,187866,1,0,0:0:0:0:
260,195,187951,1,2,0:0:0:0:
260,195,188037,1,2,0:0:0:0:
260,195,188123,1,0,0:0:0:0:
260,195,188208,1,2,0:0:0:0:
260,195,188266,1,2,0:0:0:0:
260,195,188323,1,2,0:0:0:0:
260,195,188380,1,2,0:0:0:0:
260,195,188466,1,2,0:0:0:0:
260,195,188551,1,0,0:0:0:0:
260,195,188723,1,0,0:0:0:0:
260,195,188894,1,2,0:0:0:0:
260,195,189066,1,0,0:0:0:0:
260,195,189237,1,2,0:0:0:0:
260,195,189323,1,2,0:0:0:0:
260,195,189408,1,0,0:0:0:0:
260,195,189466,1,0,0:0:0:0:
260,195,189523,1,0,0:0:0:0:
260,195,189580,1,2,0:0:0:0:
260,195,189666,1,2,0:0:0:0:
260,195,189751,1,0,0:0:0:0:
260,195,189923,1,4,0:0:0:0:
260,195,190180,1,0,0:0:0:0:
260,195,190266,1,2,0:0:0:0:
260,195,190437,1,0,0:0:0:0:
260,195,190780,1,0,0:0:0:0:
260,195,190951,1,2,0:0:0:0:
260,195,191123,1,2,0:0:0:0:
260,195,191294,1,0,0:0:0:0:
260,195,191466,1,0,0:0:0:0:
260,195,191551,1,2,0:0:0:0:
260,195,191637,1,2,0:0:0:0:
260,195,191808,1,0,0:0:0:0:
260,195,192151,1,0,0:0:0:0:
260,195,192323,1,2,0:0:0:0:
260,195,192494,1,2,0:0:0:0:
260,195,192580,1,2,0:0:0:0:
260,195,192666,1,0,0:0:0:0:
260,195,192837,1,0,0:0:0:0:
260,195,192923,1,2,0:0:0:0:
260,195,193008,1,2,0:0:0:0:
260,195,193180,1,0,0:0:0:0:
260,195,193523,1,0,0:0:0:0:
260,195,193694,1,2,0:0:0:0:
260,195,193866,1,2,0:0:0:0:
260,195,194037,1,0,0:0:0:0:
260,195,194208,1,0,0:0:0:0:
260,195,194294,1,2,0:0:0:0:
260,195,194380,1,2,0:0:0:0:
260,195,194551,1,0,0:0:0:0:
260,195,194894,1,0,0:0:0:0:
260,195,195066,1,2,0:0:0:0:
260,195,195237,1,2,0:0:0:0:
260,195,195408,1,4,0:0:0:0:
260,195,195580,1,0,0:0:0:0:
260,195,195666,1,0,0:0:0:0:
260,195,195751,1,2,0:0:0:0:
260,195,195923,1,0,0:0:0:0:
260,195,196094,1,2,0:0:0:0:
260,195,196180,1,2,0:0:0:0:
260,195,196266,1,0,0:0:0:0:
260,195,196437,1,2,0:0:0:0:
260,195,196780,1,4,0:0:0:0:
260,195,196951,1,0,0:0:0:0:
260,195,197037,1,0,0:0:0:0:
260,195,197123,1,2,0:0:0:0:
260,195,197294,1,0,0:0:0:0:
260,195,197466,1,2,0:0:0:0:
260,195,197551,1,2,0:0:0:0:
260,195,197637,1,0,0:0:0:0:
260,195,197723,1,0,0:0:0:0:
260,195,197808,1,2,0:0:0:0:
260,195,198151,1,4,0:0:0:0:
260,195,198323,1,0,0:0:0:0:
260,195,198408,1,0,0:0:0:0:
260,195,198494,1,2,0:0:0:0:
260,195,198666,1,0,0:0:0:0:
260,195,198837,1,0,0:0:0:0:
260,195,198923,1,2,0:0:0:0:
260,195,199008,1,0,0:0:0:0:
260,195,199180,1,2,0:0:0:0:
260,195,199351,1,0,0:0:0:0:
260,195,199523,1,0,0:0:0:0:
260,195,199694,1,2,0:0:0:0:
260,195,199780,1,0,0:0:0:0:
260,195,199866,1,2,0:0:0:0:
260,195,200037,1,0,0:0:0:0:
260,195,200208,1,6,0:0:0:0:
260,195,200466,1,4,0:0:0:0:
260,195,200723,1,6,0:0:0:0:
260,195,201066,1,0,0:0:0:0:
260,195,201151,1,0,0:0:0:0:
260,195,201237,1,2,0:0:0:0:
260,195,201408,1,0,0:0:0:0:
260,195,201580,1,2,0:0:0:0:
260,195,201666,1,2,0:0:0:0:
260,195,201751,1,0,0:0:0:0:
260,195,201923,1,2,0:0:0:0:
260,195,202094,1,0,0:0:0:0:
260,195,202266,1,6,0:0:0:0:
260,195,202437,1,0,0:0:0:0:
260,195,202523,1,0,0:0:0:0:
260,195,202608,1,2,0:0:0:0:
260,195,202780,1,0,0:0:0:0:
260,195,202951,1,2,0:0:0:0:
260,195,203037,1,2,0:0:0:0:
260,195,203123,1,0,0:0:0:0:
260,195,203208,1,0,0:0:0:0:
260,195,203294,1,0,0:0:0:0:
260,195,203466,1,0,0:0:0:0:
260,195,203637,1,6,0:0:0:0:
260,195,203808,1,0,0:0:0:0:
260,195,203894,1,0,0:0:0:0:
260,195,203980,1,2,0:0:0:0:
260,195,204151,1,0,0:0:0:0:
260,195,204323,1,2,0:0:0:0:
260,195,204408,1,2,0:0:0:0:
260,195,204494,1,0,0:0:0:0:
260,195,204666,1,2,0:0:0:0:
260,195,204837,1,0,0:0:0:0:
260,195,205008,1,6,0:0:0:0:
260,195,205180,1,0,0:0:0:0:
260,195,205266,5,0,0:0:0:0:
260,195,205351,1,2,0:0:0:0:
260,195,205437,1,2,0:0:0:0:
260,195,205523,1,0,0:0:0:0:
260,195,205694,1,2,0:0:0:0:
260,195,205780,1,2,0:0:0:0:
260,195,205866,1,0,0:0:0:0:
260,195,205951,1,0,0:0:0:0:
260,195,206037,1,0,0:0:0:0:
260,195,206208,1,0,0:0:0:0:
260,195,206380,5,6,0:0:0:0:
260,195,206551,1,0,0:0:0:0:
260,195,206637,1,0,0:0:0:0:
260,195,206723,1,2,0:0:0:0:
260,195,206808,1,0,0:0:0:0:
260,195,206894,1,0,0:0:0:0:
260,195,206980,1,0,0:0:0:0:
260,195,207066,1,2,0:0:0:0:
260,195,207151,1,2,0:0:0:0:
260,195,207237,1,0,0:0:0:0:
260,195,207323,1,0,0:0:0:0:
260,195,207408,1,2,0:0:0:0:
260,195,207494,1,2,0:0:0:0:
260,195,207580,1,0,0:0:0:0:
260,195,207666,1,2,0:0:0:0:
260,195,207751,1,0,0:0:0:0:
260,195,207923,5,0,0:0:0:0:
260,195,208008,1,0,0:0:0:0:
260,195,208094,1,2,0:0:0:0:
260,195,208180,1,0,0:0:0:0:
260,195,208266,1,0,0:0:0:0:
260,195,208351,1,0,0:0:0:0:
260,195,208437,1,2,0:0:0:0:
260,195,208523,1,2,0:0:0:0:
260,195,208608,1,0,0:0:0:0:
260,195,208694,1,0,0:0:0:0:
260,195,208780,1,2,0:0:0:0:
260,195,208866,1,0,0:0:0:0:
260,195,208951,1,0,0:0:0:0:
260,195,209037,1,0,0:0:0:0:
260,195,209123,1,2,0:0:0:0:
260,195,209208,1,2,0:0:0:0:
260,195,209294,1,2,0:0:0:0:
260,195,209380,1,0,0:0:0:0:
260,195,209466,1,2,0:0:0:0:
260,195,209551,1,0,0:0:0:0:
260,195,209637,1,0,0:0:0:0:
260,195,209723,1,0,0:0:0:0:
260,195,209808,1,2,0:0:0:0:
260,195,209894,1,2,0:0:0:0:
260,195,209980,1,0,0:0:0:0:
260,195,210066,1,0,0:0:0:0:
260,195,210151,1,2,0:0:0:0:
260,195,210237,1,0,0:0:0:0:
260,195,210323,1,0,0:0:0:0:
260,195,210494,5,6,0:0:0:0:
256,192,210666,12,0,211866,0:0:0:0:
260,195,214608,5,6,0:0:0:0:
256,192,222837,12,0,225237,0:0:0:0:
256,192,225580,5,0,0:0:0:0:
256,192,225751,1,0,0:0:0:0:
256,192,225837,1,0,0:0:0:0:
256,192,225923,1,2,0:0:0:0:
256,192,226008,1,2,0:0:0:0:
256,192,226094,1,0,0:0:0:0:
256,192,226266,1,2,0:0:0:0:
256,192,226351,1,2,0:0:0:0:
256,192,226437,1,0,0:0:0:0:
256,192,226494,1,0,0:0:0:0:
256,192,226551,1,0,0:0:0:0:
256,192,226608,1,2,0:0:0:0:
256,192,226951,1,4,0:0:0:0:
256,192,227123,1,0,0:0:0:0:
256,192,227294,1,2,0:0:0:0:
256,192,227466,1,0,0:0:0:0:
256,192,227551,1,0,0:0:0:0:
256,192,227637,1,2,0:0:0:0:
256,192,227723,1,0,0:0:0:0:
256,192,227808,1,2,0:0:0:0:
256,192,227980,1,0,0:0:0:0:
256,192,228151,1,2,0:0:0:0:
256,192,228323,1,0,0:0:0:0:
256,192,228494,1,2,0:0:0:0:
256,192,228580,1,2,0:0:0:0:
256,192,228666,1,0,0:0:0:0:
256,192,228837,1,2,0:0:0:0:
256,192,228923,1,0,0:0:0:0:
256,192,229008,1,0,0:0:0:0:
256,192,229180,1,2,0:0:0:0:
256,192,229266,1,0,0:0:0:0:
256,192,229351,1,2,0:0:0:0:
256,192,229437,1,2,0:0:0:0:
256,192,229523,1,0,0:0:0:0:
256,192,229608,1,2,0:0:0:0:
256,192,229694,1,0,0:0:0:0:
256,192,229866,1,0,0:0:0:0:
256,192,230037,1,2,0:0:0:0:
256,192,230208,1,0,0:0:0:0:
256,192,230294,1,0,0:0:0:0:
256,192,230380,1,2,0:0:0:0:
256,192,230551,1,2,0:0:0:0:
256,192,230637,1,2,0:0:0:0:
256,192,230723,1,0,0:0:0:0:
256,192,230894,1,2,0:0:0:0:
256,192,231066,1,0,0:0:0:0:
256,192,231237,1,2,0:0:0:0:
256,192,231323,1,0,0:0:0:0:
256,192,231408,1,0,0:0:0:0:
256,192,231580,1,2,0:0:0:0:
256,192,231666,1,2,0:0:0:0:
256,192,231751,1,0,0:0:0:0:
256,192,231837,1,0,0:0:0:0:
256,192,231923,1,2,0:0:0:0:
256,192,232008,1,0,0:0:0:0:
256,192,232094,1,2,0:0:0:0:
256,192,232437,1,0,0:0:0:0:
256,192,232780,1,6,0:0:0:0:
256,192,233123,1,0,0:0:0:0:
256,192,233208,1,0,0:0:0:0:
256,192,233294,1,0,0:0:0:0:
256,192,233466,1,6,0:0:0:0:
256,192,233637,1,0,0:0:0:0:
256,192,233980,1,0,0:0:0:0:
256,192,234151,1,6,0:0:0:0:
256,192,234323,1,0,0:0:0:0:
256,192,234408,1,2,0:0:0:0:
256,192,234494,1,2,0:0:0:0:
256,192,234580,1,2,0:0:0:0:
256,192,234666,1,0,0:0:0:0:
256,192,234837,1,6,0:0:0:0:
256,192,235008,1,2,0:0:0:0:
256,192,235180,1,4,0:0:0:0:
256,192,235351,1,0,0:0:0:0:
256,192,235437,1,2,0:0:0:0:
256,192,235523,1,2,0:0:0:0:
256,192,235694,1,4,0:0:0:0:
256,192,235951,1,2,0:0:0:0:
256,192,236037,1,0,0:0:0:0:
256,192,236208,1,4,0:0:0:0:
256,192,236380,1,2,0:0:0:0:
256,192,236466,1,2,0:0:0:0:
256,192,236551,1,0,0:0:0:0:
256,192,236723,1,4,0:0:0:0:
256,192,236894,1,2,0:0:0:0:
256,192,237066,1,0,0:0:0:0:
256,192,237151,1,0,0:0:0:0:
256,192,237237,1,2,0:0:0:0:
256,192,237323,1,0,0:0:0:0:
256,192,237408,1,2,0:0:0:0:
256,192,237466,1,2,0:0:0:0:
256,192,237523,1,2,0:0:0:0:
256,192,237580,1,0,0:0:0:0:
256,192,237666,1,0,0:0:0:0:
256,192,237751,1,2,0:0:0:0:
256,192,237837,1,2,0:0:0:0:
256,192,237923,1,0,0:0:0:0:
256,192,238094,1,0,0:0:0:0:
256,192,238266,1,2,0:0:0:0:
256,192,238437,1,0,0:0:0:0:
256,192,238523,1,0,0:0:0:0:
256,192,238608,1,2,0:0:0:0:
256,192,238694,1,0,0:0:0:0:
256,192,238780,1,2,0:0:0:0:
256,192,238951,1,0,0:0:0:0:
256,192,239123,1,2,0:0:0:0:
256,192,239294,1,0,0:0:0:0:
256,192,239466,1,2,0:0:0:0:
256,192,239551,1,2,0:0:0:0:
256,192,239637,1,0,0:0:0:0:
256,192,239808,1,2,0:0:0:0:
256,192,239894,1,0,0:0:0:0:
256,192,239980,1,0,0:0:0:0:
256,192,240066,1,0,0:0:0:0:
256,192,240151,1,2,0:0:0:0:
256,192,240237,1,0,0:0:0:0:
256,192,240323,1,2,0:0:0:0:
256,192,240494,1,0,0:0:0:0:
256,192,240666,1,6,0:0:0:0:
256,192,240837,1,0,0:0:0:0:
256,192,240923,1,0,0:0:0:0:
256,192,241008,1,0,0:0:0:0:
256,192,241180,1,6,0:0:0:0:
256,192,241523,1,4,0:0:0:0:
256,192,241866,1,6,0:0:0:0:
256,192,242208,1,0,0:0:0:0:
256,192,242294,1,0,0:0:0:0:
256,192,242380,1,2,0:0:0:0:
256,192,242551,1,0,0:0:0:0:
256,192,242723,1,2,0:0:0:0:
256,192,242808,1,2,0:0:0:0:
256,192,242894,1,0,0:0:0:0:
256,192,242951,1,0,0:0:0:0:
256,192,243008,1,0,0:0:0:0:
256,192,243066,1,2,0:0:0:0:
256,192,243151,1,2,0:0:0:0:
256,192,243237,1,0,0:0:0:0:
256,192,243408,1,4,0:0:0:0:
256,192,243580,1,0,0:0:0:0:
256,192,243751,1,2,0:0:0:0:
256,192,243923,1,0,0:0:0:0:
256,192,244008,1,0,0:0:0:0:
256,192,244094,1,2,0:0:0:0:
256,192,244266,1,0,0:0:0:0:
256,192,244351,1,2,0:0:0:0:
256,192,244437,1,0,0:0:0:0:
256,192,244608,1,2,0:0:0:0:
256,192,244780,1,4,0:0:0:0:
256,192,244951,1,2,0:0:0:0:
256,192,245037,1,0,0:0:0:0:
256,192,245123,1,2,0:0:0:0:
256,192,245294,1,0,0:0:0:0:
256,192,245380,1,0,0:0:0:0:
256,192,245466,1,2,0:0:0:0:
256,192,245551,1,0,0:0:0:0:
256,192,245723,1,0,0:0:0:0:
256,192,245808,1,2,0:0:0:0:
256,192,245980,1,2,0:0:0:0:
256,192,246151,1,0,0:0:0:0:
256,192,246237,1,0,0:0:0:0:
256,192,246323,1,2,0:0:0:0:
256,192,246408,1,0,0:0:0:0:
256,192,246494,1,2,0:0:0:0:
256,192,246580,1,2,0:0:0:0:
256,192,246666,1,0,0:0:0:0:
256,192,246751,1,2,0:0:0:0:
256,192,246837,1,0,0:0:0:0:
256,192,246923,1,2,0:0:0:0:
256,192,247008,1,2,0:0:0:0:
256,192,247094,1,0,0:0:0:0:
256,192,247180,1,2,0:0:0:0:
256,192,247237,1,2,0:0:0:0:
256,192,247294,1,2,0:0:0:0:
256,192,247351,1,2,0:0:0:0:
256,192,247437,1,2,0:0:0:0:
256,192,247523,1,0,0:0:0:0:
256,192,247694,1,0,0:0:0:0:
256,192,247866,1,2,0:0:0:0:
256,192,248037,1,0,0:0:0:0:
256,192,248208,1,2,0:0:0:0:
256,192,248294,1,2,0:0:0:0:
256,192,248380,1,0,0:0:0:0:
256,192,248437,1,0,0:0:0:0:
256,192,248494,1,0,0:0:0:0:
256,192,248551,1,2,0:0:0:0:
256,192,248637,1,2,0:0:0:0:
256,192,248723,1,0,0:0:0:0:
256,192,248894,1,4,0:0:0:0:
256,192,249066,1,0,0:0:0:0:
256,192,249237,1,2,0:0:0:0:
256,192,249408,1,0,0:0:0:0:
256,192,249494,1,0,0:0:0:0:
256,192,249580,1,2,0:0:0:0:
256,192,249837,1,2,0:0:0:0:
256,192,249923,1,0,0:0:0:0:
256,192,250094,1,2,0:0:0:0:
256,192,250266,1,0,0:0:0:0:
256,192,250351,1,0,0:0:0:0:
256,192,250437,1,2,0:0:0:0:
256,192,250608,1,0,0:0:0:0:
256,192,250780,1,2,0:0:0:0:
256,192,250866,1,0,0:0:0:0:
256,192,250951,1,0,0:0:0:0:
256,192,251123,1,2,0:0:0:0:
256,192,251208,1,0,0:0:0:0:
256,192,251294,1,2,0:0:0:0:
256,192,251466,1,2,0:0:0:0:
256,192,251637,1,0,0:0:0:0:
256,192,251808,1,0,0:0:0:0:
256,192,251894,1,0,0:0:0:0:
256,192,251980,1,2,0:0:0:0:
256,192,252151,1,0,0:0:0:0:
256,192,252323,1,2,0:0:0:0:
256,192,252408,1,0,0:0:0:0:
256,192,252494,1,0,0:0:0:0:
256,192,252580,1,2,0:0:0:0:
256,192,252666,1,0,0:0:0:0:
256,192,252837,1,2,0:0:0:0:
256,192,253008,1,0,0:0:0:0:
256,192,253180,1,2,0:0:0:0:
256,192,253266,1,2,0:0:0:0:
256,192,253351,1,0,0:0:0:0:
256,192,253523,1,2,0:0:0:0:
256,192,253608,1,0,0:0:0:0:
256,192,253694,1,0,0:0:0:0:
256,192,253780,1,0,0:0:0:0:
256,192,253866,1,2,0:0:0:0:
256,192,253951,1,0,0:0:0:0:
256,192,254037,1,2,0:0:0:0:
256,192,254208,1,2,0:0:0:0:
256,192,254380,1,0,0:0:0:0:
256,192,254723,1,6,0:0:0:0:
256,192,255066,1,0,0:0:0:0:
256,192,255408,1,6,0:0:0:0:
256,192,255580,1,0,0:0:0:0:
256,192,255923,1,0,0:0:0:0:
256,192,256094,1,6,0:0:0:0:
256,192,256266,1,0,0:0:0:0:
256,192,256608,1,0,0:0:0:0:
256,192,256780,1,6,0:0:0:0:
256,192,257123,1,6,0:0:0:0:
256,192,257294,1,0,0:0:0:0:
256,192,257466,1,0,0:0:0:0:
256,192,257637,1,6,0:0:0:0:
256,192,257980,1,0,0:0:0:0:
256,192,258151,1,6,0:0:0:0:
256,192,258323,1,0,0:0:0:0:
256,192,258494,1,0,0:0:0:0:
256,192,258666,1,6,0:0:0:0:
256,192,258837,1,0,0:0:0:0:
256,192,259008,1,2,0:0:0:0:
256,192,259180,1,0,0:0:0:0:
256,192,259266,1,0,0:0:0:0:
256,192,259351,1,2,0:0:0:0:
256,192,259408,1,2,0:0:0:0:
256,192,259466,1,2,0:0:0:0:
256,192,259523,1,0,0:0:0:0:
256,192,259608,1,0,0:0:0:0:
256,192,259694,1,2,0:0:0:0:
256,192,259780,1,2,0:0:0:0:
256,192,259866,1,0,0:0:0:0:
256,192,260037,1,0,0:0:0:0:
256,192,260208,1,2,0:0:0:0:
256,192,260380,1,0,0:0:0:0:
256,192,260466,1,0,0:0:0:0:
256,192,260551,1,2,0:0:0:0:
256,192,260723,1,0,0:0:0:0:
256,192,260808,1,2,0:0:0:0:
256,192,260894,1,0,0:0:0:0:
256,192,261066,1,2,0:0:0:0:
256,192,261237,1,0,0:0:0:0:
256,192,261323,1,0,0:0:0:0:
256,192,261408,1,2,0:0:0:0:
256,192,261580,1,0,0:0:0:0:
256,192,261751,1,2,0:0:0:0:
256,192,261837,1,0,0:0:0:0:
256,192,261923,1,0,0:0:0:0:
256,192,262008,1,0,0:0:0:0:
256,192,262094,1,2,0:0:0:0:
256,192,262266,1,2,0:0:0:0:
256,192,262608,1,6,0:0:0:0:
256,192,262780,1,0,0:0:0:0:
256,192,262866,1,0,0:0:0:0:
256,192,262951,1,0,0:0:0:0:
256,192,263123,1,6,0:0:0:0:
256,192,263466,1,4,0:0:0:0:
256,192,263808,1,6,0:0:0:0:
256,192,264151,1,0,0:0:0:0:
256,192,264237,1,0,0:0:0:0:
256,192,264323,1,2,0:0:0:0:
256,192,264494,1,0,0:0:0:0:
256,192,264666,1,2,0:0:0:0:
256,192,264751,1,2,0:0:0:0:
256,192,264837,1,0,0:0:0:0:
256,192,264894,1,0,0:0:0:0:
256,192,264951,1,0,0:0:0:0:
256,192,265008,1,2,0:0:0:0:
256,192,265094,1,2,0:0:0:0:
256,192,265180,1,0,0:0:0:0:
256,192,265351,1,4,0:0:0:0:
256,192,265523,1,0,0:0:0:0:
256,192,265694,1,2,0:0:0:0:
256,192,265866,1,0,0:0:0:0:
256,192,265951,1,2,0:0:0:0:
256,192,266037,1,2,0:0:0:0:
256,192,266123,1,0,0:0:0:0:
256,192,266208,1,0,0:0:0:0:
256,192,266294,1,2,0:0:0:0:
256,192,266380,1,0,0:0:0:0:
256,192,266551,1,2,0:0:0:0:
256,192,266723,1,4,0:0:0:0:
256,192,266894,1,0,0:0:0:0:
256,192,266980,1,0,0:0:0:0:
256,192,267066,1,2,0:0:0:0:
256,192,267237,1,0,0:0:0:0:
256,192,267323,1,2,0:0:0:0:
256,192,267408,1,0,0:0:0:0:
256,192,267580,1,2,0:0:0:0:
256,192,267666,1,2,0:0:0:0:
256,192,267751,1,0,0:0:0:0:
256,192,267837,1,2,0:0:0:0:
256,192,267923,1,2,0:0:0:0:
256,192,268094,1,0,0:0:0:0:
256,192,268180,1,0,0:0:0:0:
256,192,268266,1,2,0:0:0:0:
256,192,268351,1,2,0:0:0:0:
256,192,268437,1,0,0:0:0:0:
256,192,268523,1,2,0:0:0:0:
256,192,268608,1,2,0:0:0:0:
256,192,268694,1,2,0:0:0:0:
256,192,268780,1,0,0:0:0:0:
256,192,268866,1,0,0:0:0:0:
256,192,268951,1,2,0:0:0:0:
256,192,269037,1,0,0:0:0:0:
256,192,269123,1,2,0:0:0:0:
256,192,269180,1,2,0:0:0:0:
256,192,269237,1,2,0:0:0:0:
256,192,269294,1,2,0:0:0:0:
256,192,269380,1,2,0:0:0:0:
256,192,269466,1,0,0:0:0:0:
256,192,269637,1,0,0:0:0:0:
256,192,269808,1,2,0:0:0:0:
256,192,269894,1,0,0:0:0:0:
256,192,269980,1,0,0:0:0:0:
256,192,270066,1,0,0:0:0:0:
256,192,270151,1,2,0:0:0:0:
256,192,270237,1,2,0:0:0:0:
256,192,270323,1,0,0:0:0:0:
256,192,270380,1,0,0:0:0:0:
256,192,270437,1,0,0:0:0:0:
256,192,270494,1,2,0:0:0:0:
256,192,270580,1,2,0:0:0:0:
256,192,270666,1,0,0:0:0:0:
256,192,270837,1,4,0:0:0:0:
256,192,271180,1,2,0:0:0:0:
256,192,271523,1,2,0:0:0:0:
256,192,271780,1,2,0:0:0:0:
256,192,271866,1,0,0:0:0:0:
256,192,272037,1,2,0:0:0:0:
256,192,272208,1,0,0:0:0:0:
256,192,272380,1,2,0:0:0:0:
256,192,272551,1,2,0:0:0:0:
256,192,272894,1,2,0:0:0:0:
256,192,273151,1,2,0:0:0:0:
256,192,273237,1,0,0:0:0:0:
256,192,273408,1,2,0:0:0:0:
256,192,273580,1,0,0:0:0:0:
256,192,273751,1,2,0:0:0:0:
256,192,273923,1,2,0:0:0:0:
256,192,274266,1,2,0:0:0:0:
256,192,274523,1,2,0:0:0:0:
256,192,274608,1,0,0:0:0:0:
256,192,274780,1,2,0:0:0:0:
256,192,274951,1,0,0:0:0:0:
256,192,275123,1,2,0:0:0:0:
256,192,275294,1,2,0:0:0:0:
256,192,275637,1,2,0:0:0:0:
256,192,275894,1,2,0:0:0:0:
256,192,275980,1,0,0:0:0:0:
256,192,276151,1,2,0:0:0:0:
256,192,276323,1,0,0:0:0:0:
256,192,276494,1,2,0:0:0:0:
256,192,276666,1,2,0:0:0:0:
256,192,276751,1,0,0:0:0:0:
256,192,276837,1,0,0:0:0:0:
256,192,277008,1,2,0:0:0:0:
256,192,277180,1,0,0:0:0:0:
256,192,277266,1,2,0:0:0:0:
256,192,277351,1,0,0:0:0:0:
256,192,277523,1,2,0:0:0:0:
256,192,277694,1,0,0:0:0:0:
256,192,277866,1,2,0:0:0:0:
256,192,277951,1,0,0:0:0:0:
256,192,278037,1,2,0:0:0:0:
256,192,278208,1,0,0:0:0:0:
256,192,278380,1,2,0:0:0:0:
256,192,278466,1,2,0:0:0:0:
256,192,278551,1,0,0:0:0:0:
256,192,278637,1,2,0:0:0:0:
256,192,278723,1,0,0:0:0:0:
256,192,278894,1,2,0:0:0:0:
256,192,279066,1,0,0:0:0:0:
256,192,279237,1,2,0:0:0:0:
256,192,279323,1,0,0:0:0:0:
256,192,279408,1,2,0:0:0:0:
256,192,279580,1,0,0:0:0:0:
256,192,279751,1,2,0:0:0:0:
256,192,279837,1,0,0:0:0:0:
256,192,279923,1,0,0:0:0:0:
256,192,280008,1,2,0:0:0:0:
256,192,280094,1,0,0:0:0:0:
256,192,280266,1,2,0:0:0:0:
256,192,280437,1,0,0:0:0:0:
256,192,280608,1,2,0:0:0:0:
256,192,280694,1,0,0:0:0:0:
256,192,280780,1,2,0:0:0:0:
256,192,280951,1,0,0:0:0:0:
256,192,281123,1,2,0:0:0:0:
256,192,281208,1,2,0:0:0:0:
256,192,281294,1,0,0:0:0:0:
256,192,281380,1,2,0:0:0:0:
256,192,281466,1,0,0:0:0:0:
256,192,281551,1,0,0:0:0:0:
256,192,281637,1,2,0:0:0:0:
256,192,281808,1,4,0:0:0:0:
256,192,281980,1,2,0:0:0:0:
256,192,282151,1,2,0:0:0:0:
256,192,282494,1,2,0:0:0:0:
256,192,282751,1,2,0:0:0:0:
256,192,282837,1,0,0:0:0:0:
256,192,283008,1,2,0:0:0:0:
256,192,283351,1,2,0:0:0:0:
256,192,283523,1,2,0:0:0:0:
256,192,283866,1,2,0:0:0:0:
256,192,284123,1,2,0:0:0:0:
256,192,284208,1,0,0:0:0:0:
256,192,284380,1,2,0:0:0:0:
256,192,284551,1,4,0:0:0:0:
256,192,284723,1,2,0:0:0:0:
256,192,284894,1,2,0:0:0:0:
256,192,285237,1,2,0:0:0:0:
256,192,285494,1,2,0:0:0:0:
256,192,285580,1,0,0:0:0:0:
256,192,285751,1,2,0:0:0:0:
256,192,286094,1,2,0:0:0:0:
256,192,286266,1,2,0:0:0:0:
256,192,286608,1,2,0:0:0:0:
256,192,286866,1,2,0:0:0:0:
256,192,286951,1,0,0:0:0:0:
256,192,287123,1,2,0:0:0:0:
256,192,287294,1,4,0:0:0:0:
256,192,287466,1,2,0:0:0:0:
256,192,287637,1,2,0:0:0:0:
256,192,287723,1,2,0:0:0:0:
256,192,287808,1,2,0:0:0:0:
256,192,287894,1,2,0:0:0:0:
256,192,287980,1,0,0:0:0:0:
256,192,288151,1,2,0:0:0:0:
256,192,288237,1,2,0:0:0:0:
256,192,288323,1,0,0:0:0:0:
256,192,288494,1,2,0:0:0:0:
256,192,288666,1,4,0:0:0:0:
256,192,288837,1,2,0:0:0:0:
256,192,289008,1,2,0:0:0:0:
256,192,289094,1,2,0:0:0:0:
256,192,289180,1,2,0:0:0:0:
256,192,289266,1,2,0:0:0:0:
256,192,289351,1,0,0:0:0:0:
256,192,289523,1,2,0:0:0:0:
256,192,289608,1,2,0:0:0:0:
256,192,289694,1,0,0:0:0:0:
256,192,289780,1,0,0:0:0:0:
256,192,289866,1,2,0:0:0:0:
256,192,290037,1,4,0:0:0:0:
256,192,290208,1,2,0:0:0:0:
256,192,290380,1,2,0:0:0:0:
256,192,290551,1,4,0:0:0:0:
256,192,290723,1,2,0:0:0:0:
256,192,290808,1,2,0:0:0:0:
256,192,290894,1,2,0:0:0:0:
256,192,291066,1,4,0:0:0:0:
256,192,291237,1,2,0:0:0:0:
256,192,291323,1,2,0:0:0:0:
256,192,291408,1,2,0:0:0:0:
256,192,291580,1,4,0:0:0:0:
256,192,291751,1,2,0:0:0:0:
256,192,292094,1,6,0:0:0:0:
256,192,292266,1,0,0:0:0:0:
256,192,292323,1,0,0:0:0:0:
256,192,292380,1,0,0:0:0:0:
256,192,292437,1,2,0:0:0:0:
