osu file format v14

[General]
AudioFilename: audio.ogg
AudioLeadIn: 0
PreviewTime: 62380
Countdown: 0
SampleSet: Normal
StackLeniency: 0.7
Mode: 1
LetterboxInBreaks: 0
WidescreenStoryboard: 0

[Editor]
DistanceSpacing: 2
BeatDivisor: 16
GridSize: 4
TimelineZoom: 1.5

[Metadata]
Title:YOIMACHI CANTARE (nenpulse bootleg remix)
TitleUnicode:よいまちカンターレ (nenpulse bootleg remix)
Artist:CORO MACHIKADO
ArtistUnicode:コーロまちカド
Creator:Sanjenin Nagi
Version:CANTARE
Source:まちカドまぞく
Tags:[R] Ron Anime electronic japanese Machikado Mazoku The Demon Girl Next Door ed ending 芳文社 Houbunsha 小原好美 Kohara Konomi 鬼頭明里 Kitou Akari 高橋未奈美 Takahashi Minami 高柳知葉 Takayanagi Tomoyo 吉田優子 Yoshida Yuko 千代田桃 Chiyoda Momo リリス Lilith 陽夏木ミカン Hinatsuki Mikan Kito Kitō Hardcore J-Core J-POP jpop jcore pop
BeatmapID:2596079
BeatmapSetID:1249080

[Difficulty]
HPDrainRate:6
CircleSize:5
OverallDifficulty:6.5
ApproachRate:5
SliderMultiplier:1.4
SliderTickRate:1

[Events]
//Background and Video events
0,0,"Machikado-Mazoku.jpg",0,85
//Break Periods
//Storyboard Layer 0 (Background)
//Storyboard Layer 1 (Fail)
//Storyboard Layer 2 (Pass)
//Storyboard Layer 3 (Foreground)
//Storyboard Layer 4 (Overlay)
//Storyboard Sound Samples

[TimingPoints]
666,342.857142857143,4,1,0,80,1,0
62380,-100,4,1,0,80,0,1
84323,-100,4,1,0,80,0,0
167980,-100,4,1,0,80,0,1
189923,-100,4,1,0,80,0,0
213151,-111.111111111111,4,1,0,80,0,0
214094,-113.636363636364,4,1,0,80,0,0
214266,-116.279069767442,4,1,0,80,0,0
214437,-119.047619047619,4,1,0,70,0,0
214523,-121.951219512195,4,1,0,63,0,0
214608,-125,4,1,0,55,0,0
225580,-121.951219512195,4,1,0,60,0,0
225751,-119.047619047619,4,1,0,62,0,0
225837,-116.279069767442,4,1,0,64,0,0
225923,-113.636363636364,4,1,0,66,0,0
226008,-111.111111111111,4,1,0,68,0,0
226094,-108.695652173913,4,1,0,70,0,0
226180,-106.382978723404,4,1,0,72,0,0
226266,-104.166666666667,4,1,0,74,0,0
226437,-103.092783505155,4,1,0,76,0,0
226494,-102.040816326531,4,1,0,78,0,0
226551,-101.010101010101,4,1,0,79,0,0
226608,-100,4,1,0,80,0,0
226951,-100,4,1,0,80,0,1
248894,-100,4,1,0,80,0,0

[HitObjects]
361,260,666,5,4,0:0:0:0:
308,255,837,1,0,0:0:0:0:
363,291,1008,1,8,0:0:0:0:
308,255,1180,1,0,0:0:0:0:
308,255,1523,1,0,0:0:0:0:
308,255,1694,1,8,0:0:0:0:
308,255,1866,1,0,0:0:0:0:
308,255,2208,1,0,0:0:0:0:
308,255,2380,1,8,0:0:0:0:
308,255,2551,1,0,0:0:0:0:
336,279,2894,1,0,0:0:0:0:
336,279,3066,1,8,0:0:0:0:
101,256,3237,1,0,0:0:0:0:
274,230,3408,1,0,0:0:0:0:
274,230,3580,1,0,0:0:0:0:
274,230,3751,1,8,0:0:0:0:
274,230,3923,1,0,0:0:0:0:
274,230,4266,1,0,0:0:0:0:
274,230,4437,1,8,0:0:0:0:
274,230,4608,1,0,0:0:0:0:
274,230,4951,1,0,0:0:0:0:
274,230,5123,1,8,0:0:0:0:
274,230,5294,1,0,0:0:0:0:
274,230,5637,1,0,0:0:0:0:
274,230,5808,1,8,0:0:0:0:
300,229,5980,1,0,0:0:0:0:
292,220,6151,1,0,0:0:0:0:
292,220,6323,1,0,0:0:0:0:
292,220,6494,1,8,0:0:0:0:
292,220,6666,1,0,0:0:0:0:
292,220,7008,1,0,0:0:0:0:
292,220,7180,1,8,0:0:0:0:
292,220,7351,1,0,0:0:0:0:
292,220,7694,1,0,0:0:0:0:
292,220,7866,1,8,0:0:0:0:
292,220,8037,1,0,0:0:0:0:
292,220,8380,1,0,0:0:0:0:
292,220,8551,1,8,0:0:0:0:
292,220,8723,1,0,0:0:0:0:
298,228,8894,1,0,0:0:0:0:
298,228,9066,1,0,0:0:0:0:
299,226,9237,1,8,0:0:0:0:
305,224,9408,1,0,0:0:0:0:
304,224,9751,1,0,0:0:0:0:
304,224,9923,1,8,0:0:0:0:
304,224,10094,1,0,0:0:0:0:
329,224,10437,1,0,0:0:0:0:
329,224,10608,1,8,0:0:0:0:
319,226,10780,1,0,0:0:0:0:
314,227,10951,1,0,0:0:0:0:
295,228,11123,1,0,0:0:0:0:
295,228,11208,1,0,0:0:0:0:
295,227,11294,1,8,0:0:0:0:
292,235,11637,1,4,0:0:0:0:
295,241,11980,1,8,0:0:0:0:
294,236,12151,1,0,0:0:0:0:
281,245,12323,1,8,0:0:0:0:
292,235,12494,1,0,0:0:0:0:
292,235,12666,1,8,0:0:0:0:
295,241,12837,1,0,0:0:0:0:
279,246,13008,1,0,0:0:0:0:
274,244,13351,1,8,0:0:0:0:
274,244,13523,1,0,0:0:0:0:
268,239,13694,1,8,0:0:0:0:
268,237,13866,1,0,0:0:0:0:
269,237,13951,1,0,0:0:0:0:
274,233,14037,1,8,0:0:0:0:
275,233,14208,1,0,0:0:0:0:
310,281,14380,1,4,0:0:0:0:
310,281,14723,1,8,0:0:0:0:
310,281,14894,1,0,0:0:0:0:
316,280,15066,1,8,0:0:0:0:
316,282,15237,1,0,0:0:0:0:
316,282,15408,1,8,0:0:0:0:
316,282,15580,1,0,0:0:0:0:
314,285,15751,1,0,0:0:0:0:
306,292,16094,1,8,0:0:0:0:
300,298,16266,1,0,0:0:0:0:
300,298,16437,1,8,0:0:0:0:
300,298,16523,1,0,0:0:0:0:
300,298,16608,1,0,0:0:0:0:
300,298,16694,1,0,0:0:0:0:
300,298,16780,1,8,0:0:0:0:
300,298,16951,1,0,0:0:0:0:
291,291,17123,1,4,0:0:0:0:
290,291,17294,1,8,0:0:0:0:
290,291,17466,1,8,0:0:0:0:
290,291,17551,1,8,0:0:0:0:
303,285,17723,1,0,0:0:0:0:
303,285,17808,1,0,0:0:0:0:
305,286,17980,1,8,0:0:0:0:
305,286,18151,1,8,0:0:0:0:
305,286,18323,1,8,0:0:0:0:
305,286,18494,1,4,0:0:0:0:
303,285,18666,1,8,0:0:0:0:
303,285,18837,1,8,0:0:0:0:
305,286,18923,1,8,0:0:0:0:
305,286,19094,1,0,0:0:0:0:
305,286,19180,1,0,0:0:0:0:
305,286,19351,1,8,0:0:0:0:
303,285,19523,1,8,0:0:0:0:
303,285,19694,1,8,0:0:0:0:
303,285,19866,1,4,0:0:0:0:
305,286,20037,1,8,0:0:0:0:
305,286,20380,1,4,0:0:0:0:
303,285,20551,1,8,0:0:0:0:
303,285,20894,1,4,0:0:0:0:
305,286,21066,1,8,0:0:0:0:
314,277,21408,1,4,0:0:0:0:
314,277,21580,1,8,0:0:0:0:
314,277,21923,1,8,0:0:0:0:
312,301,22094,1,0,0:0:0:0:
314,315,22151,1,0,0:0:0:0:
314,315,22208,1,0,0:0:0:0:
314,315,22266,1,12,0:0:0:0:
359,317,22608,1,4,0:0:0:0:
359,317,22780,1,8,0:0:0:0:
338,306,22951,1,8,0:0:0:0:
338,306,23123,1,0,0:0:0:0:
341,302,23294,1,8,0:0:0:0:
341,302,23466,1,8,0:0:0:0:
341,302,23551,1,0,0:0:0:0:
341,302,23723,1,0,0:0:0:0:
347,300,23808,1,8,0:0:0:0:
347,300,23980,1,0,0:0:0:0:
359,292,24151,1,8,0:0:0:0:
359,292,24323,1,8,0:0:0:0:
358,296,24494,1,0,0:0:0:0:
358,296,24580,1,0,0:0:0:0:
358,296,24666,1,8,0:0:0:0:
358,296,24751,1,8,0:0:0:0:
358,296,24923,1,8,0:0:0:0:
359,292,25008,1,0,0:0:0:0:
359,292,25180,1,12,0:0:0:0:
359,292,25351,1,4,0:0:0:0:
365,294,25523,1,8,0:0:0:0:
374,303,25694,1,8,0:0:0:0:
371,296,25866,1,0,0:0:0:0:
371,296,26037,1,8,0:0:0:0:
371,296,26208,1,0,0:0:0:0:
371,296,26294,1,8,0:0:0:0:
371,296,26466,1,0,0:0:0:0:
371,296,26551,1,8,0:0:0:0:
371,296,26723,1,8,0:0:0:0:
371,296,26894,1,0,0:0:0:0:
371,296,26980,1,0,0:0:0:0:
371,296,27066,1,8,0:0:0:0:
371,296,27237,1,0,0:0:0:0:
371,296,27408,1,8,0:0:0:0:
369,285,27494,1,8,0:0:0:0:
375,273,27580,1,0,0:0:0:0:
375,273,27751,1,8,0:0:0:0:
383,273,28094,1,4,0:0:0:0:
333,311,28266,1,8,0:0:0:0:
333,311,28437,1,8,0:0:0:0:
333,311,28608,1,0,0:0:0:0:
333,311,28780,1,8,0:0:0:0:
333,311,28951,1,0,0:0:0:0:
333,311,29037,1,8,0:0:0:0:
333,311,29208,1,8,0:0:0:0:
333,311,29294,1,0,0:0:0:0:
333,311,29466,1,4,0:0:0:0:
333,311,29637,1,8,0:0:0:0:
333,311,29808,1,8,0:0:0:0:
321,308,29980,1,0,0:0:0:0:
321,308,30151,1,0,0:0:0:0:
321,308,30237,1,8,0:0:0:0:
330,320,30408,1,8,0:0:0:0:
330,320,30494,1,0,0:0:0:0:
355,314,30666,1,8,0:0:0:0:
343,269,30837,1,4,0:0:0:0:
343,269,31180,1,8,0:0:0:0:
343,269,31523,1,4,0:0:0:0:
343,269,31866,1,8,0:0:0:0:
297,286,31923,1,8,0:0:0:0:
297,286,31980,1,8,0:0:0:0:
374,295,32037,1,4,0:0:0:0:
374,295,32380,1,4,0:0:0:0:
392,302,32723,1,12,0:0:0:0:
363,324,33066,1,0,0:0:0:0:
363,324,33123,1,0,0:0:0:0:
363,324,33180,1,0,0:0:0:0:
408,246,33237,1,12,0:0:0:0:
375,275,33580,1,4,0:0:0:0:
375,289,33751,1,0,0:0:0:0:
375,289,33837,1,0,0:0:0:0:
377,288,33923,1,8,0:0:0:0:
375,286,34094,1,0,0:0:0:0:
375,286,34266,1,8,0:0:0:0:
374,286,34437,1,0,0:0:0:0:
374,287,34523,1,8,0:0:0:0:
366,304,34608,1,8,0:0:0:0:
366,305,34694,1,0,0:0:0:0:
368,305,34780,1,8,0:0:0:0:
368,277,34951,1,4,0:0:0:0:
368,277,35123,1,0,0:0:0:0:
368,277,35208,1,0,0:0:0:0:
368,277,35294,1,8,0:0:0:0:
368,277,35466,1,0,0:0:0:0:
368,277,35637,1,8,0:0:0:0:
368,277,35723,1,8,0:0:0:0:
283,259,35808,1,0,0:0:0:0:
371,286,35894,1,0,0:0:0:0:
371,286,35980,1,8,0:0:0:0:
354,289,36151,1,0,0:0:0:0:
355,289,36323,1,4,0:0:0:0:
355,289,36494,1,0,0:0:0:0:
355,289,36580,1,0,0:0:0:0:
355,289,36666,1,8,0:0:0:0:
355,289,36837,1,0,0:0:0:0:
355,289,37008,1,8,0:0:0:0:
363,287,37180,1,0,0:0:0:0:
363,288,37266,1,8,0:0:0:0:
389,358,37351,1,0,0:0:0:0:
312,277,37437,1,0,0:0:0:0:
363,288,37523,1,8,0:0:0:0:
363,288,37694,1,4,0:0:0:0:
183,209,37866,1,0,0:0:0:0:
397,304,38037,1,8,0:0:0:0:
397,304,38208,1,0,0:0:0:0:
402,306,38551,1,8,0:0:0:0:
402,306,38723,1,8,0:0:0:0:
425,260,39066,1,4,0:0:0:0:
367,311,39237,1,0,0:0:0:0:
367,311,39323,1,0,0:0:0:0:
367,311,39408,1,8,0:0:0:0:
367,311,39580,1,0,0:0:0:0:
374,320,39751,1,12,0:0:0:0:
378,322,39923,1,0,0:0:0:0:
378,323,40008,1,0,0:0:0:0:
378,323,40094,1,8,0:0:0:0:
379,324,40266,1,0,0:0:0:0:
379,331,40437,1,12,0:0:0:0:
405,322,40608,1,0,0:0:0:0:
405,322,40694,1,0,0:0:0:0:
387,322,40780,1,8,0:0:0:0:
261,266,40951,1,0,0:0:0:0:
303,288,41123,1,8,0:0:0:0:
303,288,41208,1,8,0:0:0:0:
272,250,41380,1,0,0:0:0:0:
423,282,41466,1,8,0:0:0:0:
423,282,41523,1,8,0:0:0:0:
423,282,41580,1,8,0:0:0:0:
423,282,41637,1,0,0:0:0:0:
423,282,41694,1,0,0:0:0:0:
423,282,41751,1,0,0:0:0:0:
303,288,41808,1,12,0:0:0:0:
308,288,42151,1,0,0:0:0:0:
303,313,42494,1,12,0:0:0:0:
325,337,42837,1,0,0:0:0:0:
319,311,43008,1,8,0:0:0:0:
325,337,43351,1,4,0:0:0:0:
325,337,43694,1,4,0:0:0:0:
330,333,43866,1,4,0:0:0:0:
316,302,44037,1,0,0:0:0:0:
364,245,44094,1,0,0:0:0:0:
364,245,44151,1,0,0:0:0:0:
364,245,44208,1,12,0:0:0:0:
261,288,44551,1,0,0:0:0:0:
371,329,44723,1,8,0:0:0:0:
421,329,44808,1,0,0:0:0:0:
421,329,44894,1,0,0:0:0:0:
390,346,45066,1,8,0:0:0:0:
426,291,45408,1,0,0:0:0:0:
390,346,45580,1,8,0:0:0:0:
395,345,45923,1,0,0:0:0:0:
394,367,46094,1,8,0:0:0:0:
394,367,46180,1,8,0:0:0:0:
394,367,46266,1,0,0:0:0:0:
401,342,46437,1,8,0:0:0:0:
355,282,46780,1,0,0:0:0:0:
355,282,46951,1,8,0:0:0:0:
346,298,47294,1,0,0:0:0:0:
349,313,47466,1,8,0:0:0:0:
359,313,47551,1,0,0:0:0:0:
361,314,47637,1,8,0:0:0:0:
361,315,47808,1,8,0:0:0:0:
366,335,48151,1,0,0:0:0:0:
366,335,48323,1,8,0:0:0:0:
371,343,48666,1,0,0:0:0:0:
371,345,48837,1,0,0:0:0:0:
371,345,48923,1,8,0:0:0:0:
371,345,49008,1,0,0:0:0:0:
371,345,49180,1,8,0:0:0:0:
383,362,49523,1,8,0:0:0:0:
381,353,49694,1,8,0:0:0:0:
413,352,50037,1,4,0:0:0:0:
413,352,50208,1,8,0:0:0:0:
378,303,50294,1,8,0:0:0:0:
376,317,50380,1,0,0:0:0:0:
375,326,50551,1,8,0:0:0:0:
375,332,50723,1,0,0:0:0:0:
375,332,50980,1,0,0:0:0:0:
379,322,51066,1,8,0:0:0:0:
375,332,51237,1,8,0:0:0:0:
375,332,51408,1,4,0:0:0:0:
331,313,51580,1,8,0:0:0:0:
322,300,51666,1,0,0:0:0:0:
331,313,51751,1,0,0:0:0:0:
331,313,51923,1,8,0:0:0:0:
331,313,52094,1,0,0:0:0:0:
331,313,52351,1,0,0:0:0:0:
401,330,52437,1,8,0:0:0:0:
331,313,52608,1,8,0:0:0:0:
336,314,52780,1,4,0:0:0:0:
336,314,52951,1,8,0:0:0:0:
336,314,53037,1,0,0:0:0:0:
336,314,53123,1,8,0:0:0:0:
336,315,53294,1,8,0:0:0:0:
336,315,53466,1,0,0:0:0:0:
339,320,53637,1,0,0:0:0:0:
339,320,53808,1,8,0:0:0:0:
349,315,54151,1,4,0:0:0:0:
349,315,54323,1,0,0:0:0:0:
349,315,54408,1,8,0:0:0:0:
349,315,54494,1,0,0:0:0:0:
349,315,54666,1,8,0:0:0:0:
355,297,54837,1,4,0:0:0:0:
377,299,55008,1,8,0:0:0:0:
355,297,55094,1,4,0:0:0:0:
377,299,55266,1,0,0:0:0:0:
355,297,55351,1,12,0:0:0:0:
390,279,55694,1,8,0:0:0:0:
390,279,55866,1,0,0:0:0:0:
390,279,56037,1,0,0:0:0:0:
390,279,56123,1,0,0:0:0:0:
390,279,56208,1,8,0:0:0:0:
390,279,56380,1,8,0:0:0:0:
390,279,56551,1,8,0:0:0:0:
322,286,56608,1,0,0:0:0:0:
322,286,56666,1,0,0:0:0:0:
322,286,56723,1,8,0:0:0:0:
366,233,56894,1,4,0:0:0:0:
396,302,57066,1,8,0:0:0:0:
394,300,57237,1,0,0:0:0:0:
394,300,57408,1,8,0:0:0:0:
327,235,57494,1,8,0:0:0:0:
342,273,57580,1,8,0:0:0:0:
342,273,57751,1,8,0:0:0:0:
342,273,57923,1,0,0:0:0:0:
383,261,57980,1,8,0:0:0:0:
383,261,58037,1,8,0:0:0:0:
383,261,58094,1,0,0:0:0:0:
419,276,58266,1,4,0:0:0:0:
419,276,58437,1,8,0:0:0:0:
419,276,58523,1,8,0:0:0:0:
419,276,58608,1,0,0:0:0:0:
419,266,58694,1,0,0:0:0:0:
419,266,58780,1,8,0:0:0:0:
419,266,58866,1,8,0:0:0:0:
418,266,58951,1,8,0:0:0:0:
418,266,59037,1,8,0:0:0:0:
419,276,59123,1,0,0:0:0:0:
419,276,59180,1,0,0:0:0:0:
419,276,59237,1,0,0:0:0:0:
419,276,59294,1,12,0:0:0:0:
424,270,59466,1,4,0:0:0:0:
389,251,59808,1,4,0:0:0:0:
389,251,59980,1,4,0:0:0:0:
430,275,60151,1,0,0:0:0:0:
430,275,60237,1,0,0:0:0:0:
434,291,60323,1,8,0:0:0:0:
434,291,60494,1,0,0:0:0:0:
449,295,60666,1,0,0:0:0:0:
446,295,60723,1,0,0:0:0:0:
446,295,60780,1,0,0:0:0:0:
446,295,60837,1,12,0:0:0:0:
423,263,61180,1,12,0:0:0:0:
423,263,61351,1,12,0:0:0:0:
355,287,61866,1,0,0:0:0:0:
355,287,61923,1,0,0:0:0:0:
355,287,61980,1,0,0:0:0:0:
355,287,62037,1,12,0:0:0:0:
409,267,62380,1,4,0:0:0:0:
409,267,62551,1,0,0:0:0:0:
409,267,62637,1,0,0:0:0:0:
409,267,62723,1,8,0:0:0:0:
409,267,62894,1,0,0:0:0:0:
302,252,62980,1,0,0:0:0:0:
421,285,63066,1,8,0:0:0:0:
421,285,63151,1,0,0:0:0:0:
419,284,63237,1,8,0:0:0:0:
425,259,63408,1,8,0:0:0:0:
319,228,63580,1,0,0:0:0:0:
250,214,63666,1,0,0:0:0:0:
345,267,63751,1,0,0:0:0:0:
418,233,63923,1,0,0:0:0:0:
364,274,64008,1,0,0:0:0:0:
417,235,64094,1,8,0:0:0:0:
416,237,64266,1,0,0:0:0:0:
416,237,64351,1,0,0:0:0:0:
416,237,64437,1,0,0:0:0:0:
416,237,64608,1,8,0:0:0:0:
416,237,64780,1,8,0:0:0:0:
381,210,64951,1,0,0:0:0:0:
381,210,65037,1,0,0:0:0:0:
381,210,65123,1,0,0:0:0:0:
276,224,65294,1,0,0:0:0:0:
378,377,65466,1,8,0:0:0:0:
378,377,65637,1,0,0:0:0:0:
276,224,65723,1,0,0:0:0:0:
276,224,65808,1,8,0:0:0:0:
276,224,65894,1,8,0:0:0:0:
276,224,65980,1,0,0:0:0:0:
378,377,66151,1,8,0:0:0:0:
378,377,66323,1,0,0:0:0:0:
260,237,66408,1,0,0:0:0:0:
267,236,66494,1,0,0:0:0:0:
378,377,66666,1,0,0:0:0:0:
267,236,66751,1,0,0:0:0:0:
378,377,66837,1,8,0:0:0:0:
378,377,67008,1,0,0:0:0:0:
378,377,67180,1,0,0:0:0:0:
378,377,67266,1,0,0:0:0:0:
378,377,67351,1,8,0:0:0:0:
364,331,67437,1,0,0:0:0:0:
378,377,67523,1,8,0:0:0:0:
378,377,67866,1,0,0:0:0:0:
378,377,68208,1,12,0:0:0:0:
378,377,68551,1,0,0:0:0:0:
379,371,68723,1,0,0:0:0:0:
378,377,68894,1,12,0:0:0:0:
379,371,69066,1,0,0:0:0:0:
379,371,69408,1,0,0:0:0:0:
379,371,69580,1,12,0:0:0:0:
379,371,69751,1,0,0:0:0:0:
379,371,70094,1,0,0:0:0:0:
379,371,70266,1,12,0:0:0:0:
379,371,70608,1,12,0:0:0:0:
379,371,70780,1,0,0:0:0:0:
379,371,70951,1,0,0:0:0:0:
379,371,71123,1,12,0:0:0:0:
379,371,71294,1,0,0:0:0:0:
379,371,71380,1,0,0:0:0:0:
379,371,71466,1,0,0:0:0:0:
379,371,71551,1,0,0:0:0:0:
379,371,71637,1,12,0:0:0:0:
379,371,71808,1,0,0:0:0:0:
379,371,71980,1,0,0:0:0:0:
379,371,72151,1,12,0:0:0:0:
387,362,72494,1,0,0:0:0:0:
387,362,72666,1,12,0:0:0:0:
449,284,72837,1,0,0:0:0:0:
429,246,72894,1,0,0:0:0:0:
429,246,72951,1,0,0:0:0:0:
429,246,73008,1,12,0:0:0:0:
403,246,73351,1,4,0:0:0:0:
260,237,73523,1,0,0:0:0:0:
260,237,73608,1,0,0:0:0:0:
403,246,73694,1,8,0:0:0:0:
260,237,73866,1,0,0:0:0:0:
338,187,74037,1,0,0:0:0:0:
338,187,74123,1,0,0:0:0:0:
292,226,74208,1,8,0:0:0:0:
292,226,74294,1,0,0:0:0:0:
345,189,74380,1,8,0:0:0:0:
345,189,74551,1,0,0:0:0:0:
260,237,74637,1,0,0:0:0:0:
260,237,74723,1,0,0:0:0:0:
349,194,74894,1,0,0:0:0:0:
252,237,74980,1,0,0:0:0:0:
349,195,75066,1,8,0:0:0:0:
351,212,75151,1,0,0:0:0:0:
351,212,75237,1,0,0:0:0:0:
351,212,75408,1,0,0:0:0:0:
352,212,75580,1,8,0:0:0:0:
352,212,75751,1,8,0:0:0:0:
252,237,75837,1,0,0:0:0:0:
368,208,75923,1,8,0:0:0:0:
368,208,76008,1,8,0:0:0:0:
368,208,76094,1,4,0:0:0:0:
366,213,76266,1,8,0:0:0:0:
366,214,76351,1,0,0:0:0:0:
368,220,76437,1,8,0:0:0:0:
368,220,76608,1,4,0:0:0:0:
368,225,76951,1,4,0:0:0:0:
368,225,77294,1,12,0:0:0:0:
390,217,77637,1,0,0:0:0:0:
390,217,77808,1,8,0:0:0:0:
390,217,77980,1,0,0:0:0:0:
390,217,78066,1,0,0:0:0:0:
390,217,78151,1,8,0:0:0:0:
390,217,78237,1,8,0:0:0:0:
400,185,78323,1,0,0:0:0:0:
400,185,78380,1,0,0:0:0:0:
400,185,78437,1,0,0:0:0:0:
400,185,78494,1,12,0:0:0:0:
461,170,78837,1,4,0:0:0:0:
435,306,79008,1,0,0:0:0:0:
435,306,79094,1,0,0:0:0:0:
435,306,79180,1,8,0:0:0:0:
435,306,79351,1,0,0:0:0:0:
435,306,79523,1,0,0:0:0:0:
435,306,79608,1,0,0:0:0:0:
435,306,79694,1,0,0:0:0:0:
397,282,79780,1,0,0:0:0:0:
428,309,79866,1,8,0:0:0:0:
445,318,80037,1,0,0:0:0:0:
447,317,80208,1,4,0:0:0:0:
447,317,80380,1,0,0:0:0:0:
447,317,80466,1,0,0:0:0:0:
447,317,80551,1,8,0:0:0:0:
447,317,80637,1,8,0:0:0:0:
447,317,80723,1,0,0:0:0:0:
447,317,80808,1,0,0:0:0:0:
445,318,80894,1,8,0:0:0:0:
445,318,80980,1,8,0:0:0:0:
445,311,81066,1,0,0:0:0:0:
447,317,81151,1,8,0:0:0:0:
447,317,81237,1,8,0:0:0:0:
447,317,81323,1,0,0:0:0:0:
437,315,81408,1,8,0:0:0:0:
447,317,81494,1,8,0:0:0:0:
447,317,81580,1,4,0:0:0:0:
447,317,81751,1,8,0:0:0:0:
447,317,81837,1,8,0:0:0:0:
446,326,81923,1,0,0:0:0:0:
446,326,82008,1,8,0:0:0:0:
446,326,82094,1,8,0:0:0:0:
446,326,82180,1,8,0:0:0:0:
461,338,82266,1,4,0:0:0:0:
461,338,82437,1,8,0:0:0:0:
461,338,82523,1,8,0:0:0:0:
389,282,82608,1,0,0:0:0:0:
389,282,82666,1,0,0:0:0:0:
389,282,82723,1,0,0:0:0:0:
389,282,82780,1,8,0:0:0:0:
389,282,82837,1,8,0:0:0:0:
389,282,82894,1,8,0:0:0:0:
389,282,82951,1,4,0:0:0:0:
432,253,83637,1,8,0:0:0:0:
459,228,83808,1,0,0:0:0:0:
459,228,83866,1,0,0:0:0:0:
459,228,83923,1,0,0:0:0:0:
459,228,83980,1,12,0:0:0:0:
367,281,84323,1,4,0:0:0:0:
303,248,84666,1,8,0:0:0:0:
303,248,84837,1,0,0:0:0:0:
303,248,85008,1,0,0:0:0:0:
312,253,85180,1,0,0:0:0:0:
312,253,85266,1,0,0:0:0:0:
312,253,85351,1,8,0:0:0:0:
312,253,85523,1,0,0:0:0:0:
312,253,85866,1,0,0:0:0:0:
317,258,85951,1,0,0:0:0:0:
312,253,86037,1,8,0:0:0:0:
314,261,86208,1,0,0:0:0:0:
316,255,86380,1,0,0:0:0:0:
310,278,86551,1,8,0:0:0:0:
315,244,86637,1,0,0:0:0:0:
310,278,86723,1,8,0:0:0:0:
322,240,86894,1,8,0:0:0:0:
323,235,86980,1,8,0:0:0:0:
312,246,87066,1,0,0:0:0:0:
309,218,87408,1,8,0:0:0:0:
309,218,87580,1,0,0:0:0:0:
314,224,87751,1,0,0:0:0:0:
314,224,87837,1,0,0:0:0:0:
314,226,87923,1,0,0:0:0:0:
312,226,88094,1,8,0:0:0:0:
310,229,88266,1,0,0:0:0:0:
310,229,88608,1,0,0:0:0:0:
312,218,88780,1,8,0:0:0:0:
312,218,88951,1,0,0:0:0:0:
312,218,89037,1,0,0:0:0:0:
312,218,89123,1,0,0:0:0:0:
312,218,89294,1,8,0:0:0:0:
312,218,89466,1,8,0:0:0:0:
314,222,89808,1,0,0:0:0:0:
316,220,90151,1,12,0:0:0:0:
320,221,90494,1,0,0:0:0:0:
314,222,90837,1,12,0:0:0:0:
331,227,91008,1,0,0:0:0:0:
337,231,91351,1,0,0:0:0:0:
337,229,91523,1,12,0:0:0:0:
325,208,91694,1,0,0:0:0:0:
325,208,92037,1,0,0:0:0:0:
346,195,92208,1,12,0:0:0:0:
346,199,92380,1,0,0:0:0:0:
346,200,92551,1,12,0:0:0:0:
346,200,92723,1,0,0:0:0:0:
346,200,92894,1,0,0:0:0:0:
347,198,93066,1,12,0:0:0:0:
348,189,93237,1,8,0:0:0:0:
216,276,93323,1,8,0:0:0:0:
348,189,93408,1,8,0:0:0:0:
351,191,93580,1,4,0:0:0:0:
353,209,93751,1,8,0:0:0:0:
353,209,93923,1,8,0:0:0:0:
353,209,94094,1,4,0:0:0:0:
353,209,94266,1,8,0:0:0:0:
353,209,94437,1,0,0:0:0:0:
353,209,94608,1,12,0:0:0:0:
352,295,94780,1,0,0:0:0:0:
352,283,94837,1,0,0:0:0:0:
353,279,94894,1,0,0:0:0:0:
353,278,94951,1,12,0:0:0:0:
279,209,95294,1,4,0:0:0:0:
301,247,95637,1,8,0:0:0:0:
301,247,95808,1,0,0:0:0:0:
301,247,95980,1,0,0:0:0:0:
301,247,96066,1,0,0:0:0:0:
301,247,96151,1,0,0:0:0:0:
301,247,96323,1,8,0:0:0:0:
301,247,96494,1,0,0:0:0:0:
301,247,96837,1,0,0:0:0:0:
301,247,97008,1,8,0:0:0:0:
301,247,97180,1,0,0:0:0:0:
294,226,97266,1,0,0:0:0:0:
294,226,97351,1,0,0:0:0:0:
295,228,97523,1,8,0:0:0:0:
295,228,97694,1,8,0:0:0:0:
296,246,98037,1,4,0:0:0:0:
296,246,98208,1,8,0:0:0:0:
296,246,98294,1,0,0:0:0:0:
296,246,98380,1,8,0:0:0:0:
296,246,98551,1,4,0:0:0:0:
296,246,98894,1,4,0:0:0:0:
296,246,99237,1,12,0:0:0:0:
296,246,99580,1,0,0:0:0:0:
296,246,99751,1,8,0:0:0:0:
296,246,99923,1,0,0:0:0:0:
296,246,100008,1,0,0:0:0:0:
296,246,100094,1,8,0:0:0:0:
296,246,100180,1,8,0:0:0:0:
296,246,100266,1,0,0:0:0:0:
311,238,100323,1,0,0:0:0:0:
311,238,100380,1,0,0:0:0:0:
311,238,100437,1,12,0:0:0:0:
328,279,100780,1,4,0:0:0:0:
337,271,100951,1,0,0:0:0:0:
337,271,101037,1,0,0:0:0:0:
337,271,101123,1,8,0:0:0:0:
337,271,101294,1,0,0:0:0:0:
337,271,101466,1,0,0:0:0:0:
336,271,101551,1,0,0:0:0:0:
336,271,101637,1,0,0:0:0:0:
337,271,101808,1,8,0:0:0:0:
337,271,101980,1,0,0:0:0:0:
337,271,102151,1,4,0:0:0:0:
337,271,102323,1,0,0:0:0:0:
337,271,102408,1,0,0:0:0:0:
337,271,102494,1,8,0:0:0:0:
336,271,102666,1,0,0:0:0:0:
337,271,102837,1,8,0:0:0:0:
337,271,102923,1,8,0:0:0:0:
337,271,103008,1,0,0:0:0:0:
337,271,103094,1,0,0:0:0:0:
337,271,103180,1,8,0:0:0:0:
337,271,103523,1,4,0:0:0:0:
337,271,103694,1,8,0:0:0:0:
337,271,103780,1,8,0:0:0:0:
337,271,103866,1,0,0:0:0:0:
337,271,103951,1,8,0:0:0:0:
337,271,104037,1,8,0:0:0:0:
337,271,104123,1,8,0:0:0:0:
337,271,104208,1,0,0:0:0:0:
337,271,104294,1,0,0:0:0:0:
337,271,104380,1,8,0:0:0:0:
337,271,104466,1,8,0:0:0:0:
388,270,104551,1,0,0:0:0:0:
388,270,104608,1,0,0:0:0:0:
388,270,104666,1,0,0:0:0:0:
388,270,104723,1,8,0:0:0:0:
388,270,104780,1,8,0:0:0:0:
388,270,104837,1,8,0:0:0:0:
388,270,104894,1,4,0:0:0:0:
374,220,105580,1,8,0:0:0:0:
364,233,105751,1,0,0:0:0:0:
364,233,105808,1,0,0:0:0:0:
364,233,105866,1,0,0:0:0:0:
364,233,105923,1,12,0:0:0:0:
348,253,106266,1,4,0:0:0:0:
350,253,106608,1,8,0:0:0:0:
361,248,106780,1,0,0:0:0:0:
350,253,106951,1,8,0:0:0:0:
361,266,107123,1,0,0:0:0:0:
348,253,107208,1,8,0:0:0:0:
361,266,107380,1,0,0:0:0:0:
350,253,107466,1,8,0:0:0:0:
361,266,107637,1,0,0:0:0:0:
350,253,107808,1,8,0:0:0:0:
348,253,107980,1,8,0:0:0:0:
361,266,108151,1,0,0:0:0:0:
361,266,108237,1,0,0:0:0:0:
350,253,108323,1,8,0:0:0:0:
308,241,108494,1,0,0:0:0:0:
308,241,108580,1,8,0:0:0:0:
350,253,108837,1,8,0:0:0:0:
361,266,109008,1,0,0:0:0:0:
350,253,109180,1,8,0:0:0:0:
350,253,109351,1,8,0:0:0:0:
361,266,109523,1,0,0:0:0:0:
229,238,109608,1,0,0:0:0:0:
350,253,109694,1,8,0:0:0:0:
363,268,109866,1,0,0:0:0:0:
350,253,109951,1,8,0:0:0:0:
350,253,110208,1,8,0:0:0:0:
337,273,110380,1,0,0:0:0:0:
350,253,110551,1,8,0:0:0:0:
350,253,110723,1,8,0:0:0:0:
288,248,110894,1,0,0:0:0:0:
288,248,110980,1,0,0:0:0:0:
350,253,111066,1,8,0:0:0:0:
337,273,111237,1,0,0:0:0:0:
350,253,111323,1,8,0:0:0:0:
337,273,111494,1,8,0:0:0:0:
350,253,111580,1,0,0:0:0:0:
337,273,111751,1,0,0:0:0:0:
350,253,111923,1,8,0:0:0:0:
350,253,112094,1,8,0:0:0:0:
352,265,112266,1,0,0:0:0:0:
337,273,112351,1,0,0:0:0:0:
350,253,112437,1,8,0:0:0:0:
337,273,112608,1,0,0:0:0:0:
350,253,112694,1,8,0:0:0:0:
337,273,112866,1,0,0:0:0:0:
350,253,112951,1,8,0:0:0:0:
336,266,113123,1,0,0:0:0:0:
350,253,113294,1,8,0:0:0:0:
350,253,113466,1,8,0:0:0:0:
336,266,113637,1,0,0:0:0:0:
336,266,113723,1,0,0:0:0:0:
350,253,113808,1,8,0:0:0:0:
350,253,114066,1,8,0:0:0:0:
336,266,114151,1,0,0:0:0:0:
350,253,114323,1,8,0:0:0:0:
336,266,114494,1,0,0:0:0:0:
350,253,114666,1,8,0:0:0:0:
350,253,114837,1,8,0:0:0:0:
350,253,115180,1,8,0:0:0:0:
336,266,115351,1,0,0:0:0:0:
350,253,115437,1,8,0:0:0:0:
336,266,115608,1,0,0:0:0:0:
350,253,115694,1,8,0:0:0:0:
339,249,115866,1,0,0:0:0:0:
350,253,116037,1,8,0:0:0:0:
350,253,116208,1,8,0:0:0:0:
339,249,116380,1,0,0:0:0:0:
339,249,116466,1,0,0:0:0:0:
350,253,116551,1,8,0:0:0:0:
339,249,116723,1,0,0:0:0:0:
350,253,116808,1,8,0:0:0:0:
350,253,117066,1,8,0:0:0:0:
339,249,117237,1,4,0:0:0:0:
339,249,117580,1,8,0:0:0:0:
339,249,117923,1,8,0:0:0:0:
339,249,118266,1,8,0:0:0:0:
334,246,118437,1,0,0:0:0:0:
334,246,118608,1,8,0:0:0:0:
334,246,118951,1,8,0:0:0:0:
337,239,119294,1,8,0:0:0:0:
337,239,119466,1,0,0:0:0:0:
337,239,119637,1,8,0:0:0:0:
288,258,119808,1,0,0:0:0:0:
337,239,119980,1,4,0:0:0:0:
337,239,120323,1,8,0:0:0:0:
337,239,120494,1,0,0:0:0:0:
337,239,120666,1,8,0:0:0:0:
208,159,120837,1,0,0:0:0:0:
218,198,120923,1,0,0:0:0:0:
337,239,121008,1,8,0:0:0:0:
337,239,121180,1,0,0:0:0:0:
337,239,121351,1,8,0:0:0:0:
338,216,121523,1,0,0:0:0:0:
338,216,121694,1,8,0:0:0:0:
218,198,121866,1,0,0:0:0:0:
218,198,121951,1,0,0:0:0:0:
338,216,122037,1,8,0:0:0:0:
220,203,122123,1,0,0:0:0:0:
338,216,122294,1,0,0:0:0:0:
338,216,122380,1,8,0:0:0:0:
338,216,122551,1,0,0:0:0:0:
342,206,122723,1,12,0:0:0:0:
364,215,122894,1,8,0:0:0:0:
364,215,123066,1,8,0:0:0:0:
364,215,123151,1,8,0:0:0:0:
364,215,123323,1,0,0:0:0:0:
364,215,123408,1,0,0:0:0:0:
364,214,123580,1,8,0:0:0:0:
364,214,123751,1,8,0:0:0:0:
364,215,123923,1,8,0:0:0:0:
364,215,124008,1,8,0:0:0:0:
364,215,124094,1,4,0:0:0:0:
364,215,124266,1,8,0:0:0:0:
364,215,124437,1,8,0:0:0:0:
364,214,124523,1,8,0:0:0:0:
364,214,124694,1,0,0:0:0:0:
364,214,124780,1,0,0:0:0:0:
308,191,124951,1,8,0:0:0:0:
308,191,125123,1,8,0:0:0:0:
308,191,125294,1,8,0:0:0:0:
308,191,125380,1,8,0:0:0:0:
308,191,125466,1,4,0:0:0:0:
308,191,125637,1,8,0:0:0:0:
314,174,125980,1,4,0:0:0:0:
314,174,126151,1,8,0:0:0:0:
314,174,126494,1,4,0:0:0:0:
314,174,126666,1,8,0:0:0:0:
314,174,127008,1,4,0:0:0:0:
314,174,127180,1,8,0:0:0:0:
314,174,127523,1,4,0:0:0:0:
365,279,127694,1,0,0:0:0:0:
365,279,127751,1,0,0:0:0:0:
365,279,127808,1,0,0:0:0:0:
365,279,127866,1,12,0:0:0:0:
355,274,128208,1,4,0:0:0:0:
212,197,128380,1,0,0:0:0:0:
212,197,128551,1,8,0:0:0:0:
212,197,128723,1,0,0:0:0:0:
212,197,128894,1,8,0:0:0:0:
212,197,128980,1,8,0:0:0:0:
410,202,129151,1,8,0:0:0:0:
212,197,129323,1,0,0:0:0:0:
212,197,129408,1,8,0:0:0:0:
381,175,129580,1,0,0:0:0:0:
381,175,129751,1,0,0:0:0:0:
381,175,129837,1,0,0:0:0:0:
381,175,129923,1,8,0:0:0:0:
381,175,130094,1,0,0:0:0:0:
381,175,130266,1,8,0:0:0:0:
381,175,130351,1,0,0:0:0:0:
351,188,130523,1,8,0:0:0:0:
381,175,130694,1,0,0:0:0:0:
381,175,130780,1,12,0:0:0:0:
381,175,130951,1,4,0:0:0:0:
372,192,131123,1,0,0:0:0:0:
373,193,131294,1,8,0:0:0:0:
372,192,131466,1,0,0:0:0:0:
372,192,131551,1,0,0:0:0:0:
372,192,131637,1,8,0:0:0:0:
238,224,131808,1,0,0:0:0:0:
373,195,131894,1,8,0:0:0:0:
238,224,132066,1,0,0:0:0:0:
372,192,132151,1,8,0:0:0:0:
365,185,132323,1,8,0:0:0:0:
243,231,132494,1,8,0:0:0:0:
363,179,132666,1,0,0:0:0:0:
271,247,132837,1,8,0:0:0:0:
363,179,133008,1,8,0:0:0:0:
271,246,133094,1,8,0:0:0:0:
270,246,133180,1,0,0:0:0:0:
363,179,133351,1,0,0:0:0:0:
270,246,133523,1,8,0:0:0:0:
215,220,133694,1,4,0:0:0:0:
319,224,133866,1,8,0:0:0:0:
195,193,134037,1,8,0:0:0:0:
201,212,134208,1,0,0:0:0:0:
243,212,134380,1,8,0:0:0:0:
245,220,134551,1,0,0:0:0:0:
250,195,134637,1,8,0:0:0:0:
245,220,134808,1,8,0:0:0:0:
245,220,134894,1,0,0:0:0:0:
259,210,135066,1,4,0:0:0:0:
261,212,135237,1,0,0:0:0:0:
261,212,135323,1,0,0:0:0:0:
261,212,135408,1,8,0:0:0:0:
261,212,135580,1,0,0:0:0:0:
264,213,135751,1,8,0:0:0:0:
264,213,135923,1,0,0:0:0:0:
264,213,136008,1,8,0:0:0:0:
265,213,136266,1,8,0:0:0:0:
268,219,136437,1,4,0:0:0:0:
243,229,136780,1,8,0:0:0:0:
243,229,137123,1,4,0:0:0:0:
252,245,137466,1,0,0:0:0:0:
316,278,137523,1,0,0:0:0:0:
316,278,137580,1,0,0:0:0:0:
316,278,137637,1,12,0:0:0:0:
420,286,137980,1,12,0:0:0:0:
420,286,138323,1,12,0:0:0:0:
410,179,138666,1,0,0:0:0:0:
410,179,138723,1,0,0:0:0:0:
410,179,138780,1,0,0:0:0:0:
410,179,138837,1,12,0:0:0:0:
445,266,139180,1,4,0:0:0:0:
455,278,139351,1,0,0:0:0:0:
455,278,139437,1,0,0:0:0:0:
462,280,139523,1,8,0:0:0:0:
463,280,139694,1,0,0:0:0:0:
464,284,139866,1,8,0:0:0:0:
467,288,140037,1,8,0:0:0:0:
466,288,140123,1,0,0:0:0:0:
466,288,140294,1,0,0:0:0:0:
466,288,140380,1,8,0:0:0:0:
447,296,140551,1,4,0:0:0:0:
450,300,140723,1,0,0:0:0:0:
450,300,140808,1,0,0:0:0:0:
454,302,140894,1,8,0:0:0:0:
457,302,141066,1,0,0:0:0:0:
457,302,141237,1,8,0:0:0:0:
457,302,141323,1,8,0:0:0:0:
355,255,141408,1,8,0:0:0:0:
448,336,141494,1,0,0:0:0:0:
448,336,141580,1,8,0:0:0:0:
472,278,141751,1,0,0:0:0:0:
472,278,141923,1,4,0:0:0:0:
338,224,142094,1,0,0:0:0:0:
338,224,142180,1,0,0:0:0:0:
338,224,142266,1,8,0:0:0:0:
338,224,142437,1,0,0:0:0:0:
351,243,142608,1,8,0:0:0:0:
357,255,142780,1,0,0:0:0:0:
357,255,142866,1,8,0:0:0:0:
372,262,143037,1,0,0:0:0:0:
372,262,143123,1,8,0:0:0:0:
372,262,143294,1,4,0:0:0:0:
372,262,143466,1,0,0:0:0:0:
372,262,143637,1,8,0:0:0:0:
360,245,143808,1,0,0:0:0:0:
363,248,144151,1,8,0:0:0:0:
360,245,144323,1,8,0:0:0:0:
429,240,144494,1,8,0:0:0:0:
429,240,144580,1,8,0:0:0:0:
429,240,144666,1,4,0:0:0:0:
445,256,144837,1,8,0:0:0:0:
450,267,145008,1,0,0:0:0:0:
450,267,145180,1,0,0:0:0:0:
454,275,145351,1,12,0:0:0:0:
454,275,145608,1,0,0:0:0:0:
454,275,145866,1,8,0:0:0:0:
454,275,146037,1,4,0:0:0:0:
454,275,146380,1,8,0:0:0:0:
454,275,146723,1,0,0:0:0:0:
454,275,146980,1,8,0:0:0:0:
454,275,147066,1,0,0:0:0:0:
482,241,147123,1,0,0:0:0:0:
482,241,147180,1,0,0:0:0:0:
482,241,147237,1,8,0:0:0:0:
482,241,147294,1,8,0:0:0:0:
482,241,147351,1,8,0:0:0:0:
482,241,147408,1,4,0:0:0:0:
475,272,147751,1,0,0:0:0:0:
477,275,148094,1,12,0:0:0:0:
482,291,148437,1,0,0:0:0:0:
482,291,148608,1,8,0:0:0:0:
483,294,148951,1,4,0:0:0:0:
482,291,149294,1,4,0:0:0:0:
482,291,149466,1,4,0:0:0:0:
445,254,149637,1,0,0:0:0:0:
445,254,149694,1,0,0:0:0:0:
445,254,149751,1,0,0:0:0:0:
457,228,149808,1,12,0:0:0:0:
425,288,150151,1,4,0:0:0:0:
425,288,150323,1,8,0:0:0:0:
425,288,150408,1,8,0:0:0:0:
425,288,150494,1,0,0:0:0:0:
425,288,150666,1,8,0:0:0:0:
425,288,151008,1,8,0:0:0:0:
425,288,151180,1,8,0:0:0:0:
456,306,151523,1,0,0:0:0:0:
431,290,151694,1,8,0:0:0:0:
431,291,151780,1,0,0:0:0:0:
431,290,151866,1,0,0:0:0:0:
452,302,152037,1,8,0:0:0:0:
452,302,152380,1,0,0:0:0:0:
452,302,152551,1,8,0:0:0:0:
452,302,152894,1,0,0:0:0:0:
452,302,153066,1,8,0:0:0:0:
452,302,153151,1,0,0:0:0:0:
452,302,153237,1,8,0:0:0:0:
452,302,153408,1,8,0:0:0:0:
321,315,153751,1,8,0:0:0:0:
452,302,153923,1,8,0:0:0:0:
445,309,154266,1,0,0:0:0:0:
445,309,154437,1,0,0:0:0:0:
445,309,154523,1,8,0:0:0:0:
445,309,154608,1,0,0:0:0:0:
438,256,154780,1,8,0:0:0:0:
445,309,155123,1,0,0:0:0:0:
445,309,155294,1,8,0:0:0:0:
445,309,155637,1,4,0:0:0:0:
445,309,155808,1,8,0:0:0:0:
445,309,155894,1,8,0:0:0:0:
445,309,155980,1,0,0:0:0:0:
445,309,156151,1,8,0:0:0:0:
445,309,156323,1,0,0:0:0:0:
439,257,156580,1,0,0:0:0:0:
439,257,156666,1,8,0:0:0:0:
439,257,156837,1,0,0:0:0:0:
429,320,157008,1,4,0:0:0:0:
430,320,157180,1,0,0:0:0:0:
429,320,157266,1,8,0:0:0:0:
430,320,157351,1,0,0:0:0:0:
429,320,157523,1,8,0:0:0:0:
429,320,157694,1,0,0:0:0:0:
429,320,157951,1,0,0:0:0:0:
429,320,158037,1,8,0:0:0:0:
430,320,158208,1,8,0:0:0:0:
430,320,158380,1,4,0:0:0:0:
429,320,158551,1,8,0:0:0:0:
429,320,158637,1,0,0:0:0:0:
429,320,158723,1,8,0:0:0:0:
429,320,158894,1,8,0:0:0:0:
430,320,159237,1,0,0:0:0:0:
430,320,159408,1,8,0:0:0:0:
429,320,159751,1,4,0:0:0:0:
429,320,159923,1,8,0:0:0:0:
430,320,160008,1,0,0:0:0:0:
430,320,160094,1,0,0:0:0:0:
430,320,160266,1,8,0:0:0:0:
429,320,160437,1,12,0:0:0:0:
429,320,160608,1,8,0:0:0:0:
429,320,160694,1,4,0:0:0:0:
429,320,160866,1,0,0:0:0:0:
429,320,160951,1,12,0:0:0:0:
390,279,161294,1,8,0:0:0:0:
390,279,161466,1,0,0:0:0:0:
390,279,161637,1,0,0:0:0:0:
390,279,161723,1,0,0:0:0:0:
390,279,161808,1,8,0:0:0:0:
390,279,161980,1,8,0:0:0:0:
390,279,162151,1,8,0:0:0:0:
322,286,162208,1,0,0:0:0:0:
322,286,162266,1,0,0:0:0:0:
322,286,162323,1,8,0:0:0:0:
366,233,162494,1,4,0:0:0:0:
396,302,162666,1,8,0:0:0:0:
394,300,162837,1,0,0:0:0:0:
394,300,163008,1,8,0:0:0:0:
327,235,163094,1,8,0:0:0:0:
342,273,163180,1,8,0:0:0:0:
342,273,163351,1,8,0:0:0:0:
342,273,163523,1,0,0:0:0:0:
383,261,163580,1,8,0:0:0:0:
383,261,163637,1,8,0:0:0:0:
383,261,163694,1,0,0:0:0:0:
419,276,163866,1,4,0:0:0:0:
419,276,164037,1,8,0:0:0:0:
419,276,164123,1,8,0:0:0:0:
419,276,164208,1,0,0:0:0:0:
419,266,164294,1,0,0:0:0:0:
419,266,164380,1,8,0:0:0:0:
419,266,164466,1,8,0:0:0:0:
418,266,164551,1,8,0:0:0:0:
418,266,164637,1,8,0:0:0:0:
419,276,164723,1,0,0:0:0:0:
419,276,164780,1,0,0:0:0:0:
419,276,164837,1,0,0:0:0:0:
419,276,164894,1,12,0:0:0:0:
424,270,165066,1,4,0:0:0:0:
389,251,165408,1,4,0:0:0:0:
389,251,165580,1,4,0:0:0:0:
430,275,165751,1,0,0:0:0:0:
430,275,165837,1,0,0:0:0:0:
434,291,165923,1,8,0:0:0:0:
434,291,166094,1,0,0:0:0:0:
449,295,166266,1,0,0:0:0:0:
446,295,166323,1,0,0:0:0:0:
446,295,166380,1,0,0:0:0:0:
446,295,166437,1,12,0:0:0:0:
423,263,166780,1,12,0:0:0:0:
423,263,166951,1,12,0:0:0:0:
355,287,167466,1,0,0:0:0:0:
355,287,167523,1,0,0:0:0:0:
355,287,167580,1,0,0:0:0:0:
355,287,167637,1,12,0:0:0:0:
409,267,167980,1,4,0:0:0:0:
409,267,168151,1,0,0:0:0:0:
409,267,168237,1,0,0:0:0:0:
409,267,168323,1,8,0:0:0:0:
409,267,168494,1,0,0:0:0:0:
302,252,168580,1,0,0:0:0:0:
421,285,168666,1,8,0:0:0:0:
421,285,168751,1,0,0:0:0:0:
419,284,168837,1,8,0:0:0:0:
425,259,169008,1,8,0:0:0:0:
319,228,169180,1,0,0:0:0:0:
250,214,169266,1,0,0:0:0:0:
345,267,169351,1,0,0:0:0:0:
418,233,169523,1,0,0:0:0:0:
364,274,169608,1,0,0:0:0:0:
417,235,169694,1,8,0:0:0:0:
416,237,169866,1,0,0:0:0:0:
416,237,169951,1,0,0:0:0:0:
416,237,170037,1,0,0:0:0:0:
416,237,170208,1,8,0:0:0:0:
329,262,170294,1,0,0:0:0:0:
416,237,170380,1,8,0:0:0:0:
330,263,170466,1,0,0:0:0:0:
330,263,170551,1,8,0:0:0:0:
330,263,170637,1,8,0:0:0:0:
381,210,170723,1,0,0:0:0:0:
276,224,170894,1,0,0:0:0:0:
378,377,171066,1,8,0:0:0:0:
378,377,171237,1,0,0:0:0:0:
276,224,171323,1,0,0:0:0:0:
276,224,171408,1,8,0:0:0:0:
276,224,171494,1,8,0:0:0:0:
276,224,171580,1,0,0:0:0:0:
378,377,171751,1,8,0:0:0:0:
378,377,171923,1,0,0:0:0:0:
260,237,172008,1,0,0:0:0:0:
267,236,172094,1,0,0:0:0:0:
378,377,172266,1,0,0:0:0:0:
267,236,172351,1,0,0:0:0:0:
378,377,172437,1,8,0:0:0:0:
378,377,172608,1,0,0:0:0:0:
378,377,172780,1,0,0:0:0:0:
378,377,172866,1,0,0:0:0:0:
378,377,172951,1,8,0:0:0:0:
364,331,173037,1,0,0:0:0:0:
378,377,173123,1,8,0:0:0:0:
378,377,173466,1,0,0:0:0:0:
378,377,173808,1,12,0:0:0:0:
378,377,174151,1,0,0:0:0:0:
379,371,174323,1,0,0:0:0:0:
378,377,174494,1,12,0:0:0:0:
379,371,174666,1,0,0:0:0:0:
379,371,175008,1,0,0:0:0:0:
379,371,175180,1,12,0:0:0:0:
379,371,175351,1,0,0:0:0:0:
379,371,175694,1,0,0:0:0:0:
379,371,175866,1,12,0:0:0:0:
379,371,176208,1,12,0:0:0:0:
379,371,176380,1,0,0:0:0:0:
379,371,176551,1,0,0:0:0:0:
379,371,176723,1,12,0:0:0:0:
379,371,176894,1,0,0:0:0:0:
379,371,177066,1,0,0:0:0:0:
379,371,177237,1,12,0:0:0:0:
379,371,177408,1,0,0:0:0:0:
379,371,177580,1,0,0:0:0:0:
379,371,177751,1,12,0:0:0:0:
387,362,178094,1,0,0:0:0:0:
387,362,178266,1,12,0:0:0:0:
449,284,178437,1,0,0:0:0:0:
429,246,178494,1,0,0:0:0:0:
429,246,178551,1,0,0:0:0:0:
429,246,178608,1,12,0:0:0:0:
403,246,178951,1,4,0:0:0:0:
260,237,179123,1,0,0:0:0:0:
260,237,179208,1,0,0:0:0:0:
403,246,179294,1,8,0:0:0:0:
260,237,179466,1,0,0:0:0:0:
338,187,179637,1,0,0:0:0:0:
338,187,179723,1,0,0:0:0:0:
344,189,179808,1,0,0:0:0:0:
345,189,179980,1,8,0:0:0:0:
345,189,180151,1,0,0:0:0:0:
260,237,180237,1,0,0:0:0:0:
260,237,180323,1,0,0:0:0:0:
349,194,180494,1,0,0:0:0:0:
252,237,180580,1,0,0:0:0:0:
349,195,180666,1,8,0:0:0:0:
351,212,180751,1,0,0:0:0:0:
351,212,180837,1,0,0:0:0:0:
351,212,181008,1,0,0:0:0:0:
352,212,181180,1,8,0:0:0:0:
238,202,181266,1,0,0:0:0:0:
352,212,181351,1,8,0:0:0:0:
252,237,181437,1,0,0:0:0:0:
368,208,181523,1,8,0:0:0:0:
368,208,181608,1,8,0:0:0:0:
368,208,181694,1,4,0:0:0:0:
366,213,181866,1,8,0:0:0:0:
366,214,181951,1,0,0:0:0:0:
368,220,182037,1,8,0:0:0:0:
368,220,182208,1,4,0:0:0:0:
368,225,182551,1,4,0:0:0:0:
368,225,182894,1,12,0:0:0:0:
390,217,183237,1,0,0:0:0:0:
390,217,183408,1,8,0:0:0:0:
390,217,183580,1,0,0:0:0:0:
390,217,183666,1,0,0:0:0:0:
390,217,183751,1,8,0:0:0:0:
390,217,183837,1,8,0:0:0:0:
400,185,183923,1,0,0:0:0:0:
400,185,183980,1,0,0:0:0:0:
400,185,184037,1,0,0:0:0:0:
400,185,184094,1,12,0:0:0:0:
461,170,184437,1,4,0:0:0:0:
435,306,184608,1,0,0:0:0:0:
435,306,184694,1,0,0:0:0:0:
435,306,184780,1,8,0:0:0:0:
435,306,184951,1,0,0:0:0:0:
435,306,185123,1,0,0:0:0:0:
435,306,185208,1,0,0:0:0:0:
435,306,185294,1,0,0:0:0:0:
397,282,185380,1,0,0:0:0:0:
428,309,185466,1,8,0:0:0:0:
445,318,185637,1,0,0:0:0:0:
447,317,185808,1,4,0:0:0:0:
447,317,185980,1,0,0:0:0:0:
447,317,186066,1,0,0:0:0:0:
447,317,186151,1,8,0:0:0:0:
447,317,186237,1,8,0:0:0:0:
447,317,186323,1,0,0:0:0:0:
447,317,186408,1,0,0:0:0:0:
445,318,186494,1,8,0:0:0:0:
445,318,186580,1,8,0:0:0:0:
445,318,186666,1,0,0:0:0:0:
447,317,186751,1,8,0:0:0:0:
447,317,186837,1,8,0:0:0:0:
447,317,186923,1,0,0:0:0:0:
447,317,187008,1,8,0:0:0:0:
339,264,187094,1,8,0:0:0:0:
447,317,187180,1,4,0:0:0:0:
447,317,187351,1,8,0:0:0:0:
447,317,187437,1,8,0:0:0:0:
446,326,187523,1,0,0:0:0:0:
446,326,187608,1,8,0:0:0:0:
446,326,187694,1,8,0:0:0:0:
363,237,187780,1,8,0:0:0:0:
461,338,187866,1,4,0:0:0:0:
461,338,188037,1,8,0:0:0:0:
461,338,188123,1,8,0:0:0:0:
389,282,188208,1,0,0:0:0:0:
389,282,188266,1,0,0:0:0:0:
389,282,188323,1,0,0:0:0:0:
389,282,188380,1,8,0:0:0:0:
389,282,188437,1,8,0:0:0:0:
389,282,188494,1,8,0:0:0:0:
389,282,188551,1,4,0:0:0:0:
432,253,189237,1,8,0:0:0:0:
459,228,189408,1,0,0:0:0:0:
459,228,189466,1,0,0:0:0:0:
459,228,189523,1,0,0:0:0:0:
459,228,189580,1,12,0:0:0:0:
494,314,189923,1,4,0:0:0:0:
457,297,190094,1,8,0:0:0:0:
457,297,190180,1,8,0:0:0:0:
457,297,190266,1,0,0:0:0:0:
457,297,190437,1,8,0:0:0:0:
457,297,190780,1,8,0:0:0:0:
457,297,190951,1,8,0:0:0:0:
418,296,191294,1,0,0:0:0:0:
418,296,191466,1,8,0:0:0:0:
418,296,191551,1,0,0:0:0:0:
418,296,191637,1,0,0:0:0:0:
418,296,191808,1,8,0:0:0:0:
413,278,192151,1,0,0:0:0:0:
413,278,192323,1,8,0:0:0:0:
408,294,192666,1,0,0:0:0:0:
412,295,192837,1,8,0:0:0:0:
412,295,192923,1,0,0:0:0:0:
412,295,193008,1,8,0:0:0:0:
413,295,193180,1,8,0:0:0:0:
425,303,193523,1,8,0:0:0:0:
425,303,193694,1,8,0:0:0:0:
425,303,194037,1,0,0:0:0:0:
425,303,194208,1,0,0:0:0:0:
425,303,194294,1,8,0:0:0:0:
425,303,194380,1,0,0:0:0:0:
425,303,194551,1,0,0:0:0:0:
425,303,194894,1,0,0:0:0:0:
425,303,195066,1,8,0:0:0:0:
408,303,195408,1,4,0:0:0:0:
392,294,195580,1,0,0:0:0:0:
392,294,195666,1,8,0:0:0:0:
392,294,195751,1,0,0:0:0:0:
396,290,195923,1,8,0:0:0:0:
396,290,196266,1,8,0:0:0:0:
396,290,196437,1,8,0:0:0:0:
408,303,196780,1,4,0:0:0:0:
408,303,196951,1,8,0:0:0:0:
408,303,197037,1,8,0:0:0:0:
408,303,197123,1,0,0:0:0:0:
408,303,197294,1,8,0:0:0:0:
408,303,197637,1,0,0:0:0:0:
408,303,197808,1,8,0:0:0:0:
419,309,198151,1,4,0:0:0:0:
408,303,198323,1,8,0:0:0:0:
408,303,198408,1,0,0:0:0:0:
408,303,198494,1,8,0:0:0:0:
408,303,198666,1,8,0:0:0:0:
408,303,199008,1,8,0:0:0:0:
408,303,199180,1,8,0:0:0:0:
419,309,199523,1,4,0:0:0:0:
417,302,199694,1,0,0:0:0:0:
439,297,199780,1,0,0:0:0:0:
408,286,199866,1,8,0:0:0:0:
419,304,200037,1,0,0:0:0:0:
408,278,200208,1,12,0:0:0:0:
408,278,200380,1,0,0:0:0:0:
407,278,200466,1,12,0:0:0:0:
407,278,200637,1,0,0:0:0:0:
406,278,200723,1,12,0:0:0:0:
408,278,201066,1,8,0:0:0:0:
408,278,201237,1,8,0:0:0:0:
408,278,201408,1,0,0:0:0:0:
407,278,201494,1,0,0:0:0:0:
407,278,201580,1,8,0:0:0:0:
406,278,201751,1,0,0:0:0:0:
408,278,201923,1,8,0:0:0:0:
408,278,202094,1,0,0:0:0:0:
408,278,202180,1,0,0:0:0:0:
408,278,202266,1,12,0:0:0:0:
407,278,202437,1,0,0:0:0:0:
407,278,202523,1,0,0:0:0:0:
407,278,202608,1,8,0:0:0:0:
410,280,202780,1,8,0:0:0:0:
408,278,202951,1,8,0:0:0:0:
408,278,203037,1,8,0:0:0:0:
408,278,203123,1,0,0:0:0:0:
408,278,203208,1,0,0:0:0:0:
408,278,203294,1,8,0:0:0:0:
407,278,203380,1,0,0:0:0:0:
407,278,203466,1,0,0:0:0:0:
410,273,203637,1,4,0:0:0:0:
409,273,203808,1,8,0:0:0:0:
409,273,203980,1,8,0:0:0:0:
409,273,204151,1,0,0:0:0:0:
409,273,204237,1,0,0:0:0:0:
409,273,204323,1,8,0:0:0:0:
409,273,204494,1,0,0:0:0:0:
410,273,204580,1,8,0:0:0:0:
409,273,204751,1,8,0:0:0:0:
409,273,204837,1,0,0:0:0:0:
409,273,205008,1,12,0:0:0:0:
409,273,205180,1,8,0:0:0:0:
409,273,205266,1,0,0:0:0:0:
409,273,205351,1,8,0:0:0:0:
409,273,205523,1,0,0:0:0:0:
409,273,205694,1,8,0:0:0:0:
409,273,205780,1,8,0:0:0:0:
409,273,205866,1,0,0:0:0:0:
409,273,205951,1,0,0:0:0:0:
409,273,206037,1,8,0:0:0:0:
409,273,206123,1,0,0:0:0:0:
409,273,206208,1,0,0:0:0:0:
409,273,206380,1,4,0:0:0:0:
409,273,206551,1,8,0:0:0:0:
409,273,206723,1,8,0:0:0:0:
409,273,206894,1,0,0:0:0:0:
409,273,206980,1,0,0:0:0:0:
409,273,207066,1,8,0:0:0:0:
409,273,207237,1,0,0:0:0:0:
409,273,207323,1,8,0:0:0:0:
409,273,207494,1,0,0:0:0:0:
409,273,207580,1,8,0:0:0:0:
409,273,207751,1,4,0:0:0:0:
409,273,207923,1,8,0:0:0:0:
414,277,208008,1,8,0:0:0:0:
409,273,208094,1,0,0:0:0:0:
423,278,208180,1,0,0:0:0:0:
425,280,208266,1,8,0:0:0:0:
425,280,208351,1,0,0:0:0:0:
425,280,208437,1,8,0:0:0:0:
436,282,208523,1,8,0:0:0:0:
436,283,208608,1,0,0:0:0:0:
436,283,208694,1,0,0:0:0:0:
436,283,208780,1,8,0:0:0:0:
436,283,208866,1,0,0:0:0:0:
443,304,208951,1,8,0:0:0:0:
439,295,209123,1,4,0:0:0:0:
362,231,209294,1,8,0:0:0:0:
362,231,209380,1,8,0:0:0:0:
362,231,209466,1,0,0:0:0:0:
362,231,209551,1,8,0:0:0:0:
362,231,209637,1,8,0:0:0:0:
381,255,209808,1,4,0:0:0:0:
381,255,209980,1,8,0:0:0:0:
381,255,210066,1,0,0:0:0:0:
473,152,210151,1,8,0:0:0:0:
473,152,210208,1,8,0:0:0:0:
473,152,210266,1,8,0:0:0:0:
473,152,210323,1,0,0:0:0:0:
473,152,210380,1,0,0:0:0:0:
473,152,210437,1,0,0:0:0:0:
473,152,210494,1,12,0:0:0:0:
328,236,213151,1,0,0:0:0:0:
328,236,213194,1,0,0:0:0:0:
328,236,213237,1,8,0:0:0:0:
328,236,213408,1,0,0:0:0:0:
328,236,213580,1,8,0:0:0:0:
328,236,213751,1,0,0:0:0:0:
328,236,214094,1,0,0:0:0:0:
328,236,214266,1,8,0:0:0:0:
328,236,214437,1,8,0:0:0:0:
328,236,214523,1,8,0:0:0:0:
335,234,214608,1,4,0:0:0:0:
328,236,214951,1,8,0:0:0:0:
328,236,215294,1,0,0:0:0:0:
390,260,215466,1,8,0:0:0:0:
337,238,215808,1,8,0:0:0:0:
335,245,216151,1,8,0:0:0:0:
337,254,216494,1,0,0:0:0:0:
337,254,216666,1,8,0:0:0:0:
341,254,216837,1,0,0:0:0:0:
341,254,217008,1,8,0:0:0:0:
341,254,217180,1,8,0:0:0:0:
390,259,217351,1,0,0:0:0:0:
390,259,217694,1,8,0:0:0:0:
390,259,218037,1,0,0:0:0:0:
390,259,218208,1,8,0:0:0:0:
390,259,218551,1,8,0:0:0:0:
416,267,218894,1,8,0:0:0:0:
416,267,219066,1,0,0:0:0:0:
416,267,219237,1,0,0:0:0:0:
416,267,219408,1,8,0:0:0:0:
421,268,219751,1,8,0:0:0:0:
402,255,220094,1,0,0:0:0:0:
402,255,220437,1,8,0:0:0:0:
403,265,220780,1,0,0:0:0:0:
403,265,221123,1,8,0:0:0:0:
403,265,221466,1,0,0:0:0:0:
403,265,221808,1,8,0:0:0:0:
403,265,222151,1,0,0:0:0:0:
403,265,222494,1,8,0:0:0:0:
366,240,222837,1,8,0:0:0:0:
366,240,223180,1,8,0:0:0:0:
366,240,223351,1,0,0:0:0:0:
366,246,223694,1,8,0:0:0:0:
366,240,224037,1,8,0:0:0:0:
363,240,224380,1,8,0:0:0:0:
363,240,224723,1,0,0:0:0:0:
366,240,225066,1,8,0:0:0:0:
363,240,225237,1,8,0:0:0:0:
363,240,225408,1,0,0:0:0:0:
388,235,225580,1,8,0:0:0:0:
388,266,225751,1,8,0:0:0:0:
388,266,225837,1,8,0:0:0:0:
388,266,225923,1,0,0:0:0:0:
367,233,226008,1,0,0:0:0:0:
354,226,226094,1,8,0:0:0:0:
387,207,226180,1,0,0:0:0:0:
387,207,226266,1,12,0:0:0:0:
363,289,226437,1,0,0:0:0:0:
363,289,226494,1,0,0:0:0:0:
363,289,226551,1,0,0:0:0:0:
363,289,226608,1,12,0:0:0:0:
338,201,226780,1,8,0:0:0:0:
338,201,226866,1,8,0:0:0:0:
409,267,226951,1,4,0:0:0:0:
409,267,227123,1,0,0:0:0:0:
409,267,227208,1,0,0:0:0:0:
409,267,227294,1,8,0:0:0:0:
409,267,227466,1,0,0:0:0:0:
421,285,227637,1,0,0:0:0:0:
421,285,227723,1,0,0:0:0:0:
370,292,227808,1,8,0:0:0:0:
416,257,227894,1,0,0:0:0:0:
425,259,227980,1,8,0:0:0:0:
425,259,228151,1,0,0:0:0:0:
379,277,228237,1,0,0:0:0:0:
377,278,228323,1,0,0:0:0:0:
418,233,228494,1,0,0:0:0:0:
417,235,228666,1,8,0:0:0:0:
342,222,228837,1,8,0:0:0:0:
437,269,228923,1,0,0:0:0:0:
416,237,229008,1,0,0:0:0:0:
445,254,229094,1,8,0:0:0:0:
416,237,229180,1,8,0:0:0:0:
372,278,229266,1,0,0:0:0:0:
416,237,229351,1,8,0:0:0:0:
372,278,229523,1,8,0:0:0:0:
372,278,229608,1,8,0:0:0:0:
381,210,229694,1,0,0:0:0:0:
408,271,229866,1,0,0:0:0:0:
408,271,229951,1,0,0:0:0:0:
378,377,230037,1,8,0:0:0:0:
408,271,230208,1,0,0:0:0:0:
432,249,230380,1,8,0:0:0:0:
432,249,230466,1,8,0:0:0:0:
432,249,230551,1,0,0:0:0:0:
432,249,230637,1,0,0:0:0:0:
378,377,230723,1,8,0:0:0:0:
378,377,230894,1,0,0:0:0:0:
436,253,230980,1,0,0:0:0:0:
436,253,231066,1,0,0:0:0:0:
378,377,231237,1,0,0:0:0:0:
436,253,231323,1,0,0:0:0:0:
378,377,231408,1,8,0:0:0:0:
378,377,231580,1,0,0:0:0:0:
405,265,231751,1,0,0:0:0:0:
405,265,231837,1,0,0:0:0:0:
378,377,231923,1,8,0:0:0:0:
378,377,232094,1,8,0:0:0:0:
378,377,232437,1,0,0:0:0:0:
378,377,232780,1,12,0:0:0:0:
378,377,233123,1,0,0:0:0:0:
379,371,233294,1,0,0:0:0:0:
378,377,233466,1,12,0:0:0:0:
379,371,233637,1,0,0:0:0:0:
379,371,233980,1,0,0:0:0:0:
379,371,234151,1,12,0:0:0:0:
379,371,234323,1,0,0:0:0:0:
379,371,234666,1,0,0:0:0:0:
379,371,234837,1,12,0:0:0:0:
379,371,235180,1,12,0:0:0:0:
379,371,235351,1,0,0:0:0:0:
379,371,235523,1,0,0:0:0:0:
379,371,235694,1,12,0:0:0:0:
379,371,235866,1,0,0:0:0:0:
379,371,235951,1,0,0:0:0:0:
379,371,236037,1,0,0:0:0:0:
379,371,236123,1,0,0:0:0:0:
379,371,236208,1,12,0:0:0:0:
379,371,236380,1,0,0:0:0:0:
379,371,236551,1,0,0:0:0:0:
379,371,236723,1,12,0:0:0:0:
387,362,237066,1,0,0:0:0:0:
387,362,237237,1,12,0:0:0:0:
449,284,237408,1,0,0:0:0:0:
429,246,237466,1,0,0:0:0:0:
429,246,237523,1,0,0:0:0:0:
429,246,237580,1,12,0:0:0:0:
403,246,237923,1,4,0:0:0:0:
283,248,238094,1,0,0:0:0:0:
283,248,238180,1,0,0:0:0:0:
403,246,238266,1,8,0:0:0:0:
403,246,238437,1,0,0:0:0:0:
338,187,238608,1,0,0:0:0:0:
338,187,238694,1,0,0:0:0:0:
439,288,238780,1,8,0:0:0:0:
439,288,238866,1,0,0:0:0:0:
345,189,238951,1,8,0:0:0:0:
345,189,239123,1,0,0:0:0:0:
341,244,239208,1,0,0:0:0:0:
341,244,239294,1,0,0:0:0:0:
349,194,239466,1,0,0:0:0:0:
349,195,239637,1,8,0:0:0:0:
341,244,239808,1,8,0:0:0:0:
434,285,239894,1,8,0:0:0:0:
351,212,239980,1,0,0:0:0:0:
434,285,240066,1,0,0:0:0:0:
352,212,240151,1,8,0:0:0:0:
434,285,240237,1,0,0:0:0:0:
352,212,240323,1,8,0:0:0:0:
368,208,240494,1,8,0:0:0:0:
368,208,240580,1,8,0:0:0:0:
368,208,240666,1,4,0:0:0:0:
366,213,240837,1,8,0:0:0:0:
366,214,240923,1,0,0:0:0:0:
368,220,241008,1,8,0:0:0:0:
368,220,241180,1,4,0:0:0:0:
368,225,241523,1,4,0:0:0:0:
368,225,241866,1,12,0:0:0:0:
390,217,242208,1,0,0:0:0:0:
390,217,242380,1,8,0:0:0:0:
390,217,242551,1,0,0:0:0:0:
390,217,242637,1,0,0:0:0:0:
390,217,242723,1,8,0:0:0:0:
390,217,242808,1,8,0:0:0:0:
400,185,242894,1,0,0:0:0:0:
400,185,242951,1,0,0:0:0:0:
400,185,243008,1,0,0:0:0:0:
400,185,243066,1,12,0:0:0:0:
461,170,243408,1,4,0:0:0:0:
435,306,243580,1,0,0:0:0:0:
435,306,243666,1,0,0:0:0:0:
435,306,243751,1,8,0:0:0:0:
435,306,243923,1,0,0:0:0:0:
435,306,244094,1,0,0:0:0:0:
435,306,244180,1,0,0:0:0:0:
435,306,244266,1,0,0:0:0:0:
401,252,244351,1,0,0:0:0:0:
428,309,244437,1,8,0:0:0:0:
445,318,244608,1,0,0:0:0:0:
447,317,244780,1,4,0:0:0:0:
447,317,244951,1,0,0:0:0:0:
447,317,245037,1,0,0:0:0:0:
447,317,245123,1,8,0:0:0:0:
447,317,245208,1,8,0:0:0:0:
447,317,245294,1,0,0:0:0:0:
447,317,245380,1,0,0:0:0:0:
445,318,245466,1,8,0:0:0:0:
445,318,245551,1,8,0:0:0:0:
296,258,245637,1,0,0:0:0:0:
447,317,245723,1,8,0:0:0:0:
447,317,245808,1,8,0:0:0:0:
296,258,245894,1,0,0:0:0:0:
447,317,245980,1,8,0:0:0:0:
296,258,246066,1,8,0:0:0:0:
447,317,246151,1,4,0:0:0:0:
447,317,246323,1,8,0:0:0:0:
447,317,246408,1,8,0:0:0:0:
446,326,246494,1,0,0:0:0:0:
446,326,246580,1,8,0:0:0:0:
446,326,246666,1,8,0:0:0:0:
296,258,246751,1,8,0:0:0:0:
461,338,246837,1,4,0:0:0:0:
461,338,247008,1,8,0:0:0:0:
461,338,247094,1,8,0:0:0:0:
389,282,247180,1,0,0:0:0:0:
389,282,247237,1,0,0:0:0:0:
389,282,247294,1,0,0:0:0:0:
389,282,247351,1,8,0:0:0:0:
389,282,247408,1,8,0:0:0:0:
389,282,247466,1,8,0:0:0:0:
389,282,247523,1,4,0:0:0:0:
432,253,248208,1,8,0:0:0:0:
459,228,248380,1,0,0:0:0:0:
459,228,248437,1,0,0:0:0:0:
459,228,248494,1,0,0:0:0:0:
459,228,248551,1,12,0:0:0:0:
367,281,248894,1,4,0:0:0:0:
303,248,249237,1,8,0:0:0:0:
303,248,249408,1,0,0:0:0:0:
303,248,249580,1,0,0:0:0:0:
312,253,249751,1,0,0:0:0:0:
312,253,249837,1,0,0:0:0:0:
312,253,249923,1,8,0:0:0:0:
312,253,250094,1,0,0:0:0:0:
312,253,250437,1,0,0:0:0:0:
317,258,250523,1,0,0:0:0:0:
312,253,250608,1,8,0:0:0:0:
314,261,250780,1,0,0:0:0:0:
316,255,250951,1,0,0:0:0:0:
310,278,251123,1,8,0:0:0:0:
315,244,251208,1,0,0:0:0:0:
310,278,251294,1,8,0:0:0:0:
322,240,251466,1,8,0:0:0:0:
323,235,251551,1,8,0:0:0:0:
312,246,251637,1,0,0:0:0:0:
309,218,251980,1,8,0:0:0:0:
309,218,252151,1,0,0:0:0:0:
314,224,252323,1,0,0:0:0:0:
314,224,252408,1,0,0:0:0:0:
314,226,252494,1,0,0:0:0:0:
312,226,252666,1,8,0:0:0:0:
310,229,252837,1,0,0:0:0:0:
310,229,253180,1,0,0:0:0:0:
312,218,253351,1,8,0:0:0:0:
312,218,253523,1,0,0:0:0:0:
312,218,253608,1,0,0:0:0:0:
312,218,253694,1,0,0:0:0:0:
312,218,253866,1,8,0:0:0:0:
312,218,254037,1,8,0:0:0:0:
314,222,254380,1,0,0:0:0:0:
316,220,254723,1,12,0:0:0:0:
320,221,255066,1,0,0:0:0:0:
314,222,255408,1,12,0:0:0:0:
331,227,255580,1,0,0:0:0:0:
337,231,255923,1,0,0:0:0:0:
337,229,256094,1,12,0:0:0:0:
325,208,256266,1,0,0:0:0:0:
325,208,256608,1,0,0:0:0:0:
346,195,256780,1,12,0:0:0:0:
346,199,256951,1,0,0:0:0:0:
346,200,257123,1,12,0:0:0:0:
346,200,257294,1,0,0:0:0:0:
346,200,257466,1,0,0:0:0:0:
347,198,257637,1,12,0:0:0:0:
348,189,257808,1,8,0:0:0:0:
337,202,257894,1,8,0:0:0:0:
348,189,257980,1,8,0:0:0:0:
351,191,258151,1,4,0:0:0:0:
353,209,258323,1,8,0:0:0:0:
353,209,258494,1,8,0:0:0:0:
353,209,258666,1,4,0:0:0:0:
353,209,258837,1,8,0:0:0:0:
353,209,259008,1,0,0:0:0:0:
353,209,259180,1,12,0:0:0:0:
352,295,259351,1,0,0:0:0:0:
352,283,259408,1,0,0:0:0:0:
353,279,259466,1,0,0:0:0:0:
353,278,259523,1,12,0:0:0:0:
279,209,259866,1,4,0:0:0:0:
301,247,260208,1,8,0:0:0:0:
301,247,260380,1,0,0:0:0:0:
301,247,260551,1,0,0:0:0:0:
301,247,260637,1,0,0:0:0:0:
301,247,260723,1,0,0:0:0:0:
301,247,260894,1,8,0:0:0:0:
301,247,261066,1,0,0:0:0:0:
301,247,261408,1,0,0:0:0:0:
301,247,261580,1,8,0:0:0:0:
301,247,261751,1,0,0:0:0:0:
294,226,261837,1,0,0:0:0:0:
294,226,261923,1,0,0:0:0:0:
295,228,262094,1,8,0:0:0:0:
295,228,262266,1,8,0:0:0:0:
296,246,262608,1,4,0:0:0:0:
296,246,262780,1,8,0:0:0:0:
296,246,262866,1,0,0:0:0:0:
296,246,262951,1,8,0:0:0:0:
296,246,263123,1,4,0:0:0:0:
296,246,263466,1,4,0:0:0:0:
296,246,263808,1,12,0:0:0:0:
296,246,264151,1,0,0:0:0:0:
296,246,264323,1,8,0:0:0:0:
296,246,264494,1,0,0:0:0:0:
296,246,264580,1,0,0:0:0:0:
296,246,264666,1,8,0:0:0:0:
296,246,264751,1,8,0:0:0:0:
296,246,264837,1,0,0:0:0:0:
311,238,264894,1,0,0:0:0:0:
311,238,264951,1,0,0:0:0:0:
311,238,265008,1,12,0:0:0:0:
328,279,265351,1,4,0:0:0:0:
337,271,265523,1,0,0:0:0:0:
337,271,265608,1,0,0:0:0:0:
337,271,265694,1,8,0:0:0:0:
337,271,265866,1,0,0:0:0:0:
337,271,266037,1,0,0:0:0:0:
336,271,266123,1,0,0:0:0:0:
336,271,266208,1,0,0:0:0:0:
337,271,266380,1,8,0:0:0:0:
337,271,266551,1,0,0:0:0:0:
337,271,266723,1,4,0:0:0:0:
337,271,266894,1,0,0:0:0:0:
337,271,266980,1,0,0:0:0:0:
337,271,267066,1,8,0:0:0:0:
336,271,267237,1,0,0:0:0:0:
337,271,267408,1,8,0:0:0:0:
337,271,267494,1,8,0:0:0:0:
337,271,267580,1,0,0:0:0:0:
337,271,267666,1,0,0:0:0:0:
337,271,267751,1,8,0:0:0:0:
328,281,267923,1,0,0:0:0:0:
337,271,268094,1,4,0:0:0:0:
337,271,268266,1,8,0:0:0:0:
337,271,268351,1,8,0:0:0:0:
337,271,268437,1,0,0:0:0:0:
337,271,268523,1,8,0:0:0:0:
337,271,268608,1,8,0:0:0:0:
337,271,268694,1,8,0:0:0:0:
337,271,268780,1,0,0:0:0:0:
337,271,268866,1,0,0:0:0:0:
337,271,268951,1,8,0:0:0:0:
337,271,269037,1,8,0:0:0:0:
388,270,269123,1,0,0:0:0:0:
388,270,269180,1,0,0:0:0:0:
388,270,269237,1,0,0:0:0:0:
388,270,269294,1,8,0:0:0:0:
388,270,269351,1,8,0:0:0:0:
388,270,269408,1,8,0:0:0:0:
388,270,269466,1,4,0:0:0:0:
374,220,270151,1,8,0:0:0:0:
364,233,270323,1,0,0:0:0:0:
364,233,270380,1,0,0:0:0:0:
364,233,270437,1,0,0:0:0:0:
364,233,270494,1,12,0:0:0:0:
348,253,270837,1,4,0:0:0:0:
350,253,271180,1,8,0:0:0:0:
361,248,271351,1,0,0:0:0:0:
350,253,271523,1,8,0:0:0:0:
361,266,271694,1,0,0:0:0:0:
348,253,271780,1,8,0:0:0:0:
361,266,271951,1,0,0:0:0:0:
350,253,272037,1,8,0:0:0:0:
361,266,272208,1,0,0:0:0:0:
350,253,272380,1,8,0:0:0:0:
348,253,272551,1,8,0:0:0:0:
361,266,272723,1,0,0:0:0:0:
361,266,272808,1,0,0:0:0:0:
350,253,272894,1,8,0:0:0:0:
308,241,273066,1,0,0:0:0:0:
308,241,273151,1,8,0:0:0:0:
350,253,273408,1,8,0:0:0:0:
361,266,273580,1,0,0:0:0:0:
350,253,273751,1,8,0:0:0:0:
350,253,273923,1,8,0:0:0:0:
361,266,274094,1,0,0:0:0:0:
229,238,274180,1,0,0:0:0:0:
350,253,274266,1,8,0:0:0:0:
363,268,274437,1,0,0:0:0:0:
350,253,274523,1,8,0:0:0:0:
350,253,274780,1,8,0:0:0:0:
337,273,274951,1,0,0:0:0:0:
350,253,275123,1,8,0:0:0:0:
350,253,275294,1,8,0:0:0:0:
288,248,275466,1,0,0:0:0:0:
288,248,275551,1,0,0:0:0:0:
350,253,275637,1,8,0:0:0:0:
337,273,275808,1,0,0:0:0:0:
350,253,275894,1,8,0:0:0:0:
337,273,276066,1,8,0:0:0:0:
350,253,276151,1,0,0:0:0:0:
337,273,276323,1,0,0:0:0:0:
350,253,276494,1,8,0:0:0:0:
350,253,276666,1,8,0:0:0:0:
352,265,276837,1,0,0:0:0:0:
337,273,276923,1,0,0:0:0:0:
350,253,277008,1,8,0:0:0:0:
337,273,277180,1,0,0:0:0:0:
350,253,277266,1,8,0:0:0:0:
337,273,277437,1,0,0:0:0:0:
350,253,277523,1,8,0:0:0:0:
336,266,277694,1,0,0:0:0:0:
350,253,277866,1,8,0:0:0:0:
350,253,278037,1,8,0:0:0:0:
336,266,278208,1,0,0:0:0:0:
336,266,278294,1,0,0:0:0:0:
350,253,278380,1,8,0:0:0:0:
350,253,278637,1,8,0:0:0:0:
336,266,278723,1,0,0:0:0:0:
350,253,278894,1,8,0:0:0:0:
336,266,279066,1,0,0:0:0:0:
350,253,279237,1,8,0:0:0:0:
350,253,279408,1,8,0:0:0:0:
350,253,279751,1,8,0:0:0:0:
336,266,279923,1,0,0:0:0:0:
350,253,280008,1,8,0:0:0:0:
336,266,280180,1,0,0:0:0:0:
350,253,280266,1,8,0:0:0:0:
339,249,280437,1,0,0:0:0:0:
350,253,280608,1,8,0:0:0:0:
350,253,280780,1,8,0:0:0:0:
339,249,280951,1,0,0:0:0:0:
339,249,281037,1,0,0:0:0:0:
350,253,281123,1,8,0:0:0:0:
339,249,281294,1,0,0:0:0:0:
350,253,281380,1,8,0:0:0:0:
350,253,281637,1,8,0:0:0:0:
339,249,281808,1,4,0:0:0:0:
339,249,282151,1,8,0:0:0:0:
339,249,282494,1,8,0:0:0:0:
339,249,282837,1,8,0:0:0:0:
334,246,283008,1,0,0:0:0:0:
334,246,283180,1,8,0:0:0:0:
334,246,283523,1,8,0:0:0:0:
337,239,283866,1,8,0:0:0:0:
337,239,284037,1,0,0:0:0:0:
337,239,284208,1,8,0:0:0:0:
296,245,284380,1,0,0:0:0:0:
337,239,284551,1,4,0:0:0:0:
337,239,284894,1,8,0:0:0:0:
337,239,285066,1,0,0:0:0:0:
337,239,285237,1,8,0:0:0:0:
208,159,285408,1,0,0:0:0:0:
218,198,285494,1,0,0:0:0:0:
337,239,285580,1,8,0:0:0:0:
337,239,285751,1,0,0:0:0:0:
337,239,285923,1,8,0:0:0:0:
338,216,286094,1,0,0:0:0:0:
338,216,286266,1,8,0:0:0:0:
218,198,286437,1,0,0:0:0:0:
218,198,286523,1,0,0:0:0:0:
338,216,286608,1,8,0:0:0:0:
220,203,286694,1,0,0:0:0:0:
338,216,286780,1,0,0:0:0:0:
338,216,286951,1,8,0:0:0:0:
338,216,287123,1,0,0:0:0:0:
342,206,287294,1,12,0:0:0:0:
364,215,287466,1,8,0:0:0:0:
364,215,287637,1,8,0:0:0:0:
364,215,287723,1,8,0:0:0:0:
364,215,287894,1,0,0:0:0:0:
364,215,287980,1,0,0:0:0:0:
364,214,288151,1,8,0:0:0:0:
364,214,288323,1,8,0:0:0:0:
364,215,288494,1,8,0:0:0:0:
364,215,288580,1,8,0:0:0:0:
364,215,288666,1,4,0:0:0:0:
364,215,288837,1,8,0:0:0:0:
364,215,289008,1,8,0:0:0:0:
364,214,289094,1,8,0:0:0:0:
364,214,289266,1,0,0:0:0:0:
364,214,289351,1,0,0:0:0:0:
308,191,289523,1,8,0:0:0:0:
308,191,289694,1,8,0:0:0:0:
308,191,289866,1,8,0:0:0:0:
308,191,289951,1,8,0:0:0:0:
308,191,290037,1,4,0:0:0:0:
308,191,290208,1,8,0:0:0:0:
314,174,290551,1,4,0:0:0:0:
314,174,290723,1,8,0:0:0:0:
314,174,291066,1,4,0:0:0:0:
314,174,291237,1,8,0:0:0:0:
314,174,291580,1,4,0:0:0:0:
314,174,291751,1,8,0:0:0:0:
314,174,292094,1,4,0:0:0:0:
365,279,292266,1,0,0:0:0:0:
365,279,292323,1,0,0:0:0:0:
365,279,292380,1,0,0:0:0:0:
365,279,292437,1,12,0:0:0:0:
