osu file format v14

[General]
AudioFilename: audio.mp3
AudioLeadIn: 0
PreviewTime: 58100
Countdown: 0
SampleSet: Normal
StackLeniency: 0.7
Mode: 1
LetterboxInBreaks: 0
WidescreenStoryboard: 0

[Editor]
Bookmarks: 2001,7615,13229,18843,30071,39895,51123,58141,69369,80597
DistanceSpacing: 1.7
BeatDivisor: 4
GridSize: 4
TimelineZoom: 2.6

[Metadata]
Title:YOIMACHI CANTARE (TV Size)
TitleUnicode:よいまちカンターレ (TV Size)
Artist:CORO MACHIKADO
ArtistUnicode:コーロまちカド
Creator:komasy
Version:Oni
Source:まちカドまぞく
Tags:Machikado Mazoku The Demon Girl Next Door ED Ending Japanese Anime J-POP J POP 芳文社 Houbunsha 小原好美 Kohara Konomi 鬼頭明里 Kito Kitou Akari 高橋未奈美 Takahashi Minami 高柳知葉 Takayanagi Tomoyo 吉田優子 Yoshida Yuko Yuuko シャミ子 Shamiko 千代田桃 Chiyoda Momo リリス Lilith 陽夏木ミカン Hinatsuki Mikan Nardoxyribonucleic
BeatmapID:2247900
BeatmapSetID:1073820

[Difficulty]
HPDrainRate:5.5
CircleSize:5.5
OverallDifficulty:5.5
ApproachRate:5.5
SliderMultiplier:1.4
SliderTickRate:1

[Events]
//Background and Video events
0,0,"BG2.jpg",0,70
Video,0,"ED.mp4"
//Break Periods
//Storyboard Layer 0 (Background)
//Storyboard Layer 1 (Fail)
//Storyboard Layer 2 (Pass)
//Storyboard Layer 3 (Foreground)
//Storyboard Layer 4 (Overlay)
//Storyboard Sound Samples

[TimingPoints]
-802,350.877192982456,4,1,0,70,1,0
2005,350.877192982456,4,1,0,70,1,0
39899,350.877192982456,4,1,0,70,1,8
39900,350.877192982456,4,1,0,70,1,0
58057,-100,4,1,0,80,0,0
58145,350.877192982456,4,1,0,80,1,1
58145,-100,4,1,0,80,0,1
80513,-100,4,1,0,70,0,1
80601,-100,4,1,0,70,0,0
86390,-100,4,1,0,70,0,1
87618,-100,4,1,0,70,0,0

[HitObjects]
179,107,601,5,0,0:0:0:0:
225,132,689,1,8,0:0:0:0:
352,96,776,1,8,0:0:0:0:
352,96,864,1,8,0:0:0:0:
352,96,952,1,8,0:0:0:0:
352,96,1127,1,8,0:0:0:0:
352,96,1303,1,8,0:0:0:0:
376,134,1390,1,8,0:0:0:0:
352,96,1478,1,8,0:0:0:0:
352,96,1566,1,8,0:0:0:0:
160,96,1654,1,0,0:0:0:0:
160,96,1829,1,0,0:0:0:0:
352,288,2005,1,12,0:0:0:0:
352,288,2180,1,12,0:0:0:0:
352,96,2531,1,8,0:0:0:0:
352,96,2882,1,8,0:0:0:0:
352,96,2969,1,8,0:0:0:0:
160,96,3057,1,0,0:0:0:0:
352,288,3233,1,12,0:0:0:0:
160,96,3583,1,0,0:0:0:0:
352,96,3759,1,8,0:0:0:0:
160,288,3934,1,0,0:0:0:0:
352,96,4110,1,8,0:0:0:0:
352,96,4197,1,8,0:0:0:0:
160,96,4461,1,0,0:0:0:0:
160,96,4636,1,0,0:0:0:0:
352,288,4812,1,12,0:0:0:0:
352,288,4987,1,12,0:0:0:0:
352,96,5338,1,8,0:0:0:0:
352,96,5689,1,8,0:0:0:0:
352,96,5776,1,8,0:0:0:0:
160,96,5864,1,0,0:0:0:0:
352,288,6040,1,12,0:0:0:0:
160,96,6390,1,0,0:0:0:0:
352,96,6566,1,8,0:0:0:0:
160,288,6741,1,0,0:0:0:0:
352,96,6917,1,8,0:0:0:0:
160,96,7004,1,0,0:0:0:0:
352,96,7092,1,8,0:0:0:0:
352,96,7268,1,8,0:0:0:0:
352,96,7443,1,8,0:0:0:0:
160,288,7619,1,4,0:0:0:0:
352,96,7969,1,8,0:0:0:0:
352,96,8145,1,8,0:0:0:0:
160,96,8320,1,0,0:0:0:0:
160,96,8408,1,0,0:0:0:0:
160,96,8496,1,0,0:0:0:0:
352,96,8671,1,8,0:0:0:0:
160,96,8847,1,0,0:0:0:0:
160,96,9197,1,0,0:0:0:0:
352,96,9373,1,8,0:0:0:0:
160,96,9548,1,0,0:0:0:0:
352,96,9724,1,8,0:0:0:0:
352,96,9812,1,8,0:0:0:0:
352,96,10075,1,8,0:0:0:0:
352,96,10250,1,8,0:0:0:0:
160,96,10426,1,0,0:0:0:0:
352,96,10776,1,8,0:0:0:0:
352,96,10952,1,8,0:0:0:0:
160,96,11127,1,0,0:0:0:0:
160,96,11215,1,0,0:0:0:0:
160,96,11303,1,0,0:0:0:0:
352,96,11478,1,8,0:0:0:0:
160,96,11654,1,0,0:0:0:0:
160,96,12004,1,0,0:0:0:0:
352,96,12180,1,8,0:0:0:0:
352,96,12355,1,8,0:0:0:0:
160,96,12531,1,0,0:0:0:0:
160,96,12619,1,0,0:0:0:0:
160,96,12706,1,0,0:0:0:0:
352,96,12882,1,8,0:0:0:0:
352,96,12969,1,8,0:0:0:0:
160,96,13057,1,0,0:0:0:0:
352,288,13233,1,12,0:0:0:0:
352,96,13408,1,8,0:0:0:0:
160,96,13583,1,0,0:0:0:0:
160,96,13847,1,0,0:0:0:0:
160,96,13934,1,0,0:0:0:0:
160,96,14110,1,0,0:0:0:0:
160,96,14285,1,0,0:0:0:0:
352,288,14636,1,12,0:0:0:0:
352,96,14812,1,8,0:0:0:0:
160,96,14987,1,0,0:0:0:0:
160,96,15250,1,0,0:0:0:0:
160,96,15338,1,0,0:0:0:0:
160,96,15513,1,0,0:0:0:0:
160,96,15689,1,0,0:0:0:0:
352,288,16040,1,12,0:0:0:0:
352,96,16215,1,8,0:0:0:0:
160,96,16390,1,0,0:0:0:0:
160,96,16566,1,0,0:0:0:0:
160,96,16654,1,0,0:0:0:0:
160,96,16741,1,0,0:0:0:0:
160,96,16917,1,0,0:0:0:0:
352,96,17092,1,8,0:0:0:0:
160,288,17268,1,4,0:0:0:0:
160,96,17619,1,0,0:0:0:0:
352,96,17794,1,8,0:0:0:0:
160,96,17969,1,0,0:0:0:0:
352,96,18145,1,8,0:0:0:0:
160,96,18320,1,0,0:0:0:0:
160,96,18408,1,0,0:0:0:0:
352,96,18496,1,8,0:0:0:0:
352,96,18671,1,8,0:0:0:0:
160,288,18847,5,4,0:0:0:0:
160,96,19022,1,0,0:0:0:0:
352,96,19197,1,8,0:0:0:0:
352,96,19548,1,8,0:0:0:0:
352,96,19812,1,8,0:0:0:0:
352,96,20075,1,8,0:0:0:0:
160,96,20250,5,0,0:0:0:0:
160,96,20426,1,0,0:0:0:0:
352,96,20601,1,8,0:0:0:0:
352,96,20952,1,8,0:0:0:0:
352,96,21040,1,8,0:0:0:0:
352,96,21215,1,8,0:0:0:0:
352,96,21478,1,8,0:0:0:0:
160,96,21654,1,0,0:0:0:0:
160,96,21829,1,0,0:0:0:0:
352,96,22004,1,8,0:0:0:0:
352,96,22355,1,8,0:0:0:0:
352,96,22619,1,8,0:0:0:0:
352,96,22882,1,8,0:0:0:0:
160,96,23057,1,0,0:0:0:0:
160,96,23233,1,0,0:0:0:0:
352,96,23408,1,8,0:0:0:0:
160,96,23583,1,0,0:0:0:0:
160,96,23671,1,0,0:0:0:0:
352,96,23759,1,8,0:0:0:0:
160,96,23934,1,0,0:0:0:0:
352,96,24110,1,8,0:0:0:0:
160,96,24461,1,0,0:0:0:0:
160,96,24636,1,0,0:0:0:0:
352,96,24812,1,8,0:0:0:0:
352,96,25162,1,8,0:0:0:0:
352,96,25426,1,8,0:0:0:0:
352,96,25601,1,8,0:0:0:0:
352,96,25689,1,8,0:0:0:0:
160,96,25864,1,0,0:0:0:0:
160,96,26040,1,0,0:0:0:0:
352,96,26215,1,8,0:0:0:0:
352,96,26566,1,8,0:0:0:0:
352,96,26829,1,8,0:0:0:0:
352,96,27092,1,8,0:0:0:0:
160,96,27268,1,0,0:0:0:0:
160,96,27443,1,0,0:0:0:0:
352,96,27619,1,8,0:0:0:0:
352,96,27969,1,8,0:0:0:0:
352,96,28145,1,8,0:0:0:0:
352,96,28233,1,8,0:0:0:0:
352,96,28320,1,8,0:0:0:0:
352,288,28496,1,12,0:0:0:0:
160,96,28847,1,0,0:0:0:0:
160,96,29022,1,0,0:0:0:0:
352,288,29197,1,12,0:0:0:0:
352,96,29548,1,8,0:0:0:0:
352,96,29724,1,8,0:0:0:0:
352,96,29812,1,8,0:0:0:0:
352,96,29899,1,8,0:0:0:0:
160,288,30075,1,4,0:0:0:0:
160,96,30250,1,0,0:0:0:0:
352,96,30426,1,8,0:0:0:0:
160,96,30776,1,0,0:0:0:0:
160,96,31040,1,0,0:0:0:0:
352,96,31127,1,8,0:0:0:0:
352,96,31303,1,8,0:0:0:0:
160,96,31478,1,0,0:0:0:0:
352,96,31654,1,8,0:0:0:0:
160,96,31829,1,0,0:0:0:0:
352,96,32180,1,8,0:0:0:0:
352,96,32443,1,8,0:0:0:0:
160,96,32531,1,0,0:0:0:0:
352,96,32706,1,8,0:0:0:0:
160,96,32882,1,0,0:0:0:0:
160,96,33057,1,0,0:0:0:0:
352,96,33233,1,8,0:0:0:0:
160,96,33583,1,0,0:0:0:0:
160,96,33847,1,0,0:0:0:0:
352,96,33934,1,8,0:0:0:0:
352,96,34110,1,8,0:0:0:0:
160,96,34285,1,0,0:0:0:0:
160,96,34461,1,0,0:0:0:0:
352,96,34636,1,8,0:0:0:0:
160,96,34812,1,0,0:0:0:0:
160,96,35162,1,0,0:0:0:0:
352,96,35338,1,8,0:0:0:0:
160,288,35689,1,0,0:0:0:0:
160,96,35864,1,0,0:0:0:0:
352,96,36040,1,8,0:0:0:0:
352,96,36215,1,8,0:0:0:0:
352,96,36303,1,8,0:0:0:0:
160,96,36390,1,0,0:0:0:0:
160,96,36654,1,0,0:0:0:0:
352,96,36741,1,8,0:0:0:0:
352,96,36917,1,8,0:0:0:0:
160,96,37092,1,0,0:0:0:0:
160,96,37443,1,0,0:0:0:0:
352,96,37619,1,8,0:0:0:0:
160,96,37794,1,0,0:0:0:0:
352,96,38057,1,8,0:0:0:0:
352,96,38320,1,8,0:0:0:0:
160,288,38496,1,4,0:0:0:0:
160,96,38847,1,0,0:0:0:0:
352,96,39022,1,8,0:0:0:0:
160,96,39197,1,0,0:0:0:0:
160,96,39373,1,0,0:0:0:0:
160,96,39461,1,0,0:0:0:0:
352,96,39548,1,8,0:0:0:0:
352,96,39724,1,8,0:0:0:0:
160,288,39899,5,4,0:0:0:0:
352,96,40250,5,8,0:0:0:0:
160,96,40514,1,0,0:0:0:0:
160,96,40601,1,0,0:0:0:0:
160,96,40777,1,0,0:0:0:0:
352,96,40952,1,8,0:0:0:0:
160,96,41303,1,0,0:0:0:0:
160,96,41566,1,0,0:0:0:0:
352,96,41654,1,8,0:0:0:0:
352,96,41829,1,8,0:0:0:0:
160,96,42005,1,0,0:0:0:0:
352,96,42092,1,8,0:0:0:0:
160,96,42180,1,0,0:0:0:0:
352,96,42356,1,8,0:0:0:0:
160,96,42707,5,0,0:0:0:0:
352,96,43057,1,8,0:0:0:0:
160,96,43321,1,0,0:0:0:0:
352,96,43408,1,8,0:0:0:0:
160,96,43584,1,0,0:0:0:0:
352,96,43759,1,8,0:0:0:0:
160,96,44110,1,0,0:0:0:0:
160,96,44285,1,0,0:0:0:0:
352,96,44461,1,8,0:0:0:0:
160,96,44636,1,0,0:0:0:0:
352,96,44812,1,8,0:0:0:0:
352,96,44900,1,8,0:0:0:0:
160,96,44987,1,0,0:0:0:0:
352,96,45163,1,8,0:0:0:0:
352,96,45338,1,8,0:0:0:0:
160,288,45514,5,4,0:0:0:0:
352,96,45864,5,8,0:0:0:0:
160,96,46215,1,0,0:0:0:0:
160,96,46478,1,0,0:0:0:0:
352,96,46566,1,8,0:0:0:0:
352,96,46742,1,8,0:0:0:0:
160,96,46917,1,0,0:0:0:0:
352,96,47268,1,8,0:0:0:0:
352,96,47443,1,8,0:0:0:0:
160,96,47619,1,0,0:0:0:0:
352,96,47707,1,8,0:0:0:0:
160,96,47882,1,0,0:0:0:0:
352,96,47970,1,8,0:0:0:0:
352,96,48145,1,8,0:0:0:0:
160,96,48321,5,0,0:0:0:0:
352,96,48671,1,8,0:0:0:0:
160,96,49022,1,0,0:0:0:0:
160,96,49285,1,0,0:0:0:0:
352,96,49373,1,8,0:0:0:0:
352,96,49549,1,8,0:0:0:0:
160,96,49724,1,0,0:0:0:0:
352,96,50075,1,8,0:0:0:0:
160,96,50250,1,0,0:0:0:0:
352,96,50338,1,8,0:0:0:0:
160,96,50426,1,0,0:0:0:0:
160,96,50689,1,0,0:0:0:0:
352,288,50952,1,12,0:0:0:0:
160,96,51303,1,0,0:0:0:0:
160,96,51478,1,0,0:0:0:0:
160,96,51742,1,0,0:0:0:0:
160,96,51829,1,0,0:0:0:0:
160,96,52005,1,0,0:0:0:0:
352,96,52180,1,8,0:0:0:0:
352,288,52531,1,4,0:0:0:0:
160,96,52882,1,0,0:0:0:0:
160,96,53145,1,0,0:0:0:0:
160,96,53233,1,0,0:0:0:0:
160,96,53408,1,0,0:0:0:0:
352,96,53584,1,8,0:0:0:0:
352,288,53935,1,12,0:0:0:0:
352,96,54285,1,8,0:0:0:0:
352,96,54461,1,8,0:0:0:0:
352,96,54549,1,8,0:0:0:0:
352,96,54636,1,8,0:0:0:0:
352,96,54812,1,8,0:0:0:0:
352,96,54987,1,8,0:0:0:0:
352,96,55075,1,8,0:0:0:0:
160,96,55163,1,0,0:0:0:0:
352,96,55514,1,8,0:0:0:0:
352,96,55689,1,8,0:0:0:0:
352,96,56040,1,8,0:0:0:0:
160,96,56215,1,0,0:0:0:0:
352,96,56391,1,8,0:0:0:0:
160,288,56566,1,4,0:0:0:0:
160,288,56917,1,4,0:0:0:0:
352,288,57092,1,12,0:0:0:0:
160,288,58145,1,4,0:0:0:0:
352,96,58495,1,8,0:0:0:0:
160,96,58671,1,0,0:0:0:0:
352,96,58846,1,8,0:0:0:0:
352,96,58934,1,8,0:0:0:0:
160,96,59022,1,0,0:0:0:0:
352,96,59197,1,8,0:0:0:0:
160,96,59373,1,0,0:0:0:0:
160,96,59723,1,0,0:0:0:0:
352,96,59899,1,8,0:0:0:0:
160,96,60074,1,0,0:0:0:0:
352,96,60162,1,8,0:0:0:0:
160,96,60250,1,0,0:0:0:0:
352,96,60425,1,8,0:0:0:0:
352,96,60601,1,8,0:0:0:0:
160,96,60776,1,0,0:0:0:0:
160,96,60864,1,0,0:0:0:0:
160,96,60952,1,0,0:0:0:0:
352,96,61302,1,8,0:0:0:0:
160,96,61478,1,0,0:0:0:0:
352,96,61653,1,8,0:0:0:0:
352,96,61741,1,8,0:0:0:0:
160,96,61829,1,0,0:0:0:0:
352,96,62004,1,8,0:0:0:0:
160,96,62180,1,0,0:0:0:0:
160,96,62530,1,0,0:0:0:0:
352,96,62706,1,8,0:0:0:0:
160,96,62881,1,0,0:0:0:0:
352,96,62969,1,8,0:0:0:0:
160,96,63057,1,0,0:0:0:0:
352,96,63232,1,8,0:0:0:0:
352,96,63408,1,8,0:0:0:0:
352,96,63495,1,8,0:0:0:0:
352,96,63583,1,8,0:0:0:0:
160,288,63759,1,4,0:0:0:0:
352,96,64109,1,8,0:0:0:0:
352,96,64285,1,8,0:0:0:0:
160,96,64460,1,0,0:0:0:0:
160,96,64548,1,0,0:0:0:0:
160,96,64636,1,0,0:0:0:0:
352,96,64811,1,8,0:0:0:0:
160,96,65162,1,0,0:0:0:0:
352,96,65513,1,8,0:0:0:0:
352,96,65688,1,8,0:0:0:0:
160,96,65864,1,0,0:0:0:0:
352,96,65952,1,8,0:0:0:0:
160,96,66039,1,0,0:0:0:0:
352,96,66215,1,8,0:0:0:0:
160,96,66566,1,0,0:0:0:0:
160,96,66741,1,0,0:0:0:0:
352,96,66916,1,8,0:0:0:0:
160,96,67092,1,0,0:0:0:0:
160,96,67180,1,0,0:0:0:0:
160,96,67267,1,0,0:0:0:0:
160,96,67443,1,0,0:0:0:0:
352,96,67618,1,8,0:0:0:0:
160,96,67794,1,0,0:0:0:0:
160,96,68145,1,0,0:0:0:0:
352,96,68320,1,8,0:0:0:0:
160,96,68495,1,0,0:0:0:0:
160,96,68583,1,0,0:0:0:0:
352,96,68671,1,8,0:0:0:0:
160,96,68846,1,0,0:0:0:0:
352,96,69022,1,8,0:0:0:0:
352,96,69109,1,8,0:0:0:0:
352,96,69197,1,0,0:0:0:0:
160,288,69373,1,4,0:0:0:0:
352,96,69723,1,8,0:0:0:0:
352,96,69899,1,8,0:0:0:0:
352,96,69987,1,8,0:0:0:0:
160,96,70074,1,0,0:0:0:0:
160,96,70250,1,0,0:0:0:0:
352,96,70425,1,8,0:0:0:0:
160,96,70601,1,0,0:0:0:0:
160,96,70952,1,0,0:0:0:0:
352,96,71127,1,8,0:0:0:0:
160,96,71302,1,0,0:0:0:0:
352,96,71390,1,8,0:0:0:0:
160,96,71478,1,0,0:0:0:0:
352,96,71653,1,8,0:0:0:0:
352,96,71829,1,8,0:0:0:0:
160,96,72004,1,0,0:0:0:0:
160,96,72092,1,0,0:0:0:0:
160,96,72180,1,0,0:0:0:0:
352,96,72530,1,8,0:0:0:0:
160,96,72706,1,0,0:0:0:0:
352,96,72794,1,8,0:0:0:0:
352,96,72881,1,8,0:0:0:0:
160,96,73057,1,0,0:0:0:0:
352,96,73232,1,8,0:0:0:0:
352,96,73408,1,8,0:0:0:0:
160,96,73759,1,0,0:0:0:0:
352,96,73934,1,8,0:0:0:0:
160,96,74109,1,0,0:0:0:0:
160,96,74285,1,0,0:0:0:0:
352,96,74373,1,8,0:0:0:0:
352,96,74636,1,8,0:0:0:0:
352,96,74811,1,8,0:0:0:0:
160,288,74987,1,4,0:0:0:0:
352,96,75337,1,8,0:0:0:0:
160,96,75513,1,0,0:0:0:0:
160,96,75601,1,0,0:0:0:0:
160,96,75688,1,0,0:0:0:0:
160,96,75864,1,0,0:0:0:0:
352,96,76039,1,8,0:0:0:0:
352,96,76215,1,8,0:0:0:0:
160,288,76390,1,4,0:0:0:0:
352,96,76741,1,8,0:0:0:0:
160,96,76916,1,0,0:0:0:0:
352,96,77092,1,8,0:0:0:0:
352,96,77180,1,8,0:0:0:0:
352,96,77355,1,8,0:0:0:0:
160,96,77443,1,0,0:0:0:0:
160,96,77618,1,0,0:0:0:0:
352,96,77794,1,8,0:0:0:0:
352,96,77881,1,8,0:0:0:0:
352,96,77969,1,8,0:0:0:0:
160,96,78145,1,0,0:0:0:0:
352,96,78320,1,8,0:0:0:0:
352,96,78408,1,8,0:0:0:0:
352,96,78495,1,8,0:0:0:0:
160,96,78671,1,0,0:0:0:0:
352,96,78846,1,8,0:0:0:0:
352,96,78934,1,8,0:0:0:0:
352,96,79022,1,8,0:0:0:0:
160,288,79197,1,4,0:0:0:0:
160,96,79548,1,0,0:0:0:0:
352,288,79899,1,12,0:0:0:0:
160,96,80250,1,0,0:0:0:0:
352,288,80601,1,12,0:0:0:0:
160,96,80952,1,0,0:0:0:0:
160,96,81215,1,0,0:0:0:0:
160,96,81302,1,0,0:0:0:0:
160,96,81478,1,0,0:0:0:0:
160,96,81653,1,0,0:0:0:0:
352,288,82004,1,4,0:0:0:0:
160,96,82355,1,0,0:0:0:0:
160,96,82618,1,0,0:0:0:0:
160,96,82706,1,0,0:0:0:0:
160,96,82881,1,0,0:0:0:0:
160,96,83057,1,0,0:0:0:0:
352,288,83408,1,12,0:0:0:0:
160,96,83759,1,0,0:0:0:0:
160,96,83934,1,0,0:0:0:0:
160,96,84022,1,0,0:0:0:0:
160,96,84109,1,0,0:0:0:0:
160,96,84285,1,0,0:0:0:0:
352,96,84460,1,8,0:0:0:0:
160,96,84636,1,0,0:0:0:0:
160,96,84723,1,0,0:0:0:0:
352,288,85162,1,12,0:0:0:0:
160,96,85513,1,0,0:0:0:0:
160,96,85601,1,0,0:0:0:0:
160,96,85688,1,0,0:0:0:0:
352,96,85864,1,0,0:0:0:0:
160,96,86039,1,0,0:0:0:0:
160,96,86127,1,0,0:0:0:0:
160,96,86215,1,0,0:0:0:0:
352,288,86390,1,12,0:0:0:0:
352,288,86566,1,12,0:0:0:0:
352,288,86741,1,12,0:0:0:0:
