osu file format v14

[General]
AudioFilename: audio.mp3
AudioLeadIn: 0
PreviewTime: 58100
Countdown: 0
SampleSet: Normal
StackLeniency: 0.7
Mode: 1
LetterboxInBreaks: 0
WidescreenStoryboard: 0

[Editor]
Bookmarks: 2001,7615,13229,18843,30071,39895,51123,58141,69369,80597
DistanceSpacing: 1.7
BeatDivisor: 4
GridSize: 32
TimelineZoom: 0.7000002

[Metadata]
Title:YOIMACHI CANTARE (TV Size)
TitleUnicode:よいまちカンターレ (TV Size)
Artist:CORO MACHIKADO
ArtistUnicode:コーロまちカド
Creator:komasy
Version:Nardo's Muzukashii
Source:まちカドまぞく
Tags:Machikado Mazoku The Demon Girl Next Door ED Ending Japanese Anime J-POP J POP 芳文社 Houbunsha 小原好美 Kohara Konomi 鬼頭明里 Kito Kitou Akari 高橋未奈美 Takahashi Minami 高柳知葉 Takayanagi Tomoyo 吉田優子 Yoshida Yuko Yuuko シャミ子 Shamiko 千代田桃 Chiyoda Momo リリス Lilith 陽夏木ミカン Hinatsuki Mikan Nardoxyribonucleic
BeatmapID:2251485
BeatmapSetID:1073820

[Difficulty]
HPDrainRate:6
CircleSize:5
OverallDifficulty:5
ApproachRate:5
SliderMultiplier:1.4
SliderTickRate:1

[Events]
//Background and Video events
0,0,"BG2.jpg",0,70
Video,0,"ED.mp4"
//Break Periods
//Storyboard Layer 0 (Background)
//Storyboard Layer 1 (Fail)
//Storyboard Layer 2 (Pass)
//Storyboard Layer 3 (Foreground)
//Storyboard Layer 4 (Overlay)
//Storyboard Sound Samples

[TimingPoints]
-802,350.877192982456,4,1,0,70,1,0
2005,350.877192982456,4,1,0,70,1,0
39899,350.877192982456,4,1,0,70,1,8
39900,350.877192982456,4,1,0,70,1,0
58057,-100,4,1,0,80,0,0
58145,350.877192982456,4,1,0,80,1,1
58145,-100,4,1,0,80,0,1
80513,-100,4,1,0,70,0,1
80601,-100,4,1,0,70,0,0
86390,-100,4,1,0,70,0,1
87618,-100,4,1,0,70,0,0

[HitObjects]
160,96,601,5,0,0:0:0:0:
352,96,776,1,8,0:0:0:0:
352,96,864,1,8,0:0:0:0:
352,96,952,1,8,0:0:0:0:
352,96,1127,1,8,0:0:0:0:
160,96,1303,1,0,0:0:0:0:
352,96,1478,1,8,0:0:0:0:
160,96,1654,1,0,0:0:0:0:
160,288,2005,1,4,0:0:0:0:
352,96,2180,1,8,0:0:0:0:
160,96,2531,1,0,0:0:0:0:
352,96,2706,1,8,0:0:0:0:
352,96,2882,1,8,0:0:0:0:
352,96,2969,1,8,0:0:0:0:
352,96,3057,1,8,0:0:0:0:
160,96,3233,1,0,0:0:0:0:
352,96,3583,1,8,0:0:0:0:
160,96,3759,1,0,0:0:0:0:
352,96,3934,1,8,0:0:0:0:
160,96,4110,1,0,0:0:0:0:
160,96,4197,1,0,0:0:0:0:
352,96,4461,1,8,0:0:0:0:
352,96,4636,1,8,0:0:0:0:
160,288,4812,1,4,0:0:0:0:
352,96,4987,1,8,0:0:0:0:
352,96,5338,1,8,0:0:0:0:
160,96,5513,1,0,0:0:0:0:
160,96,5689,1,0,0:0:0:0:
160,96,5776,1,0,0:0:0:0:
160,96,5864,1,0,0:0:0:0:
352,96,6040,1,8,0:0:0:0:
160,96,6390,1,0,0:0:0:0:
352,96,6566,1,8,0:0:0:0:
160,96,6741,1,0,0:0:0:0:
352,96,6917,1,8,0:0:0:0:
352,96,7004,1,8,0:0:0:0:
352,96,7092,1,8,0:0:0:0:
160,96,7268,1,0,0:0:0:0:
160,288,7619,1,4,0:0:0:0:
352,96,7969,1,8,0:0:0:0:
160,96,8145,1,0,0:0:0:0:
352,96,8320,1,8,0:0:0:0:
352,96,8408,1,8,0:0:0:0:
352,96,8496,1,8,0:0:0:0:
352,96,8671,1,8,0:0:0:0:
160,96,8847,1,0,0:0:0:0:
352,96,9197,1,8,0:0:0:0:
160,96,9373,1,0,0:0:0:0:
352,96,9548,1,8,0:0:0:0:
352,96,9724,1,8,0:0:0:0:
352,96,9812,1,8,0:0:0:0:
160,96,10075,1,0,0:0:0:0:
352,96,10250,1,8,0:0:0:0:
160,96,10426,1,0,0:0:0:0:
352,96,10776,1,8,0:0:0:0:
160,96,10952,1,0,0:0:0:0:
160,96,11127,1,0,0:0:0:0:
160,96,11215,1,0,0:0:0:0:
160,96,11303,1,0,0:0:0:0:
352,96,11478,1,8,0:0:0:0:
160,96,11654,1,0,0:0:0:0:
352,96,12004,1,8,0:0:0:0:
160,96,12180,1,0,0:0:0:0:
352,96,12355,1,8,0:0:0:0:
352,96,12531,1,8,0:0:0:0:
352,96,12619,1,8,0:0:0:0:
352,96,12706,1,8,0:0:0:0:
160,96,12882,1,0,0:0:0:0:
160,96,12969,1,0,0:0:0:0:
160,96,13057,1,0,0:0:0:0:
352,288,13233,1,12,0:0:0:0:
352,288,13408,1,12,0:0:0:0:
160,288,14636,1,4,0:0:0:0:
160,288,14812,1,4,0:0:0:0:
352,288,16040,1,12,0:0:0:0:
352,288,16215,1,12,0:0:0:0:
160,288,17268,1,4,0:0:0:0:
160,96,17619,1,0,0:0:0:0:
352,96,17794,1,8,0:0:0:0:
352,96,17969,1,8,0:0:0:0:
160,96,18145,1,0,0:0:0:0:
160,96,18320,1,0,0:0:0:0:
352,96,18496,1,8,0:0:0:0:
160,288,18847,1,4,0:0:0:0:
352,96,19197,1,8,0:0:0:0:
160,96,19373,1,0,0:0:0:0:
352,96,19548,1,8,0:0:0:0:
352,96,19812,1,8,0:0:0:0:
352,96,20075,1,8,0:0:0:0:
160,96,20426,1,0,0:0:0:0:
352,96,20601,1,8,0:0:0:0:
160,96,20776,1,0,0:0:0:0:
352,96,20952,1,8,0:0:0:0:
352,96,21040,1,8,0:0:0:0:
352,96,21215,1,8,0:0:0:0:
160,96,21478,1,0,0:0:0:0:
160,96,21829,1,0,0:0:0:0:
352,96,22004,1,8,0:0:0:0:
160,96,22180,1,0,0:0:0:0:
160,96,22355,1,0,0:0:0:0:
160,96,22619,1,0,0:0:0:0:
352,96,22882,1,8,0:0:0:0:
352,96,23057,1,8,0:0:0:0:
160,96,23408,1,0,0:0:0:0:
352,96,23759,1,8,0:0:0:0:
160,96,24110,1,0,0:0:0:0:
160,96,24461,1,0,0:0:0:0:
352,96,24812,1,8,0:0:0:0:
160,96,24987,1,0,0:0:0:0:
352,96,25162,1,8,0:0:0:0:
352,96,25426,1,8,0:0:0:0:
160,96,25601,1,0,0:0:0:0:
160,96,25689,1,0,0:0:0:0:
160,96,26040,1,0,0:0:0:0:
352,96,26215,1,8,0:0:0:0:
160,96,26390,1,0,0:0:0:0:
160,96,26566,1,0,0:0:0:0:
352,96,26829,1,8,0:0:0:0:
352,96,27092,1,8,0:0:0:0:
160,96,27268,1,0,0:0:0:0:
352,96,27969,1,8,0:0:0:0:
160,96,28233,1,0,0:0:0:0:
352,288,28496,1,12,0:0:0:0:
160,96,28847,1,0,0:0:0:0:
160,96,29022,1,0,0:0:0:0:
352,288,29197,1,12,0:0:0:0:
160,96,29548,1,0,0:0:0:0:
352,96,29724,1,8,0:0:0:0:
352,96,29812,1,8,0:0:0:0:
352,96,29899,1,8,0:0:0:0:
160,288,30075,1,4,0:0:0:0:
352,96,30426,1,8,0:0:0:0:
160,96,30601,1,0,0:0:0:0:
352,96,30776,1,8,0:0:0:0:
160,96,31040,1,0,0:0:0:0:
352,96,31303,1,8,0:0:0:0:
160,96,31478,1,0,0:0:0:0:
160,96,31654,1,0,0:0:0:0:
352,96,31829,1,8,0:0:0:0:
160,96,32004,1,0,0:0:0:0:
352,96,32180,1,8,0:0:0:0:
352,96,32443,1,8,0:0:0:0:
160,96,32706,1,0,0:0:0:0:
352,96,33057,1,8,0:0:0:0:
352,96,33233,1,8,0:0:0:0:
160,96,33408,1,0,0:0:0:0:
352,96,33583,1,8,0:0:0:0:
160,96,33847,1,0,0:0:0:0:
352,96,34110,1,8,0:0:0:0:
160,96,34285,1,0,0:0:0:0:
352,96,34636,1,8,0:0:0:0:
160,96,34812,1,0,0:0:0:0:
160,96,34899,1,0,0:0:0:0:
160,96,34987,1,0,0:0:0:0:
160,96,35162,1,0,0:0:0:0:
352,96,35338,1,8,0:0:0:0:
160,288,35689,1,4,0:0:0:0:
160,96,36040,1,0,0:0:0:0:
352,96,36390,1,8,0:0:0:0:
160,96,36654,1,0,0:0:0:0:
160,96,36917,1,0,0:0:0:0:
352,288,37092,1,12,0:0:0:0:
160,96,37443,1,0,0:0:0:0:
352,96,37794,1,8,0:0:0:0:
160,96,38057,1,0,0:0:0:0:
352,96,38320,1,8,0:0:0:0:
352,288,38496,1,12,0:0:0:0:
160,96,39197,1,0,0:0:0:0:
160,96,39373,1,0,0:0:0:0:
352,96,39548,1,8,0:0:0:0:
352,96,39724,1,8,0:0:0:0:
160,288,39899,1,4,0:0:0:0:
352,96,40250,1,8,0:0:0:0:
160,96,40601,1,0,0:0:0:0:
160,96,40777,1,0,0:0:0:0:
352,96,40952,1,8,0:0:0:0:
352,96,41303,1,8,0:0:0:0:
352,96,41566,1,8,0:0:0:0:
160,96,41829,1,0,0:0:0:0:
160,96,41917,1,0,0:0:0:0:
160,96,42005,1,0,0:0:0:0:
160,96,42180,1,0,0:0:0:0:
352,96,42356,1,8,0:0:0:0:
160,96,42707,1,0,0:0:0:0:
352,96,43057,1,8,0:0:0:0:
160,96,43233,1,0,0:0:0:0:
352,96,43408,1,8,0:0:0:0:
352,96,43759,1,8,0:0:0:0:
160,96,44110,1,0,0:0:0:0:
352,96,44461,1,8,0:0:0:0:
160,96,44636,1,0,0:0:0:0:
160,96,44724,1,0,0:0:0:0:
160,96,44812,1,0,0:0:0:0:
160,96,44987,1,0,0:0:0:0:
352,96,45163,1,8,0:0:0:0:
352,96,45338,1,8,0:0:0:0:
160,288,45514,1,4,0:0:0:0:
352,96,45864,1,8,0:0:0:0:
160,96,46215,1,0,0:0:0:0:
160,96,46478,1,0,0:0:0:0:
352,96,46742,1,8,0:0:0:0:
352,96,46917,1,8,0:0:0:0:
352,96,47268,1,8,0:0:0:0:
160,96,47443,1,0,0:0:0:0:
352,96,47619,1,8,0:0:0:0:
160,96,47882,1,0,0:0:0:0:
352,288,48145,1,12,0:0:0:0:
160,96,48321,1,0,0:0:0:0:
352,96,48671,1,8,0:0:0:0:
160,96,49022,1,0,0:0:0:0:
160,96,49198,1,0,0:0:0:0:
352,96,49373,1,8,0:0:0:0:
160,96,49724,1,0,0:0:0:0:
160,96,50426,1,0,0:0:0:0:
160,96,50689,1,0,0:0:0:0:
352,288,50952,1,12,0:0:0:0:
160,96,51303,1,0,0:0:0:0:
160,96,51478,1,0,0:0:0:0:
160,96,51829,1,0,0:0:0:0:
352,96,52180,1,8,0:0:0:0:
160,288,52531,1,4,0:0:0:0:
352,96,52882,1,8,0:0:0:0:
160,96,53233,1,0,0:0:0:0:
160,96,53408,1,0,0:0:0:0:
352,96,53584,1,8,0:0:0:0:
352,288,53935,1,12,0:0:0:0:
160,96,54285,1,0,0:0:0:0:
160,96,54373,1,0,0:0:0:0:
160,96,54461,1,0,0:0:0:0:
352,96,54636,1,8,0:0:0:0:
352,96,54812,1,8,0:0:0:0:
352,96,54899,1,8,0:0:0:0:
352,96,54987,1,8,0:0:0:0:
160,288,55163,1,4,0:0:0:0:
352,288,55514,1,12,0:0:0:0:
352,288,55689,1,12,0:0:0:0:
160,288,56040,1,4,0:0:0:0:
160,288,56215,1,4,0:0:0:0:
352,288,56391,1,12,0:0:0:0:
160,288,56566,1,4,0:0:0:0:
352,288,56917,1,12,0:0:0:0:
352,288,57092,1,12,0:0:0:0:
160,288,58145,1,4,0:0:0:0:
352,96,58495,1,8,0:0:0:0:
160,96,58846,1,0,0:0:0:0:
352,96,59022,1,8,0:0:0:0:
352,96,59197,1,8,0:0:0:0:
160,96,59373,1,0,0:0:0:0:
352,96,59723,1,8,0:0:0:0:
352,96,59899,1,8,0:0:0:0:
160,96,60074,1,0,0:0:0:0:
160,96,60162,1,0,0:0:0:0:
352,96,60250,1,8,0:0:0:0:
160,96,60425,1,0,0:0:0:0:
352,96,60601,1,8,0:0:0:0:
352,96,60776,1,8,0:0:0:0:
160,96,60952,1,0,0:0:0:0:
352,96,61302,1,8,0:0:0:0:
160,96,61653,1,0,0:0:0:0:
352,96,61829,1,8,0:0:0:0:
160,96,62004,1,0,0:0:0:0:
352,96,62180,1,8,0:0:0:0:
352,96,62530,1,8,0:0:0:0:
352,96,62706,1,8,0:0:0:0:
160,96,62881,1,0,0:0:0:0:
160,96,62969,1,0,0:0:0:0:
160,96,63057,1,0,0:0:0:0:
160,96,63232,1,0,0:0:0:0:
352,96,63408,1,8,0:0:0:0:
160,288,63759,1,4,0:0:0:0:
352,96,64109,1,8,0:0:0:0:
352,96,64285,1,8,0:0:0:0:
160,96,64460,1,0,0:0:0:0:
352,96,64811,1,8,0:0:0:0:
160,96,65162,1,0,0:0:0:0:
160,96,65337,1,0,0:0:0:0:
352,96,65513,1,8,0:0:0:0:
160,96,65688,1,0,0:0:0:0:
352,96,65864,1,8,0:0:0:0:
160,96,66215,1,0,0:0:0:0:
352,288,66566,1,12,0:0:0:0:
160,96,66916,1,0,0:0:0:0:
352,96,67092,1,8,0:0:0:0:
352,96,67443,1,8,0:0:0:0:
160,96,67618,1,0,0:0:0:0:
352,288,67794,1,12,0:0:0:0:
160,96,68145,1,0,0:0:0:0:
352,96,68320,1,8,0:0:0:0:
160,288,68495,1,4,0:0:0:0:
352,96,68846,1,8,0:0:0:0:
352,96,68934,1,8,0:0:0:0:
352,96,69022,1,8,0:0:0:0:
160,96,69197,1,0,0:0:0:0:
160,288,69373,1,4,0:0:0:0:
352,96,69723,1,8,0:0:0:0:
160,96,70074,1,0,0:0:0:0:
352,96,70250,1,8,0:0:0:0:
352,96,70425,1,8,0:0:0:0:
160,96,70601,1,0,0:0:0:0:
352,96,70952,1,8,0:0:0:0:
352,96,71127,1,8,0:0:0:0:
160,96,71302,1,0,0:0:0:0:
352,96,71478,1,8,0:0:0:0:
352,96,71566,1,8,0:0:0:0:
160,96,71653,1,0,0:0:0:0:
160,96,71829,1,0,0:0:0:0:
352,96,72004,1,8,0:0:0:0:
352,96,72180,1,8,0:0:0:0:
160,96,72530,1,0,0:0:0:0:
352,288,72706,1,12,0:0:0:0:
160,288,73057,1,4,0:0:0:0:
352,288,73408,1,12,0:0:0:0:
352,96,73934,1,8,0:0:0:0:
160,96,74285,1,0,0:0:0:0:
352,96,74460,1,8,0:0:0:0:
352,96,74548,1,8,0:0:0:0:
352,96,74636,1,8,0:0:0:0:
160,96,74811,1,0,0:0:0:0:
352,288,74987,1,12,0:0:0:0:
352,96,75337,1,8,0:0:0:0:
160,96,75513,1,0,0:0:0:0:
160,96,75864,1,0,0:0:0:0:
352,96,76039,1,8,0:0:0:0:
160,96,76215,1,0,0:0:0:0:
352,96,76566,1,8,0:0:0:0:
352,96,76741,1,8,0:0:0:0:
160,96,76916,1,0,0:0:0:0:
352,96,77092,1,8,0:0:0:0:
160,96,77355,1,0,0:0:0:0:
352,96,77618,1,8,0:0:0:0:
352,288,77794,1,12,0:0:0:0:
160,96,77969,1,0,0:0:0:0:
352,96,78320,1,8,0:0:0:0:
352,96,78408,1,8,0:0:0:0:
352,96,78495,1,8,0:0:0:0:
160,96,78671,1,0,0:0:0:0:
160,96,78846,1,0,0:0:0:0:
352,96,79022,1,8,0:0:0:0:
160,288,79197,1,4,0:0:0:0:
352,96,79373,1,8,0:0:0:0:
160,96,79723,1,0,0:0:0:0:
352,96,79899,1,12,0:0:0:0:
160,96,80074,1,0,0:0:0:0:
160,96,80250,1,0,0:0:0:0:
352,288,80601,1,12,0:0:0:0:
160,288,82004,1,4,0:0:0:0:
352,288,83408,1,12,0:0:0:0:
352,96,83934,1,8,0:0:0:0:
352,96,84022,1,8,0:0:0:0:
352,96,84109,1,8,0:0:0:0:
160,96,84285,1,0,0:0:0:0:
160,96,84460,1,0,0:0:0:0:
160,96,84636,1,0,0:0:0:0:
352,288,85162,1,12,0:0:0:0:
160,96,85513,1,0,0:0:0:0:
160,96,85601,1,0,0:0:0:0:
160,96,85688,1,0,0:0:0:0:
352,96,85864,1,8,0:0:0:0:
160,96,86039,1,0,0:0:0:0:
352,288,86390,1,12,0:0:0:0:
352,288,86566,1,12,0:0:0:0:
352,288,86741,1,12,0:0:0:0:
