osu file format v14

[General]
AudioFilename: audio.mp3
AudioLeadIn: 0
PreviewTime: 58100
Countdown: 0
SampleSet: Normal
StackLeniency: 0.7
Mode: 1
LetterboxInBreaks: 0
WidescreenStoryboard: 0

[Editor]
Bookmarks: 2001,7615,13229,18843,30071,39895,51123,58141,69369,80597
DistanceSpacing: 1.7
BeatDivisor: 2
GridSize: 4
TimelineZoom: 0.6999998

[Metadata]
Title:YOIMACHI CANTARE (TV Size)
TitleUnicode:よいまちカンターレ (TV Size)
Artist:CORO MACHIKADO
ArtistUnicode:コーロまちカド
Creator:komasy
Version:Kantan
Source:まちカドまぞく
Tags:Machikado Mazoku The Demon Girl Next Door ED Ending Japanese Anime J-POP J POP 芳文社 Houbunsha 小原好美 Kohara Konomi 鬼頭明里 Kito Kitou Akari 高橋未奈美 Takahashi Minami 高柳知葉 Takayanagi Tomoyo 吉田優子 Yoshida Yuko Yuuko シャミ子 Shamiko 千代田桃 Chiyoda Momo リリス Lilith 陽夏木ミカン Hinatsuki Mikan Nardoxyribonucleic
BeatmapID:2249191
BeatmapSetID:1073820

[Difficulty]
HPDrainRate:8
CircleSize:3
OverallDifficulty:3
ApproachRate:8
SliderMultiplier:1.4
SliderTickRate:1

[Events]
//Background and Video events
0,0,"BG2.jpg",0,70
Video,0,"ED.mp4"
//Break Periods
//Storyboard Layer 0 (Background)
//Storyboard Layer 1 (Fail)
//Storyboard Layer 2 (Pass)
//Storyboard Layer 3 (Foreground)
//Storyboard Layer 4 (Overlay)
//Storyboard Sound Samples

[TimingPoints]
-802,350.877192982456,4,1,0,70,1,0
2005,350.877192982456,4,1,0,70,1,0
39899,350.877192982456,4,1,0,70,1,8
39900,350.877192982456,4,1,0,70,1,0
58057,-100,4,1,0,80,0,0
58145,350.877192982456,4,1,0,80,1,1
58145,-100,4,1,0,80,0,1
80513,-100,4,1,0,70,0,1
80601,-100,4,1,0,70,0,0
86390,-100,4,1,0,70,0,1
87618,-100,4,1,0,70,0,0

[HitObjects]
256,192,601,12,0,1654,0:0:0:0:
352,288,2005,5,12,0:0:0:0:
352,96,2882,1,8,0:0:0:0:
160,96,3233,1,0,0:0:0:0:
352,96,3934,1,8,0:0:0:0:
160,96,4461,1,0,0:0:0:0:
352,288,4812,1,12,0:0:0:0:
352,96,5689,1,8,0:0:0:0:
352,96,6040,1,8,0:0:0:0:
352,96,6741,1,8,0:0:0:0:
352,96,7268,1,8,0:0:0:0:
160,288,7619,1,4,0:0:0:0:
352,96,8320,1,8,0:0:0:0:
160,96,8847,1,0,0:0:0:0:
160,96,9548,1,0,0:0:0:0:
160,96,10426,1,0,0:0:0:0:
352,96,11127,1,8,0:0:0:0:
160,96,11654,1,0,0:0:0:0:
352,96,12355,1,8,0:0:0:0:
352,288,13233,1,12,0:0:0:0:
352,288,14636,1,12,0:0:0:0:
352,288,16040,1,12,0:0:0:0:
352,288,17268,1,12,0:0:0:0:
352,96,17794,1,8,0:0:0:0:
352,96,18145,1,8,0:0:0:0:
352,96,18496,1,8,0:0:0:0:
160,288,18847,5,4,0:0:0:0:
160,96,20250,5,0,0:0:0:0:
352,96,20952,1,8,0:0:0:0:
160,96,21654,1,0,0:0:0:0:
160,96,23057,1,0,0:0:0:0:
352,96,23759,1,8,0:0:0:0:
352,96,24110,1,8,0:0:0:0:
160,96,24461,1,0,0:0:0:0:
160,96,25864,1,0,0:0:0:0:
352,96,26566,1,8,0:0:0:0:
160,96,27268,1,0,0:0:0:0:
352,96,28496,1,8,0:0:0:0:
352,96,29197,1,8,0:0:0:0:
352,96,29724,1,8,0:0:0:0:
160,288,30075,1,4,0:0:0:0:
352,96,31127,1,8,0:0:0:0:
160,96,31478,1,0,0:0:0:0:
352,96,32531,1,8,0:0:0:0:
160,96,32882,1,0,0:0:0:0:
352,96,33934,1,8,0:0:0:0:
160,96,34285,1,0,0:0:0:0:
352,96,34636,1,8,0:0:0:0:
352,96,35338,1,8,0:0:0:0:
160,96,35689,1,0,0:0:0:0:
160,96,36390,1,0,0:0:0:0:
352,96,37092,1,8,0:0:0:0:
352,96,37443,1,8,0:0:0:0:
160,96,37794,1,0,0:0:0:0:
160,96,38496,1,0,0:0:0:0:
160,96,39197,1,0,0:0:0:0:
352,96,39548,1,8,0:0:0:0:
160,288,39900,5,4,0:0:0:0:
352,96,40952,1,8,0:0:0:0:
160,96,41303,1,0,0:0:0:0:
352,96,42005,1,8,0:0:0:0:
352,96,42356,1,8,0:0:0:0:
160,96,42707,5,0,0:0:0:0:
352,96,43408,1,8,0:0:0:0:
160,96,44110,1,0,0:0:0:0:
160,96,44461,1,0,0:0:0:0:
352,96,44812,1,8,0:0:0:0:
160,288,45514,5,4,0:0:0:0:
352,96,46566,1,8,0:0:0:0:
160,96,46917,1,0,0:0:0:0:
352,96,47619,1,8,0:0:0:0:
352,96,47970,1,8,0:0:0:0:
160,96,48321,5,0,0:0:0:0:
352,96,49022,1,8,0:0:0:0:
160,96,49724,1,0,0:0:0:0:
352,96,50075,1,8,0:0:0:0:
160,96,50426,1,0,0:0:0:0:
352,288,50952,1,12,0:0:0:0:
352,288,52531,1,4,0:0:0:0:
352,288,53935,1,12,0:0:0:0:
160,96,55163,1,0,0:0:0:0:
352,96,55689,1,8,0:0:0:0:
352,96,56040,1,8,0:0:0:0:
160,96,56566,1,0,0:0:0:0:
352,288,57092,1,12,0:0:0:0:
160,288,58145,1,4,0:0:0:0:
352,96,58846,1,8,0:0:0:0:
160,96,59373,1,0,0:0:0:0:
160,96,59899,1,0,0:0:0:0:
352,96,60250,1,8,0:0:0:0:
160,96,60952,1,0,0:0:0:0:
352,96,61653,1,8,0:0:0:0:
160,96,62180,1,0,0:0:0:0:
160,96,62706,1,0,0:0:0:0:
352,96,63057,1,8,0:0:0:0:
352,96,63408,1,8,0:0:0:0:
160,288,63759,1,4,0:0:0:0:
352,288,64460,1,12,0:0:0:0:
160,288,65162,1,4,0:0:0:0:
352,288,65864,1,12,0:0:0:0:
352,288,66566,1,12,0:0:0:0:
352,96,67794,1,8,0:0:0:0:
160,96,68495,1,0,0:0:0:0:
352,96,69022,1,8,0:0:0:0:
160,288,69373,1,4,0:0:0:0:
352,96,70074,1,8,0:0:0:0:
160,96,70601,1,0,0:0:0:0:
160,96,71127,1,0,0:0:0:0:
352,96,71478,1,8,0:0:0:0:
160,96,72180,1,0,0:0:0:0:
352,96,72706,1,12,0:0:0:0:
352,96,73408,1,12,0:0:0:0:
352,96,74636,1,8,0:0:0:0:
160,96,74987,1,0,0:0:0:0:
352,96,75688,1,8,0:0:0:0:
160,96,76390,1,0,0:0:0:0:
160,96,76741,1,0,0:0:0:0:
352,96,77092,1,8,0:0:0:0:
352,96,77443,1,8,0:0:0:0:
256,192,77794,12,0,78846,0:0:0:0:
160,288,79197,5,4,0:0:0:0:
160,288,79899,1,4,0:0:0:0:
352,288,80601,1,12,0:0:0:0:
352,288,82004,1,4,0:0:0:0:
352,288,83408,1,12,0:0:0:0:
160,96,84285,1,0,0:0:0:0:
160,96,84636,1,0,0:0:0:0:
352,288,85162,1,12,0:0:0:0:
352,288,86390,1,12,0:0:0:0:
352,288,86741,1,12,0:0:0:0:
