osu file format v14

[General]
AudioFilename: Yoimachi Cantare.mp3
AudioLeadIn: 0
PreviewTime: 57276
Countdown: 0
SampleSet: Soft
StackLeniency: 0.7
Mode: 3
LetterboxInBreaks: 0
SpecialStyle: 0
WidescreenStoryboard: 1

[Editor]
DistanceSpacing: 0.8
BeatDivisor: 4
GridSize: 4
TimelineZoom: 2.4

[Metadata]
Title:YOIMACHI CANTARE (TV Size)
TitleUnicode:よいまちカンターレ (TV Size)
Artist:CORO MACHIKADO
ArtistUnicode:コーロまちカド
Creator:Mearry
Version:Hard
Source:まちカドまぞく
Tags:Machikado Mazoku The Demon Girl Next Door ED Ending Japanese Anime J-POP J POP 芳文社 Houbunsha Manga Time Kirara Carat 伊藤いづも Itou Izumo J.C.STAFF CD PONY CANYON 小原好美 Kohara Konomi 鬼頭明里 Kito Kitou Akari 高橋未奈美 Takahashi Minami 高柳知葉 Takayanagi Tomoyo 吉田優子 Yoshida Yuko Yuuko シャミ子 Shamiko 千代田桃 Chiyoda Momo リリス Lilith 陽夏木ミカン Hinatsuki Mikan
BeatmapID:4039016
BeatmapSetID:1950674

[Difficulty]
HPDrainRate:7.5
CircleSize:4
OverallDifficulty:7.5
ApproachRate:5
SliderMultiplier:1.4
SliderTickRate:1

[Events]
//Background and Video events
Video,0,"Yoimachi Cantare.mp4"
0,0,"Background.jpg",0,0
//Break Periods
//Storyboard Layer 0 (Background)
//Storyboard Layer 1 (Fail)
//Storyboard Layer 2 (Pass)
//Storyboard Layer 3 (Foreground)
//Storyboard Layer 4 (Overlay)
//Storyboard Sound Samples
Sample,63767,0,"Hat Close.wav",80

[TimingPoints]
785,350.877192982456,4,2,1,50,1,0
58328,-100.0,4,2,1,50,0,1
79381,-100.0,4,2,1,50,0,0

[HitObjects]
64,192,697,1,0,0:0:0:0:
320,192,784,1,2,0:0:0:0:
448,192,784,1,0,0:0:0:0:
192,192,872,1,8,0:0:0:0:
64,192,960,1,8,0:0:0:0:
320,192,1048,1,8,0:0:0:0:
192,192,1135,1,8,0:0:0:0:
448,192,1223,1,8,0:0:0:0:
320,192,1311,1,8,0:0:0:0:
192,192,1399,1,8,0:0:0:0:
64,192,1486,1,2,0:0:0:0:
448,192,1486,1,0,0:0:0:0:
320,192,1574,1,8,0:0:0:0:
192,192,1662,1,8,0:0:0:0:
64,192,1749,1,8,0:0:0:0:
320,192,1837,1,2,0:0:0:0:
448,192,1837,1,0,0:0:0:0:
192,192,1925,1,2,0:0:0:0:
320,192,2013,1,2,0:0:0:0:
192,192,2100,1,2,0:0:0:0:
64,192,2188,1,2,0:0:0:0:
448,192,2188,1,4,0:0:0:0:
192,192,2363,1,8,0:0:0:0:
320,192,2363,1,4,0:0:0:0:
64,192,2539,1,2,0:0:0:0:
192,192,2714,1,8,0:0:0:0:
448,192,2714,1,0,0:0:0:0:
320,192,2890,1,2,0:0:0:0:
64,192,2977,1,8,0:0:0:0:
192,192,2977,1,0,0:0:0:0:
448,192,3065,1,8,0:0:0:0:
320,192,3153,1,8,0:0:0:0:
192,192,3241,1,8,0:0:0:0:
448,192,3241,1,0,0:0:0:0:
64,192,3416,1,8,0:0:0:0:
320,192,3416,1,4,0:0:0:0:
192,192,3592,1,2,0:0:0:0:
320,192,3767,1,0,0:0:0:80:Hat Close.wav
448,192,3942,1,2,0:0:0:0:
64,192,4118,1,8,0:0:0:0:
192,192,4118,1,0,0:0:0:0:
448,192,4293,1,2,0:0:0:0:
64,192,4381,1,2,0:0:0:0:
192,192,4469,1,2,0:0:0:0:
448,192,4556,1,2,0:0:0:0:
320,192,4644,1,2,0:0:0:0:
64,192,4732,1,2,0:0:0:0:
192,192,4820,1,2,0:0:0:0:
320,192,4907,1,2,0:0:0:0:
64,192,4995,1,8,0:0:0:0:
448,192,4995,1,4,0:0:0:0:
192,192,5170,1,8,0:0:0:0:
320,192,5170,1,4,0:0:0:0:
448,192,5346,1,2,0:0:0:0:
64,192,5521,1,8,0:0:0:0:
192,192,5521,1,0,0:0:0:0:
320,192,5697,1,2,0:0:0:0:
192,192,5784,1,8,0:0:0:0:
448,192,5784,1,0,0:0:0:0:
64,192,5872,1,8,0:0:0:0:
448,192,5960,1,8,0:0:0:0:
192,192,6048,1,8,0:0:0:0:
320,192,6048,1,0,0:0:0:0:
64,192,6223,1,8,0:0:0:0:
192,192,6223,1,4,0:0:0:0:
448,192,6399,1,2,0:0:0:0:
320,192,6574,1,0,0:0:0:80:Hat Close.wav
192,192,6749,1,2,0:0:0:0:
64,192,6925,1,8,0:0:0:0:
448,192,6925,1,0,0:0:0:0:
320,192,7100,1,2,0:0:0:0:
64,192,7276,1,8,0:0:0:0:
448,192,7276,128,0,7802:0:0:0:0:
64,192,7451,1,8,0:0:0:0:
192,192,7451,1,0,0:0:0:0:
192,192,7627,1,8,0:0:0:0:
320,192,7627,1,0,0:0:0:0:
64,192,7802,1,4,0:0:0:0:
192,192,7802,128,2,9030:0:0:0:0:
320,192,7802,1,0,0:0:0:0:
448,192,7977,1,0,0:0:0:80:Hat Close.wav
320,192,8153,1,8,0:0:0:0:
448,192,8153,1,0,0:0:0:0:
64,192,8328,1,0,0:0:0:80:Hat Close.wav
64,192,8504,1,2,0:0:0:0:
320,192,8504,1,0,0:0:0:0:
448,192,8679,1,0,0:0:0:80:Hat Close.wav
64,192,8855,1,8,0:0:0:0:
448,192,8855,1,0,0:0:0:0:
320,192,9030,128,0,9732:0:0:0:80:Hat Close.wav
64,192,9206,1,2,0:0:0:0:
192,192,9206,1,0,0:0:0:0:
448,192,9381,1,0,0:0:0:80:Hat Close.wav
64,192,9556,1,8,0:0:0:0:
192,192,9556,1,0,0:0:0:0:
448,192,9732,128,0,10609:0:0:0:80:Hat Close.wav
320,192,9907,1,2,0:0:0:0:
64,192,9995,1,8,0:0:0:0:
192,192,9995,1,0,0:0:0:0:
320,192,10083,1,0,0:0:0:80:Hat Close.wav
64,192,10258,1,8,0:0:0:0:
320,192,10258,1,0,0:0:0:0:
192,192,10434,1,0,0:0:0:80:Hat Close.wav
320,192,10521,1,8,0:0:0:0:
64,192,10609,128,2,11837:0:0:0:0:
192,192,10609,1,0,0:0:0:0:
448,192,10784,1,0,0:0:0:80:Hat Close.wav
320,192,10960,1,8,0:0:0:0:
448,192,10960,1,0,0:0:0:0:
192,192,11135,1,0,0:0:0:80:Hat Close.wav
448,192,11311,1,0,0:0:0:0:
320,192,11486,1,0,0:0:0:80:Hat Close.wav
192,192,11662,1,8,0:0:0:0:
448,192,11662,1,0,0:0:0:0:
320,192,11837,128,0,12714:0:0:0:80:Hat Close.wav
64,192,12013,1,2,0:0:0:0:
192,192,12013,1,0,0:0:0:0:
448,192,12188,1,0,0:0:0:80:Hat Close.wav
64,192,12363,1,8,0:0:0:0:
448,192,12363,1,0,0:0:0:0:
192,192,12539,1,0,0:0:0:0:
64,192,12714,1,8,0:0:0:0:
448,192,12714,1,0,0:0:0:0:
320,192,12802,1,8,0:0:0:0:
192,192,12890,1,8,0:0:0:0:
320,192,12977,1,8,0:0:0:0:
64,192,13065,1,8,0:0:0:0:
448,192,13065,1,0,0:0:0:0:
192,192,13153,1,8,0:0:0:0:
320,192,13241,1,8,0:0:0:0:
448,192,13328,1,8,0:0:0:0:
64,192,13416,1,8,0:0:0:0:
192,192,13416,1,0,0:0:0:0:
64,192,13592,1,8,0:0:0:0:
192,192,13592,1,0,0:0:0:0:
320,192,13767,1,2,0:0:0:0:
448,192,13767,1,0,0:0:0:0:
192,192,13942,1,0,0:0:0:0:
64,192,14118,1,2,0:0:0:0:
448,192,14118,1,0,0:0:0:0:
320,192,14293,1,0,0:0:0:0:
192,192,14469,1,2,0:0:0:0:
448,192,14469,1,0,0:0:0:0:
64,192,14644,1,0,0:0:0:0:
320,192,14820,1,8,0:0:0:0:
448,192,14820,1,0,0:0:0:0:
320,192,14995,1,8,0:0:0:0:
448,192,14995,1,0,0:0:0:0:
64,192,15170,1,2,0:0:0:0:
192,192,15170,1,0,0:0:0:0:
320,192,15346,1,0,0:0:0:0:
64,192,15521,1,2,0:0:0:0:
448,192,15521,1,0,0:0:0:0:
192,192,15697,1,0,0:0:0:0:
320,192,15872,1,2,0:0:0:0:
448,192,15872,1,0,0:0:0:0:
192,192,16048,1,0,0:0:0:0:
64,192,16223,1,8,0:0:0:0:
448,192,16223,1,0,0:0:0:0:
64,192,16399,1,8,0:0:0:0:
448,192,16399,1,0,0:0:0:0:
192,192,16574,1,2,0:0:0:0:
320,192,16574,1,0,0:0:0:0:
448,192,16749,1,0,0:0:0:0:
64,192,16925,1,2,0:0:0:0:
192,192,16925,1,0,0:0:0:0:
320,192,17100,1,0,0:0:0:0:
192,192,17276,1,2,0:0:0:0:
448,192,17276,1,0,0:0:0:0:
64,192,17451,128,8,17802:0:0:0:0:
320,192,17451,1,0,0:0:0:0:
192,192,17802,128,8,17977:0:0:0:0:
448,192,17802,1,0,0:0:0:0:
64,192,17977,1,8,0:0:0:0:
320,192,17977,128,0,18153:0:0:0:0:
192,192,18153,1,8,0:0:0:0:
448,192,18153,128,0,18328:0:0:0:0:
64,192,18328,128,8,18504:0:0:0:0:
320,192,18328,1,0,0:0:0:0:
192,192,18504,128,8,18679:0:0:0:0:
448,192,18504,1,0,0:0:0:0:
64,192,18679,1,8,0:0:0:0:
320,192,18679,128,0,18855:0:0:0:0:
192,192,18855,1,8,0:0:0:0:
448,192,18855,128,0,19030:0:0:0:0:
64,192,19030,128,4,19381:0:0:0:0:
192,192,19030,128,2,19381:0:0:0:0:
320,192,19030,1,0,0:0:0:0:
320,192,19381,1,2,0:0:0:0:
448,192,19381,1,0,0:0:0:0:
448,192,19556,1,0,0:0:0:0:
64,192,19732,1,2,0:0:0:0:
320,192,19732,1,0,0:0:0:0:
64,192,19907,1,0,0:0:0:0:
320,192,20083,1,2,0:0:0:0:
448,192,20083,1,0,0:0:0:0:
320,192,20258,1,0,0:0:0:0:
64,192,20434,1,2,0:0:0:0:
448,192,20434,1,0,0:0:0:0:
64,192,20609,1,0,0:0:0:0:
192,192,20784,1,2,0:0:0:0:
448,192,20784,1,0,0:0:0:0:
192,192,20960,1,0,0:0:0:0:
64,192,21135,1,2,0:0:0:0:
448,192,21135,1,0,0:0:0:0:
448,192,21311,1,0,0:0:0:0:
64,192,21486,1,2,0:0:0:0:
192,192,21486,1,0,0:0:0:0:
192,192,21662,1,0,0:0:0:0:
320,192,21837,1,2,0:0:0:0:
448,192,21837,1,0,0:0:0:0:
448,192,22013,1,0,0:0:0:0:
64,192,22188,1,2,0:0:0:0:
320,192,22188,1,0,0:0:0:0:
64,192,22363,1,0,0:0:0:0:
192,192,22539,1,2,0:0:0:0:
448,192,22539,1,0,0:0:0:0:
448,192,22714,1,0,0:0:0:0:
192,192,22890,1,2,0:0:0:0:
320,192,22890,1,0,0:0:0:0:
192,192,23065,1,0,0:0:0:0:
64,192,23241,1,2,0:0:0:0:
448,192,23241,1,0,0:0:0:0:
448,192,23416,1,0,0:0:0:0:
64,192,23592,1,2,0:0:0:0:
320,192,23592,1,0,0:0:0:0:
64,192,23767,1,0,0:0:0:0:
192,192,23942,1,2,0:0:0:0:
320,192,23942,1,0,0:0:0:0:
320,192,24118,1,0,0:0:0:0:
192,192,24293,1,2,0:0:0:0:
448,192,24293,1,0,0:0:0:0:
192,192,24469,1,0,0:0:0:0:
64,192,24644,1,2,0:0:0:0:
448,192,24644,1,0,0:0:0:0:
64,192,24820,1,0,0:0:0:0:
320,192,24995,1,2,0:0:0:0:
448,192,24995,1,0,0:0:0:0:
192,192,25170,1,0,0:0:0:0:
320,192,25346,1,2,0:0:0:0:
448,192,25346,1,0,0:0:0:0:
64,192,25521,1,0,0:0:0:0:
192,192,25697,1,2,0:0:0:0:
320,192,25697,1,0,0:0:0:0:
448,192,25872,1,0,0:0:0:0:
64,192,26048,1,2,0:0:0:0:
320,192,26048,1,0,0:0:0:0:
64,192,26223,1,0,0:0:0:0:
192,192,26399,1,2,0:0:0:0:
448,192,26399,1,0,0:0:0:0:
320,192,26574,1,0,0:0:0:0:
192,192,26749,1,2,0:0:0:0:
448,192,26749,1,0,0:0:0:0:
64,192,26925,1,0,0:0:0:0:
320,192,27100,1,2,0:0:0:0:
448,192,27100,1,0,0:0:0:0:
192,192,27276,1,0,0:0:0:0:
64,192,27451,1,2,0:0:0:0:
448,192,27451,1,0,0:0:0:0:
320,192,27627,1,0,0:0:0:0:
192,192,27802,1,2,0:0:0:0:
448,192,27802,1,0,0:0:0:0:
64,192,27977,1,0,0:0:0:0:
320,192,28153,1,2,0:0:0:0:
448,192,28153,1,0,0:0:0:0:
64,192,28328,1,2,0:0:0:0:
192,192,28416,1,0,0:0:0:0:
320,192,28504,1,2,0:0:0:0:
192,192,28592,1,0,0:0:0:0:
64,192,28679,128,8,29030:0:0:0:0:
320,192,28679,1,4,0:0:0:0:
448,192,28679,1,0,0:0:0:0:
448,192,28855,1,2,0:0:0:0:
320,192,29030,1,0,0:0:0:0:
192,192,29206,1,2,0:0:0:0:
448,192,29206,1,0,0:0:0:0:
64,192,29381,1,8,0:0:0:0:
320,192,29381,1,4,0:0:0:0:
448,192,29381,128,0,29732:0:0:0:0:
192,192,29556,1,2,0:0:0:0:
64,192,29732,1,8,0:0:0:0:
192,192,29732,1,0,0:0:0:0:
64,192,29907,1,8,0:0:0:0:
448,192,29907,1,0,0:0:0:0:
192,192,29995,1,8,0:0:0:0:
320,192,30083,1,8,0:0:0:0:
192,192,30170,1,8,0:0:0:0:
64,192,30258,1,2,0:0:0:0:
320,192,30258,128,0,30609:0:0:0:0:
448,192,30258,128,0,30609:0:0:0:0:
64,192,30609,1,2,0:0:0:0:
192,192,30609,1,0,0:0:0:0:
448,192,30784,1,0,0:0:0:0:
64,192,30960,1,2,0:0:0:0:
192,192,30960,1,0,0:0:0:0:
320,192,31135,1,0,0:0:0:0:
64,192,31311,1,8,0:0:0:0:
320,192,31311,1,0,0:0:0:0:
448,192,31311,1,0,0:0:0:0:
192,192,31486,1,0,0:0:0:0:
64,192,31662,1,2,0:0:0:0:
448,192,31662,1,0,0:0:0:0:
320,192,31837,1,0,0:0:0:0:
192,192,32013,1,2,0:0:0:0:
448,192,32013,1,0,0:0:0:0:
64,192,32188,1,0,0:0:0:0:
320,192,32363,1,2,0:0:0:0:
448,192,32363,1,0,0:0:0:0:
192,192,32539,1,0,0:0:0:0:
64,192,32714,1,8,0:0:0:0:
192,192,32714,1,0,0:0:0:0:
448,192,32714,1,0,0:0:0:0:
320,192,32890,1,0,0:0:0:0:
64,192,33065,1,2,0:0:0:0:
192,192,33065,1,0,0:0:0:0:
448,192,33241,1,0,0:0:0:0:
64,192,33416,1,2,0:0:0:0:
320,192,33416,1,0,0:0:0:0:
192,192,33592,1,0,0:0:0:0:
320,192,33767,1,2,0:0:0:0:
448,192,33767,1,0,0:0:0:0:
448,192,33942,1,0,0:0:0:0:
64,192,34118,1,8,0:0:0:0:
192,192,34118,1,0,0:0:0:0:
320,192,34118,1,0,0:0:0:0:
192,192,34293,1,0,0:0:0:0:
64,192,34469,1,2,0:0:0:0:
448,192,34469,1,0,0:0:0:0:
320,192,34644,1,0,0:0:0:0:
192,192,34820,1,2,0:0:0:0:
448,192,34820,1,0,0:0:0:0:
192,192,34995,1,0,0:0:0:0:
64,192,35170,1,2,0:0:0:0:
448,192,35170,1,0,0:0:0:0:
320,192,35346,1,0,0:0:0:0:
192,192,35521,1,8,0:0:0:0:
320,192,35521,1,0,0:0:0:0:
448,192,35521,1,0,0:0:0:0:
64,192,35697,1,0,0:0:0:0:
192,192,35784,1,0,0:0:0:0:
320,192,35872,1,2,0:0:0:0:
448,192,35872,128,4,36486:0:0:0:0:
192,192,36048,1,0,0:0:0:0:
64,192,36135,1,0,0:0:0:0:
192,192,36223,1,2,0:0:0:0:
320,192,36223,1,0,0:0:0:0:
64,192,36399,1,0,0:0:0:0:
192,192,36486,1,0,0:0:0:0:
320,192,36574,128,2,37188:0:0:0:0:
448,192,36574,1,0,0:0:0:0:
64,192,36749,1,0,0:0:0:0:
192,192,36837,1,0,0:0:0:0:
64,192,36925,1,8,0:0:0:0:
448,192,36925,1,0,0:0:0:0:
192,192,37100,1,0,0:0:0:0:
64,192,37276,128,2,37890:0:0:0:0:
320,192,37276,1,4,0:0:0:0:
192,192,37451,1,0,0:0:0:0:
320,192,37627,1,2,0:0:0:0:
448,192,37627,1,0,0:0:0:0:
320,192,37802,1,0,0:0:0:0:
64,192,37977,1,2,0:0:0:0:
448,192,37977,1,0,0:0:0:0:
192,192,38241,1,2,0:0:0:0:
448,192,38241,1,0,0:0:0:0:
64,192,38504,1,2,0:0:0:0:
320,192,38504,1,0,0:0:0:0:
64,192,38679,128,2,39030:0:0:0:0:
448,192,38679,1,4,0:0:0:0:
320,192,39030,1,2,0:0:0:0:
64,192,39206,1,8,0:0:0:0:
192,192,39206,1,0,0:0:0:0:
448,192,39381,1,2,0:0:0:0:
320,192,39556,1,2,0:0:0:0:
192,192,39732,1,2,0:0:0:0:
64,192,39907,1,0,0:0:0:0:
448,192,40083,128,4,41486:0:0:0:0:
64,192,40434,1,8,0:0:0:0:
192,192,40434,1,0,0:0:0:0:
192,192,40784,1,2,0:0:0:0:
320,192,40784,1,0,0:0:0:0:
64,192,41135,1,8,0:0:0:0:
320,192,41135,1,0,0:0:0:0:
64,192,41486,1,2,0:0:0:0:
192,192,41486,128,0,42890:0:0:0:0:
320,192,41837,1,8,0:0:0:0:
448,192,41837,1,0,0:0:0:0:
64,192,42188,1,2,0:0:0:0:
320,192,42276,1,8,0:0:0:0:
448,192,42276,1,0,0:0:0:0:
64,192,42363,1,0,0:0:0:0:
64,192,42539,1,8,0:0:0:0:
448,192,42539,1,0,0:0:0:0:
64,192,42890,128,2,43592:0:0:0:0:
448,192,42890,1,0,0:0:0:0:
192,192,43241,1,8,0:0:0:0:
320,192,43241,1,0,0:0:0:0:
320,192,43592,128,2,44293:0:0:0:0:
448,192,43592,1,0,0:0:0:0:
64,192,43942,1,8,0:0:0:0:
192,192,43942,1,0,0:0:0:0:
192,192,44293,1,2,0:0:0:0:
448,192,44293,128,0,45697:0:0:0:0:
64,192,44644,1,8,0:0:0:0:
320,192,44644,1,0,0:0:0:0:
320,192,44995,1,2,0:0:0:0:
64,192,45083,1,8,0:0:0:0:
192,192,45083,1,0,0:0:0:0:
320,192,45170,1,0,0:0:0:0:
192,192,45346,1,8,0:0:0:0:
320,192,45346,1,0,0:0:0:0:
64,192,45521,1,8,0:0:0:0:
192,192,45521,1,0,0:0:0:0:
192,192,45697,128,2,47100:0:0:0:0:
320,192,45697,1,4,0:0:0:0:
64,192,46048,1,8,0:0:0:0:
448,192,46048,1,0,0:0:0:0:
64,192,46399,1,2,0:0:0:0:
320,192,46399,1,0,0:0:0:0:
320,192,46749,1,8,0:0:0:0:
448,192,46749,1,0,0:0:0:0:
64,192,47100,128,2,48504:0:0:0:0:
448,192,47100,1,0,0:0:0:0:
320,192,47451,1,8,0:0:0:0:
448,192,47451,1,0,0:0:0:0:
192,192,47802,1,2,0:0:0:0:
320,192,47890,1,8,0:0:0:0:
448,192,47890,1,0,0:0:0:0:
192,192,47977,1,0,0:0:0:0:
192,192,48153,1,8,0:0:0:0:
448,192,48153,1,0,0:0:0:0:
320,192,48504,1,2,0:0:0:0:
448,192,48504,1,0,0:0:0:0:
192,192,48592,1,0,0:0:0:0:
64,192,48679,1,0,0:0:0:0:
320,192,48767,1,0,0:0:0:0:
64,192,48855,1,8,0:0:0:0:
448,192,48855,1,0,0:0:0:0:
192,192,48942,1,0,0:0:0:0:
320,192,49030,1,0,0:0:0:0:
448,192,49118,1,0,0:0:0:0:
64,192,49206,1,2,0:0:0:0:
192,192,49206,1,0,0:0:0:0:
320,192,49293,1,0,0:0:0:0:
192,192,49381,1,0,0:0:0:0:
448,192,49469,1,0,0:0:0:0:
64,192,49556,1,8,0:0:0:0:
320,192,49556,1,0,0:0:0:0:
192,192,49644,1,0,0:0:0:0:
448,192,49732,1,0,0:0:0:0:
64,192,49820,1,0,0:0:0:0:
192,192,49907,1,2,0:0:0:0:
448,192,49907,1,0,0:0:0:0:
320,192,49995,1,0,0:0:0:0:
64,192,50083,1,0,0:0:0:0:
448,192,50170,1,0,0:0:0:0:
192,192,50258,1,8,0:0:0:0:
320,192,50258,1,0,0:0:0:0:
448,192,50346,1,0,0:0:0:0:
64,192,50434,1,0,0:0:0:0:
320,192,50521,1,0,0:0:0:0:
64,192,50609,1,2,0:0:0:0:
192,192,50609,1,0,0:0:0:0:
448,192,50697,1,0,0:0:0:0:
320,192,50784,1,0,0:0:0:0:
192,192,50872,1,0,0:0:0:0:
64,192,50960,1,2,0:0:0:0:
448,192,50960,1,0,0:0:0:0:
64,192,51135,1,8,0:0:0:0:
192,192,51135,1,4,0:0:0:0:
448,192,51135,1,0,0:0:0:0:
320,192,51311,1,2,0:0:0:0:
448,192,51311,1,0,0:0:0:0:
64,192,51486,1,0,0:0:0:0:
320,192,51662,1,2,0:0:0:0:
448,192,51662,1,0,0:0:0:0:
192,192,51837,1,0,0:0:0:0:
64,192,52013,1,2,0:0:0:0:
448,192,52013,1,0,0:0:0:0:
320,192,52188,1,0,0:0:0:0:
64,192,52363,1,8,0:0:0:0:
192,192,52363,1,0,0:0:0:0:
448,192,52363,1,0,0:0:0:0:
192,192,52539,1,0,0:0:0:0:
320,192,52714,1,2,0:0:0:0:
448,192,52714,1,0,0:0:0:0:
64,192,52890,1,0,0:0:0:0:
192,192,53065,1,2,0:0:0:0:
448,192,53065,1,0,0:0:0:0:
320,192,53241,1,0,0:0:0:0:
64,192,53416,1,2,0:0:0:0:
448,192,53416,1,0,0:0:0:0:
192,192,53592,1,0,0:0:0:0:
64,192,53767,1,8,0:0:0:0:
320,192,53767,1,0,0:0:0:0:
448,192,53767,1,0,0:0:0:0:
320,192,53942,1,0,0:0:0:0:
64,192,54118,1,2,0:0:0:0:
192,192,54118,1,0,0:0:0:0:
192,192,54293,1,8,0:0:0:0:
320,192,54293,1,0,0:0:0:0:
320,192,54469,1,8,0:0:0:0:
448,192,54469,1,2,0:0:0:0:
64,192,54556,1,8,0:0:0:0:
192,192,54644,1,8,0:0:0:0:
448,192,54732,1,8,0:0:0:0:
192,192,54820,1,8,0:0:0:0:
320,192,54820,1,2,0:0:0:0:
64,192,54907,1,8,0:0:0:0:
448,192,54995,1,8,0:0:0:0:
320,192,55083,1,8,0:0:0:0:
64,192,55170,1,8,0:0:0:0:
192,192,55170,1,2,0:0:0:0:
320,192,55258,1,8,0:0:0:0:
448,192,55346,128,8,55609:0:0:0:0:
64,192,55697,1,8,0:0:0:0:
448,192,55697,1,0,0:0:0:0:
64,192,55872,1,8,0:0:0:0:
448,192,55872,1,0,0:0:0:0:
320,192,56223,1,8,0:0:0:0:
448,192,56223,1,0,0:0:0:0:
192,192,56399,1,8,0:0:0:0:
320,192,56399,1,0,0:0:0:0:
64,192,56574,1,8,0:0:0:0:
192,192,56574,1,0,0:0:0:0:
320,192,56749,1,8,0:0:0:0:
448,192,56749,128,0,57188:0:0:0:0:
64,192,57100,128,2,57188:0:0:0:0:
64,192,57276,1,8,0:0:0:0:
448,192,57276,1,4,0:0:0:0:
64,192,58328,1,2,0:0:0:0:
192,192,58328,128,4,59556:0:0:0:0:
448,192,58328,1,0,0:0:0:0:
320,192,58679,1,8,0:0:0:0:
448,192,58679,1,0,0:0:0:0:
64,192,58942,1,8,0:0:0:0:
320,192,59030,1,2,0:0:0:0:
448,192,59030,1,0,0:0:0:0:
320,192,59206,1,0,0:0:0:80:Hat Close.wav
64,192,59381,1,8,0:0:0:0:
448,192,59381,1,0,0:0:0:0:
320,192,59556,128,0,60258:0:0:0:80:Hat Close.wav
64,192,59732,1,2,0:0:0:0:
448,192,59732,1,0,0:0:0:0:
64,192,59907,1,0,0:0:0:80:Hat Close.wav
192,192,60083,1,8,0:0:0:0:
448,192,60083,1,0,0:0:0:0:
64,192,60258,128,0,60784:0:0:0:80:Hat Close.wav
448,192,60434,1,2,0:0:0:0:
320,192,60521,1,0,0:0:0:0:
192,192,60609,1,0,0:0:0:80:Hat Close.wav
448,192,60609,1,0,0:0:0:50:Clap.wav
192,192,60784,128,8,61135:0:0:0:0:
320,192,60784,1,0,0:0:0:50:Clap.wav
320,192,60960,1,0,0:0:0:80:Hat Close.wav
64,192,61135,1,2,0:0:0:0:
448,192,61135,128,0,62363:0:0:0:0:
192,192,61311,1,0,0:0:0:80:Hat Close.wav
64,192,61486,1,8,0:0:0:0:
320,192,61486,1,0,0:0:0:0:
192,192,61662,1,0,0:0:0:80:Hat Close.wav
320,192,61749,1,8,0:0:0:0:
64,192,61837,1,2,0:0:0:0:
192,192,61837,1,0,0:0:0:0:
320,192,62013,1,0,0:0:0:80:Hat Close.wav
64,192,62188,1,8,0:0:0:0:
192,192,62188,1,0,0:0:0:0:
320,192,62363,128,0,63942:0:0:0:80:Hat Close.wav
64,192,62539,1,2,0:0:0:0:
448,192,62539,1,0,0:0:0:0:
192,192,62714,1,0,0:0:0:80:Hat Close.wav
64,192,62890,1,8,0:0:0:0:
448,192,62890,1,0,0:0:0:0:
192,192,63065,1,0,0:0:0:80:Hat Close.wav
448,192,63241,1,2,0:0:0:0:
192,192,63328,1,0,0:0:0:0:
64,192,63416,1,0,0:0:0:80:Hat Close.wav
448,192,63416,1,0,0:0:0:50:Clap.wav
64,192,63592,1,8,0:0:0:0:
192,192,63592,1,0,0:0:0:50:Clap.wav
448,192,63679,1,8,0:0:0:0:
192,192,63767,1,8,0:0:0:0:
64,192,63942,128,2,64293:0:0:0:0:
448,192,63942,1,0,0:0:0:0:
320,192,64293,1,8,0:0:0:0:
448,192,64293,1,0,0:0:0:0:
64,192,64469,1,0,0:0:0:80:Hat Close.wav
192,192,64556,1,8,0:0:0:0:
320,192,64644,1,2,0:0:0:0:
448,192,64644,128,0,64995:0:0:0:0:
64,192,64820,1,0,0:0:0:80:Hat Close.wav
192,192,64995,1,8,0:0:0:0:
320,192,64995,1,0,0:0:0:0:
448,192,65170,1,0,0:0:0:80:Hat Close.wav
64,192,65346,128,2,65697:0:0:0:0:
320,192,65346,1,0,0:0:0:0:
320,192,65521,1,0,0:0:0:80:Hat Close.wav
192,192,65697,1,8,0:0:0:0:
448,192,65697,1,0,0:0:0:0:
320,192,65872,1,0,0:0:0:80:Hat Close.wav
64,192,66048,1,2,0:0:0:0:
448,192,66048,128,0,66399:0:0:0:0:
192,192,66135,1,8,0:0:0:0:
320,192,66223,1,0,0:0:0:80:Hat Close.wav
64,192,66399,1,8,0:0:0:0:
192,192,66399,1,0,0:0:0:0:
320,192,66574,1,0,0:0:0:80:Hat Close.wav
64,192,66662,1,8,0:0:0:0:
192,192,66749,128,2,67451:0:0:0:0:
448,192,66749,1,0,0:0:0:0:
320,192,66925,1,0,0:0:0:80:Hat Close.wav
64,192,67100,1,8,0:0:0:0:
448,192,67100,1,0,0:0:0:0:
320,192,67276,1,0,0:0:0:80:Hat Close.wav
64,192,67451,1,2,0:0:0:0:
448,192,67451,128,0,68153:0:0:0:0:
192,192,67627,1,0,0:0:0:80:Hat Close.wav
192,192,67802,1,8,0:0:0:0:
320,192,67802,1,0,0:0:0:0:
64,192,67977,1,0,0:0:0:80:Hat Close.wav
64,192,68153,128,2,68855:0:0:0:0:
192,192,68153,1,0,0:0:0:0:
320,192,68328,1,0,0:0:0:80:Hat Close.wav
192,192,68504,1,8,0:0:0:0:
320,192,68504,1,0,0:0:0:0:
448,192,68679,1,0,0:0:0:80:Hat Close.wav
192,192,68855,1,8,0:0:0:0:
448,192,68855,128,0,69556:0:0:0:0:
320,192,68942,1,8,0:0:0:0:
64,192,69030,1,8,0:0:0:0:
192,192,69118,1,8,0:0:0:0:
320,192,69206,1,8,0:0:0:0:
192,192,69293,1,8,0:0:0:0:
64,192,69381,1,8,0:0:0:0:
320,192,69469,1,8,0:0:0:0:
64,192,69556,128,2,70784:0:0:0:0:
192,192,69556,1,4,0:0:0:0:
320,192,69907,1,8,0:0:0:0:
448,192,69907,1,0,0:0:0:0:
192,192,70083,1,0,0:0:0:80:Hat Close.wav
320,192,70170,1,8,0:0:0:0:
192,192,70258,1,2,0:0:0:0:
448,192,70258,1,0,0:0:0:0:
320,192,70434,1,0,0:0:0:80:Hat Close.wav
192,192,70609,1,8,0:0:0:0:
448,192,70609,1,0,0:0:0:0:
320,192,70784,128,0,71486:0:0:0:80:Hat Close.wav
64,192,70960,1,2,0:0:0:0:
192,192,70960,1,0,0:0:0:0:
448,192,71135,1,0,0:0:0:80:Hat Close.wav
64,192,71311,1,8,0:0:0:0:
192,192,71311,1,0,0:0:0:0:
448,192,71486,128,0,72363:0:0:0:80:Hat Close.wav
64,192,71662,1,2,0:0:0:0:
320,192,71749,1,8,0:0:0:0:
64,192,71837,1,0,0:0:0:80:Hat Close.wav
192,192,71837,1,0,0:0:0:50:Clap.wav
64,192,72013,1,8,0:0:0:0:
192,192,72013,1,0,0:0:0:50:Clap.wav
320,192,72188,1,0,0:0:0:80:Hat Close.wav
64,192,72363,1,2,0:0:0:0:
192,192,72363,128,0,72890:0:0:0:0:
320,192,72539,1,0,0:0:0:80:Hat Close.wav
64,192,72714,1,8,0:0:0:0:
448,192,72714,1,0,0:0:0:0:
320,192,72890,128,0,73592:0:0:0:80:Hat Close.wav
448,192,72977,1,8,0:0:0:0:
64,192,73065,1,2,0:0:0:0:
192,192,73065,1,0,0:0:0:0:
448,192,73241,1,0,0:0:0:80:Hat Close.wav
64,192,73416,1,8,0:0:0:0:
192,192,73416,1,0,0:0:0:0:
64,192,73592,128,0,75170:0:0:0:80:Hat Close.wav
192,192,73767,1,2,0:0:0:0:
448,192,73767,1,0,0:0:0:0:
320,192,73942,1,0,0:0:0:80:Hat Close.wav
192,192,74118,1,8,0:0:0:0:
448,192,74118,1,0,0:0:0:0:
448,192,74293,1,0,0:0:0:80:Hat Close.wav
192,192,74469,1,2,0:0:0:0:
320,192,74469,1,0,0:0:0:0:
448,192,74556,1,8,0:0:0:0:
192,192,74644,1,0,0:0:0:80:Hat Close.wav
320,192,74820,1,8,0:0:0:0:
192,192,74907,1,8,0:0:0:0:
448,192,74995,1,8,0:0:0:0:
320,192,75083,1,8,0:0:0:0:
192,192,75170,1,2,0:0:0:0:
448,192,75170,128,4,76574:0:0:0:0:
320,192,75346,1,0,0:0:0:80:Hat Close.wav
64,192,75521,1,8,0:0:0:0:
192,192,75521,1,0,0:0:0:0:
320,192,75697,1,0,0:0:0:80:Hat Close.wav
192,192,75784,1,8,0:0:0:0:
64,192,75872,1,2,0:0:0:0:
320,192,75872,1,0,0:0:0:0:
64,192,76048,1,0,0:0:0:80:Hat Close.wav
192,192,76223,1,8,0:0:0:0:
320,192,76223,1,0,0:0:0:0:
320,192,76399,1,0,0:0:0:80:Hat Close.wav
64,192,76574,1,2,0:0:0:0:
192,192,76574,128,4,77977:0:0:0:0:
448,192,76749,1,0,0:0:0:80:Hat Close.wav
320,192,76925,1,8,0:0:0:0:
448,192,76925,1,0,0:0:0:0:
64,192,77100,1,0,0:0:0:80:Hat Close.wav
320,192,77276,1,2,0:0:0:0:
448,192,77276,1,0,0:0:0:0:
64,192,77363,1,8,0:0:0:0:
320,192,77451,1,0,0:0:0:80:Hat Close.wav
64,192,77627,1,8,0:0:0:0:
448,192,77627,1,0,0:0:0:0:
320,192,77802,1,0,0:0:0:80:Hat Close.wav
64,192,77977,1,8,0:0:0:0:
448,192,77977,1,0,0:0:0:0:
320,192,78065,1,8,0:0:0:0:
192,192,78153,1,8,0:0:0:0:
64,192,78241,1,8,0:0:0:0:
192,192,78328,1,8,0:0:0:0:
448,192,78328,1,0,0:0:0:0:
320,192,78416,1,8,0:0:0:0:
448,192,78504,1,8,0:0:0:0:
192,192,78592,1,8,0:0:0:0:
64,192,78679,1,8,0:0:0:0:
320,192,78679,1,0,0:0:0:0:
448,192,78767,1,8,0:0:0:0:
192,192,78855,1,8,0:0:0:0:
320,192,78942,1,8,0:0:0:0:
64,192,79030,1,8,0:0:0:0:
448,192,79030,1,0,0:0:0:0:
192,192,79118,1,8,0:0:0:0:
320,192,79206,1,8,0:0:0:0:
192,192,79293,1,8,0:0:0:0:
64,192,79381,1,2,0:0:0:0:
448,192,79381,1,4,0:0:0:0:
64,192,79732,1,2,0:0:0:0:
320,192,79732,1,0,0:0:0:0:
320,192,80083,1,2,0:0:0:0:
448,192,80083,1,4,0:0:0:0:
64,192,80434,1,2,0:0:0:0:
192,192,80434,1,0,0:0:0:0:
192,192,80784,1,2,0:0:0:0:
320,192,80784,1,4,0:0:0:0:
320,192,81135,1,2,0:0:0:0:
448,192,81135,1,0,0:0:0:0:
192,192,81311,1,0,0:0:0:0:
64,192,81486,1,2,0:0:0:0:
320,192,81486,1,0,0:0:0:0:
448,192,81662,1,0,0:0:0:0:
192,192,81837,1,2,0:0:0:0:
320,192,81837,1,0,0:0:0:0:
64,192,82013,1,0,0:0:0:0:
192,192,82188,1,4,0:0:0:0:
320,192,82188,1,2,0:0:0:0:
448,192,82188,128,0,82539:0:0:0:0:
64,192,82363,1,0,0:0:0:0:
64,192,82539,1,2,0:0:0:0:
192,192,82539,1,0,0:0:0:0:
320,192,82714,1,0,0:0:0:0:
64,192,82890,1,2,0:0:0:0:
448,192,82890,1,0,0:0:0:0:
320,192,83065,1,0,0:0:0:0:
64,192,83241,1,2,0:0:0:0:
192,192,83241,1,0,0:0:0:0:
448,192,83416,1,0,0:0:0:0:
64,192,83592,128,4,83942:0:0:0:0:
192,192,83592,1,2,0:0:0:0:
320,192,83592,1,0,0:0:0:0:
448,192,83767,1,0,0:0:0:0:
320,192,83942,1,2,0:0:0:0:
448,192,83942,1,0,0:0:0:0:
64,192,84030,1,0,0:0:0:0:
192,192,84118,1,0,0:0:0:0:
320,192,84206,1,0,0:0:0:0:
192,192,84293,1,2,0:0:0:0:
448,192,84381,1,0,0:0:0:0:
320,192,84469,1,0,0:0:0:0:
192,192,84556,1,0,0:0:0:0:
64,192,84644,1,2,0:0:0:0:
192,192,84732,1,0,0:0:0:0:
320,192,84820,1,0,0:0:0:0:
448,192,84907,1,0,0:0:0:0:
64,192,85346,1,8,0:0:0:0:
192,192,85346,1,4,0:0:0:0:
448,192,85346,128,0,86399:0:0:0:0:
320,192,85697,1,2,0:0:0:0:
64,192,85784,1,2,0:0:0:0:
320,192,85872,1,2,0:0:0:0:
64,192,85960,1,2,0:0:0:0:
192,192,86048,1,2,0:0:0:0:
320,192,86135,1,2,0:0:0:0:
192,192,86223,1,2,0:0:0:0:
320,192,86311,1,2,0:0:0:0:
64,192,86399,1,2,0:0:0:0:
192,192,86574,1,8,0:0:0:0:
320,192,86574,1,4,0:0:0:0:
448,192,86574,1,0,0:0:0:0:
192,192,86749,1,8,0:0:0:0:
320,192,86749,1,4,0:0:0:0:
448,192,86749,1,0,0:0:0:0:
192,192,86925,128,8,87451:0:0:0:0:
320,192,86925,128,4,87714:0:0:0:0:
448,192,86925,128,0,87802:0:0:0:0:
