osu file format v14

[General]
AudioFilename: audio.mp3
AudioLeadIn: 0
PreviewTime: 53102
Countdown: 0
SampleSet: Soft
StackLeniency: 0.7
Mode: 0
LetterboxInBreaks: 0
WidescreenStoryboard: 1

[Editor]
Bookmarks: 783,2228,12349,18132,26807,39819,45602,80301,86084
DistanceSpacing: 1.7
BeatDivisor: 12
GridSize: 8
TimelineZoom: 2.999999

[Metadata]
Title:YOIKAGEN TETRAGON (TV Size)
TitleUnicode:宵加減テトラゴン (TV Size)
Artist:CORO MACHIKADO
ArtistUnicode:コーロまちカド
Creator:Saggin
Version:Cocoa's Insane
Source:まちカドまぞく 2丁目
Tags:mazoku ni chome 2nd second season 2 two anime japanese pop j-pop jpop ending ed シャミ子 小原好美 Kohara Konomi 桃 鬼頭明里 Kitou Akari リリス 高橋未奈美 Takahashi Minami ミカン 高柳知葉 Takayanagi Tomoyo pnky huzz Hoto Cocoa Interlude- lude
BeatmapID:3631396
BeatmapSetID:1740159

[Difficulty]
HPDrainRate:4.7
CircleSize:3.5
OverallDifficulty:8.1
ApproachRate:9
SliderMultiplier:2.4
SliderTickRate:1

[Events]
//Background and Video events
0,0,"ogp3_waifu2x_art_noise3_scale_tta_1.png",0,0
Video,0,"video.mp4"
//Break Periods
//Storyboard Layer 0 (Background)
//Storyboard Layer 1 (Fail)
//Storyboard Layer 2 (Pass)
//Storyboard Layer 3 (Foreground)
//Storyboard Layer 4 (Overlay)
//Storyboard Sound Samples

[TimingPoints]
783,361.44578313253,4,2,1,80,1,0
783,-100,4,2,1,80,0,0
2228,-83.3333333333333,4,2,1,80,0,0
12349,-100,4,2,1,50,0,0
14879,-100,4,2,1,50,0,0
15240,-100,4,2,1,65,0,0
18132,-100,4,2,1,50,0,0
25361,-83.3333333333333,4,2,1,60,0,0
39819,-166.666666666666,4,2,1,30,0,0
44879,-166.666666666666,4,2,1,40,0,0
45602,-90.9090909090909,4,2,1,60,0,0
49939,-90.9090909090909,4,2,1,80,0,0
53011,-200,4,2,1,80,0,0
53192,-200,4,2,1,50,0,0
54276,-76.9230769230769,4,2,1,80,0,1
80301,-142.857142857143,4,2,1,50,0,0
81023,-100,4,2,1,50,0,0
81746,-76.9230769230769,4,2,1,70,0,0
86987,-76.9230769230769,4,2,1,70,0,0
87168,-76.9230769230769,4,2,1,5,0,0

[Colours]
Combo1 : 212,212,212
Combo2 : 117,241,255
Combo3 : 255,193,254
Combo4 : 255,216,98

[HitObjects]
89,70,783,6,0,P|172:64|208:132,1,120,4|0,1:2|0:0,0:0:0:0:
112,248,1054,2,0,B|102:175|102:175|137:131,1,120,4|0,1:2|0:0,0:0:0:0:
263,147,1325,2,0,L|197:170,1,60,4|0,1:2|0:0,0:0:0:0:
258,33,1505,6,0,L|324:56,3,60,0|0|0|8,1:0|1:0|1:0|0:0,0:0:0:0:
406,40,1868,5,0,1:0:0:0:
428,53,1958,1,8,0:0:0:0:
441,76,2048,1,8,0:0:0:0:
439,103,2138,1,8,0:0:0:0:
425,127,2228,6,0,P|391:194|430:272,1,143.999995605469,6|0,1:2|0:0,0:0:0:0:
354,338,2499,1,10,0:0:0:0:
337,323,2590,2,0,B|306:289|262:304|262:304|233:329|192:315,1,143.999995605469,0|0,1:0|1:0,0:0:0:0:
103,247,2951,6,0,L|121:335,3,71.9999978027344,0|0|0|8,1:2|0:0|0:0|0:0,0:0:0:0:
180,188,3313,1,0,1:0:0:0:
154,162,3403,1,0,1:0:0:0:
142,129,3493,1,2,0:0:0:0:
143,93,3584,1,2,0:0:0:0:
160,62,3674,6,0,P|239:62|262:126,1,143.999995605469,2|0,1:2|0:0,0:0:0:0:
469,194,3945,2,0,B|426:176|426:176|376:185|376:185|313:157,1,143.999995605469,8|0,0:0|0:0,0:0:0:0:
261,199,4216,2,0,L|246:279,1,71.9999978027344,2|0,1:2|0:0,0:0:0:0:
405,340,4397,5,2,1:2:0:0:
405,340,4487,1,2,0:0:0:0:
405,340,4578,2,0,L|418:269,1,71.9999978027344,8|0,0:0|0:0,0:0:0:0:
336,255,4758,2,0,L|321:325,1,71.9999978027344,0|0,1:0|1:0,0:0:0:0:
405,340,4939,2,0,L|418:269,1,71.9999978027344,2|2,1:2|1:2,0:0:0:0:
261,199,5120,6,0,L|233:341,1,143.999995605469,6|0,1:2|0:0,0:0:0:0:
154,291,5391,1,10,0:0:0:0:
131,318,5481,2,0,P|80:267|3:270,1,143.999995605469,0|10,1:2|0:0,0:0:0:0:
136,163,5843,6,0,L|67:142,3,71.9999978027344,0|0|0|8,1:2|0:0|0:0|0:0,0:0:0:0:
10,66,6204,1,0,1:0:0:0:
27,60,6294,1,0,1:0:0:0:
44,55,6384,1,2,0:0:0:0:
61,50,6475,1,2,0:0:0:0:
78,45,6566,6,0,B|116:77|153:61|153:61|179:34|222:42,1,143.999995605469,2|0,1:2|0:0,0:0:0:0:
406,61,6837,2,0,P|328:46|275:116,1,143.999995605469,10|0,0:0|0:0,0:0:0:0:
226,198,7108,2,0,L|206:119,1,71.9999978027344,10|0,0:2|1:0,0:0:0:0:
356,129,7289,5,2,1:2:0:0:
351,146,7379,1,2,1:2:0:0:
347,163,7469,1,10,0:0:0:0:
342,181,7560,1,0,1:0:0:0:
338,198,7650,2,0,P|417:199|398:293,1,143.999995605469,0|2,1:0|1:2,0:0:0:0:
313,306,7921,1,2,1:2:0:0:
313,306,8011,6,0,P|227:310|176:262,1,143.999995605469,6|0,1:2|0:0,0:0:0:0:
226,198,8282,1,10,0:0:0:0:
226,198,8373,1,0,0:0:0:0:
283,85,8554,6,0,L|206:65,1,71.9999978027344,10|0,0:0|0:0,0:0:0:0:
16,13,8734,2,0,B|24:80|24:80|20:93|20:93|30:167,1,143.999995605469,2|0,1:2|0:0,0:0:0:0:
19,194,9005,2,0,P|88:165|153:216,1,143.999995605469,10|0,0:0|0:0,0:0:0:0:
124,82,9276,1,2,0:0:0:0:
44,308,9457,6,0,L|191:276,1,143.999995605469,6|0,1:2|0:0,0:0:0:0:
252,327,9728,1,2,1:2:0:0:
252,327,9819,1,0,1:0:0:0:
391,216,9999,2,0,P|308:205|257:258,1,143.999995605469,10|0,0:0|1:0,0:0:0:0:
261,56,10361,6,0,L|350:37,1,71.9999978027344,8|0,0:0|0:0,0:0:0:0:
472,126,10542,2,0,L|401:110,1,71.9999978027344,0|0,1:0|1:0,0:0:0:0:
266,62,10722,2,0,L|355:43,1,71.9999978027344,0|0,1:0|1:0,0:0:0:0:
434,23,10903,5,6,1:2:0:0:
314,159,11084,1,0,1:0:0:0:
311,166,11264,1,8,0:0:0:0:
309,173,11445,2,0,L|222:150,1,71.9999978027344,0|0,1:0|1:0,0:0:0:0:
110,106,11626,6,0,L|197:83,3,71.9999978027344,2|0|0|2,1:2|1:2|1:2|1:2,0:0:0:0:
153,187,11987,2,0,P|130:219|140:264,1,71.9999978027344,0|0,1:2|1:2,0:0:0:0:
193,353,12168,2,0,P|216:321|206:276,1,71.9999978027344,2|0,1:2|1:2,0:0:0:0:
295,252,12349,5,6,1:2:0:0:
442,120,12620,1,0,1:2:0:0:
457,323,12891,1,0,1:2:0:0:
324,136,13072,6,0,L|467:117,1,120,4|0,1:2|0:0,0:0:0:0:
263,198,13433,1,0,1:0:0:0:
245,173,13523,1,0,1:0:0:0:
237,145,13613,1,0,1:0:0:0:
239,115,13704,1,0,1:0:0:0:
251,88,13794,5,4,1:2:0:0:
379,222,14066,1,0,1:0:0:0:
200,270,14337,1,0,1:0:0:0:
331,47,14517,5,8,0:2:0:0:
297,293,14698,1,8,0:2:0:0:
464,184,14879,5,8,0:0:0:0:
438,176,14969,1,8,0:0:0:0:
411,182,15059,1,8,0:0:0:0:
392,200,15150,1,8,0:0:0:0:
378,221,15240,2,0,P|417:210|485:252,1,120,6|8,1:2|0:0,0:0:0:0:
297,293,15602,5,0,1:0:0:0:
267,287,15692,1,2,1:2:0:0:
238,281,15782,1,10,0:2:0:0:
128,326,15963,2,0,L|110:199,1,120,6|8,1:2|0:0,0:0:0:0:
172,68,16325,5,0,1:0:0:0:
165,96,16415,1,0,1:0:0:0:
159,125,16505,1,8,0:0:0:0:
263,104,16686,5,6,1:2:0:0:
69,62,16867,1,10,1:2:0:0:
234,189,17048,5,2,1:2:0:0:
376,123,17229,1,10,0:2:0:0:
155,266,17409,5,6,1:2:0:0:
133,242,17499,1,2,1:2:0:0:
127,212,17589,1,10,0:2:0:0:
136,182,17680,1,2,1:2:0:0:
162,165,17770,6,0,L|246:192,1,60,0|0,1:0|1:0,0:0:0:0:
305,276,17951,2,0,L|221:303,1,60,8|0,0:0|1:0,0:0:0:0:
264,102,18132,5,6,1:2:0:0:
354,138,18313,2,0,L|420:118,2,60,2|2|0,0:0|1:2|1:0,0:0:0:0:
333,45,18674,1,2,1:2:0:0:
450,254,18855,2,0,P|373:221|300:299,1,180,2|2,1:2|1:2,0:0:0:0:
93,269,19397,5,2,1:2:0:0:
93,269,19487,1,2,0:0:0:0:
93,269,19578,2,0,L|222:235,1,120,2|2,1:2|1:2,0:0:0:0:
207,136,19939,2,0,P|171:76|106:162,1,180,2|2,1:2|1:2,0:0:0:0:
95,124,20301,5,0,1:0:0:0:
279,53,20481,1,0,1:2:0:0:
215,239,20662,2,0,L|188:318,3,60,0|0|2|0,1:2|1:2|1:2|1:2,0:0:0:0:
196,296,21023,5,2,1:2:0:0:
282,334,21204,1,0,0:0:0:0:
107,329,21385,2,0,L|79:201,1,120,0|2,1:0|1:2,0:0:0:0:
61,56,21746,6,0,B|166:49|116:117|236:116,1,180,2|2,1:2|1:2,0:0:0:0:
223,115,22108,1,0,1:0:0:0:
207,24,22289,2,0,L|272:2,1,60,2|2,1:2|1:2,0:0:0:0:
366,41,22469,6,0,B|399:94|399:94|374:170,1,120,2|0,1:2|0:0,0:0:0:0:
373,169,22740,1,2,1:2:0:0:
373,169,22831,1,0,1:2:0:0:
237,240,23011,6,0,P|309:233|357:333,1,180,2|0,1:2|1:0,0:0:0:0:
360,341,23373,6,0,P|331:321|278:333,1,60,0|0,1:0|1:0,0:0:0:0:
229,341,23554,2,0,P|200:361|147:349,1,60,0|0,1:0|1:0,0:0:0:0:
108,315,23734,2,0,P|78:318|55:336,1,60,0|0,1:0|1:0,0:0:0:0:
25,359,23915,5,4,1:2:0:0:
55,218,24096,1,2,1:2:0:0:
37,99,24276,2,0,L|55:218,1,120,2|2,1:2|1:2,0:0:0:0:
215,65,24638,2,0,B|198:152|198:152|202:161|202:161|184:253,1,180,2|2,1:2|1:2,0:0:0:0:
183,263,24999,1,0,1:2:0:0:
309,128,25180,1,2,1:2:0:0:
324,132,25270,1,0,1:0:0:0:
330,143,25361,6,0,P|420:123|469:187,1,143.999995605469,6|0,1:2|0:0,0:0:0:0:
441,314,25632,2,0,P|378:246|411:174,1,143.999995605469,6|0,1:2|0:0,0:0:0:0:
455,151,25903,1,2,1:2:0:0:
282,282,26084,6,0,P|227:239|132:259,1,143.999995605469,2|0,1:2|1:0,0:0:0:0:
156,243,26355,1,0,1:0:0:0:
77,284,26445,6,0,P|65:246|84:201,1,71.9999978027344,0|8,1:0|0:0,0:0:0:0:
75,119,26626,2,0,P|113:127|143:166,1,71.9999978027344,8|8,0:0|0:0,0:0:0:0:
237,152,26807,5,4,1:2:0:0:
380,94,26987,2,0,L|400:23,2,71.9999978027344,10|2|2,0:0|0:0|1:2,0:0:0:0:
252,23,27349,1,10,0:0:0:0:
347,210,27529,2,0,P|420:177|497:280,1,215.999993408203,2|2,1:2|0:0,0:0:0:0:
498,266,27891,1,0,0:0:0:0:
404,330,28072,2,0,L|324:309,1,71.9999978027344,10|2,0:0|0:0,0:0:0:0:
255,373,28252,6,0,L|232:220,1,143.999995605469,2|10,1:2|0:0,0:0:0:0:
323,94,28614,1,2,1:2:0:0:
112,59,28795,2,0,L|208:27,1,71.9999978027344,8|2,0:0|0:0,0:0:0:0:
201,29,28975,5,0,1:2:0:0:
100,210,29156,1,8,1:2:0:0:
23,86,29337,5,0,1:2:0:0:
211,150,29517,1,10,0:2:0:0:
92,341,29698,6,0,P|72:262|116:197,1,143.999995605469,2|8,1:2|0:0,0:0:0:0:
161,276,29969,2,0,B|203:265|212:243|212:243|260:251|247:318,1,143.999995605469,2|0,0:0|0:0,0:0:0:0:
244,325,30240,1,10,0:0:0:0:
457,229,30421,6,0,B|422:200|379:221|379:221|355:258|286:244,1,143.999995605469,2|8,1:2|0:0,0:0:0:0:
313,164,30692,2,0,P|293:82|338:21,1,143.999995605469,2|0,0:0|1:2,0:0:0:0:
348,12,30963,1,8,0:0:0:0:
440,116,31144,6,0,B|469:74|469:74|373:98,1,143.999995605469,2|8,1:2|0:0,0:0:0:0:
210,120,31505,2,0,L|110:95,2,71.9999978027344,0|0|10,1:0|0:0|0:0,0:0:0:0:
155,265,31867,6,0,P|207:219|277:227,1,143.999995605469,2|8,1:2|1:2,1:2:0:0:
296,318,32138,2,0,P|356:271|356:194,1,143.999995605469,2|0,0:2|1:2,1:2:0:0:
302,137,32409,1,10,0:0:0:0:
302,137,32499,1,8,0:0:0:0:
302,137,32590,6,0,B|314:90|276:54|276:54|281:20|317:6,1,143.999995605469,6|8,1:2|0:0,0:0:0:0:
401,34,32951,1,0,1:0:0:0:
210,120,33132,1,10,0:0:0:0:
380,208,33313,2,0,L|354:356,1,143.999995605469,2|8,1:2|0:0,0:0:0:0:
254,294,33674,2,0,L|239:212,2,71.9999978027344,0|0|10,1:0|1:0|0:0,0:0:0:0:
153,59,34036,6,0,P|124:147|153:187,1,143.999995605469,2|8,1:2|0:0,0:0:0:0:
281,133,34307,2,0,B|303:92|303:92|206:121,1,143.999995605469,2|0,0:2|0:0,0:0:0:0:
148,183,34578,1,8,0:0:0:0:
383,250,34758,6,0,L|230:221,1,143.999995605469,2|8,0:0|0:0,0:0:0:0:
133,348,35029,2,0,P|211:319|277:369,1,143.999995605469,2|0,0:0|0:0,0:0:0:0:
268,367,35301,1,10,0:0:0:0:
268,367,35391,1,0,1:0:0:0:
268,367,35481,6,0,L|244:218,1,143.999995605469,6|8,1:2|0:0,0:0:0:0:
170,40,35752,2,0,L|147:182,1,143.999995605469,2|0,0:0|0:0,0:0:0:0:
250,120,36023,1,8,0:0:0:0:
19,181,36204,6,0,P|105:156|167:224,1,143.999995605469,2|8,1:2|0:0,0:0:0:0:
296,215,36475,2,0,B|262:197|226:231|226:231|205:272|153:272,1,143.999995605469,2|0,0:0|1:0,0:0:0:0:
85,242,36746,1,10,0:0:0:0:
250,120,36927,5,6,1:2:0:0:
70,23,37108,1,8,0:0:0:0:
85,242,37289,2,0,P|74:282|111:327,2,71.9999978027344,0|0|8,1:0|1:0|0:0,0:0:0:0:
250,120,37650,6,0,L|318:96,1,71.9999978027344,0|0,1:0|1:0,0:0:0:0:
418,33,37831,2,0,L|403:103,1,71.9999978027344,8|0,0:0|1:0,0:0:0:0:
407,222,38011,2,0,L|344:167,1,71.9999978027344,0|0,1:2|1:2,0:0:0:0:
250,120,38192,2,0,L|329:93,1,71.9999978027344,8|0,0:2|1:2,0:0:0:0:
211,209,38373,6,0,P|155:133|216:35,1,215.999993408203,2|0,1:2|1:0,0:0:0:0:
209,37,38734,1,0,1:0:0:0:
341,91,38915,1,0,1:0:0:0:
407,222,39096,5,0,1:0:0:0:
457,292,39276,1,0,1:0:0:0:
407,362,39457,1,0,1:0:0:0:
324,335,39638,1,0,1:0:0:0:
324,248,39819,5,2,0:0:0:0:
245,297,40361,1,2,0:0:0:0:
232,307,40542,2,0,P|173:281|116:307,2,107.999996704102,10|2|2,0:0|0:0|0:0,0:0:0:0:
245,297,41264,2,0,L|262:138,1,143.999995605469,2|0,0:0|1:0,0:0:0:0:
267,66,41987,1,8,0:0:0:0:
339,123,42168,2,0,L|419:103,2,71.9999978027344,2|2|2,1:2|0:0|0:0,0:0:0:0:
259,152,42710,6,0,B|148:117|158:226|58:187,1,215.999993408203,2|0,1:2|0:0,0:0:0:0:
93,103,43433,1,8,0:0:0:0:
58,187,43614,2,0,P|31:238|43:267,1,71.9999978027344,2|0,0:0|0:0,0:0:0:0:
106,296,43975,2,0,B|145:274|181:285|181:285|206:321|249:313,1,143.999995605469,2|0,0:0|1:0,0:0:0:0:
245,231,44517,2,0,L|266:155,1,71.9999978027344,2|0,1:2|0:0,0:0:0:0:
292,68,44879,1,2,0:0:0:0:
341,273,45120,2,0,P|325:221|236:242,1,155.999995239258,2|0,0:0|0:0,0:0:0:0:
229,245,45602,5,6,1:2:0:0:
389,158,45782,1,0,0:0:0:0:
399,139,45873,1,10,0:0:0:0:
409,121,45963,2,0,L|391:53,3,66.0000020141602,0|0|2|0,1:0|1:0|1:2|1:0,0:0:0:0:
448,219,46325,1,2,1:2:0:0:
311,100,46505,2,0,L|294:163,2,66.0000020141602,0|10|0,0:0|0:0|1:2,0:0:0:0:
344,275,46867,1,2,1:2:0:0:
344,275,46957,1,2,1:2:0:0:
344,275,47048,6,0,P|273:254|235:341,1,132.00000402832,2|0,1:2|0:0,0:0:0:0:
224,307,47319,1,10,0:0:0:0:
224,307,47409,1,0,0:0:0:0:
383,357,47590,1,2,1:2:0:0:
294,163,47770,1,0,1:0:0:0:
131,243,47951,6,0,L|108:146,1,66.0000020141602,2|8,0:0|0:0,0:0:0:0:
219,44,48132,6,0,L|203:108,3,66.0000020141602,2|8|8|8,1:2|0:0|0:0|0:0,0:0:0:0:
200,125,48493,5,6,1:2:0:0:
399,72,48765,1,8,0:0:0:0:
407,88,48855,1,0,1:0:0:0:
477,236,49036,1,0,1:2:0:0:
384,318,49216,6,0,L|311:292,3,66.0000020141602,0|0|0|0,1:2|1:2|1:2|1:2,0:0:0:0:
239,265,49578,2,0,L|176:287,1,66.0000020141602,0|0,1:2|1:2,0:0:0:0:
90,326,49758,2,0,L|27:303,1,66.0000020141602,0|0,1:2|1:2,0:0:0:0:
62,159,49939,5,4,1:2:0:0:
356,208,50210,1,4,1:2:0:0:
62,159,50481,1,0,1:0:0:0:
209,16,50662,5,4,1:2:0:0:
178,124,50843,2,0,P|171:149|192:188,2,44.0000013427735,0|0|0,0:0|1:0|1:0,0:0:0:0:
252,200,51023,2,0,P|256:236|237:276,3,66.0000020141602,0|0|0|0,1:0|1:0|1:0|1:0,0:0:0:0:
173,333,51385,5,14,0:2:0:0:
291,95,51656,1,8,1:2:0:0:
173,333,51927,1,8,0:2:0:0:
473,363,52108,6,0,L|306:328,1,132.00000402832,8|0,0:0|0:0,0:0:0:0:
421,142,52379,2,0,L|474:304,1,132.00000402832,8|0,0:0|0:0,0:0:0:0:
256,292,52650,2,0,L|369:164,1,132.00000402832,8|0,0:0|1:0,0:0:0:0:
323,85,53192,5,2,0:0:0:0:
323,85,53554,2,0,B|336:36|336:36|354:73,2,90,2|2|2,0:0|0:0|0:0,0:0:0:0:
313,113,54276,6,0,P|220:87|180:187,1,155.999992858887,6|0,1:2|1:0,0:0:0:0:
33,185,54548,2,0,B|69:162|110:176|110:176|138:216|196:204,1,155.999992858887,10|0,0:0|0:0,0:0:0:0:
252,168,54819,2,0,P|262:217|245:253,1,77.9999964294435,10|0,0:0|0:0,0:0:0:0:
115,319,54999,6,0,B|182:303|182:303|295:353,1,155.999992858887,2|0,1:2|0:0,0:0:0:0:
414,306,55270,2,0,L|257:339,1,155.999992858887,10|0,0:0|0:0,0:0:0:0:
348,233,55542,2,0,L|435:215,1,77.9999964294435,2|0,0:0|1:0,0:0:0:0:
489,149,55722,6,0,P|476:83|355:122,1,155.999992858887,2|0,1:2|0:0,0:0:0:0:
210,174,55993,2,0,P|258:117|329:137,1,155.999992858887,10|0,0:0|0:0,0:0:0:0:
398,63,56264,1,10,0:0:0:0:
424,249,56445,6,0,L|329:229,1,77.9999964294435,0|0,1:0|0:0,0:0:0:0:
277,332,56626,2,0,L|372:312,1,77.9999964294435,8|0,0:0|0:0,0:0:0:0:
430,234,56807,6,0,L|335:214,1,77.9999964294435,0|0,1:0|1:0,0:0:0:0:
287,346,56987,2,0,L|382:326,1,77.9999964294435,2|0,1:2|1:0,0:0:0:0:
262,243,57168,6,0,B|198:221|198:221|164:230|164:230|99:208,1,155.999992858887,2|0,1:2|1:0,0:0:0:0:
44,112,57439,2,0,P|123:90|163:179,1,155.999992858887,10|0,0:0|0:0,0:0:0:0:
260,143,57710,2,0,L|354:119,1,77.9999964294435,10|0,0:0|0:0,0:0:0:0:
454,51,57891,6,0,B|403:59|403:59|353:33|353:33|302:46,1,155.999992858887,2|0,1:2|0:0,0:0:0:0:
262,243,58162,2,0,L|421:202,1,155.999992858887,10|0,0:0|0:0,0:0:0:0:
444,333,58433,2,0,L|363:314,1,77.9999964294435,2|0,0:0|0:0,0:0:0:0:
189,354,58614,6,0,P|155:257|200:203,1,155.999992858887,2|0,1:2|1:0,0:0:0:0:
232,116,58885,2,0,B|287:163|287:163|257:256,1,155.999992858887,10|0,0:0|0:0,0:0:0:0:
413,204,59156,1,10,0:0:0:0:
448,42,59337,6,0,L|362:72,1,77.9999964294435,2|0,1:2|1:0,0:0:0:0:
285,36,59517,2,0,L|211:10,1,77.9999964294435,0|0,1:0|1:0,0:0:0:0:
158,141,59698,1,8,0:0:0:0:
176,134,59788,1,8,0:0:0:0:
194,128,59878,1,10,0:0:0:0:
213,121,59969,1,10,0:0:0:0:
231,115,60060,6,0,B|196:372,2,233.999989288331,6|10|10,1:2|0:0|0:0,0:0:0:0:
432,279,60782,2,0,P|346:258|293:312,1,155.999992858887,2|0,1:2|0:0,0:0:0:0:
299,297,61054,1,8,0:0:0:0:
299,297,61144,1,0,1:0:0:0:
377,347,61325,1,2,1:2:0:0:
446,165,61505,6,0,B|418:105|346:103|346:103|281:152|209:86,2,233.999989288331,2|10|10,1:2|0:0|0:0,0:0:0:0:
286,39,62228,2,0,P|191:36|159:94,1,155.999992858887,2|10,1:2|0:0,0:0:0:0:
161,79,62499,1,2,0:0:0:0:
161,79,62590,1,0,1:2:0:0:
350,142,62770,1,10,0:0:0:0:
243,111,62951,6,0,L|267:266,1,155.999992858887,6|0,1:2|1:0,0:0:0:0:
191,312,63222,2,0,P|273:354|355:280,1,155.999992858887,10|0,0:0|0:0,0:0:0:0:
352,247,63493,1,10,0:0:0:0:
442,314,63674,6,0,P|463:270|452:224,3,77.9999964294435,2|0|0|0,1:2|1:0|1:0|1:0,0:0:0:0:
401,173,64036,2,0,P|380:129|391:83,1,77.9999964294435,8|8,0:0|0:0,0:0:0:0:
472,114,64216,2,0,P|493:70|482:24,1,77.9999964294435,8|8,0:0|0:0,0:0:0:0:
402,12,64397,5,6,1:2:0:0:
212,94,64668,5,6,0:0:0:0:
88,260,64939,5,10,0:0:0:0:
282,259,65120,6,0,L|194:235,2,77.9999964294435,2|0|8,1:2|0:0|0:0,0:0:0:0:
113,114,65481,1,10,0:0:0:0:
139,108,65571,1,8,0:0:0:0:
166,103,65661,1,10,0:0:0:0:
192,97,65752,1,8,0:0:0:0:
212,94,65843,6,0,B|181:173|181:173|219:268,1,155.999992858887,6|0,1:2|0:0,0:0:0:0:
384,237,66114,2,0,P|333:166|254:182,1,155.999992858887,10|0,0:0|0:0,0:0:0:0:
299,251,66385,2,0,L|279:326,1,77.9999964294435,10|0,0:0|0:0,0:0:0:0:
440,360,66566,6,0,B|457:284|457:284|462:277|462:277|479:198,1,155.999992858887,2|0,1:2|0:0,0:0:0:0:
356,83,66837,2,0,L|385:245,1,155.999992858887,10|0,0:0|0:0,0:0:0:0:
456,123,67108,2,0,L|476:48,1,77.9999964294435,2|0,0:0|1:0,0:0:0:0:
338,109,67289,6,0,P|248:93|208:149,1,155.999992858887,2|0,1:2|1:0,0:0:0:0:
111,190,67560,2,0,B|159:207|159:207|184:232|184:232|213:226|213:226|269:239,1,155.999992858887,10|0,0:0|1:0,0:0:0:0:
211,135,67831,1,10,0:2:0:0:
46,254,68011,6,0,P|22:166|83:104,1,155.999992858887,2|8,1:2|0:0,0:0:0:0:
252,235,68373,2,0,L|230:319,3,77.9999964294435,2|0|0|0,1:2|1:2|1:2|1:2,0:0:0:0:
323,289,68734,6,0,B|361:261|406:281|406:281|433:327|510:304,1,155.999992858887,6|0,1:2|0:0,0:0:0:0:
472,215,69005,2,0,P|492:134|455:57,1,155.999992858887,8|0,0:0|0:0,0:0:0:0:
452,48,69276,1,10,0:0:0:0:
252,235,69457,6,0,B|216:151|216:151|245:72,1,155.999992858887,2|0,1:2|0:0,0:0:0:0:
320,19,69728,2,0,P|351:96|310:158,1,155.999992858887,10|0,0:0|0:0,0:0:0:0:
238,90,69999,1,2,1:2:0:0:
442,209,70180,6,0,P|333:147|277:186,1,155.999992858887,2|0,1:2|0:0,0:0:0:0:
352,234,70451,2,0,B|368:309|368:309|336:394,1,155.999992858887,10|0,0:0|0:0,0:0:0:0:
259,343,70722,2,0,L|172:325,1,77.9999964294435,10|0,0:0|1:0,0:0:0:0:
96,260,70903,6,0,L|183:242,1,77.9999964294435,2|0,1:2|1:0,0:0:0:0:
248,358,71084,2,0,L|161:340,1,77.9999964294435,0|0,1:0|1:0,0:0:0:0:
99,240,71264,5,10,0:0:0:0:
118,236,71354,1,8,0:0:0:0:
137,232,71444,1,8,0:0:0:0:
156,228,71535,1,8,0:0:0:0:
173,224,71626,6,0,L|210:56,1,155.999992858887,6|0,1:2|1:0,0:0:0:0:
315,152,71897,2,0,L|348:304,1,155.999992858887,8|0,0:0|0:0,0:0:0:0:
472,230,72168,2,0,L|490:151,1,77.9999964294435,10|2,0:2|0:0,0:0:0:0:
407,112,72349,1,2,1:2:0:0:
348,304,72529,1,0,0:0:0:0:
335,317,72620,1,8,0:0:0:0:
322,330,72710,1,2,1:2:0:0:
442,318,72891,1,0,1:0:0:0:
208,347,73072,6,0,P|108:310|58:362,1,155.999992858887,2|0,1:2|0:0,0:0:0:0:
50,243,73343,2,0,B|79:164|-1:180|29:94,1,155.999992858887,8|0,0:0|0:0,0:0:0:0:
115,115,73614,2,0,L|200:87,1,77.9999964294435,10|2,0:0|0:0,0:0:0:0:
276,58,73795,1,2,1:2:0:0:
84,25,73975,1,8,0:0:0:0:
257,145,74156,6,0,L|244:225,1,77.9999964294435,0|0,1:0|1:0,0:0:0:0:
167,319,74337,2,0,L|154:242,1,77.9999964294435,0|0,1:0|1:0,0:0:0:0:
284,316,74517,6,0,P|383:295|431:357,1,155.999992858887,6|0,1:2|0:0,0:0:0:0:
418,325,74789,1,8,0:0:0:0:
432,307,74879,1,2,1:2:0:0:
489,173,75060,2,0,L|319:204,1,155.999992858887,2|0,1:2|1:2,0:0:0:0:
257,145,75421,1,2,0:0:0:0:
257,145,75511,1,8,0:0:0:0:
257,145,75602,1,0,1:0:0:0:
411,81,75782,1,2,1:2:0:0:
411,81,75872,1,2,0:0:0:0:
411,81,75963,6,0,B|321:35|321:35|254:63,1,155.999992858887,2|0,1:2|1:0,0:0:0:0:
270,56,76234,1,8,0:0:0:0:
270,56,76325,1,2,1:2:0:0:
335,200,76505,1,10,0:0:0:0:
247,240,76686,6,0,P|148:224|108:265,1,155.999992858887,2|0,1:2|1:2,0:0:0:0:
29,299,76957,2,0,P|92:352|176:322,1,155.999992858887,2|0,1:2|1:2,0:0:0:0:
112,256,77228,1,10,0:2:0:0:
93,101,77409,6,0,L|113:273,1,155.999992858887,6|0,1:2|0:0,0:0:0:0:
188,180,77680,2,0,P|279:158|335:233,1,155.999992858887,10|0,0:0|0:0,0:0:0:0:
247,240,77951,1,2,1:2:0:0:
481,220,78132,6,0,B|435:201|403:226|403:226|384:279|307:284,1,155.999992858887,0|0,1:0|1:0,0:0:0:0:
322,193,78403,1,8,0:0:0:0:
322,193,78493,2,0,L|334:104,1,77.9999964294435,2|8,1:2|0:0,0:0:0:0:
421,38,78674,2,0,L|431:115,1,77.9999964294435,2|0,1:2|1:2,0:0:0:0:
260,71,78855,6,0,P|181:28|113:70,1,155.999992858887,2|0,1:2|0:0,0:0:0:0:
126,52,79126,1,8,0:0:0:0:
126,52,79216,1,0,1:0:0:0:
334,13,79397,1,8,0:0:0:0:
193,198,79578,6,0,L|183:120,3,77.9999964294435,0|0|0|0,1:0|1:0|1:0|1:0,0:0:0:0:
198,217,79940,5,2,1:2:0:0:
173,213,80030,1,0,1:0:0:0:
147,210,80120,1,8,0:0:0:0:
121,207,80210,1,8,0:0:0:0:
96,202,80301,6,0,L|288:151,1,167.999994873047,6|2,1:2|0:0,0:0:0:0:
424,306,81023,5,2,1:2:0:0:
482,168,81295,5,2,1:2:0:0:
424,30,81566,5,2,1:2:0:0:
303,122,81746,6,0,B|241:69|241:69|128:104,1,155.999992858887,4|0,1:2|0:0,0:0:0:0:
128,268,82017,2,0,B|204:240|204:240|221:166,1,155.999992858887,2|0,1:2|0:0,0:0:0:0:
86,61,82289,2,0,L|71:137,1,77.9999964294435,6|0,1:2|0:0,0:0:0:0:
128,268,82469,5,4,1:2:0:0:
189,67,82740,1,2,1:2:0:0:
169,91,82831,1,0,1:2:0:0:
45,226,83011,1,2,1:2:0:0:
211,321,83192,6,0,P|291:288|356:330,1,155.999992858887,4|0,1:2|0:0,0:0:0:0:
413,198,83463,2,0,P|401:283|332:319,1,155.999992858887,2|0,1:2|0:0,0:0:0:0:
326,175,83734,2,0,P|347:132|398:116,1,77.9999964294435,2|0,1:2|0:0,0:0:0:0:
501,225,83915,5,4,1:2:0:0:
347,317,84186,1,2,1:2:0:0:
356,340,84276,1,0,1:2:0:0:
477,136,84457,1,2,1:2:0:0:
477,136,84548,1,0,1:0:0:0:
477,136,84638,6,0,L|316:177,1,155.999992858887,4|0,1:2|0:0,0:0:0:0:
195,278,84909,2,0,L|356:319,1,155.999992858887,4|0,1:2|0:0,0:0:0:0:
457,336,85180,2,0,L|490:252,1,77.9999964294435,4|0,1:2|0:0,0:0:0:0:
333,150,85361,6,0,L|485:112,1,155.999992858887,4|0,1:2|1:2,0:0:0:0:
355,339,85632,2,0,L|204:301,1,155.999992858887,4|0,1:2|1:2,0:0:0:0:
225,175,85903,2,0,L|258:91,1,77.9999964294435,4|0,1:2|1:2,0:0:0:0:
263,79,86084,1,6,0:0:0:0:
