osu file format v14

[General]
AudioFilename: machikado mazoku.mp3
AudioLeadIn: 0
PreviewTime: 56997
Countdown: 0
SampleSet: Drum
StackLeniency: 0.7
Mode: 2
LetterboxInBreaks: 0
WidescreenStoryboard: 0

[Editor]
DistanceSpacing: 1.5
BeatDivisor: 4
GridSize: 4
TimelineZoom: 2.899999

[Metadata]
Title:YOIMACHI CANTARE (TV Size)
TitleUnicode:よいまちカンターレ (TV Size)
Artist:CORO MACHIKADO (Shamiko, Momo, Lilith, Mikan)
ArtistUnicode:コーロまちカド(シャミ子・桃・リリス・ミカン)
Creator:Yumeno Himiko
Version:OVERDOSE
Source:まちカドまぞく
Tags:Machikado Mazoku The Demon Girl Next Door ed ending 芳文社 Houbunsha 小原好美 Kohara Konomi 鬼頭明里 Kitou Akari 高橋未奈美 Takahashi Minami 高柳知葉 Takayanagi Tomoyo 吉田優子 Yoshida Yuko 千代田桃 Chiyoda Momo リリス 陽夏木ミカン Hinatsuki Mikan examination exam
BeatmapID:2144047
BeatmapSetID:1025070

[Difficulty]
HPDrainRate:7
CircleSize:4
OverallDifficulty:9.3
ApproachRate:9.3
SliderMultiplier:1.9
SliderTickRate:2

[Events]
//Background and Video events
Video,-10,"ed.avi"
0,0,"BG2.jpg",0,0
//Break Periods
//Storyboard Layer 0 (Background)
//Storyboard Layer 1 (Fail)
//Storyboard Layer 2 (Pass)
//Storyboard Layer 3 (Foreground)
//Storyboard Layer 4 (Overlay)
//Storyboard Sound Samples

[TimingPoints]
594,350.877192982456,4,3,1,60,1,0
1997,-100,4,2,0,80,0,0
2085,-100,4,2,1,80,0,0
4804,-100,4,2,0,80,0,0
4892,-100,4,2,1,80,0,0
7611,-100,4,2,0,80,0,0
7699,-100,4,2,1,80,0,0
13225,-100,4,2,0,80,0,0
13401,-100,4,2,0,50,0,0
14629,-100,4,2,0,80,0,0
14804,-100,4,2,0,50,0,0
16032,-100,4,2,0,80,0,0
16208,-100,4,2,0,50,0,0
17260,-100,4,2,0,80,0,0
17611,-100,4,2,0,50,0,0
17786,-100,4,2,0,60,0,0
18137,-100,4,2,0,70,0,0
18488,-100,4,2,0,80,0,0
18927,-100,4,2,0,60,0,0
30067,-83.3333333333333,4,2,0,80,0,0
30155,-83.3333333333333,4,2,1,80,0,0
35681,-83.3333333333333,4,2,0,80,0,0
35769,-83.3333333333333,4,2,1,80,0,0
37085,-83.3333333333333,4,2,0,60,0,0
37172,-83.3333333333333,4,2,1,80,0,0
39892,-83.3333333333333,4,2,0,60,0,0
39979,-83.3333333333333,4,2,1,60,0,0
45506,-83.3333333333333,4,2,0,60,0,0
45593,-83.3333333333333,4,2,1,60,0,0
55155,-83.3333333333333,4,2,1,70,0,0
57085,-100,4,2,1,80,0,0
58137,-83.3333333333333,4,2,0,90,0,1
58225,-83.3333333333333,4,2,1,90,0,1
60418,-83.3333333333333,4,2,0,90,0,1
60506,-83.3333333333333,4,2,1,90,0,1
63225,-83.3333333333333,4,2,0,90,0,1
63313,-83.3333333333333,4,2,1,90,0,1
69365,-83.3333333333333,4,2,0,90,0,1
69453,-83.3333333333333,4,2,1,90,0,1
71646,-83.3333333333333,4,2,0,90,0,1
71734,-83.3333333333333,4,2,1,90,0,1
77786,-83.3333333333333,4,2,1,60,0,1
78137,-83.3333333333333,4,2,1,70,0,1
78488,-83.3333333333333,4,2,1,80,0,1
78839,-83.3333333333333,4,2,1,90,0,1
79190,-83.3333333333333,4,2,0,70,0,1
80593,-100,4,2,0,80,0,0
80681,-100,4,2,0,50,0,0
81997,-100,4,2,0,80,0,0
82172,-100,4,2,0,50,0,0
83401,-100,4,2,0,80,0,0
83576,-100,4,2,0,50,0,0
84453,-100,4,2,1,50,0,0
85155,-100,4,2,0,70,0,0
85243,-100,4,2,1,70,0,0
85506,-100,4,2,1,50,0,0
86383,-100,4,2,0,50,0,0
87611,-100,4,2,0,20,0,0

[Colours]
Combo1 : 247,172,60
Combo2 : 254,167,167
Combo3 : 254,29,34
Combo4 : 124,103,245

[HitObjects]
162,291,506,6,0,L|96:284,1,47.5
160,251,681,1,4,0:0:0:0:
349,208,769,1,0,0:0:0:0:
395,197,856,1,0,0:0:0:0:
441,187,944,1,0,0:0:0:0:
395,197,1032,1,0,0:0:0:0:
349,208,1119,1,0,0:0:0:0:
161,165,1208,6,0,L|97:153,1,47.5,0|4,0:0|0:0,0:0:0:0:
334,106,1383,1,0,0:0:0:0:
380,98,1470,1,0,0:0:0:0:
427,90,1558,1,0,0:0:0:0:
474,83,1646,1,0,0:0:0:0:
220,332,1734,1,0,0:0:0:0:
173,323,1821,1,0,0:0:0:0:
126,315,1909,1,0,0:0:0:0:
379,192,1997,5,4,0:0:0:0:
132,192,2172,2,0,L|244:192,1,95,6|0,0:0|0:0,0:0:0:0:
472,192,2523,2,0,L|480:120,1,47.5
220,332,2699,1,2,0:0:0:0:
267,332,2786,1,2,0:0:0:0:
315,332,2874,1,6,0:0:0:0:
362,332,2962,1,2,0:0:0:0:
410,332,3049,1,6,0:0:0:0:
28,184,3225,6,0,L|244:176,1,190,10|2,0:0|0:0,0:0:0:0:
500,136,3751,2,0,L|396:136,1,95,2|4,0:0|0:0,0:0:0:0:
112,324,4102,1,2,0:0:0:0:
159,318,4189,1,2,0:0:0:0:
206,312,4277,1,2,0:0:0:0:
159,318,4365,1,2,0:0:0:0:
112,324,4452,1,2,0:0:0:0:
264,320,4629,2,0,L|276:260,1,47.5,2|0,0:0|0:0,0:0:0:0:
64,156,4804,5,6,0:0:0:0:
368,136,4979,1,2,0:0:0:0:
216,152,5155,1,0,0:0:0:0:
368,148,5330,2,0,L|376:208,1,47.5,2|0,0:0|0:0,0:0:0:0:
192,252,5506,1,2,0:0:0:0:
238,259,5593,1,2,0:0:0:0:
285,266,5681,1,6,0:0:0:0:
238,259,5769,1,2,0:0:0:0:
192,252,5856,1,6,0:0:0:0:
452,312,6032,6,0,L|232:332,1,190,10|0,0:0|0:0,0:0:0:0:
28,148,6558,2,0,L|144:160,1,95,2|6,0:0|0:0,0:0:0:0:
384,176,6909,2,0,L|376:232,1,47.5,2|0,0:0|0:0,0:0:0:0:
296,236,7085,2,0,L|280:304,1,47.5,2|0,0:0|0:0,0:0:0:0:
448,332,7260,1,10,0:0:0:0:
316,324,7436,1,2,0:0:0:0:
72,304,7611,5,6,0:0:0:0:
312,160,7786,2,0,L|208:168,1,95,2|6,0:0|0:0,0:0:0:0:
352,156,8137,2,0,L|432:152,1,47.5,2|0,0:0|0:0,0:0:0:0:
116,312,8313,1,2,0:0:0:0:
163,310,8400,1,2,0:0:0:0:
210,308,8488,1,2,0:0:0:0:
258,306,8576,1,2,0:0:0:0:
305,304,8663,1,6,0:0:0:0:
188,244,8839,1,0,0:0:0:0:
436,244,9015,6,0,L|456:136,1,95,0|2,0:0|0:0,0:0:0:0:
208,152,9365,1,6,0:0:0:0:
340,148,9541,1,2,0:0:0:0:
92,284,9716,1,2,0:0:0:0:
139,284,9803,1,2,0:0:0:0:
187,284,9891,1,2,0:0:0:0:
139,284,9979,1,2,0:0:0:0:
92,284,10066,1,6,0:0:0:0:
228,284,10243,1,2,0:0:0:0:
468,280,10418,6,0,L|492:160,1,95,0|2,0:0|0:0,0:0:0:0:
248,148,10769,2,0,L|140:136,1,95,6|0,0:0|0:0,0:0:0:0:
216,108,11032,1,0,0:0:0:0:
436,56,11120,1,2,0:0:0:0:
388,50,11207,1,2,0:0:0:0:
341,44,11295,1,2,0:0:0:0:
294,39,11383,1,2,0:0:0:0:
247,33,11470,1,6,0:0:0:0:
496,64,11646,6,0,L|280:92,1,190,2|2,0:0|0:0,0:0:0:0:
64,200,12172,2,0,L|200:212,1,95,6|0,0:0|0:0,0:0:0:0:
396,312,12523,2,0,L|408:256,1,47.5,2|0,0:0|0:0,0:0:0:0:
328,240,12699,2,0,L|324:168,1,47.5,2|0,0:0|0:0,0:0:0:0:
248,172,12874,2,0,L|240:100,1,47.5,6|0,0:0|0:0,0:0:0:0:
160,120,13050,2,0,L|140:64,1,47.5,6|0,0:0|0:0,0:0:0:0:
344,52,13225,6,0,L|448:40,1,95,4|2,0:0|0:3,0:0:0:0:
272,164,13576,2,0,L|212:160,1,47.5
356,168,13839,1,0,0:0:0:0:
252,280,13927,2,0,L|248:212,1,47.5
332,204,14102,2,0,L|336:136,1,47.5
240,116,14278,2,0,L|236:56,1,47.5
344,52,14453,2,0,L|396:44,1,47.5
184,320,14629,6,0,L|88:304,1,95,4|2,0:0|0:3,0:0:0:0:
256,240,14979,2,0,L|316:232,1,47.5
172,256,15243,1,0,0:0:0:0:
284,200,15330,2,0,L|296:136,1,47.5
208,144,15506,2,0,L|196:80,1,47.5
300,64,15681,2,0,L|344:40,1,47.5
232,208,15857,2,0,L|160:196,1,47.5
356,328,16032,6,0,L|464:312,1,95,4|2,0:0|0:3,0:0:0:0:
276,268,16383,2,0,L|204:256,1,47.5
360,228,16646,1,0,0:0:0:0:
264,200,16734,2,0,L|256:140,1,47.5
356,144,16909,2,0,L|352:88,1,47.5
256,72,17085,2,0,L|204:64,1,47.5
440,160,17260,6,2,P|468:256|404:320,1,190,6|2,0:0|0:3,0:0:0:0:
40,320,17786,1,2,0:3:0:0:
200,296,17962,1,2,0:3:0:0:
448,268,18137,1,2,0:3:0:0:
308,230,18313,1,2,0:3:0:0:
448,196,18488,1,2,0:3:0:0:
168,116,18664,1,2,0:3:0:0:
448,100,18839,5,4,0:0:0:0:
316,128,19015,2,2,L|424:148,2,95
160,264,19541,2,0,P|124:216|188:144,1,142.5,2|0,0:0|0:0,0:0:0:0:
316,136,19979,2,0,L|240:128,1,47.5,2|0,0:0|0:0,0:0:0:0:
24,104,20243,6,0,L|152:96,1,95,0|2,0:0|0:0,0:0:0:0:
272,96,20593,2,0,L|392:88,1,95,2|2,0:0|0:0,0:0:0:0:
300,132,20857,1,0,0:0:0:0:
364,176,20944,1,2,0:0:0:0:
428,220,21032,1,2,0:0:0:0:
280,252,21208,1,2,0:0:0:0:
504,300,21471,1,2,0:0:0:0:
200,316,21646,6,0,L|328:312,1,95,2|2,0:0|0:0,0:0:0:0:
144,316,21997,2,0,L|136:216,1,95,2|0,0:0|0:0,0:0:0:0:
212,204,22260,1,0,0:0:0:0:
376,176,22348,2,0,L|208:160,2,142.5,2|2|2,0:0|0:0|0:0,0:0:0:0:
140,292,23050,6,0,L|24:284,1,95,2|0,0:0|0:0,0:0:0:0:
400,232,23401,2,0,L|500:220,1,95,2|0,0:0|0:0,0:0:0:0:
108,160,23751,2,0,L|232:148,1,95,2|0,0:0|0:0,0:0:0:0:
468,76,24102,2,0,L|452:136,1,47.5,2|0,0:0|0:0,0:0:0:0:
372,140,24278,2,0,L|320:188,1,47.5
120,308,24453,6,0,L|116:192,1,95,2|2,0:0|0:0,0:0:0:0:
252,256,24804,2,0,L|132:256,1,95,2|0,0:0|0:0,0:0:0:0:
416,128,25155,2,0,L|256:124,1,142.5,2|2,0:0|0:0,0:0:0:0:
436,208,25593,2,0,L|500:200,1,47.5,2|0,0:0|0:0,0:0:0:0:
248,316,25857,6,0,L|128:304,2,95,0|2|2,0:0|0:0|0:0,0:0:0:0:
88,324,26383,1,2,0:0:0:0:
352,320,26558,2,0,P|380:268|288:220,1,142.5,2|2,0:0|0:0,0:0:0:0:
92,164,27085,1,2,0:0:0:0:
432,116,27260,6,0,L|312:132,1,95,2|0,0:0|0:0,0:0:0:0:
176,152,27611,2,0,L|280:168,1,95
36,328,27962,2,0,L|144:320,1,95,2|0,0:3|0:0,0:0:0:0:
280,320,28225,2,0,L|408:308,1,95,2|0,0:3|0:0,0:0:0:0:
180,216,28488,6,0,P|136:192|200:100,1,190,4|0,0:0|3:0,0:0:0:0:
356,108,29015,1,0,3:0:0:0:
72,312,29190,1,2,3:0:0:0:
228,276,29365,2,0,L|120:272,1,95,0|0,3:0|3:0,0:0:0:0:
376,208,29716,1,2,3:0:0:0:
444,184,29804,1,0,3:0:0:0:
196,112,29892,1,0,3:0:0:0:
128,128,29979,1,0,3:0:0:0:
376,120,30067,6,0,L|504:88,1,113.999996520996,4|2,0:0|0:0,0:0:0:0:
228,316,30418,2,0,L|96:296,1,113.999996520996,2|2,0:0|0:0,0:0:0:0:
196,276,30681,1,0,0:0:0:0:
352,248,30769,2,0,L|364:120,1,113.999996520996,2|0,0:0|0:0,0:0:0:0:
200,112,31032,2,0,L|96:104,2,56.9999982604981,2|4|2,0:0|0:0|0:0,0:0:0:0:
272,120,31295,1,2,0:0:0:0:
16,308,31471,6,0,L|168:288,1,113.999996520996,2|0,1:2|0:0,0:0:0:0:
204,280,31734,1,0,0:0:0:0:
132,252,31822,1,2,0:0:0:0:
300,228,31997,1,2,0:0:0:0:
40,176,32172,2,0,P|36:104|96:72,1,113.999996520996,2|0,0:0|0:0,0:0:0:0:
248,72,32436,2,0,L|396:60,1,113.999996520996,2|0,0:0|0:0,0:0:0:0:
276,72,32699,1,2,0:0:0:0:
508,256,32874,6,0,L|376:244,1,113.999996520996,2|2,1:2|0:0,0:0:0:0:
208,228,33225,2,0,L|56:208,1,113.999996520996,2|0,0:0|0:0,0:0:0:0:
176,188,33488,1,0,0:0:0:0:
360,140,33576,2,0,L|344:288,1,113.999996520996,2|0,0:0|0:0,0:0:0:0:
168,296,33839,2,0,L|312:320,1,113.999996520996,2|0,0:0|0:0,0:0:0:0:
364,328,34102,1,2,0:0:0:0:
72,280,34278,6,0,P|48:228|128:152,1,170.999994781494,2|0,1:2|0:0,0:0:0:0:
280,144,34629,1,2,0:0:0:0:
128,148,34804,2,0,L|316:140,1,170.999994781494,2|0,0:0|0:0,0:0:0:0:
212,128,35155,1,2,0:0:0:0:
472,84,35330,2,0,L|460:216,1,113.999996520996,4|0,0:0|0:0,0:0:0:0:
176,216,35681,6,0,L|24:228,1,113.999996520996,4|0,0:0|0:0,0:0:0:0:
308,328,36032,2,0,L|316:204,1,113.999996520996,2|0,0:0|0:0,0:0:0:0:
232,196,36295,1,0,0:0:0:0:
56,128,36383,2,0,L|236:112,2,170.999994781494,2|2|2,0:0|0:0|0:0,0:0:0:0:
372,224,37085,6,0,L|124:248,1,227.999993041992,4|2,0:0|0:0,0:0:0:0:
448,336,37786,2,0,L|260:308,2,170.999994781494,2|2|2,3:2|3:2|3:2,0:0:0:0:
176,336,38488,6,0,P|116:304|212:204,1,227.999993041992,0|0,3:0|3:0,0:0:0:0:
352,188,39015,1,4,3:2:0:0:
32,72,39190,1,2,0:0:0:0:
180,100,39365,1,2,0:0:0:0:
336,124,39541,1,2,0:0:0:0:
496,156,39716,1,2,0:0:0:0:
124,328,39892,6,0,P|60:276|148:188,1,227.999993041992,4|4,0:0|0:0,0:0:0:0:
440,132,40593,1,0,0:0:0:0:
104,288,40944,1,6,0:0:0:0:
512,168,41295,6,0,P|508:244|424:304,1,170.999994781494,2|2,0:0|0:0,0:0:0:0:
352,292,41646,1,4,0:0:0:0:
180,268,41822,1,2,0:0:0:0:
348,232,41997,2,0,L|412:224,1,56.9999982604981
160,148,42348,1,6,0:0:0:0:
476,84,42699,5,2,0:0:0:0:
104,280,43050,1,6,0:0:0:0:
444,324,43401,1,2,0:0:0:0:
60,84,43751,1,6,0:0:0:0:
472,88,44102,6,0,L|224:104,1,227.999993041992,2|4,0:0|0:0,0:0:0:0:
400,176,44629,1,2,0:0:0:0:
228,172,44804,2,0,L|160:176,1,56.9999982604981
328,244,45067,2,0,L|408:240,1,56.9999982604981,0|4,0:0|0:0,0:0:0:0:
212,252,45330,1,4,0:0:0:0:
472,268,45506,6,0,P|500:200|368:120,1,227.999993041992,4|4,0:0|0:0,0:0:0:0:
44,288,46208,2,0,L|228:268,2,170.999994781494,2|2|2,0:0|0:0|0:0,0:0:0:0:
336,292,46909,6,0,P|388:252|304:148,1,227.999993041992,2|4,0:0|0:0,0:0:0:0:
140,140,47436,1,0,0:0:0:0:
308,116,47611,2,0,L|380:104,1,56.9999982604981,2|0,0:0|0:0,0:0:0:0:
216,256,47874,2,0,L|152:272,1,56.9999982604981,2|4,0:0|0:0,0:0:0:0:
332,276,48137,1,2,0:0:0:0:
60,108,48313,6,0,L|308:132,1,227.999993041992,0|4,0:0|0:0,0:0:0:0:
128,192,48839,1,0,0:0:0:0:
300,192,49015,2,0,L|372:192,1,56.9999982604981
188,284,49278,2,0,L|124:284,1,56.9999982604981,0|4,0:0|0:0,0:0:0:0:
304,288,49541,1,0,0:0:0:0:
64,84,49716,6,0,P|16:124|116:220,1,227.999993041992,0|4,0:0|0:0,0:0:0:0:
452,116,50418,2,0,L|240:132,1,170.999994781494,2|2,0:0|0:0,0:0:0:0:
216,136,50769,1,4,0:0:0:0:
472,296,50944,1,2,0:0:0:0:
156,240,51295,5,0,0:0:0:0:
328,220,51471,2,0,L|336:148,1,56.9999982604981
164,140,51734,2,0,L|160:72,1,56.9999982604981
332,76,51997,1,0,0:0:0:0:
52,320,52172,2,0,L|172:308,1,113.999996520996,4|0,0:0|0:0,0:0:0:0:
468,304,52523,6,0,L|488:168,1,113.999996520996,2|0,0:0|0:0,0:0:0:0:
320,152,52874,2,0,L|256:136,1,56.9999982604981
432,100,53137,2,0,L|372:84,1,56.9999982604981
208,48,53401,1,0,0:0:0:0:
465,303,53576,2,0,L|485:187,1,113.999996520996,4|0,0:0|0:0,0:0:0:0:
152,300,53927,6,0,L|12:272,1,113.999996520996,2|0,0:0|0:0,0:0:0:0:
244,248,54278,2,0,L|264:168,1,56.9999982604981,4|0,0:0|0:0,0:0:0:0:
168,164,54453,2,0,L|152:100,1,56.9999982604981,4|0,0:0|0:0,0:0:0:0:
328,96,54629,2,0,L|392:84,1,56.9999982604981,4|0,0:0|0:0,0:0:0:0:
160,292,54804,2,0,L|72:288,1,56.9999982604981,4|0,0:0|0:0,0:0:0:0:
344,336,54979,2,0,L|420:328,1,56.9999982604981,4|0,0:0|0:0,0:0:0:0:
124,104,55155,6,0,P|60:132|136:240,1,227.999993041992,2|4,0:0|0:0,0:0:0:0:
464,240,55681,1,4,0:0:0:0:
40,344,56032,2,0,L|184:332,1,113.999996520996,4|4,0:0|0:0,0:0:0:0:
436,312,56383,1,4,0:0:0:0:
168,112,56558,6,0,L|408:144,1,227.999993041992,4|4,0:0|0:0,0:0:0:0:
64,248,57085,1,6,0:0:0:0:
192,248,57260,2,0,P|188:180|56:116,1,190,2|2,0:0|0:0,0:0:0:0:
276,96,57786,1,2,0:0:0:0:
440,80,57962,1,2,0:0:0:0:
88,312,58137,6,0,L|232:304,1,113.999996520996,4|0,0:0|0:0,0:0:0:0:
472,304,58488,2,0,L|480:184,1,113.999996520996,6|0,0:0|0:0,0:0:0:0:
148,100,58839,2,0,L|8:80,1,113.999996520996,2|2,0:0|0:0,0:0:0:0:
364,228,59190,1,4,0:0:0:0:
200,176,59365,6,0,L|464:152,1,227.999993041992,2|2,0:0|0:0,0:0:0:0:
112,320,59892,2,0,L|104:192,1,113.999996520996,6|0,0:0|0:0,0:0:0:0:
448,140,60243,2,0,L|456:20,1,113.999996520996,2|8,0:0|0:0,0:0:0:0:
168,136,60593,1,6,0:0:0:0:
336,160,60769,1,0,0:0:0:0:
16,328,60944,6,0,L|160:316,1,113.999996520996,2|0,0:0|0:0,0:0:0:0:
380,304,61295,2,0,L|504:296,1,113.999996520996,6|0,0:0|0:0,0:0:0:0:
180,140,61646,2,0,L|320:128,2,113.999996520996,2|2|6,0:0|0:0|0:0,0:0:0:0:
456,252,62172,6,0,L|208:228,1,227.999993041992,2|2,0:0|0:0,0:0:0:0:
484,152,62699,2,0,L|492:24,1,113.999996520996,6|0,0:0|0:0,0:0:0:0:
248,304,63050,2,0,L|104:280,1,113.999996520996,2|8,0:0|0:0,0:0:0:0:
420,156,63401,2,0,L|288:140,1,113.999996520996,6|0,0:0|0:0,0:0:0:0:
48,112,63751,6,0,P|20:192|96:256,1,170.999994781494,2|0,0:0|0:0,0:0:0:0:
272,256,64102,2,0,L|408:256,1,113.999996520996,4|0,0:0|0:0,0:0:0:0:
124,204,64453,6,0,P|80:144|164:72,1,170.999994781494,2|0,0:0|0:0,0:0:0:0:
368,76,64804,2,0,L|232:68,1,113.999996520996,4|0,0:0|0:0,0:0:0:0:
488,84,65155,6,0,P|476:144|364:200,1,170.999994781494,2|0,0:0|0:0,0:0:0:0:
192,184,65506,2,0,L|64:168,1,113.999996520996,4|0,0:0|0:0,0:0:0:0:
428,192,65857,6,0,P|456:128|376:80,1,170.999994781494,2|0,0:0|0:0,0:0:0:0:
216,76,66208,2,0,L|102:76,1,113.999996520996,4|0,0:0|0:0,0:0:0:0:
428,312,66558,6,0,L|452:188,1,113.999996520996,2|0,0:0|0:0,0:0:0:0:
144,184,66909,2,0,L|124:60,1,113.999996520996,4|0,0:0|0:0,0:0:0:0:
412,48,67260,2,0,L|288:56,2,113.999996520996,2|2|4,0:0|0:0|0:0,0:0:0:0:
80,160,67786,6,0,P|20:204|92:288,1,170.999994781494,2|0,0:0|0:0,0:0:0:0:
304,248,68137,2,0,L|84:228,1,170.999994781494,2|0,0:0|0:0,0:0:0:0:
352,104,68488,6,0,L|480:116,1,113.999996520996,2|0,0:0|0:0,0:0:0:0:
452,190,68751,1,0,0:0:0:0:
415,231,68838,1,2,0:0:0:0:
359,232,68926,1,0,0:0:0:0:
160,324,69015,2,0,L|96:312,1,56.9999982604981,6|0,0:0|0:0,0:0:0:0:
336,196,69190,2,0,L|432:188,1,56.9999982604981,6|0,0:0|0:0,0:0:0:0:
68,92,69365,6,0,L|200:108,1,113.999996520996,4|0,0:0|0:0,0:0:0:0:
480,216,69716,2,0,L|344:232,1,113.999996520996,6|0,0:0|0:0,0:0:0:0:
100,264,70067,2,0,L|248:280,2,113.999996520996,2|2|4,0:0|0:0|0:0,0:0:0:0:
400,104,70593,6,0,L|160:124,1,227.999993041992,2|2,0:0|0:0,0:0:0:0:
440,324,71120,2,0,L|460:204,1,113.999996520996,6|2,0:0|0:0,0:0:0:0:
160,232,71471,2,0,L|36:212,1,113.999996520996,2|10,0:0|0:0,0:0:0:0:
336,128,71822,1,6,0:0:0:0:
168,152,71997,1,0,0:0:0:0:
456,284,72172,6,0,L|196:264,1,227.999993041992,2|4,0:0|0:0,0:0:0:0:
496,128,72699,2,0,L|364:116,1,113.999996520996,2|0,0:0|0:0,0:0:0:0:
36,312,73050,2,0,L|172:296,1,113.999996520996,2|4,0:0|0:0,0:0:0:0:
504,292,73401,6,0,L|240:268,1,227.999993041992,2|0,0:0|0:0,0:0:0:0:
440,212,73927,1,4,0:0:0:0:
112,112,74102,1,0,0:0:0:0:
282,109,74278,2,0,L|354:105,1,56.9999982604981
152,298,74541,2,0,L|72:294,1,56.9999982604981,0|6,0:0|0:0,0:0:0:0:
388,260,74804,1,2,0:0:0:0:
48,164,74979,6,0,L|284:148,1,227.999993041992,2|6,0:0|0:0,0:0:0:0:
132,248,75506,2,0,L|52:236,1,56.9999982604981,2|0,0:0|0:0,0:0:0:0:
296,272,75681,2,0,L|312:152,1,113.999996520996,0|2,0:0|0:0,0:0:0:0:
56,64,76032,2,0,L|204:84,1,113.999996520996,4|2,0:0|0:0,0:0:0:0:
476,108,76383,6,0,L|340:112,1,113.999996520996,0|2,0:0|0:0,0:0:0:0:
192,128,76734,1,6,0:0:0:0:
352,188,76909,1,2,0:0:0:0:
84,304,77085,2,0,L|164:300,1,56.9999982604981,2|0,0:0|0:0,0:0:0:0:
432,252,77348,2,0,L|368:248,1,56.9999982604981,2|4,0:0|0:0,0:0:0:0:
128,200,77611,1,2,0:0:0:0:
472,172,77786,6,0,L|480:104,1,56.9999982604981,4|0,0:0|0:0,0:0:0:0:
296,324,77962,2,0,L|296:256,1,56.9999982604981,4|0,0:0|0:0,0:0:0:0:
108,164,78137,2,0,L|104:88,1,56.9999982604981,4|0,0:0|0:0,0:0:0:0:
316,148,78313,2,0,L|320:64,1,56.9999982604981,4|0,0:0|0:0,0:0:0:0:
80,328,78488,6,0,L|152:316,1,56.9999982604981,4|0,0:0|0:0,0:0:0:0:
352,292,78664,2,0,L|424:280,1,56.9999982604981,4|0,0:0|0:0,0:0:0:0:
128,160,78839,2,0,L|188:148,1,56.9999982604981,4|0,0:0|0:0,0:0:0:0:
444,108,79015,2,0,L|508:88,1,56.9999982604981,4|0,0:0|0:0,0:0:0:0:
184,56,79190,5,6,0:0:0:0:
328,56,79365,2,0,P|384:100|296:192,1,227.999993041992,2|2,0:0|0:0,0:0:0:0:
160,216,79892,2,0,L|296:204,1,113.999996520996,6|0,0:0|0:0,0:0:0:0:
444,204,80243,2,0,L|480:76,1,113.999996520996,2|0,0:0|0:0,0:0:0:0:
112,88,80593,6,0,L|216:96,1,95,4|0,0:0|0:0,0:0:0:0:
348,168,80944,2,0,L|272:172,1,47.5
160,192,81208,1,0,0:0:0:0:
264,296,81295,2,0,L|268:228,1,47.5
160,232,81471,2,0,L|160:176,1,47.5
264,168,81646,2,0,L|272:96,1,47.5
168,92,81822,2,0,L|164:28,1,47.5
380,56,81997,6,0,L|484:48,1,95,4|0,0:0|0:0,0:0:0:0:
324,128,82348,2,0,L|244:116,1,47.5
444,152,82611,1,0,0:0:0:0:
344,184,82699,2,0,L|268:184,1,47.5
400,180,82874,2,0,L|408:272,1,47.5
312,256,83050,2,0,L|304:320,1,47.5
208,320,83225,2,0,L|176:368,1,47.5
380,360,83401,6,0,L|500:344,1,95,4|0,0:0|0:0,0:0:0:0:
200,220,83751,2,0,L|192:148,1,47.5
284,176,83927,2,0,L|288:112,1,47.5
188,128,84102,2,0,L|180:56,1,47.5
292,88,84278,2,0,L|296:20,1,47.5
144,316,84453,2,0,L|92:312,1,47.5,4|0,0:0|0:0,0:0:0:0:
308,264,84629,2,0,L|368:252,1,47.5,4|0,0:0|0:0,0:0:0:0:
76,72,85155,6,0,P|32:128|76:164,1,142.5,4|0,0:0|0:0,0:0:0:0:
296,140,85506,1,0,3:0:0:0:
356,180,85593,1,0,3:0:0:0:
376,248,85681,1,0,3:0:0:0:
340,312,85769,1,0,3:0:0:0:
268,320,85857,1,0,3:0:0:0:
336,336,85944,1,0,3:0:0:0:
404,352,86032,1,0,3:0:0:0:
472,368,86120,1,0,3:0:0:0:
120,152,86383,5,4,0:2:0:0:
424,104,86558,1,4,0:2:0:0:
44,308,86734,1,4,0:2:0:0:
256,192,86909,12,0,87611,0:0:0:0:
