osu file format v14

[General]
AudioFilename: audio.mp3
AudioLeadIn: 0
PreviewTime: 150854
Countdown: 1
SampleSet: Normal
StackLeniency: 0.7
Mode: 1
LetterboxInBreaks: 0
EpilepsyWarning: 1
WidescreenStoryboard: 0

[Editor]
Bookmarks: 3285,13854,18639,22878,31922,41135,59060,77556,95981,114263,123333,132546,141615,150899,159995,169039,187488,190535,191439
DistanceSpacing: 0.8
BeatDivisor: 2
GridSize: 8
TimelineZoom: 2.599999

[Metadata]
Title:Saishoukichiku Imouto Flandre S (Piano Ver.)
TitleUnicode:Saishoukichiku Imouto Flandre S (Piano Ver.)
Artist:COOL&CREATE
ArtistUnicode:COOL&CREATE
Creator:DarkDunskin
Version:Magnum Opus
Source:Tohuou
Tags:Flandre Scarlet Remilia Embodiment of Devil Extra Stage Ono stinkt
BeatmapID:1512216
BeatmapSetID:715623

[Difficulty]
HPDrainRate:6
CircleSize:2
OverallDifficulty:6
ApproachRate:5
SliderMultiplier:1.3999999666214
SliderTickRate:1

[Events]
//Background and Video events
0,0,"Taiko_BG.png",0,0
//Break Periods
//Storyboard Layer 0 (Background)
//Storyboard Layer 1 (Fail)
//Storyboard Layer 2 (Pass)
//Storyboard Layer 3 (Foreground)
//Storyboard Sound Samples

[TimingPoints]
26,285.659874309655,4,1,0,100,1,0
59443,-100,4,1,0,100,0,1
77725,-100,4,1,0,100,0,0
105148,-100,4,1,0,100,0,1
114289,-100,4,1,0,100,0,0
150854,-100,4,1,0,100,0,1
187133,-100,4,1,0,100,0,0
191255,95.9846424572068,4,1,0,100,1,0

[Colours]
Combo1 : 168,168,168
Combo2 : 0,0,0
Combo3 : 255,255,255
Combo4 : 93,93,93

[HitObjects]
256,184,3453,5,4,0:0:0:0:
256,184,3739,1,4,0:0:0:0:
256,184,4025,1,4,0:0:0:0:
256,184,4310,1,4,0:0:0:0:
256,184,4596,1,0,0:0:0:0:
256,184,4667,1,0,0:0:0:0:
256,184,4739,1,0,0:0:0:0:
256,184,4882,1,8,0:0:0:0:
256,184,5025,1,0,0:0:0:0:
256,184,5167,1,0,0:0:0:0:
256,184,5239,1,0,0:0:0:0:
256,184,5310,1,0,0:0:0:0:
256,184,5453,1,8,0:0:0:0:
256,184,5596,1,0,0:0:0:0:
256,184,5739,1,0,0:0:0:0:
256,184,5810,1,0,0:0:0:0:
256,184,5882,1,0,0:0:0:0:
256,184,6024,1,8,0:0:0:0:
256,184,6167,1,0,0:0:0:0:
256,184,6310,1,0,0:0:0:0:
256,184,6381,1,0,0:0:0:0:
256,184,6453,1,0,0:0:0:0:
256,184,6596,1,8,0:0:0:0:
256,184,6739,1,0,0:0:0:0:
256,184,6881,1,8,0:0:0:0:
256,184,6953,1,8,0:0:0:0:
256,184,7024,1,0,0:0:0:0:
256,184,7167,1,8,0:0:0:0:
256,184,7310,1,0,0:0:0:0:
256,184,7453,1,8,0:0:0:0:
256,184,7524,1,8,0:0:0:0:
256,184,7595,1,0,0:0:0:0:
256,184,7738,1,8,0:0:0:0:
256,184,7881,1,0,0:0:0:0:
256,184,8024,1,8,0:0:0:0:
256,184,8095,1,8,0:0:0:0:
256,184,8167,1,0,0:0:0:0:
256,184,8310,1,8,0:0:0:0:
256,184,8452,1,0,0:0:0:0:
256,184,8595,1,8,0:0:0:0:
256,184,8667,1,8,0:0:0:0:
256,184,8738,1,0,0:0:0:0:
256,184,8881,1,8,0:0:0:0:
256,184,9024,1,0,0:0:0:0:
256,184,9167,1,8,0:0:0:0:
256,184,9238,1,8,0:0:0:0:
256,184,9309,1,8,0:0:0:0:
256,184,9452,1,8,0:0:0:0:
256,184,9595,1,0,0:0:0:0:
256,184,9738,1,8,0:0:0:0:
256,184,9809,1,8,0:0:0:0:
256,184,9881,1,8,0:0:0:0:
256,184,10024,1,8,0:0:0:0:
256,184,10166,1,0,0:0:0:0:
256,184,10309,1,8,0:0:0:0:
256,184,10381,1,8,0:0:0:0:
256,184,10452,1,8,0:0:0:0:
256,184,10595,1,8,0:0:0:0:
256,184,10738,1,0,0:0:0:0:
256,184,10881,1,8,0:0:0:0:
256,184,10952,1,8,0:0:0:0:
256,184,11023,1,8,0:0:0:0:
256,184,11166,1,8,0:0:0:0:
256,184,11309,1,0,0:0:0:0:
256,184,11452,1,8,0:0:0:0:
256,184,11523,1,8,0:0:0:0:
256,184,11595,1,8,0:0:0:0:
256,184,11738,1,0,0:0:0:0:
256,184,11809,1,0,0:0:0:0:
256,184,11880,1,0,0:0:0:0:
256,184,12023,1,8,0:0:0:0:
256,184,12095,1,8,0:0:0:0:
256,184,12166,1,8,0:0:0:0:
256,184,12309,1,0,0:0:0:0:
256,184,12380,1,0,0:0:0:0:
256,184,12452,1,0,0:0:0:0:
256,184,12595,1,8,0:0:0:0:
256,184,12666,1,8,0:0:0:0:
256,184,12737,1,8,0:0:0:0:
256,184,12809,1,8,0:0:0:0:
256,184,12880,1,0,0:0:0:0:
256,184,12952,1,0,0:0:0:0:
256,184,13023,1,0,0:0:0:0:
256,184,13094,1,0,0:0:0:0:
256,184,13166,1,8,0:0:0:0:
256,184,13237,1,8,0:0:0:0:
256,184,13309,1,0,0:0:0:0:
256,184,13380,1,0,0:0:0:0:
256,184,13452,1,8,0:0:0:0:
256,184,13523,1,8,0:0:0:0:
256,184,13594,1,0,0:0:0:0:
256,184,13666,1,0,0:0:0:0:
256,184,13737,1,8,0:0:0:0:
256,184,14023,5,8,0:0:0:0:
256,184,14308,1,8,0:0:0:0:
256,184,14594,1,0,0:0:0:0:
256,184,14737,1,8,0:0:0:0:
256,184,15023,1,8,0:0:0:0:
256,184,15165,1,0,0:0:0:0:
256,184,15451,1,0,0:0:0:0:
256,184,15737,1,12,0:0:0:0:
256,184,16022,1,4,0:0:0:0:
256,184,16165,1,0,0:0:0:0:
256,184,16237,1,0,0:0:0:0:
256,184,16308,1,0,0:0:0:0:
256,184,16451,1,8,0:0:0:0:
256,184,16594,1,0,0:0:0:0:
256,184,16737,1,0,0:0:0:0:
256,184,16808,1,0,0:0:0:0:
256,184,16879,1,0,0:0:0:0:
256,184,17022,1,8,0:0:0:0:
256,184,17165,1,0,0:0:0:0:
256,184,17308,1,0,0:0:0:0:
256,184,17379,1,0,0:0:0:0:
256,184,17451,1,0,0:0:0:0:
256,184,17594,1,8,0:0:0:0:
256,184,17736,1,0,0:0:0:0:
256,184,17879,1,0,0:0:0:0:
256,184,17951,1,0,0:0:0:0:
256,184,18022,1,0,0:0:0:0:
256,184,18165,1,8,0:0:0:0:
256,184,18308,1,4,0:0:0:0:
256,184,18593,5,8,0:0:0:0:
256,184,18879,1,8,0:0:0:0:
256,184,19165,1,0,0:0:0:0:
256,184,19308,1,8,0:0:0:0:
256,184,19593,1,8,0:0:0:0:
256,184,19736,1,0,0:0:0:0:
256,184,20022,1,0,0:0:0:0:
256,184,20307,1,12,0:0:0:0:
256,184,20593,1,4,0:0:0:0:
256,184,20736,1,8,0:0:0:0:
256,184,20807,1,8,0:0:0:0:
256,184,20879,1,0,0:0:0:0:
256,184,21022,1,8,0:0:0:0:
256,184,21164,1,0,0:0:0:0:
256,184,21307,1,8,0:0:0:0:
256,184,21379,1,8,0:0:0:0:
256,184,21450,1,0,0:0:0:0:
256,184,21593,1,8,0:0:0:0:
256,184,21736,1,0,0:0:0:0:
256,184,21878,1,8,0:0:0:0:
256,184,21950,1,8,0:0:0:0:
256,184,22021,1,0,0:0:0:0:
256,184,22164,1,8,0:0:0:0:
256,184,22307,1,4,0:0:0:0:
256,184,22593,1,0,0:0:0:0:
256,184,22878,1,4,0:0:0:0:
256,184,23021,1,0,0:0:0:0:
256,184,23164,5,8,0:0:0:0:
256,184,23307,1,0,0:0:0:0:
256,184,23450,1,12,0:0:0:0:
256,184,23592,1,0,0:0:0:0:
256,184,23735,1,0,0:0:0:0:
256,184,23878,1,8,0:0:0:0:
256,184,24021,1,4,0:0:0:0:
256,184,24164,1,8,0:0:0:0:
256,184,24307,1,0,0:0:0:0:
256,184,24449,1,0,0:0:0:0:
256,184,24592,1,4,0:0:0:0:
256,184,24735,1,0,0:0:0:0:
256,184,24878,1,8,0:0:0:0:
256,184,25021,1,0,0:0:0:0:
256,184,25164,1,8,0:0:0:0:
256,184,25235,1,0,0:0:0:0:
256,184,25306,1,0,0:0:0:0:
256,184,25378,1,0,0:0:0:0:
256,184,25449,1,8,0:0:0:0:
256,184,25592,1,0,0:0:0:0:
256,184,25735,1,8,0:0:0:0:
256,184,25806,1,0,0:0:0:0:
256,184,25878,1,0,0:0:0:0:
256,184,25949,1,0,0:0:0:0:
256,184,26021,1,8,0:0:0:0:
256,184,26163,1,0,0:0:0:0:
256,184,26306,1,8,0:0:0:0:
256,184,26378,1,0,0:0:0:0:
256,184,26449,1,0,0:0:0:0:
256,184,26520,1,0,0:0:0:0:
256,184,26592,1,8,0:0:0:0:
256,184,26735,1,0,0:0:0:0:
256,184,26878,1,8,0:0:0:0:
256,184,26949,1,0,0:0:0:0:
256,184,27020,1,0,0:0:0:0:
256,184,27092,1,0,0:0:0:0:
256,184,27163,1,8,0:0:0:0:
256,184,27306,1,0,0:0:0:0:
256,184,27449,1,4,0:0:0:0:
256,184,27592,1,0,0:0:0:0:
256,184,27735,5,8,0:0:0:0:
256,184,27877,1,0,0:0:0:0:
256,184,28020,1,12,0:0:0:0:
256,184,28163,1,0,0:0:0:0:
256,184,28306,1,0,0:0:0:0:
256,184,28449,1,8,0:0:0:0:
256,184,28591,1,4,0:0:0:0:
256,184,28734,1,8,0:0:0:0:
256,184,28877,1,0,0:0:0:0:
256,184,29020,1,0,0:0:0:0:
256,184,29163,1,4,0:0:0:0:
256,184,29306,1,0,0:0:0:0:
256,184,29448,1,8,0:0:0:0:
256,184,29591,1,0,0:0:0:0:
256,184,29734,1,8,0:0:0:0:
256,184,29806,1,8,0:0:0:0:
256,184,29877,1,8,0:0:0:0:
256,184,30020,1,8,0:0:0:0:
256,184,30163,1,8,0:0:0:0:
256,184,30305,1,8,0:0:0:0:
256,184,30377,1,0,0:0:0:0:
256,184,30448,1,0,0:0:0:0:
256,184,30520,1,0,0:0:0:0:
256,184,30591,1,8,0:0:0:0:
256,184,30734,1,0,0:0:0:0:
256,184,30877,1,8,0:0:0:0:
256,184,30948,1,8,0:0:0:0:
256,184,31020,1,8,0:0:0:0:
256,184,31162,1,8,0:0:0:0:
256,184,31305,1,8,0:0:0:0:
256,184,31448,1,8,0:0:0:0:
256,184,31520,1,0,0:0:0:0:
256,184,31591,1,0,0:0:0:0:
256,184,31662,1,0,0:0:0:0:
256,184,31734,1,8,0:0:0:0:
256,184,31877,1,0,0:0:0:0:
256,184,32019,1,4,0:0:0:0:
256,184,32162,1,0,0:0:0:0:
256,184,32305,5,8,0:0:0:0:
256,184,32448,1,0,0:0:0:0:
256,184,32591,1,12,0:0:0:0:
256,184,32734,1,0,0:0:0:0:
256,184,32876,1,0,0:0:0:0:
256,184,33019,1,8,0:0:0:0:
256,184,33162,1,4,0:0:0:0:
256,184,33305,1,8,0:0:0:0:
256,184,33448,1,0,0:0:0:0:
256,184,33591,1,0,0:0:0:0:
256,184,33733,1,4,0:0:0:0:
256,184,33876,1,0,0:0:0:0:
256,184,34019,1,8,0:0:0:0:
256,184,34162,1,0,0:0:0:0:
256,184,34305,1,0,0:0:0:0:
256,184,34376,1,0,0:0:0:0:
256,184,34448,1,8,0:0:0:0:
256,184,34590,1,8,0:0:0:0:
256,184,34733,1,8,0:0:0:0:
256,184,34876,1,8,0:0:0:0:
256,184,34947,1,0,0:0:0:0:
256,184,35019,1,0,0:0:0:0:
256,184,35090,1,0,0:0:0:0:
256,184,35162,1,8,0:0:0:0:
256,184,35304,1,0,0:0:0:0:
256,184,35447,1,0,0:0:0:0:
256,184,35519,1,0,0:0:0:0:
256,184,35590,1,8,0:0:0:0:
256,184,35733,1,8,0:0:0:0:
256,184,35876,1,8,0:0:0:0:
256,184,36019,1,8,0:0:0:0:
256,184,36090,1,0,0:0:0:0:
256,184,36161,1,0,0:0:0:0:
256,184,36233,1,0,0:0:0:0:
256,184,36304,1,8,0:0:0:0:
256,184,36447,1,0,0:0:0:0:
256,184,36590,1,4,0:0:0:0:
256,184,36733,1,0,0:0:0:0:
256,184,36876,5,8,0:0:0:0:
256,184,37018,1,0,0:0:0:0:
256,184,37161,1,12,0:0:0:0:
256,184,37304,1,0,0:0:0:0:
256,184,37447,1,0,0:0:0:0:
256,184,37590,1,8,0:0:0:0:
256,184,37733,1,4,0:0:0:0:
256,184,37875,1,8,0:0:0:0:
256,184,38018,1,0,0:0:0:0:
256,184,38161,1,0,0:0:0:0:
256,184,38304,1,4,0:0:0:0:
256,184,38447,1,0,0:0:0:0:
256,184,38590,1,8,0:0:0:0:
256,184,38732,1,0,0:0:0:0:
256,184,38875,1,8,0:0:0:0:
256,184,38947,1,8,0:0:0:0:
256,184,39018,1,8,0:0:0:0:
256,184,39161,1,8,0:0:0:0:
256,184,39304,1,8,0:0:0:0:
256,184,39447,1,8,0:0:0:0:
256,184,39518,1,0,0:0:0:0:
256,184,39589,1,8,0:0:0:0:
256,184,39732,1,8,0:0:0:0:
256,184,39875,1,8,0:0:0:0:
256,184,40018,1,8,0:0:0:0:
256,184,40089,1,0,0:0:0:0:
256,184,40161,1,0,0:0:0:0:
256,184,40232,1,0,0:0:0:0:
256,184,40304,1,8,0:0:0:0:
256,184,40446,1,8,0:0:0:0:
256,184,40589,1,8,0:0:0:0:
256,184,40661,1,0,0:0:0:0:
256,184,40732,1,0,0:0:0:0:
256,184,40803,1,0,0:0:0:0:
256,184,40875,1,8,0:0:0:0:
256,184,40946,1,0,0:0:0:0:
256,184,41018,1,0,0:0:0:0:
256,184,41089,1,0,0:0:0:0:
256,184,41161,5,8,0:0:0:0:
256,184,41446,1,0,0:0:0:0:
256,184,41732,1,0,0:0:0:0:
256,184,42018,1,0,0:0:0:0:
256,184,42160,1,8,0:0:0:0:
256,184,42446,1,0,0:0:0:0:
256,184,42589,1,8,0:0:0:0:
256,184,42732,1,0,0:0:0:0:
256,184,42874,1,8,0:0:0:0:
256,184,43160,1,8,0:0:0:0:
256,184,43446,1,8,0:0:0:0:
256,184,43589,1,0,0:0:0:0:
256,184,43731,1,8,0:0:0:0:
256,184,43874,1,0,0:0:0:0:
256,184,44017,1,8,0:0:0:0:
256,184,44160,1,0,0:0:0:0:
256,184,44231,1,0,0:0:0:0:
256,184,44303,1,0,0:0:0:0:
256,184,44446,1,8,0:0:0:0:
256,184,44588,1,0,0:0:0:0:
256,184,44731,1,8,0:0:0:0:
256,184,44874,1,0,0:0:0:0:
256,184,45017,1,8,0:0:0:0:
256,184,45160,1,0,0:0:0:0:
256,184,45445,1,0,0:0:0:0:
256,184,45588,1,8,0:0:0:0:
256,184,45660,1,0,0:0:0:0:
256,184,45731,5,0,0:0:0:0:
256,184,46017,1,0,0:0:0:0:
256,184,46302,1,0,0:0:0:0:
256,184,46588,1,0,0:0:0:0:
256,184,46731,1,8,0:0:0:0:
256,184,47017,1,0,0:0:0:0:
256,184,47159,1,8,0:0:0:0:
256,184,47302,1,0,0:0:0:0:
256,184,47445,1,8,0:0:0:0:
256,184,47588,1,0,0:0:0:0:
256,184,47659,1,0,0:0:0:0:
256,184,47731,1,8,0:0:0:0:
256,184,48016,1,8,0:0:0:0:
256,184,48159,1,0,0:0:0:0:
256,184,48302,1,8,0:0:0:0:
256,184,48445,1,0,0:0:0:0:
256,184,48588,1,8,0:0:0:0:
256,184,48731,1,0,0:0:0:0:
256,184,48802,1,0,0:0:0:0:
256,184,48873,1,0,0:0:0:0:
256,184,49016,1,8,0:0:0:0:
256,184,49159,1,4,0:0:0:0:
256,184,49302,1,8,0:0:0:0:
256,184,49445,1,0,0:0:0:0:
256,184,49587,1,8,0:0:0:0:
256,184,49730,1,0,0:0:0:0:
256,184,49873,1,8,0:0:0:0:
256,184,50016,1,0,0:0:0:0:
256,184,50159,1,8,0:0:0:0:
256,184,50302,1,12,0:0:0:0:
256,184,50444,1,0,0:0:0:0:
256,184,50587,1,8,0:0:0:0:
256,184,50730,1,0,0:0:0:0:
256,184,50873,1,8,0:0:0:0:
256,184,51016,1,0,0:0:0:0:
256,184,51159,1,8,0:0:0:0:
256,184,51301,1,8,0:0:0:0:
256,184,51444,1,4,0:0:0:0:
256,184,51587,1,0,0:0:0:0:
256,184,51730,1,8,0:0:0:0:
256,184,51873,1,0,0:0:0:0:
256,184,52016,1,8,0:0:0:0:
256,184,52158,1,0,0:0:0:0:
256,184,52301,1,8,0:0:0:0:
256,184,52444,1,0,0:0:0:0:
256,184,52587,1,12,0:0:0:0:
256,184,52730,1,0,0:0:0:0:
256,184,52873,1,8,0:0:0:0:
256,184,53015,1,0,0:0:0:0:
256,184,53158,1,8,0:0:0:0:
256,184,53301,1,0,0:0:0:0:
256,184,53372,1,0,0:0:0:0:
256,184,53444,1,0,0:0:0:0:
256,184,53587,1,8,0:0:0:0:
256,184,53730,1,4,0:0:0:0:
256,184,53872,1,8,0:0:0:0:
256,184,54015,1,0,0:0:0:0:
256,184,54158,1,8,0:0:0:0:
256,184,54301,1,8,0:0:0:0:
256,184,54444,1,0,0:0:0:0:
256,184,54587,1,0,0:0:0:0:
256,184,54729,1,0,0:0:0:0:
256,184,54872,1,12,0:0:0:0:
256,184,55015,1,0,0:0:0:0:
256,184,55158,1,8,0:0:0:0:
256,184,55301,1,0,0:0:0:0:
256,184,55444,1,8,0:0:0:0:
256,184,55586,1,0,0:0:0:0:
256,184,55729,1,8,0:0:0:0:
256,184,55872,1,8,0:0:0:0:
256,184,56015,1,4,0:0:0:0:
256,184,56158,1,0,0:0:0:0:
256,184,56300,1,8,0:0:0:0:
256,184,56443,1,0,0:0:0:0:
256,184,56586,1,8,0:0:0:0:
256,184,56729,1,0,0:0:0:0:
256,184,56800,1,0,0:0:0:0:
256,184,56872,1,8,0:0:0:0:
256,184,57015,1,0,0:0:0:0:
256,184,57157,1,12,0:0:0:0:
256,184,57300,1,0,0:0:0:0:
256,184,57443,1,8,0:0:0:0:
256,184,57586,1,0,0:0:0:0:
256,184,57729,1,12,0:0:0:0:
256,184,57872,1,0,0:0:0:0:
256,184,57943,1,0,0:0:0:0:
256,184,58014,1,0,0:0:0:0:
256,184,58157,1,8,0:0:0:0:
256,184,58300,1,4,0:0:0:0:
256,184,58443,1,8,0:0:0:0:
256,184,58586,1,0,0:0:0:0:
256,184,58729,1,8,0:0:0:0:
256,184,58871,1,8,0:0:0:0:
256,184,59014,1,0,0:0:0:0:
256,184,59157,1,8,0:0:0:0:
256,184,59229,1,0,0:0:0:0:
256,184,59300,1,0,0:0:0:0:
256,184,59371,1,0,0:0:0:0:
256,184,59443,1,8,0:0:0:0:
256,184,59586,5,8,0:0:0:0:
256,184,59728,1,8,0:0:0:0:
256,184,59871,1,8,0:0:0:0:
256,184,60014,1,8,0:0:0:0:
256,184,60157,1,8,0:0:0:0:
256,184,60300,1,8,0:0:0:0:
256,184,60443,1,8,0:0:0:0:
256,184,60585,1,4,0:0:0:0:
256,184,60871,1,8,0:0:0:0:
256,184,61014,1,4,0:0:0:0:
256,184,61300,1,8,0:0:0:0:
256,184,61442,1,4,0:0:0:0:
256,184,61728,5,8,0:0:0:0:
256,184,61871,1,0,0:0:0:0:
256,184,61942,1,0,0:0:0:0:
256,184,62014,1,8,0:0:0:0:
256,184,62157,1,8,0:0:0:0:
256,184,62299,1,0,0:0:0:0:
256,184,62371,1,0,0:0:0:0:
256,184,62442,1,8,0:0:0:0:
256,184,62585,1,8,0:0:0:0:
256,184,62728,1,8,0:0:0:0:
256,184,62871,1,4,0:0:0:0:
256,184,63156,1,8,0:0:0:0:
256,184,63299,1,4,0:0:0:0:
256,184,63585,1,8,0:0:0:0:
256,184,63728,1,4,0:0:0:0:
256,184,64013,5,8,0:0:0:0:
256,184,64156,1,0,0:0:0:0:
256,184,64228,1,0,0:0:0:0:
256,184,64299,1,8,0:0:0:0:
256,184,64442,1,8,0:0:0:0:
256,184,64585,1,0,0:0:0:0:
256,184,64656,1,0,0:0:0:0:
256,184,64727,1,8,0:0:0:0:
256,184,64870,1,8,0:0:0:0:
256,184,65013,1,8,0:0:0:0:
256,184,65156,1,4,0:0:0:0:
256,184,65442,1,8,0:0:0:0:
256,184,65584,1,4,0:0:0:0:
256,184,65870,1,8,0:0:0:0:
256,184,66013,1,4,0:0:0:0:
256,184,66299,5,8,0:0:0:0:
256,184,66370,1,0,0:0:0:0:
256,184,66441,1,0,0:0:0:0:
256,184,66513,1,0,0:0:0:0:
256,184,66584,1,8,0:0:0:0:
256,184,66727,1,8,0:0:0:0:
256,184,66798,1,0,0:0:0:0:
256,184,66870,1,0,0:0:0:0:
256,184,66941,1,0,0:0:0:0:
256,184,67013,1,8,0:0:0:0:
256,184,67156,1,8,0:0:0:0:
256,184,67298,1,8,0:0:0:0:
256,184,67441,1,4,0:0:0:0:
256,184,67727,1,8,0:0:0:0:
256,184,67870,1,4,0:0:0:0:
256,184,68155,1,8,0:0:0:0:
256,184,68298,1,4,0:0:0:0:
256,184,68584,5,8,0:0:0:0:
256,184,68655,1,0,0:0:0:0:
256,184,68727,1,0,0:0:0:0:
256,184,68798,1,0,0:0:0:0:
256,184,68870,1,8,0:0:0:0:
256,184,68941,1,0,0:0:0:0:
256,184,69012,1,8,0:0:0:0:
256,184,69084,1,0,0:0:0:0:
256,184,69155,1,0,0:0:0:0:
256,184,69227,1,0,0:0:0:0:
256,184,69298,1,8,0:0:0:0:
256,184,69369,1,0,0:0:0:0:
256,184,69441,1,8,0:0:0:0:
256,184,69512,1,0,0:0:0:0:
256,184,69584,1,8,0:0:0:0:
256,184,69727,1,4,0:0:0:0:
256,184,69869,1,0,0:0:0:0:
256,184,70012,1,8,0:0:0:0:
256,184,70155,1,4,0:0:0:0:
224,160,70298,1,0,0:0:0:0:
256,184,70441,1,8,0:0:0:0:
256,184,70583,1,4,0:0:0:0:
224,160,70726,1,0,0:0:0:0:
256,184,70869,5,8,0:0:0:0:
256,184,70941,1,0,0:0:0:0:
256,184,71012,1,0,0:0:0:0:
256,184,71083,1,0,0:0:0:0:
256,184,71155,1,8,0:0:0:0:
256,184,71226,1,0,0:0:0:0:
256,184,71298,1,8,0:0:0:0:
256,184,71369,1,0,0:0:0:0:
256,184,71440,1,0,0:0:0:0:
256,184,71512,1,0,0:0:0:0:
256,184,71583,1,8,0:0:0:0:
256,184,71655,1,0,0:0:0:0:
256,184,71726,1,8,0:0:0:0:
256,184,71798,1,0,0:0:0:0:
256,184,71869,1,8,0:0:0:0:
256,184,72012,1,4,0:0:0:0:
224,160,72155,1,0,0:0:0:0:
256,184,72297,1,8,0:0:0:0:
256,184,72440,1,4,0:0:0:0:
224,160,72583,1,0,0:0:0:0:
256,184,72726,1,8,0:0:0:0:
256,184,72869,1,4,0:0:0:0:
256,184,73012,1,0,0:0:0:0:
256,184,73154,5,8,0:0:0:0:
256,184,73297,1,0,0:0:0:0:
256,184,73369,1,0,0:0:0:0:
256,184,73440,1,8,0:0:0:0:
256,184,73583,1,8,0:0:0:0:
256,184,73726,1,0,0:0:0:0:
256,184,73797,1,0,0:0:0:0:
256,184,73869,1,8,0:0:0:0:
256,184,74011,1,8,0:0:0:0:
256,184,74154,1,8,0:0:0:0:
256,184,74297,1,4,0:0:0:0:
256,184,74440,1,0,0:0:0:0:
256,184,74583,1,8,0:0:0:0:
256,184,74726,1,4,0:0:0:0:
256,184,74868,1,0,0:0:0:0:
256,184,75011,1,8,0:0:0:0:
256,184,75154,1,4,0:0:0:0:
256,184,75297,1,0,0:0:0:0:
256,184,75440,1,8,0:0:0:0:
256,184,75583,5,8,0:0:0:0:
256,184,75725,1,8,0:0:0:0:
256,184,75868,1,8,0:0:0:0:
256,184,76011,1,8,0:0:0:0:
256,184,76154,1,8,0:0:0:0:
256,184,76297,1,8,0:0:0:0:
256,184,76440,1,8,0:0:0:0:
256,184,76582,1,12,0:0:0:0:
256,184,76868,1,8,0:0:0:0:
256,184,77011,1,12,0:0:0:0:
256,184,77296,1,8,0:0:0:0:
256,184,77439,1,12,0:0:0:0:
256,184,77725,1,0,0:0:0:0:
256,184,77868,1,0,0:0:0:0:
256,184,78011,5,8,0:0:0:0:
256,184,78153,1,0,0:0:0:0:
256,184,78296,1,8,0:0:0:0:
256,184,78439,1,0,0:0:0:0:
256,184,78582,1,0,0:0:0:0:
256,184,78725,1,8,0:0:0:0:
256,184,78868,1,0,0:0:0:0:
256,184,79010,1,8,0:0:0:0:
256,184,79153,1,0,0:0:0:0:
256,184,79296,1,0,0:0:0:0:
256,184,79439,1,0,0:0:0:0:
256,184,79582,1,0,0:0:0:0:
256,184,79725,1,8,0:0:0:0:
256,184,79867,1,0,0:0:0:0:
256,184,80010,1,0,0:0:0:0:
256,184,80153,1,8,0:0:0:0:
256,184,80225,1,8,0:0:0:0:
256,184,80296,1,0,0:0:0:0:
256,184,80439,1,8,0:0:0:0:
256,184,80582,1,0,0:0:0:0:
256,184,80724,1,8,0:0:0:0:
256,184,80796,1,8,0:0:0:0:
256,184,80867,1,0,0:0:0:0:
256,184,81010,1,8,0:0:0:0:
256,184,81153,1,0,0:0:0:0:
256,184,81296,1,8,0:0:0:0:
256,184,81367,1,8,0:0:0:0:
256,184,81439,1,0,0:0:0:0:
256,184,81581,1,8,0:0:0:0:
256,184,81724,1,0,0:0:0:0:
256,184,81867,1,8,0:0:0:0:
256,184,81938,1,8,0:0:0:0:
256,184,82010,1,0,0:0:0:0:
256,184,82153,1,8,0:0:0:0:
256,184,82296,1,0,0:0:0:0:
256,184,82438,1,0,0:0:0:0:
256,184,82581,5,8,0:0:0:0:
256,184,82724,1,0,0:0:0:0:
256,184,82867,1,8,0:0:0:0:
256,184,83010,1,0,0:0:0:0:
256,184,83153,1,0,0:0:0:0:
256,184,83295,1,8,0:0:0:0:
256,184,83438,1,0,0:0:0:0:
256,184,83581,1,8,0:0:0:0:
256,184,83724,1,0,0:0:0:0:
256,184,83867,1,0,0:0:0:0:
256,184,84010,1,0,0:0:0:0:
256,184,84152,1,0,0:0:0:0:
256,184,84295,1,8,0:0:0:0:
256,184,84438,1,0,0:0:0:0:
256,184,84581,1,0,0:0:0:0:
256,184,84724,1,8,0:0:0:0:
256,184,84795,1,8,0:0:0:0:
256,184,84866,1,0,0:0:0:0:
256,184,85009,1,8,0:0:0:0:
256,184,85152,1,0,0:0:0:0:
256,184,85295,1,8,0:0:0:0:
256,184,85366,1,8,0:0:0:0:
256,184,85438,1,0,0:0:0:0:
256,184,85581,1,8,0:0:0:0:
256,184,85723,1,0,0:0:0:0:
256,184,85866,1,8,0:0:0:0:
256,184,85938,1,8,0:0:0:0:
256,184,86009,1,0,0:0:0:0:
256,184,86152,1,8,0:0:0:0:
256,184,86295,1,0,0:0:0:0:
256,184,86438,1,8,0:0:0:0:
256,184,86509,1,8,0:0:0:0:
256,184,86580,1,0,0:0:0:0:
256,184,86723,1,8,0:0:0:0:
256,184,86866,1,0,0:0:0:0:
256,184,87009,1,0,0:0:0:0:
256,184,87080,1,0,0:0:0:0:
256,184,87152,5,8,0:0:0:0:
256,184,87295,1,0,0:0:0:0:
256,184,87437,1,8,0:0:0:0:
256,184,87580,1,0,0:0:0:0:
256,184,87652,1,0,0:0:0:0:
256,184,87723,1,0,0:0:0:0:
256,184,87866,1,8,0:0:0:0:
256,184,88009,1,0,0:0:0:0:
256,184,88152,1,8,0:0:0:0:
256,184,88223,1,0,0:0:0:0:
256,184,88294,1,0,0:0:0:0:
256,184,88437,1,0,0:0:0:0:
256,184,88580,1,0,0:0:0:0:
256,184,88723,1,0,0:0:0:0:
256,184,88794,1,0,0:0:0:0:
256,184,88866,1,8,0:0:0:0:
256,184,89009,1,0,0:0:0:0:
256,184,89151,1,0,0:0:0:0:
256,184,89294,1,8,0:0:0:0:
256,184,89366,1,8,0:0:0:0:
256,184,89437,1,0,0:0:0:0:
256,184,89580,1,8,0:0:0:0:
256,184,89723,1,0,0:0:0:0:
256,184,89866,1,8,0:0:0:0:
256,184,89937,1,8,0:0:0:0:
256,184,90008,1,0,0:0:0:0:
256,184,90151,1,8,0:0:0:0:
256,184,90294,1,0,0:0:0:0:
256,184,90437,1,8,0:0:0:0:
256,184,90508,1,8,0:0:0:0:
256,184,90580,1,0,0:0:0:0:
256,184,90723,1,8,0:0:0:0:
256,184,90865,1,0,0:0:0:0:
256,184,91008,1,8,0:0:0:0:
256,184,91080,1,8,0:0:0:0:
256,184,91151,1,0,0:0:0:0:
256,184,91294,1,8,0:0:0:0:
256,184,91437,1,0,0:0:0:0:
256,184,91579,1,0,0:0:0:0:
256,184,91651,1,0,0:0:0:0:
256,184,91722,5,8,0:0:0:0:
256,184,91865,1,0,0:0:0:0:
256,184,92008,1,8,0:0:0:0:
256,184,92151,1,0,0:0:0:0:
256,184,92222,1,0,0:0:0:0:
256,184,92294,1,0,0:0:0:0:
256,184,92436,1,8,0:0:0:0:
256,184,92579,1,0,0:0:0:0:
256,184,92722,1,8,0:0:0:0:
256,184,92794,1,0,0:0:0:0:
256,184,92865,1,0,0:0:0:0:
256,184,93008,1,0,0:0:0:0:
256,184,93151,1,0,0:0:0:0:
256,184,93293,1,0,0:0:0:0:
256,184,93365,1,0,0:0:0:0:
256,184,93436,1,8,0:0:0:0:
256,184,93579,1,0,0:0:0:0:
256,184,93722,1,0,0:0:0:0:
256,184,93865,1,8,0:0:0:0:
256,184,93936,1,8,0:0:0:0:
256,184,94008,1,0,0:0:0:0:
256,184,94150,1,8,0:0:0:0:
256,184,94293,1,0,0:0:0:0:
256,184,94436,1,8,0:0:0:0:
256,184,94508,1,8,0:0:0:0:
256,184,94579,1,0,0:0:0:0:
256,184,94722,1,8,0:0:0:0:
256,184,94865,1,0,0:0:0:0:
256,184,95007,1,8,0:0:0:0:
256,184,95079,1,8,0:0:0:0:
256,184,95150,1,8,0:0:0:0:
256,184,95293,1,0,0:0:0:0:
256,184,95364,1,0,0:0:0:0:
256,184,95436,1,0,0:0:0:0:
256,184,95579,1,8,0:0:0:0:
256,184,95650,1,8,0:0:0:0:
256,184,95722,1,0,0:0:0:0:
256,184,95793,1,0,0:0:0:0:
256,184,95864,1,8,0:0:0:0:
256,184,95936,1,0,0:0:0:0:
256,184,96007,5,8,0:0:0:0:
256,184,96293,1,0,0:0:0:0:
256,184,96579,1,0,0:0:0:0:
256,184,96864,1,0,0:0:0:0:
256,184,97007,1,8,0:0:0:0:
256,184,97293,1,0,0:0:0:0:
256,184,97436,1,8,0:0:0:0:
256,184,97578,1,0,0:0:0:0:
256,184,97721,1,8,0:0:0:0:
256,184,98007,1,8,0:0:0:0:
256,184,98292,1,8,0:0:0:0:
256,184,98435,1,0,0:0:0:0:
256,184,98578,1,8,0:0:0:0:
256,184,98721,1,0,0:0:0:0:
256,184,98864,1,8,0:0:0:0:
256,184,99007,1,0,0:0:0:0:
256,184,99078,1,0,0:0:0:0:
256,184,99149,1,0,0:0:0:0:
256,184,99292,1,8,0:0:0:0:
256,184,99435,1,12,0:0:0:0:
256,184,99578,1,12,0:0:0:0:
256,184,99721,1,12,0:0:0:0:
256,184,99864,1,12,0:0:0:0:
256,184,100006,1,12,0:0:0:0:
256,184,100292,1,0,0:0:0:0:
256,184,100435,1,8,0:0:0:0:
256,184,100506,1,0,0:0:0:0:
256,184,100578,5,0,0:0:0:0:
256,184,100863,1,0,0:0:0:0:
256,184,101149,1,0,0:0:0:0:
256,184,101435,1,0,0:0:0:0:
256,184,101578,1,8,0:0:0:0:
256,184,101863,1,0,0:0:0:0:
256,184,102006,1,8,0:0:0:0:
256,184,102149,1,0,0:0:0:0:
256,184,102292,1,8,0:0:0:0:
256,184,102435,1,0,0:0:0:0:
256,184,102506,1,0,0:0:0:0:
256,184,102577,1,8,0:0:0:0:
256,184,102863,1,8,0:0:0:0:
256,184,103006,1,0,0:0:0:0:
256,184,103149,1,8,0:0:0:0:
256,184,103292,1,0,0:0:0:0:
256,184,103434,1,8,0:0:0:0:
256,184,103577,1,0,0:0:0:0:
256,184,103649,1,0,0:0:0:0:
256,184,103720,1,0,0:0:0:0:
256,184,103863,1,8,0:0:0:0:
256,184,104006,1,4,0:0:0:0:
256,184,104149,1,8,0:0:0:0:
256,184,104291,1,0,0:0:0:0:
256,184,104434,1,8,0:0:0:0:
256,184,104577,1,0,0:0:0:0:
256,184,104720,1,8,0:0:0:0:
256,184,104863,1,0,0:0:0:0:
256,184,105006,1,8,0:0:0:0:
256,184,105148,1,12,0:0:0:0:
256,184,105291,1,0,0:0:0:0:
256,184,105434,1,8,0:0:0:0:
256,184,105577,1,0,0:0:0:0:
256,184,105720,1,8,0:0:0:0:
256,184,105862,1,0,0:0:0:0:
256,184,106005,1,8,0:0:0:0:
256,184,106148,1,8,0:0:0:0:
256,184,106291,1,4,0:0:0:0:
256,184,106434,1,0,0:0:0:0:
256,184,106577,1,8,0:0:0:0:
256,184,106719,1,0,0:0:0:0:
256,184,106862,1,8,0:0:0:0:
256,184,107005,1,0,0:0:0:0:
256,184,107148,1,8,0:0:0:0:
256,184,107291,1,0,0:0:0:0:
256,184,107434,1,12,0:0:0:0:
256,184,107576,1,0,0:0:0:0:
256,184,107719,1,8,0:0:0:0:
256,184,107862,1,0,0:0:0:0:
256,184,108005,1,8,0:0:0:0:
256,184,108148,1,0,0:0:0:0:
256,184,108219,1,0,0:0:0:0:
256,184,108291,1,0,0:0:0:0:
256,184,108433,1,8,0:0:0:0:
256,184,108576,1,4,0:0:0:0:
256,184,108719,1,8,0:0:0:0:
256,184,108862,1,0,0:0:0:0:
256,184,109005,1,8,0:0:0:0:
256,184,109148,1,8,0:0:0:0:
256,184,109290,1,0,0:0:0:0:
256,184,109433,1,0,0:0:0:0:
256,184,109576,1,0,0:0:0:0:
256,184,109719,1,12,0:0:0:0:
256,184,109862,1,0,0:0:0:0:
256,184,110005,1,8,0:0:0:0:
256,184,110147,1,0,0:0:0:0:
256,184,110290,1,8,0:0:0:0:
256,184,110433,1,0,0:0:0:0:
256,184,110576,1,8,0:0:0:0:
256,184,110719,1,8,0:0:0:0:
256,184,110862,1,4,0:0:0:0:
256,184,111004,1,0,0:0:0:0:
256,184,111147,1,8,0:0:0:0:
256,184,111290,1,0,0:0:0:0:
256,184,111433,1,8,0:0:0:0:
256,184,111576,1,0,0:0:0:0:
256,184,111647,1,0,0:0:0:0:
256,184,111719,1,8,0:0:0:0:
256,184,111861,1,0,0:0:0:0:
256,184,112004,1,12,0:0:0:0:
256,184,112147,1,0,0:0:0:0:
256,184,112290,1,8,0:0:0:0:
256,184,112433,1,0,0:0:0:0:
256,184,112575,1,12,0:0:0:0:
256,184,112718,1,0,0:0:0:0:
256,184,112790,1,0,0:0:0:0:
256,184,112861,1,0,0:0:0:0:
256,184,113004,1,8,0:0:0:0:
256,184,113147,1,4,0:0:0:0:
256,184,113290,1,8,0:0:0:0:
256,184,113432,1,0,0:0:0:0:
256,184,113575,1,8,0:0:0:0:
256,184,113718,1,8,0:0:0:0:
256,184,113861,1,0,0:0:0:0:
256,184,114004,1,8,0:0:0:0:
256,184,114075,1,0,0:0:0:0:
256,184,114147,1,0,0:0:0:0:
256,184,114218,1,0,0:0:0:0:
256,184,114289,1,8,0:0:0:0:
256,184,114575,5,0,0:0:0:0:
256,184,114861,1,8,0:0:0:0:
256,184,115146,1,0,0:0:0:0:
256,184,115289,1,8,0:0:0:0:
256,184,115575,1,8,0:0:0:0:
256,184,115718,1,0,0:0:0:0:
256,184,116003,1,8,0:0:0:0:
256,184,116289,1,0,0:0:0:0:
256,184,116575,1,8,0:0:0:0:
256,184,116718,1,0,0:0:0:0:
256,184,116789,1,0,0:0:0:0:
256,184,116860,5,0,0:0:0:0:
256,184,117003,1,0,0:0:0:0:
256,184,117146,1,8,0:0:0:0:
256,184,117289,1,0,0:0:0:0:
256,184,117360,1,0,0:0:0:0:
256,184,117432,1,0,0:0:0:0:
256,184,117575,1,0,0:0:0:0:
256,184,117717,1,8,0:0:0:0:
256,184,117860,1,0,0:0:0:0:
256,184,117932,1,0,0:0:0:0:
256,184,118003,1,0,0:0:0:0:
256,184,118146,1,0,0:0:0:0:
256,184,118289,1,8,0:0:0:0:
256,184,118432,1,0,0:0:0:0:
256,184,118503,1,0,0:0:0:0:
256,184,118574,1,0,0:0:0:0:
256,184,118717,1,0,0:0:0:0:
256,184,118860,1,8,0:0:0:0:
256,184,119146,5,0,0:0:0:0:
256,184,119431,1,8,0:0:0:0:
256,184,119717,1,0,0:0:0:0:
256,184,119860,1,8,0:0:0:0:
256,184,120145,1,8,0:0:0:0:
256,184,120288,1,0,0:0:0:0:
256,184,120574,1,8,0:0:0:0:
256,184,120860,1,0,0:0:0:0:
256,184,121145,1,8,0:0:0:0:
256,184,121288,1,0,0:0:0:0:
256,184,121360,1,0,0:0:0:0:
256,184,121431,5,0,0:0:0:0:
256,184,121574,1,0,0:0:0:0:
256,184,121717,1,8,0:0:0:0:
256,184,121859,1,0,0:0:0:0:
256,184,121931,1,0,0:0:0:0:
256,184,122002,1,0,0:0:0:0:
256,184,122145,1,0,0:0:0:0:
256,184,122288,1,8,0:0:0:0:
256,184,122431,1,0,0:0:0:0:
256,184,122502,1,0,0:0:0:0:
256,184,122574,1,0,0:0:0:0:
256,184,122716,1,0,0:0:0:0:
256,184,122859,1,8,0:0:0:0:
256,184,123002,1,0,0:0:0:0:
256,184,123073,1,0,0:0:0:0:
256,184,123145,1,0,0:0:0:0:
256,184,123288,1,0,0:0:0:0:
256,184,123431,1,12,0:0:0:0:
256,184,123573,1,0,0:0:0:0:
256,184,123716,5,0,0:0:0:0:
256,184,123859,1,0,0:0:0:0:
256,184,124002,1,12,0:0:0:0:
256,184,124145,1,0,0:0:0:0:
256,184,124288,1,0,0:0:0:0:
256,184,124430,1,8,0:0:0:0:
256,184,124573,1,4,0:0:0:0:
256,184,124716,1,8,0:0:0:0:
256,184,124859,1,0,0:0:0:0:
256,184,125002,1,0,0:0:0:0:
256,184,125145,1,12,0:0:0:0:
256,184,125287,1,0,0:0:0:0:
256,184,125430,1,0,0:0:0:0:
256,184,125573,1,0,0:0:0:0:
256,184,125716,1,12,0:0:0:0:
256,184,125859,1,0,0:0:0:0:
256,184,125930,1,0,0:0:0:0:
256,184,126002,5,0,0:0:0:0:
256,184,126144,1,0,0:0:0:0:
256,184,126287,1,12,0:0:0:0:
256,184,126430,1,0,0:0:0:0:
256,184,126501,1,0,0:0:0:0:
256,184,126573,1,0,0:0:0:0:
256,184,126716,1,0,0:0:0:0:
256,184,126858,1,12,0:0:0:0:
256,184,127001,1,0,0:0:0:0:
256,184,127073,1,0,0:0:0:0:
256,184,127144,1,0,0:0:0:0:
256,184,127287,1,0,0:0:0:0:
256,184,127430,1,12,0:0:0:0:
256,184,127573,1,0,0:0:0:0:
256,184,127644,1,0,0:0:0:0:
256,184,127715,1,0,0:0:0:0:
256,184,127858,1,0,0:0:0:0:
256,184,128001,1,8,0:0:0:0:
256,184,128073,1,0,0:0:0:0:
256,184,128144,1,0,0:0:0:0:
256,184,128287,1,0,0:0:0:0:
256,184,128358,1,0,0:0:0:0:
256,184,128430,1,0,0:0:0:0:
256,184,128572,1,8,0:0:0:0:
256,184,128644,1,0,0:0:0:0:
256,184,128715,1,0,0:0:0:0:
256,184,128858,1,0,0:0:0:0:
256,184,128930,1,0,0:0:0:0:
256,184,129001,1,0,0:0:0:0:
256,184,129144,1,8,0:0:0:0:
256,184,129215,1,0,0:0:0:0:
256,184,129287,1,0,0:0:0:0:
256,184,129429,1,0,0:0:0:0:
256,184,129501,1,0,0:0:0:0:
256,184,129572,1,0,0:0:0:0:
256,184,129715,1,8,0:0:0:0:
256,184,129786,1,0,0:0:0:0:
256,184,129858,1,0,0:0:0:0:
256,184,130001,1,0,0:0:0:0:
256,184,130072,1,0,0:0:0:0:
256,184,130144,1,0,0:0:0:0:
1,51,130286,2,0,B|529:45,2,525
256,184,132572,5,8,0:0:0:0:
256,184,132857,1,0,0:0:0:0:
256,184,133143,1,0,0:0:0:0:
256,184,133429,1,0,0:0:0:0:
256,184,133571,1,8,0:0:0:0:
256,184,133857,1,0,0:0:0:0:
256,184,134000,1,8,0:0:0:0:
256,184,134143,1,0,0:0:0:0:
256,184,134286,1,8,0:0:0:0:
256,184,134571,1,8,0:0:0:0:
256,184,134857,1,8,0:0:0:0:
256,184,135000,1,0,0:0:0:0:
256,184,135143,1,8,0:0:0:0:
256,184,135285,1,0,0:0:0:0:
256,184,135428,1,8,0:0:0:0:
256,184,135571,1,0,0:0:0:0:
256,184,135643,1,0,0:0:0:0:
256,184,135714,1,0,0:0:0:0:
256,184,135857,1,8,0:0:0:0:
256,184,136000,1,0,0:0:0:0:
256,184,136142,1,8,0:0:0:0:
256,184,136285,1,0,0:0:0:0:
256,184,136428,1,8,0:0:0:0:
256,184,136571,1,0,0:0:0:0:
256,184,136857,1,0,0:0:0:0:
256,184,136999,1,8,0:0:0:0:
256,184,137071,1,0,0:0:0:0:
256,184,137142,5,0,0:0:0:0:
256,184,137428,1,0,0:0:0:0:
256,184,137714,1,0,0:0:0:0:
256,184,137999,1,0,0:0:0:0:
256,184,138142,1,8,0:0:0:0:
256,184,138428,1,0,0:0:0:0:
256,184,138571,1,8,0:0:0:0:
256,184,138713,1,0,0:0:0:0:
256,184,138856,1,8,0:0:0:0:
256,184,138999,1,0,0:0:0:0:
256,184,139070,1,0,0:0:0:0:
256,184,139142,1,8,0:0:0:0:
256,184,139428,1,8,0:0:0:0:
256,184,139570,1,0,0:0:0:0:
256,184,139713,1,8,0:0:0:0:
256,184,139856,1,0,0:0:0:0:
256,184,139999,1,8,0:0:0:0:
256,184,140142,1,0,0:0:0:0:
256,184,140213,1,0,0:0:0:0:
256,184,140284,1,0,0:0:0:0:
256,184,140427,1,8,0:0:0:0:
256,184,140570,1,4,0:0:0:0:
256,184,140713,1,8,0:0:0:0:
256,184,140856,1,0,0:0:0:0:
256,184,140999,1,8,0:0:0:0:
256,184,141141,1,0,0:0:0:0:
256,184,141284,1,8,0:0:0:0:
256,184,141427,1,0,0:0:0:0:
256,184,141570,1,8,0:0:0:0:
256,184,141713,1,12,0:0:0:0:
256,184,141856,1,0,0:0:0:0:
256,184,141927,1,0,0:0:0:0:
256,184,141998,1,8,0:0:0:0:
256,184,142141,1,0,0:0:0:0:
256,184,142284,1,8,0:0:0:0:
256,184,142427,1,0,0:0:0:0:
256,184,142498,1,0,0:0:0:0:
256,184,142570,1,8,0:0:0:0:
256,184,142713,1,8,0:0:0:0:
256,184,142855,1,4,0:0:0:0:
256,184,142998,1,0,0:0:0:0:
256,184,143070,1,0,0:0:0:0:
256,184,143141,1,8,0:0:0:0:
256,184,143213,1,0,0:0:0:0:
256,184,143284,1,0,0:0:0:0:
256,184,143427,1,8,0:0:0:0:
256,184,143570,1,0,0:0:0:0:
256,184,143712,1,8,0:0:0:0:
256,184,143855,1,0,0:0:0:0:
256,184,143998,1,12,0:0:0:0:
256,184,144141,1,0,0:0:0:0:
256,184,144212,1,0,0:0:0:0:
256,184,144284,1,8,0:0:0:0:
256,184,144427,1,0,0:0:0:0:
256,184,144569,1,8,0:0:0:0:
256,184,144712,1,0,0:0:0:0:
256,184,144784,1,0,0:0:0:0:
256,184,144855,1,0,0:0:0:0:
256,184,144998,1,8,0:0:0:0:
256,184,145141,1,4,0:0:0:0:
256,184,145284,1,8,0:0:0:0:
256,184,145355,1,0,0:0:0:0:
256,184,145426,1,0,0:0:0:0:
256,184,145569,1,8,0:0:0:0:
256,184,145712,1,8,0:0:0:0:
256,184,145855,1,0,0:0:0:0:
256,184,145998,1,0,0:0:0:0:
256,184,146141,1,0,0:0:0:0:
256,184,146283,1,12,0:0:0:0:
256,184,146426,1,0,0:0:0:0:
256,184,146498,1,0,0:0:0:0:
256,184,146569,1,8,0:0:0:0:
256,184,146712,1,0,0:0:0:0:
256,184,146855,1,8,0:0:0:0:
256,184,146998,1,0,0:0:0:0:
256,184,147069,1,0,0:0:0:0:
256,184,147140,1,8,0:0:0:0:
256,184,147283,1,8,0:0:0:0:
256,184,147426,1,4,0:0:0:0:
256,184,147569,1,0,0:0:0:0:
256,184,147640,1,0,0:0:0:0:
256,184,147712,1,8,0:0:0:0:
256,184,147783,1,0,0:0:0:0:
256,184,147854,1,0,0:0:0:0:
256,184,147997,1,8,0:0:0:0:
256,184,148140,1,0,0:0:0:0:
256,184,148212,1,0,0:0:0:0:
256,184,148283,1,8,0:0:0:0:
256,184,148426,1,0,0:0:0:0:
256,184,148569,1,12,0:0:0:0:
256,184,148711,1,0,0:0:0:0:
256,184,148854,1,8,0:0:0:0:
256,184,148997,1,0,0:0:0:0:
256,184,149140,1,12,0:0:0:0:
256,184,149283,1,0,0:0:0:0:
256,184,149354,1,0,0:0:0:0:
256,184,149426,1,0,0:0:0:0:
256,184,149568,1,8,0:0:0:0:
256,184,149711,1,4,0:0:0:0:
256,184,149854,1,8,0:0:0:0:
256,184,149997,1,0,0:0:0:0:
256,184,150140,1,8,0:0:0:0:
256,184,150283,1,8,0:0:0:0:
256,184,150425,1,0,0:0:0:0:
256,184,150568,1,8,0:0:0:0:
256,184,150640,1,0,0:0:0:0:
256,184,150711,1,8,0:0:0:0:
256,184,150782,1,0,0:0:0:0:
256,184,150854,5,8,0:0:0:0:
256,184,150925,1,8,0:0:0:0:
256,184,150997,1,8,0:0:0:0:
256,184,151068,1,8,0:0:0:0:
256,184,151140,1,8,0:0:0:0:
256,184,151282,1,8,0:0:0:0:
256,184,151425,1,0,0:0:0:0:
256,184,151497,1,0,0:0:0:0:
256,184,151568,1,0,0:0:0:0:
256,184,151639,1,0,0:0:0:0:
256,184,151711,1,0,0:0:0:0:
256,184,151854,1,0,0:0:0:0:
256,184,151997,5,8,0:0:0:0:
256,184,152068,1,8,0:0:0:0:
256,184,152139,1,0,0:0:0:0:
256,184,152211,1,0,0:0:0:0:
256,184,152282,1,8,0:0:0:0:
256,184,152425,1,8,0:0:0:0:
256,184,152568,1,0,0:0:0:0:
256,184,152639,1,0,0:0:0:0:
256,184,152711,1,8,0:0:0:0:
256,184,152782,1,8,0:0:0:0:
256,184,152854,1,0,0:0:0:0:
256,184,152996,1,0,0:0:0:0:
256,184,153139,1,8,0:0:0:0:
256,184,153282,1,0,0:0:0:0:
256,184,153425,1,8,0:0:0:0:
256,184,153568,1,0,0:0:0:0:
256,184,153711,1,8,0:0:0:0:
256,184,153853,1,0,0:0:0:0:
256,184,153925,1,0,0:0:0:0:
256,184,153996,1,0,0:0:0:0:
256,184,154139,1,8,0:0:0:0:
256,184,154282,1,0,0:0:0:0:
256,184,154425,1,8,0:0:0:0:
256,184,154567,1,0,0:0:0:0:
256,184,154710,1,8,0:0:0:0:
256,184,154853,1,0,0:0:0:0:
256,184,154996,1,8,0:0:0:0:
256,184,155139,1,0,0:0:0:0:
256,184,155282,1,8,0:0:0:0:
256,184,155424,5,8,0:0:0:0:
256,184,155496,1,8,0:0:0:0:
256,184,155567,1,8,0:0:0:0:
256,184,155639,1,8,0:0:0:0:
256,184,155710,1,8,0:0:0:0:
256,184,155853,1,8,0:0:0:0:
256,184,155996,1,0,0:0:0:0:
256,184,156067,1,0,0:0:0:0:
256,184,156139,1,0,0:0:0:0:
256,184,156210,1,0,0:0:0:0:
256,184,156281,1,0,0:0:0:0:
256,184,156424,1,0,0:0:0:0:
256,184,156567,5,8,0:0:0:0:
256,184,156639,1,8,0:0:0:0:
256,184,156710,1,0,0:0:0:0:
256,184,156781,1,0,0:0:0:0:
256,184,156853,1,8,0:0:0:0:
256,184,156996,1,8,0:0:0:0:
256,184,157138,1,0,0:0:0:0:
256,184,157210,1,0,0:0:0:0:
256,184,157281,1,8,0:0:0:0:
256,184,157353,1,8,0:0:0:0:
256,184,157424,1,0,0:0:0:0:
256,184,157567,1,0,0:0:0:0:
256,184,157710,1,8,0:0:0:0:
256,184,157853,1,0,0:0:0:0:
256,184,157995,1,8,0:0:0:0:
256,184,158138,1,0,0:0:0:0:
256,184,158281,1,8,0:0:0:0:
256,184,158424,1,0,0:0:0:0:
256,184,158495,1,0,0:0:0:0:
256,184,158567,1,0,0:0:0:0:
256,184,158710,1,8,0:0:0:0:
256,184,158852,1,0,0:0:0:0:
256,184,158995,1,8,0:0:0:0:
256,184,159138,1,0,0:0:0:0:
256,184,159281,1,8,0:0:0:0:
256,184,159424,1,0,0:0:0:0:
256,184,159567,1,8,0:0:0:0:
256,184,159709,1,0,0:0:0:0:
256,184,159852,1,8,0:0:0:0:
256,184,159995,5,8,0:0:0:0:
256,184,160066,1,8,0:0:0:0:
256,184,160138,1,8,0:0:0:0:
256,184,160209,1,8,0:0:0:0:
256,184,160281,1,8,0:0:0:0:
256,184,160424,1,8,0:0:0:0:
256,184,160566,1,0,0:0:0:0:
256,184,160638,1,0,0:0:0:0:
256,184,160709,1,0,0:0:0:0:
256,184,160781,1,0,0:0:0:0:
256,184,160852,1,0,0:0:0:0:
256,184,160995,1,0,0:0:0:0:
256,184,161138,5,8,0:0:0:0:
256,184,161209,1,8,0:0:0:0:
256,184,161280,1,0,0:0:0:0:
256,184,161352,1,0,0:0:0:0:
256,184,161423,1,8,0:0:0:0:
256,184,161566,1,8,0:0:0:0:
256,184,161709,1,0,0:0:0:0:
256,184,161780,1,0,0:0:0:0:
256,184,161852,1,8,0:0:0:0:
256,184,161923,1,8,0:0:0:0:
256,184,161995,1,0,0:0:0:0:
256,184,162137,1,0,0:0:0:0:
256,184,162280,1,8,0:0:0:0:
256,184,162423,1,0,0:0:0:0:
256,184,162566,1,8,0:0:0:0:
256,184,162709,1,0,0:0:0:0:
256,184,162852,1,8,0:0:0:0:
256,184,162994,1,0,0:0:0:0:
256,184,163066,1,0,0:0:0:0:
256,184,163137,1,0,0:0:0:0:
256,184,163280,1,8,0:0:0:0:
256,184,163423,1,0,0:0:0:0:
256,184,163566,1,8,0:0:0:0:
256,184,163709,1,0,0:0:0:0:
256,184,163851,1,8,0:0:0:0:
256,184,163994,1,0,0:0:0:0:
256,184,164137,1,8,0:0:0:0:
256,184,164280,1,0,0:0:0:0:
256,184,164423,1,8,0:0:0:0:
256,184,164566,5,8,0:0:0:0:
256,184,164637,1,8,0:0:0:0:
256,184,164708,1,8,0:0:0:0:
256,184,164780,1,8,0:0:0:0:
256,184,164851,1,8,0:0:0:0:
256,184,164994,1,8,0:0:0:0:
256,184,165137,1,0,0:0:0:0:
256,184,165208,1,0,0:0:0:0:
256,184,165280,1,0,0:0:0:0:
256,184,165351,1,0,0:0:0:0:
256,184,165423,1,0,0:0:0:0:
256,184,165565,1,0,0:0:0:0:
256,184,165708,5,8,0:0:0:0:
256,184,165780,1,8,0:0:0:0:
256,184,165851,1,0,0:0:0:0:
256,184,165922,1,0,0:0:0:0:
256,184,165994,1,8,0:0:0:0:
256,184,166137,1,8,0:0:0:0:
256,184,166280,1,0,0:0:0:0:
256,184,166351,1,0,0:0:0:0:
256,184,166422,1,8,0:0:0:0:
256,184,166494,1,8,0:0:0:0:
256,184,166565,1,0,0:0:0:0:
256,184,166708,1,0,0:0:0:0:
256,184,166851,1,8,0:0:0:0:
256,184,166994,1,0,0:0:0:0:
256,184,167137,1,8,0:0:0:0:
256,184,167279,1,0,0:0:0:0:
256,184,167422,1,8,0:0:0:0:
256,184,167565,1,0,0:0:0:0:
256,184,167636,1,0,0:0:0:0:
256,184,167708,1,0,0:0:0:0:
256,184,167851,1,8,0:0:0:0:
256,184,167994,1,0,0:0:0:0:
256,184,168065,1,0,0:0:0:0:
256,184,168136,1,8,0:0:0:0:
256,184,168208,1,0,0:0:0:0:
256,184,168279,1,0,0:0:0:0:
256,184,168351,1,0,0:0:0:0:
256,184,168422,1,8,0:0:0:0:
256,184,168493,1,0,0:0:0:0:
256,184,168565,1,0,0:0:0:0:
256,184,168636,1,0,0:0:0:0:
256,184,168708,1,8,0:0:0:0:
256,184,168779,1,0,0:0:0:0:
256,184,168850,1,0,0:0:0:0:
256,184,168922,1,0,0:0:0:0:
256,184,168993,1,8,0:0:0:0:
256,184,169065,1,0,0:0:0:0:
256,184,169136,5,8,0:0:0:0:
256,184,169208,1,8,0:0:0:0:
256,184,169279,1,8,0:0:0:0:
256,184,169350,1,8,0:0:0:0:
256,184,169422,1,8,0:0:0:0:
256,184,169565,1,8,0:0:0:0:
256,184,169636,1,8,0:0:0:0:
256,184,169707,1,8,0:0:0:0:
256,184,169779,1,8,0:0:0:0:
256,184,169850,1,8,0:0:0:0:
256,184,169993,1,0,0:0:0:0:
256,184,170136,1,0,0:0:0:0:
257,193,170279,1,4,0:0:0:0:
256,184,170422,1,0,0:0:0:0:
257,193,170564,1,8,0:0:0:0:
257,193,170707,1,4,0:0:0:0:
256,184,170850,1,0,0:0:0:0:
257,193,170993,1,8,0:0:0:0:
257,193,171136,1,4,0:0:0:0:
257,193,171279,1,0,0:0:0:0:
256,184,171421,5,8,0:0:0:0:
256,184,171493,1,8,0:0:0:0:
256,184,171564,1,8,0:0:0:0:
256,184,171636,1,8,0:0:0:0:
256,184,171707,1,8,0:0:0:0:
256,184,171850,1,8,0:0:0:0:
256,184,171921,1,8,0:0:0:0:
256,184,171993,1,8,0:0:0:0:
256,184,172064,1,8,0:0:0:0:
256,184,172136,1,8,0:0:0:0:
256,184,172278,1,0,0:0:0:0:
256,184,172421,1,0,0:0:0:0:
257,193,172564,1,4,0:0:0:0:
257,193,172707,1,0,0:0:0:0:
257,193,172850,1,8,0:0:0:0:
257,193,172993,1,4,0:0:0:0:
257,193,173135,1,0,0:0:0:0:
257,193,173278,1,8,0:0:0:0:
257,193,173421,1,4,0:0:0:0:
257,193,173564,1,0,0:0:0:0:
256,184,173707,5,8,0:0:0:0:
256,184,173778,1,8,0:0:0:0:
256,184,173850,1,0,0:0:0:0:
256,184,173921,1,0,0:0:0:0:
256,184,173992,1,8,0:0:0:0:
256,184,174135,1,8,0:0:0:0:
256,184,174207,1,8,0:0:0:0:
256,184,174278,1,0,0:0:0:0:
256,184,174349,1,0,0:0:0:0:
256,184,174421,1,8,0:0:0:0:
256,184,174564,1,0,0:0:0:0:
256,184,174707,1,0,0:0:0:0:
257,193,174849,1,4,0:0:0:0:
257,193,174992,1,0,0:0:0:0:
257,193,175135,1,8,0:0:0:0:
257,193,175278,1,4,0:0:0:0:
256,184,175421,1,0,0:0:0:0:
257,193,175563,1,8,0:0:0:0:
257,193,175706,1,4,0:0:0:0:
256,184,175849,1,0,0:0:0:0:
256,184,175992,5,8,0:0:0:0:
256,184,176063,1,8,0:0:0:0:
256,184,176135,1,0,0:0:0:0:
256,184,176206,1,0,0:0:0:0:
256,184,176278,1,8,0:0:0:0:
256,184,176420,1,8,0:0:0:0:
256,184,176492,1,8,0:0:0:0:
256,184,176563,1,0,0:0:0:0:
256,184,176635,1,0,0:0:0:0:
256,184,176706,1,8,0:0:0:0:
256,184,176849,1,0,0:0:0:0:
256,184,176992,1,0,0:0:0:0:
257,193,177135,1,4,0:0:0:0:
304,160,177277,1,0,0:0:0:0:
257,193,177420,1,8,0:0:0:0:
257,193,177563,1,4,0:0:0:0:
304,160,177706,1,0,0:0:0:0:
257,193,177849,1,8,0:0:0:0:
257,193,177992,1,4,0:0:0:0:
304,168,178134,1,0,0:0:0:0:
256,184,178277,5,8,0:0:0:0:
256,184,178349,1,0,0:0:0:0:
256,184,178420,1,0,0:0:0:0:
256,184,178492,1,0,0:0:0:0:
256,184,178563,1,0,0:0:0:0:
256,184,178706,1,8,0:0:0:0:
256,184,178777,1,0,0:0:0:0:
256,184,178849,1,0,0:0:0:0:
256,184,178920,1,0,0:0:0:0:
256,184,178991,1,0,0:0:0:0:
256,184,179134,1,0,0:0:0:0:
256,184,179277,1,0,0:0:0:0:
257,193,179420,1,4,0:0:0:0:
256,184,179563,1,0,0:0:0:0:
257,193,179706,1,8,0:0:0:0:
257,193,179848,1,4,0:0:0:0:
256,184,179991,1,0,0:0:0:0:
257,193,180134,1,8,0:0:0:0:
257,193,180277,1,4,0:0:0:0:
256,184,180420,1,0,0:0:0:0:
256,184,180563,5,8,0:0:0:0:
256,184,180634,1,0,0:0:0:0:
256,184,180705,1,0,0:0:0:0:
256,184,180777,1,0,0:0:0:0:
256,184,180848,1,0,0:0:0:0:
256,184,180991,1,8,0:0:0:0:
256,184,181062,1,0,0:0:0:0:
256,184,181134,1,0,0:0:0:0:
256,184,181205,1,0,0:0:0:0:
256,184,181277,1,0,0:0:0:0:
256,184,181420,1,0,0:0:0:0:
256,184,181562,1,0,0:0:0:0:
257,193,181705,1,4,0:0:0:0:
257,193,181848,1,0,0:0:0:0:
257,193,181991,1,8,0:0:0:0:
257,193,182134,1,4,0:0:0:0:
256,184,182276,1,0,0:0:0:0:
257,193,182419,1,8,0:0:0:0:
257,193,182562,1,4,0:0:0:0:
256,184,182705,1,0,0:0:0:0:
256,184,182848,5,8,0:0:0:0:
256,184,182919,1,8,0:0:0:0:
256,184,182991,1,8,0:0:0:0:
256,184,183062,1,8,0:0:0:0:
256,184,183133,1,8,0:0:0:0:
256,184,183276,1,8,0:0:0:0:
256,184,183348,1,8,0:0:0:0:
256,184,183419,1,8,0:0:0:0:
256,184,183491,1,8,0:0:0:0:
256,184,183562,1,8,0:0:0:0:
256,184,183705,1,0,0:0:0:0:
256,184,183848,1,0,0:0:0:0:
257,193,183990,1,4,0:0:0:0:
257,193,184133,1,0,0:0:0:0:
257,193,184276,1,8,0:0:0:0:
257,193,184419,1,4,0:0:0:0:
256,184,184562,1,0,0:0:0:0:
257,193,184705,1,8,0:0:0:0:
257,193,184847,5,4,0:0:0:0:
256,184,184990,1,0,0:0:0:0:
256,184,185133,5,8,0:0:0:0:
256,184,185205,1,8,0:0:0:0:
256,184,185276,1,8,0:0:0:0:
256,184,185347,1,8,0:0:0:0:
256,184,185419,1,8,0:0:0:0:
256,184,185562,1,8,0:0:0:0:
256,184,185633,1,8,0:0:0:0:
256,184,185704,1,8,0:0:0:0:
256,184,185776,1,8,0:0:0:0:
256,184,185847,1,8,0:0:0:0:
256,184,185990,1,0,0:0:0:0:
256,184,186133,1,0,0:0:0:0:
257,193,186276,1,4,0:0:0:0:
257,193,186561,1,8,0:0:0:0:
257,193,186704,1,4,0:0:0:0:
257,193,186990,1,8,0:0:0:0:
257,193,187133,1,4,0:0:0:0:
256,192,187418,12,0,191132,0:0:0:0:
259,192,191470,5,4,0:0:0:0:
