osu file format v14

[General]
AudioFilename: audio.mp3
AudioLeadIn: 0
PreviewTime: 38930
Countdown: 1
SampleSet: Normal
StackLeniency: 0.7
Mode: 0
LetterboxInBreaks: 0
WidescreenStoryboard: 0

[Editor]
DistanceSpacing: 0.3
BeatDivisor: 4
GridSize: 8
TimelineZoom: 1.9

[Metadata]
Title:Last Brutal Sister Flandre S
TitleUnicode:最終鬼畜妹フランドール・S / ビートまりお
Artist:COOL&CREATE
ArtistUnicode:COOL&CREATE
Creator:-Cappuchino-
Version:And Then There Will Be None
Source:Touhou
Tags:death waltz flandre scarlet un owen was her touhou
BeatmapID:2185930
BeatmapSetID:1045658

[Difficulty]
HPDrainRate:7
CircleSize:4
OverallDifficulty:4
ApproachRate:9.5
SliderMultiplier:1.4
SliderTickRate:1

[Events]
//Background and Video events
0,0,"c675ed095cafeca2ebd427d2646a94427fe82540.jpg",0,0
//Break Periods
2,115930,124805
//Storyboard Layer 0 (Background)
//Storyboard Layer 1 (Fail)
//Storyboard Layer 2 (Pass)
//Storyboard Layer 3 (Foreground)
//Storyboard Layer 4 (Overlay)
//Storyboard Sound Samples

[TimingPoints]
530,300,4,1,0,100,1,0
38930,-66.6666666666667,4,1,0,100,0,1
58130,-66.6666666666667,4,1,0,100,0,0
96530,-66.6666666666667,4,1,0,100,0,1
115730,-100,4,1,0,100,0,0
144530,-66.6666666666667,4,1,0,100,0,1
173330,-66.6666666666667,4,1,0,100,0,0

[HitObjects]
256,192,530,12,0,2630,0:0:0:0:
256,192,2930,12,0,5030,0:0:0:0:
256,192,5330,12,0,7430,0:0:0:0:
256,192,7730,12,0,8630,0:0:0:0:
352,258,8930,6,0,L|375:261,27,17.5,0|0|0|0|0|0|0|0|0|0|0|0|0|0|0|0|0|0|0|0|0|0|0|0|0|0|0|0,3:0|3:0|3:0|3:0|3:0|3:0|3:0|3:0|3:0|3:0|3:0|3:0|3:0|3:0|3:0|3:0|3:0|3:0|3:0|3:0|3:0|3:0|3:0|3:0|3:0|3:0|3:0|3:0,3:0:0:0:
320,175,10130,2,0,P|286:126|208:79,1,140
230,229,10692,2,0,P|210:205|106:149,1,140
72,240,11180,2,0,L|74:315,1,70
144,311,11480,2,0,L|226:313,1,70
341,294,11930,2,0,P|345:224|274:106,1,210
123,200,12530,5,0,0:0:0:0:
224,104,12680,1,0,0:0:0:0:
139,255,12830,5,0,0:0:0:0:
257,158,12980,1,0,0:0:0:0:
201,268,13130,5,0,0:0:0:0:
300,150,13280,1,0,0:0:0:0:
238,285,13430,5,0,0:0:0:0:
352,188,13580,1,0,0:0:0:0:
280,295,13730,5,0,0:0:0:0:
379,159,13880,1,0,0:0:0:0:
321,295,14030,5,0,0:0:0:0:
352,215,14180,1,0,0:0:0:0:
246,335,14330,5,0,0:0:0:0:
368,176,14480,1,0,0:0:0:0:
280,276,14630,5,0,0:0:0:0:
394,123,14780,1,0,0:0:0:0:
319,217,14930,2,0,B|226:249|226:249|205:184|205:184|90:217,1,280
83,151,16130,2,0,B|66:67|66:67|172:42|172:42|195:131|195:131,1,280
142,268,17330,5,2,0:0:0:0:
296,269,17480,1,0,0:0:0:0:
146,292,17630,5,0,0:0:0:0:
297,286,17780,1,0,0:0:0:0:
151,307,17930,5,2,0:0:0:0:
301,300,18080,1,0,0:0:0:0:
213,298,18230,5,0,0:0:0:0:
379,284,18380,1,2,0:0:0:0:
285,297,18530,5,0,0:0:0:0:
441,269,18680,1,2,0:0:0:0:
357,286,18830,5,2,0:0:0:0:
411,188,18980,1,0,0:0:0:0:
302,187,19130,1,2,0:0:0:0:
112,228,19430,6,0,L|136:211,8,17.5
261,248,19880,6,0,L|314:169,1,70
373,226,20180,2,0,L|417:142,1,70
301,119,20480,2,0,L|353:37,1,70
383,139,20780,2,0,L|345:217,1,70
424,231,21080,2,0,L|391:311,1,70
273,238,21380,2,0,L|224:318,1,70
143,302,21680,2,0,L|74:245,1,70
162,209,21980,2,0,L|90:150,1,70
198,161,22280,5,0,0:0:0:0:
202,43,22430,1,0,0:0:0:0:
292,48,22580,1,0,0:0:0:0:
298,156,22730,1,0,0:0:0:0:
361,170,22880,5,0,0:0:0:0:
502,169,23030,1,0,0:0:0:0:
501,56,23180,1,0,0:0:0:0:
350,62,23330,1,0,0:0:0:0:
349,171,23480,5,0,0:0:0:0:
348,294,23630,1,0,0:0:0:0:
252,291,23780,1,0,0:0:0:0:
256,168,23930,1,0,0:0:0:0:
394,169,24080,5,0,0:0:0:0:
383,297,24230,1,0,0:0:0:0:
260,293,24380,1,0,0:0:0:0:
141,297,24530,1,0,0:0:0:0:
73,231,24680,6,0,L|77:137,1,70
125,104,24980,2,0,L|209:102,1,70
284,103,25280,2,0,L|374:104,1,70
359,189,25580,2,0,L|358:273,1,70
309,318,25880,2,0,L|226:320,1,70
146,320,26180,2,0,P|76:284|59:203,1,140
45,158,26630,2,0,L|119:92,1,70
210,97,26930,5,0,0:0:0:0:
317,191,27080,1,0,0:0:0:0:
334,78,27230,1,0,0:0:0:0:
176,182,27380,5,0,0:0:0:0:
382,178,27530,1,0,0:0:0:0:
339,83,27680,1,0,0:0:0:0:
256,189,27830,5,0,0:0:0:0:
412,188,27980,1,0,0:0:0:0:
412,94,28130,1,0,0:0:0:0:
306,182,28280,5,0,0:0:0:0:
410,259,28430,1,0,0:0:0:0:
414,164,28580,1,0,0:0:0:0:
296,255,28730,5,0,0:0:0:0:
414,326,28880,1,0,0:0:0:0:
429,219,29030,1,0,0:0:0:0:
332,327,29180,1,0,0:0:0:0:
219,331,29330,6,0,L|94:228,1,140,2|0,0:0|0:0,0:0:0:0:
147,182,29780,2,0,L|271:70,1,140,2|0,0:0|0:0,0:0:0:0:
307,120,30230,2,0,L|426:212,1,140,2|0,0:0|0:0,0:0:0:0:
365,268,30680,2,0,L|246:370,1,140,2|0,0:0|0:0,0:0:0:0:
199,302,31130,2,0,L|101:199,1,140,2|0,0:0|0:0,0:0:0:0:
283,151,31730,5,0,0:0:0:0:
423,253,31880,1,0,0:0:0:0:
426,108,32030,1,0,0:0:0:0:
270,228,32180,5,0,0:0:0:0:
326,106,32330,1,0,0:0:0:0:
443,237,32480,1,0,0:0:0:0:
270,236,32630,5,0,0:0:0:0:
399,123,32780,1,0,0:0:0:0:
266,231,32930,5,0,0:0:0:0:
429,211,33080,1,0,0:0:0:0:
266,223,33230,5,0,0:0:0:0:
381,327,33380,1,0,0:0:0:0:
280,217,33530,5,0,0:0:0:0:
286,335,33680,1,0,0:0:0:0:
281,211,33830,5,0,0:0:0:0:
176,317,33980,1,0,0:0:0:0:
138,253,34130,2,0,B|69:185|69:185|108:125,1,140
192,138,34580,2,0,B|278:157|278:157|206:258,1,210
301,283,35180,2,0,B|367:182|367:182|423:262,1,210
376,317,35780,2,0,B|270:220|270:220|194:284,1,210
158,129,36530,5,0,0:0:0:0:
252,127,36680,1,0,0:0:0:0:
364,132,36830,1,0,0:0:0:0:
370,237,36980,1,0,0:0:0:0:
277,245,37130,1,0,0:0:0:0:
189,246,37280,1,0,0:0:0:0:
101,242,37430,1,0,0:0:0:0:
100,142,37580,1,0,0:0:0:0:
95,47,37730,6,0,L|171:48,1,70
272,50,38030,1,0,0:0:0:0:
381,57,38180,1,0,0:0:0:0:
456,64,38330,5,0,0:0:0:0:
456,104,38405,1,0,0:0:0:0:
456,136,38480,1,0,0:0:0:0:
456,232,38630,1,0,0:0:0:0:
457,264,38705,1,0,0:0:0:0:
456,294,38780,1,0,0:0:0:0:
348,265,38930,2,0,P|270:201|166:155,1,210.000008010865,0|2,0:0|0:0,0:0:0:0:
277,305,39380,2,0,P|221:260|150:228,1,105.000004005432,0|2,0:0|0:0,0:0:0:0:
134,325,39680,5,8,0:0:0:0:
84,253,39830,2,0,L|144:129,1,105.000004005432
248,160,40130,1,0,0:0:0:0:
326,249,40280,1,0,0:0:0:0:
407,156,40430,1,0,0:0:0:0:
318,228,40580,6,0,L|227:314,1,105.000004005432
186,236,40880,1,8,0:0:0:0:
246,128,41030,1,0,0:0:0:0:
369,129,41180,2,2,P|457:128|471:154,1,105.000004005432,0|4,0:0|0:0,0:0:0:0:
470,233,41480,1,0,0:0:0:0:
368,338,41630,1,0,0:0:0:0:
267,250,41780,5,8,0:0:0:0:
267,250,41855,1,8,0:0:0:0:
267,250,41930,1,8,0:0:0:0:
163,182,42080,1,8,0:0:0:0:
249,110,42230,1,8,0:0:0:0:
403,185,42380,2,8,P|394:130|321:78,1,105.000004005432
256,84,42680,2,8,P|201:70|150:117,1,105.000004005432
114,171,42980,2,2,P|59:210|194:328,1,315.000012016297,0|2,0:0|0:0,0:0:0:0:
263,243,43580,5,0,0:0:0:0:
375,212,43730,2,0,L|303:125,1,105.000004005432
211,149,44030,2,0,L|112:240,1,105.000004005432
306,148,44330,2,0,L|386:233,1,105.000004005432
125,288,44630,1,0,0:0:0:0:
204,227,44780,1,0,0:0:0:0:
268,304,44930,1,0,0:0:0:0:
350,180,45080,5,8,0:0:0:0:
350,180,45155,1,8,0:0:0:0:
350,180,45230,1,8,0:0:0:0:
452,255,45380,1,0,0:0:0:0:
425,104,45530,2,8,L|320:88,1,105.000004005432
228,93,45830,2,0,B|127:146|157:260|245:277,1,210.000008010865,2|4,0:0|0:0,0:0:0:0:
327,226,46280,1,0,0:0:0:0:
219,333,46430,5,0,0:0:0:0:
219,333,46505,1,0,0:0:0:0:
219,333,46580,1,0,0:0:0:0:
119,270,46730,2,0,L|75:172,1,105.000004005432
119,82,47030,2,0,L|225:24,1,105.000004005432
256,192,47330,12,14,48530,0:0:0:0:
503,115,48680,6,0,L|450:214,1,105.000004005432
387,259,48980,2,0,L|276:188,1,105.000004005432
181,175,49280,1,0,0:0:0:0:
112,278,49430,1,0,0:0:0:0:
112,278,49580,2,0,P|61:238|66:102,1,210.000008010865
210,38,50030,1,0,0:0:0:0:
343,125,50180,1,0,0:0:0:0:
301,263,50330,2,0,L|218:193,1,105.000004005432
59,169,50630,6,0,L|130:278,1,105.000004005432
236,185,50930,1,8,0:0:0:0:
355,278,51080,1,8,0:0:0:0:
414,144,51230,1,8,0:0:0:0:
414,144,51305,1,8,0:0:0:0:
414,144,51380,1,8,0:0:0:0:
277,220,51530,1,8,0:0:0:0:
174,130,51680,5,2,0:0:0:0:
88,253,51830,1,2,0:0:0:0:
206,333,51980,1,2,0:0:0:0:
304,246,52130,1,2,0:0:0:0:
447,191,52280,2,2,B|447:118|447:118|404:62,1,105.000004005432
348,89,52580,2,2,B|274:55|274:55|212:74,1,105.000004005432
165,161,52880,1,0,0:0:0:0:
284,268,53030,1,0,0:0:0:0:
284,268,53180,1,0,0:0:0:0:
431,184,53330,6,0,B|435:250|435:250|396:290,1,105.000004005432
267,256,53630,2,0,B|263:190|263:190|302:150,1,105.000004005432
414,182,53930,2,0,B|396:291|396:291|264:302,1,210.000008010865
249,208,54530,5,0,0:0:0:0:
214,168,54605,1,0,0:0:0:0:
169,143,54680,1,0,0:0:0:0:
117,135,54755,1,0,0:0:0:0:
96,150,54830,5,0,0:0:0:0:
66,193,54905,1,0,0:0:0:0:
59,244,54980,1,0,0:0:0:0:
74,294,55055,1,0,0:0:0:0:
110,332,55130,1,0,0:0:0:0:
143,335,55205,5,0,0:0:0:0:
195,333,55280,1,0,0:0:0:0:
244,317,55355,1,0,0:0:0:0:
286,286,55430,1,0,0:0:0:0:
317,243,55505,1,0,0:0:0:0:
334,208,55580,5,0,0:0:0:0:
352,159,55655,1,0,0:0:0:0:
341,108,55730,1,0,0:0:0:0:
304,72,55805,1,0,0:0:0:0:
254,61,55880,1,0,0:0:0:0:
234,81,55955,5,0,0:0:0:0:
198,119,56030,1,0,0:0:0:0:
176,166,56105,1,0,0:0:0:0:
171,218,56180,1,0,0:0:0:0:
183,269,56255,1,0,0:0:0:0:
210,277,56330,5,0,0:0:0:0:
243,236,56405,1,0,0:0:0:0:
283,202,56480,1,0,0:0:0:0:
328,175,56555,1,0,0:0:0:0:
343,166,56630,5,0,0:0:0:0:
351,217,56705,1,0,0:0:0:0:
380,260,56780,1,0,0:0:0:0:
425,287,56855,1,0,0:0:0:0:
256,192,56930,12,4,58130,0:0:0:0:
445,237,58280,5,0,0:0:0:0:
367,315,58430,5,0,0:0:0:0:
237,317,58580,1,0,0:0:0:0:
171,235,58730,1,0,0:0:0:0:
253,173,58880,1,0,0:0:0:0:
361,202,59030,1,0,0:0:0:0:
466,253,59180,2,0,B|407:115|407:115|238:104,1,315.000012016297
139,152,59780,2,0,B|36:288|36:288|218:311,1,315.000012016297
395,159,60530,5,0,0:0:0:0:
328,228,60680,1,0,0:0:0:0:
261,305,60830,1,0,0:0:0:0:
150,217,60980,1,0,0:0:0:0:
234,144,61130,1,0,0:0:0:0:
304,86,61280,1,0,0:0:0:0:
402,103,61430,2,0,L|501:152,1,105.000004005432
446,230,61730,2,0,B|374:257|374:257|252:156,1,210.000008010865
157,146,62180,2,0,B|115:186|115:186|115:242,1,105.000004005432
265,298,62630,1,0,0:0:0:0:
137,133,62930,5,0,0:0:0:0:
252,131,63080,1,0,0:0:0:0:
367,130,63230,1,0,0:0:0:0:
254,243,63380,1,0,0:0:0:0:
381,247,63530,1,0,0:0:0:0:
134,245,63680,1,0,0:0:0:0:
254,243,63830,1,0,0:0:0:0:
253,130,63980,1,0,0:0:0:0:
254,331,64130,2,0,L|254:219,1,105.000004005432
254,122,64430,1,0,0:0:0:0:
180,233,64580,2,0,L|102:153,1,105.000004005432
180,75,64880,1,0,0:0:0:0:
260,143,65030,2,0,L|348:199,1,105.000004005432
137,195,65330,5,0,0:0:0:0:
188,104,65480,1,0,0:0:0:0:
248,171,65630,1,0,0:0:0:0:
115,257,65780,1,0,0:0:0:0:
192,313,65930,1,0,0:0:0:0:
251,231,66080,1,0,0:0:0:0:
318,142,66230,2,0,L|207:52,1,105.000004005432
155,151,66530,1,0,0:0:0:0:
242,245,66680,1,0,0:0:0:0:
246,249,66830,2,0,P|280:204|349:188,1,105.000004005432
425,168,67130,2,0,P|405:97|344:72,1,105.000004005432
303,97,67430,2,0,P|257:169|231:171,1,105.000004005432
95,187,67730,5,0,0:0:0:0:
185,280,67880,1,0,0:0:0:0:
281,162,68030,1,0,0:0:0:0:
140,249,68180,5,0,0:0:0:0:
154,113,68330,1,0,0:0:0:0:
260,218,68480,1,0,0:0:0:0:
135,289,68630,1,0,0:0:0:0:
215,185,68780,2,0,L|321:148,1,105.000004005432
338,138,69080,2,0,P|395:98|435:101,1,105.000004005432
443,116,69380,2,0,B|494:171|457:292|265:308,1,315.000012016297
168,269,70130,5,0,0:0:0:0:
228,129,70280,1,0,0:0:0:0:
328,260,70430,1,0,0:0:0:0:
161,170,70580,5,0,0:0:0:0:
244,317,70730,1,0,0:0:0:0:
325,163,70880,1,0,0:0:0:0:
144,165,71030,1,0,0:0:0:0:
219,293,71180,1,0,0:0:0:0:
379,238,71330,6,0,L|313:140,1,105.000004005432
254,144,71630,2,0,L|136:144,1,105.000004005432
136,220,71930,2,0,L|245:305,2,105.000004005432
218,128,72380,5,0,0:0:0:0:
310,228,72530,1,0,0:0:0:0:
404,126,72680,1,0,0:0:0:0:
409,272,72830,1,0,0:0:0:0:
312,192,72980,1,0,0:0:0:0:
223,311,73130,1,0,0:0:0:0:
140,214,73280,1,0,0:0:0:0:
230,155,73430,2,0,P|283:102|342:105,1,105.000004005432
378,171,73730,2,0,P|348:231|300:228,1,105.000004005432
232,210,74030,2,0,P|221:144|261:115,1,105.000004005432
391,138,74330,6,0,B|370:155|370:155|333:138|333:138|308:163|308:163|316:204|316:204|275:207|275:207|285:256|285:256|264:261,1,210.000008010865
142,80,74930,5,0,0:0:0:0:
256,83,75080,1,0,0:0:0:0:
383,82,75230,1,0,0:0:0:0:
328,221,75380,1,0,0:0:0:0:
213,158,75530,1,0,0:0:0:0:
129,245,75680,1,0,0:0:0:0:
251,335,75830,1,0,0:0:0:0:
323,237,75980,1,0,0:0:0:0:
459,326,76130,2,0,P|455:228|428:216,1,105.000004005432
357,144,76580,2,0,L|234:102,1,105.000004005432
169,243,77030,1,0,0:0:0:0:
20,142,77330,6,0,L|171:293,1,210.000008010865
455,128,77780,2,0,L|333:318,1,210.000008010865
230,306,78230,2,0,L|88:276,2,105.000004005432
122,182,78680,1,0,0:0:0:0:
121,60,78830,1,0,0:0:0:0:
246,57,78980,1,0,0:0:0:0:
339,104,79130,1,0,0:0:0:0:
270,199,79280,1,0,0:0:0:0:
163,231,79430,2,0,B|225:312|225:312|336:353,1,210.000008010865
392,254,79880,5,0,0:0:0:0:
392,254,79955,1,0,0:0:0:0:
392,254,80030,1,0,0:0:0:0:
295,154,80180,5,0,0:0:0:0:
174,215,80330,1,0,0:0:0:0:
262,313,80480,1,0,0:0:0:0:
262,313,80555,1,0,0:0:0:0:
262,313,80630,1,0,0:0:0:0:
337,231,80780,5,0,0:0:0:0:
276,110,80930,1,0,0:0:0:0:
178,198,81080,1,0,0:0:0:0:
178,198,81155,1,0,0:0:0:0:
178,198,81230,1,0,0:0:0:0:
74,220,81380,5,0,0:0:0:0:
135,341,81530,1,0,0:0:0:0:
233,253,81680,1,0,0:0:0:0:
233,253,81755,1,0,0:0:0:0:
233,253,81830,1,0,0:0:0:0:
94,129,82130,6,0,L|309:131,1,210.000008010865
365,215,82730,2,0,L|170:274,1,157.500006008148
135,295,83180,2,0,B|35:187|35:187|105:143|105:143|14:61,1,315.000012016297
215,93,83930,1,0,0:0:0:0:
179,211,84230,2,0,B|304:284|304:284|305:188|305:188,1,210.000008010865
363,102,84680,5,0,0:0:0:0:
220,124,84830,1,0,0:0:0:0:
321,242,84980,1,0,0:0:0:0:
218,313,85130,2,0,L|97:241,2,105.000004005432
157,162,85580,1,0,0:0:0:0:
253,217,85730,1,0,0:0:0:0:
350,261,85880,5,0,0:0:0:0:
292,160,86030,1,0,0:0:0:0:
178,153,86180,1,0,0:0:0:0:
234,65,86330,2,0,B|143:49|143:49|115:95|115:95|56:38,2,210.000008010865
48,176,87080,5,0,0:0:0:0:
129,238,87230,1,0,0:0:0:0:
215,298,87380,1,0,0:0:0:0:
247,115,87530,5,0,0:0:0:0:
175,190,87680,1,0,0:0:0:0:
96,256,87830,1,0,0:0:0:0:
181,311,87980,5,0,0:0:0:0:
238,237,88130,1,0,0:0:0:0:
322,289,88280,1,0,0:0:0:0:
388,196,88430,2,0,L|289:133,1,105.000004005432
236,226,88730,5,0,0:0:0:0:
375,84,88880,1,0,0:0:0:0:
313,162,89030,1,0,0:0:0:0:
241,101,89180,5,0,0:0:0:0:
174,165,89330,1,0,0:0:0:0:
252,210,89480,1,0,0:0:0:0:
194,284,89630,5,0,0:0:0:0:
301,336,89780,1,0,0:0:0:0:
112,233,89930,1,0,0:0:0:0:
245,180,90080,5,0,0:0:0:0:
296,270,90230,1,0,0:0:0:0:
381,182,90380,1,0,0:0:0:0:
430,94,90530,6,0,L|295:81,1,105.000004005432
247,129,90830,2,0,L|196:227,1,105.000004005432
263,269,91130,2,0,P|315:309|431:216,1,210.000008010865
363,165,91580,5,0,0:0:0:0:
250,161,91730,1,0,0:0:0:0:
148,162,91880,1,0,0:0:0:0:
148,263,92030,1,0,0:0:0:0:
267,266,92180,5,0,0:0:0:0:
262,160,92330,1,0,0:0:0:0:
258,65,92480,1,0,0:0:0:0:
370,66,92630,1,0,0:0:0:0:
473,70,92780,5,0,0:0:0:0:
473,158,92930,1,0,0:0:0:0:
385,158,93080,1,0,0:0:0:0:
273,158,93230,5,0,0:0:0:0:
177,150,93380,1,0,0:0:0:0:
83,150,93530,1,0,0:0:0:0:
81,254,93680,1,0,0:0:0:0:
179,250,93830,2,0,L|296:251,1,105.000004005432
384,253,94130,5,0,0:0:0:0:
382,158,94280,1,0,0:0:0:0:
294,163,94430,1,0,0:0:0:0:
210,165,94580,5,0,0:0:0:0:
209,80,94730,1,0,0:0:0:0:
293,83,94880,1,0,0:0:0:0:
209,24,95030,5,0,0:0:0:0:
138,83,95180,1,0,0:0:0:0:
136,160,95330,1,0,0:0:0:0:
53,137,95480,1,0,0:0:0:0:
56,226,95630,6,0,L|163:301,1,105.000004005432
173,197,95930,2,0,L|258:263,1,105.000004005432
327,310,96230,2,0,P|366:244|343:179,1,105.000004005432
361,128,96530,6,0,L|242:137,1,105.000004005432
169,95,96830,1,0,0:0:0:0:
38,147,97130,6,0,L|121:223,1,105.000004005432
194,195,97430,1,0,0:0:0:0:
273,234,97580,2,0,P|372:286|446:229,1,210.000008010865
347,150,98030,1,0,0:0:0:0:
267,77,98180,1,0,0:0:0:0:
199,192,98330,2,0,L|154:323,1,105.000004005432
75,305,98630,2,0,L|40:199,1,105.000004005432
98,122,98930,5,0,0:0:0:0:
189,101,99080,1,0,0:0:0:0:
275,140,99230,1,0,0:0:0:0:
359,97,99380,1,0,0:0:0:0:
435,160,99530,5,0,0:0:0:0:
355,217,99680,5,0,0:0:0:0:
320,238,99755,1,0,0:0:0:0:
280,257,99830,1,0,0:0:0:0:
202,283,99980,5,0,0:0:0:0:
80,191,100130,1,0,0:0:0:0:
202,283,100280,1,0,0:0:0:0:
219,150,100430,1,0,0:0:0:0:
202,283,100580,1,0,0:0:0:0:
256,192,100730,12,0,101330,0:0:0:0:
66,175,101630,6,0,L|168:269,1,105.000004005432
237,259,101930,2,0,L|344:162,1,105.000004005432
390,265,102230,1,0,0:0:0:0:
446,191,102380,1,0,0:0:0:0:
305,114,102680,5,0,0:0:0:0:
201,111,102830,2,0,L|76:114,2,105.000004005432
305,114,103280,1,0,0:0:0:0:
305,205,103430,1,0,0:0:0:0:
207,205,103580,1,0,0:0:0:0:
207,292,103730,1,0,0:0:0:0:
208,114,103880,5,0,0:0:0:0:
207,205,104030,1,0,0:0:0:0:
117,285,104180,1,0,0:0:0:0:
113,185,104330,1,0,0:0:0:0:
208,280,104480,1,0,0:0:0:0:
256,280,104555,1,0,0:0:0:0:
296,280,104630,1,0,0:0:0:0:
368,184,104780,1,0,0:0:0:0:
256,192,104930,12,0,106130,0:0:0:0:
248,112,106430,6,0,L|80:240,1,210.000008010865
200,296,107030,5,0,0:0:0:0:
344,296,107180,1,0,0:0:0:0:
344,120,107480,1,0,0:0:0:0:
192,120,107630,2,0,L|56:120,2,105.000004005432
200,240,108230,6,0,L|424:240,1,210.000008010865
412,143,108680,1,0,0:0:0:0:
306,170,108830,1,0,0:0:0:0:
222,132,108980,1,0,0:0:0:0:
154,208,109130,1,0,0:0:0:0:
187,306,109280,1,0,0:0:0:0:
240,307,109355,1,0,0:0:0:0:
279,290,109430,1,0,0:0:0:0:
343,169,109580,5,0,0:0:0:0:
406,308,109730,1,0,0:0:0:0:
280,158,109880,1,0,0:0:0:0:
334,314,110030,1,0,0:0:0:0:
165,206,110180,1,0,0:0:0:0:
256,192,110330,12,0,110930,0:0:0:0:
100,301,111080,5,0,0:0:0:0:
154,166,111230,1,0,0:0:0:0:
257,325,111380,1,0,0:0:0:0:
398,320,111530,5,0,0:0:0:0:
337,216,111680,1,0,0:0:0:0:
405,130,111830,1,0,0:0:0:0:
359,35,111980,2,0,P|239:92|173:151,1,210.000008010865
272,233,112430,5,0,0:0:0:0:
372,142,112580,1,0,0:0:0:0:
457,245,112730,1,0,0:0:0:0:
305,338,113030,2,0,B|141:332|141:332|86:263,1,210.000008010865
80,199,113480,1,0,0:0:0:0:
183,124,113630,1,0,0:0:0:0:
247,224,113780,1,0,0:0:0:0:
289,121,113930,1,0,0:0:0:0:
367,216,114080,1,0,0:0:0:0:
404,173,114155,1,0,0:0:0:0:
432,130,114230,1,0,0:0:0:0:
368,35,114380,1,0,0:0:0:0:
256,192,114530,12,0,115730,0:0:0:0:
256,192,125330,12,0,134780,0:0:0:0:
147,207,134930,5,0,0:0:0:0:
252,289,135230,2,0,L|367:177,1,140
446,81,135830,2,0,L|374:30,1,70
250,103,136280,1,2,0:0:0:0:
168,55,136430,1,2,0:0:0:0:
105,135,136580,1,2,0:0:0:0:
191,191,136730,1,6,0:0:0:0:
336,264,137030,2,8,L|432:144,1,140,8|2,0:0|0:0,0:0:0:0:
242,211,137480,5,0,0:0:0:0:
303,135,137630,1,0,0:0:0:0:
368,63,137780,1,0,0:0:0:0:
288,20,137930,1,2,0:0:0:0:
227,84,138080,1,0,0:0:0:0:
195,115,138155,1,0,0:0:0:0:
159,152,138230,1,0,0:0:0:0:
93,219,138380,1,0,0:0:0:0:
160,270,138530,6,2,L|228:321,1,70
270,256,138830,2,2,L|309:199,1,70
380,230,139130,2,2,B|462:277|417:355|302:350,1,210
267,248,139730,5,8,0:0:0:0:
200,172,139880,2,0,L|110:149,1,70
69,271,140180,5,0,0:0:0:0:
228,241,140330,2,0,L|238:313,1,70
337,227,140630,5,0,0:0:0:0:
410,104,140780,2,0,P|352:81|324:74,1,70
268,168,141080,5,0,0:0:0:0:
220,61,141230,1,0,0:0:0:0:
123,111,141380,1,0,0:0:0:0:
175,202,141530,1,0,0:0:0:0:
102,303,141830,2,0,P|214:306|258:288,1,140,0|4,0:0|0:0,0:0:0:0:
299,210,142280,5,0,0:0:0:0:
351,316,142430,1,0,0:0:0:0:
433,242,142580,1,0,0:0:0:0:
438,125,142730,1,4,0:0:0:0:
348,66,142880,1,0,0:0:0:0:
306,103,142955,1,0,0:0:0:0:
264,138,143030,1,0,0:0:0:0:
169,99,143180,1,0,0:0:0:0:
256,192,143330,12,4,144380,0:0:0:0:
288,288,144530,6,0,L|372:208,1,105.000004005432
230,244,144830,2,0,L|148:160,1,105.000004005432
294,181,145130,2,0,L|367:102,1,105.000004005432
223,108,145430,1,0,0:0:0:0:
90,115,145580,2,0,P|106:236|195:252,1,210.000008010865
269,332,146030,1,0,0:0:0:0:
330,189,146180,1,0,0:0:0:0:
421,326,146330,1,0,0:0:0:0:
474,166,146630,2,0,B|411:225|411:225|393:158|393:158|381:207|381:207|347:175|347:175|350:169,1,210.000008010865
307,276,147080,5,0,0:0:0:0:
319,79,147230,1,0,0:0:0:0:
244,141,147380,1,0,0:0:0:0:
311,204,147530,1,0,0:0:0:0:
210,250,147680,1,0,0:0:0:0:
163,270,147755,1,0,0:0:0:0:
118,290,147830,1,0,0:0:0:0:
34,139,147980,1,0,0:0:0:0:
12,333,148130,5,0,0:0:0:0:
110,113,148280,1,0,0:0:0:0:
12,333,148430,1,0,0:0:0:0:
188,176,148580,1,0,0:0:0:0:
256,192,148730,12,0,149180,0:0:0:0:
120,255,149330,5,0,0:0:0:0:
234,125,149630,1,0,0:0:0:0:
303,266,149930,1,0,0:0:0:0:
436,109,150230,1,0,0:0:0:0:
430,236,150380,6,0,B|393:341|393:341|315:245,1,210.000008010865
214,194,150830,1,0,0:0:0:0:
306,85,150980,1,0,0:0:0:0:
367,184,151130,1,0,0:0:0:0:
231,301,151430,6,0,B|200:258|200:258|178:293|178:293|172:309|172:309|166:274|165:272|156:274|143:293|136:303|130:308|102:296,1,210.000008010865
35,221,151880,1,0,0:0:0:0:
118,92,152030,1,0,0:0:0:0:
167,217,152180,1,0,0:0:0:0:
258,94,152330,1,0,0:0:0:0:
331,177,152480,1,0,0:0:0:0:
360,143,152555,1,0,0:0:0:0:
395,103,152630,1,0,0:0:0:0:
437,194,152780,1,0,0:0:0:0:
256,192,152930,12,0,153980,0:0:0:0:
112,81,154130,5,0,0:0:0:0:
438,71,154430,1,0,0:0:0:0:
124,316,154730,1,0,0:0:0:0:
434,303,155030,1,0,0:0:0:0:
434,193,155180,6,0,L|208:189,1,210.000008010865
112,305,155630,1,0,0:0:0:0:
122,117,155780,1,0,0:0:0:0:
224,288,155930,1,0,0:0:0:0:
284,107,156080,1,0,0:0:0:0:
361,282,156230,1,0,0:0:0:0:
445,189,156380,6,0,B|378:70|397:94,1,105.000004005432
301,209,156680,1,0,0:0:0:0:
186,137,156830,1,0,0:0:0:0:
125,231,156980,1,0,0:0:0:0:
67,136,157130,1,0,0:0:0:0:
202,233,157280,5,0,0:0:0:0:
236,185,157355,1,0,0:0:0:0:
266,144,157430,1,0,0:0:0:0:
336,238,157580,1,0,0:0:0:0:
412,108,157730,1,0,0:0:0:0:
486,240,157880,1,0,0:0:0:0:
322,129,158030,1,0,0:0:0:0:
493,138,158180,1,0,0:0:0:0:
256,192,158330,12,0,158780,0:0:0:0:
350,319,158930,6,0,L|304:216,1,105.000004005432
264,288,159230,2,0,L|181:358,1,105.000004005432
151,281,159530,2,0,L|44:231,1,105.000004005432
146,198,159830,1,0,0:0:0:0:
226,204,159980,2,0,P|316:140|371:220,1,210.000008010865
449,252,160430,1,0,0:0:0:0:
465,154,160580,1,0,0:0:0:0:
422,69,160730,1,0,0:0:0:0:
341,115,160880,2,0,B|341:169|341:169|264:178|264:178|320:211|320:211|268:210|268:210,1,210.000008010865
226,302,161330,5,0,0:0:0:0:
80,282,161480,1,0,0:0:0:0:
119,137,161630,1,0,0:0:0:0:
233,152,161780,1,0,0:0:0:0:
307,231,161930,1,0,0:0:0:0:
427,184,162080,2,0,L|437:250,2,52.5000020027161
351,91,162380,1,0,0:0:0:0:
256,192,162530,12,0,163580,0:0:0:0:
239,290,163730,6,0,L|130:238,1,105.000004005432
327,266,164030,2,0,L|420:178,1,105.000004005432
263,217,164330,2,0,L|147:166,1,105.000004005432
263,217,164630,2,0,L|348:145,1,105.000004005432
289,92,164930,1,0,0:0:0:0:
216,125,165080,1,0,0:0:0:0:
162,76,165230,1,0,0:0:0:0:
110,128,165380,1,0,0:0:0:0:
146,191,165530,1,0,0:0:0:0:
213,213,165680,1,0,0:0:0:0:
282,209,165830,6,0,L|349:319,1,105.000004005432
421,272,166130,1,0,0:0:0:0:
451,183,166280,1,0,0:0:0:0:
361,164,166430,1,0,0:0:0:0:
329,67,166580,1,0,0:0:0:0:
250,183,166730,1,0,0:0:0:0:
148,88,166880,1,0,0:0:0:0:
144,151,166955,1,0,0:0:0:0:
142,211,167030,1,0,0:0:0:0:
60,324,167180,5,0,0:0:0:0:
256,332,167330,1,0,0:0:0:0:
58,185,167480,1,0,0:0:0:0:
263,184,167630,1,0,0:0:0:0:
170,64,167780,1,0,0:0:0:0:
256,192,167930,12,0,168380,0:0:0:0:
128,270,168530,6,0,L|176:157,1,105.000004005432,0|8,0:0|0:0,0:0:0:0:
210,300,168830,2,0,L|264:188,1,105.000004005432,0|8,0:0|0:0,0:0:0:0:
336,228,169130,2,0,L|286:337,1,105.000004005432,0|8,0:0|0:0,0:0:0:0:
378,342,169430,1,0,0:0:0:0:
396,275,169580,6,0,L|502:239,1,105.000004005432,8|0,0:0|0:0,0:0:0:0:
436,164,169880,1,8,0:0:0:0:
352,145,170030,1,0,0:0:0:0:
268,129,170180,1,8,0:0:0:0:
182,123,170330,2,0,L|86:199,1,105.000004005432,0|8,0:0|0:0,0:0:0:0:
58,109,170630,2,0,L|161:27,1,105.000004005432,0|8,0:0|0:0,0:0:0:0:
181,195,170930,1,0,0:0:0:0:
245,71,171080,1,8,0:0:0:0:
266,186,171230,5,0,0:0:0:0:
342,83,171380,1,8,0:0:0:0:
393,156,171530,1,0,0:0:0:0:
442,219,171680,1,8,0:0:0:0:
479,270,171755,1,0,0:0:0:0:
453,315,171830,1,0,0:0:0:0:
353,327,171980,1,8,0:0:0:0:
256,192,172130,12,0,173180,0:0:0:0:
107,294,173330,5,0,0:0:0:0:
194,165,173480,1,0,0:0:0:0:
259,291,173630,1,0,0:0:0:0:
299,128,173780,5,0,0:0:0:0:
373,242,173930,1,0,0:0:0:0:
444,118,174080,1,0,0:0:0:0:
90,129,174230,5,0,0:0:0:0:
176,270,174380,1,0,0:0:0:0:
245,121,174530,1,0,0:0:0:0:
266,306,174680,6,0,L|381:231,1,105.000004005432
313,149,174980,6,0,L|170:133,1,105.000004005432
173,286,175280,2,0,L|106:172,1,105.000004005432
112,80,175580,1,0,0:0:0:0:
208,147,175730,5,0,0:0:0:0:
273,37,175880,1,0,0:0:0:0:
343,152,176030,1,0,0:0:0:0:
204,226,176180,5,0,0:0:0:0:
273,317,176330,1,0,0:0:0:0:
336,221,176480,1,0,0:0:0:0:
67,182,176630,5,0,0:0:0:0:
133,84,176780,1,0,0:0:0:0:
194,172,176930,2,0,L|203:281,1,105.000004005432
285,282,177230,2,0,L|359:193,1,105.000004005432
442,308,177530,2,0,L|421:184,1,105.000004005432
418,117,177830,2,0,L|310:98,1,105.000004005432
181,222,178130,5,0,0:0:0:0:
255,309,178280,1,0,0:0:0:0:
303,192,178430,1,0,0:0:0:0:
42,159,178580,5,0,0:0:0:0:
120,79,178730,1,0,0:0:0:0:
166,167,178880,1,0,0:0:0:0:
47,270,179030,5,0,0:0:0:0:
123,330,179180,1,0,0:0:0:0:
154,236,179330,2,0,P|281:221|288:222,1,105.000004005432
296,297,179630,2,0,L|348:190,1,105.000004005432
269,162,179930,2,0,L|137:110,1,105.000004005432
327,90,180230,2,0,L|435:187,1,105.000004005432
322,306,180530,5,0,0:0:0:0:
373,221,180680,1,0,0:0:0:0:
442,315,180830,1,0,0:0:0:0:
181,196,180980,5,0,0:0:0:0:
239,277,181130,1,0,0:0:0:0:
289,200,181280,1,0,0:0:0:0:
42,247,181430,5,0,0:0:0:0:
57,138,181580,1,0,0:0:0:0:
153,193,181730,2,0,L|210:89,1,105.000004005432
259,179,182030,2,0,L|294:287,1,105.000004005432
421,276,182330,2,0,L|505:159,1,105.000004005432
390,127,182630,2,0,L|261:88,1,105.000004005432
215,201,182930,5,0,0:0:0:0:
284,291,183080,1,0,0:0:0:0:
330,188,183230,1,0,0:0:0:0:
82,146,183380,5,0,0:0:0:0:
186,106,183530,1,0,0:0:0:0:
164,223,183680,1,0,0:0:0:0:
243,218,183830,5,0,0:0:0:0:
314,309,183980,1,0,0:0:0:0:
359,194,184130,2,0,L|303:99,1,105.000004005432
280,211,184430,2,0,L|213:125,1,105.000004005432
199,51,184730,2,0,L|85:117,1,105.000004005432
103,190,185030,2,0,L|189:280,1,105.000004005432
292,155,185330,5,0,0:0:0:0:
380,275,185480,1,0,0:0:0:0:
223,268,185630,1,0,0:0:0:0:
411,97,185780,5,0,0:0:0:0:
463,196,185930,1,0,0:0:0:0:
497,88,186080,1,0,0:0:0:0:
217,88,186230,5,0,0:0:0:0:
288,40,186380,1,0,0:0:0:0:
315,132,186530,1,0,0:0:0:0:
315,132,186680,2,0,L|397:221,1,105.000004005432
310,273,186980,2,0,L|222:210,1,105.000004005432
211,141,187280,2,0,L|112:210,1,105.000004005432
186,213,187730,5,0,0:0:0:0:
248,301,187880,1,0,0:0:0:0:
317,206,188030,1,0,0:0:0:0:
55,77,188180,5,0,0:0:0:0:
151,56,188330,1,0,0:0:0:0:
162,150,188480,1,0,0:0:0:0:
91,235,188630,5,0,0:0:0:0:
20,319,188780,1,0,0:0:0:0:
128,330,188930,2,0,L|236:224,1,105.000004005432
245,340,189230,2,0,L|325:268,1,105.000004005432
262,219,189530,2,0,L|175:145,1,105.000004005432
149,224,189830,2,0,L|51:161,1,105.000004005432
261,95,190130,5,0,0:0:0:0:
347,199,190280,1,0,0:0:0:0:
388,82,190430,1,0,0:0:0:0:
112,157,190580,5,0,0:0:0:0:
205,258,190730,1,0,0:0:0:0:
232,145,190880,1,0,0:0:0:0:
285,308,191030,5,0,0:0:0:0:
332,189,191180,1,0,0:0:0:0:
414,306,191330,1,0,0:0:0:0:
426,141,191780,1,0,0:0:0:0:
232,226,192230,1,4,0:0:0:0:
256,192,193130,12,0,199730,2:0:0:0:
