osu file format v14

[General]
AudioFilename: audio.mp3
AudioLeadIn: 0
PreviewTime: 84306
Countdown: 0
SampleSet: Soft
StackLeniency: 0.7
Mode: 3
LetterboxInBreaks: 0
SpecialStyle: 0
WidescreenStoryboard: 1

[Editor]
DistanceSpacing: 1.3
BeatDivisor: 8
GridSize: 8
TimelineZoom: 3.099999

[Metadata]
Title:Help me, ERINNNNNN!!
TitleUnicode:Help me, ERINNNNNN!!
Artist:COOL&CREATE
ArtistUnicode:ビートまりお
Creator:sbkm
Version:2021 7k
Source:SOUND VOLTEX BOOTH
Tags:東方永夜抄 ~ Imperishable Night SDVX
BeatmapID:3222702
BeatmapSetID:671207

[Difficulty]
HPDrainRate:7
CircleSize:7
OverallDifficulty:6
ApproachRate:5
SliderMultiplier:1.4
SliderTickRate:1

[Events]
//Background and Video events
0,0,"erin.png",0,0
//Break Periods
//Storyboard Layer 0 (Background)
//Storyboard Layer 1 (Fail)
//Storyboard Layer 2 (Pass)
//Storyboard Layer 3 (Foreground)
//Storyboard Layer 4 (Overlay)
//Storyboard Sound Samples

[TimingPoints]
1279,324.324324324324,4,2,1,15,1,0
42792,-100,4,2,1,15,0,1
52846,-100,4,2,1,15,0,0
84306,-100,4,2,1,15,0,1
104738,-100,4,2,1,15,0,0
105062,-100,4,2,1,15,0,1
125819,-100,4,2,1,15,0,0

[HitObjects]
256,192,1279,128,0,1765:0:0:0:0:
36,192,1279,1,0,0:0:0:0:
109,192,1360,1,0,0:0:0:0:
182,192,1441,1,0,0:0:0:0:
109,192,1522,1,0,0:0:0:0:
402,192,1603,128,0,1765:0:0:0:0:
36,192,1603,1,0,0:0:0:0:
329,192,1684,1,0,0:0:0:0:
475,192,1765,1,0,0:0:0:0:
329,192,1846,1,0,0:0:0:0:
256,192,1927,128,0,2414:0:0:0:0:
475,192,1927,1,0,0:0:0:0:
402,192,2008,1,0,0:0:0:0:
329,192,2089,1,0,0:0:0:0:
402,192,2170,1,0,0:0:0:0:
109,192,2251,128,0,2414:0:0:0:0:
475,192,2251,1,0,0:0:0:0:
182,192,2333,1,0,0:0:0:0:
36,192,2414,1,0,0:0:0:0:
182,192,2495,1,0,0:0:0:0:
329,192,2576,1,0,0:0:0:0:
402,192,2657,1,0,0:0:0:0:
475,192,2738,1,0,0:0:0:0:
402,192,2819,1,0,0:0:0:0:
329,192,2900,1,0,0:0:0:0:
182,192,2900,1,0,0:0:0:0:
36,192,2981,1,0,0:0:0:0:
182,192,3062,1,0,0:0:0:0:
109,192,3143,1,0,0:0:0:0:
36,192,3224,1,0,0:0:0:0:
109,192,3306,1,0,0:0:0:0:
182,192,3387,1,0,0:0:0:0:
36,192,3468,1,0,0:0:0:0:
182,192,3549,1,0,0:0:0:0:
329,192,3549,1,0,0:0:0:0:
402,192,3630,1,0,0:0:0:0:
475,192,3711,1,0,0:0:0:0:
402,192,3792,1,0,0:0:0:0:
109,192,3873,128,0,4360:0:0:0:0:
329,192,3873,1,0,0:0:0:0:
402,192,3954,1,0,0:0:0:0:
475,192,4035,1,0,0:0:0:0:
402,192,4116,1,0,0:0:0:0:
256,192,4197,128,0,4360:0:0:0:0:
329,192,4197,1,0,0:0:0:0:
36,192,4278,1,0,0:0:0:0:
182,192,4360,1,0,0:0:0:0:
36,192,4441,1,0,0:0:0:0:
402,192,4522,128,0,5008:0:0:0:0:
182,192,4522,1,0,0:0:0:0:
109,192,4603,1,0,0:0:0:0:
36,192,4684,1,0,0:0:0:0:
109,192,4765,1,0,0:0:0:0:
256,192,4846,128,0,5008:0:0:0:0:
182,192,4846,1,0,0:0:0:0:
475,192,4927,1,0,0:0:0:0:
329,192,5008,1,0,0:0:0:0:
256,192,5089,1,0,0:0:0:0:
182,192,5170,1,0,0:0:0:0:
36,192,5170,1,0,0:0:0:0:
256,192,5251,1,0,0:0:0:0:
402,192,5251,1,0,0:0:0:0:
182,192,5333,1,0,0:0:0:0:
109,192,5333,1,0,0:0:0:0:
329,192,5414,1,0,0:0:0:0:
402,192,5414,1,0,0:0:0:0:
182,192,5495,1,0,0:0:0:0:
36,192,5495,1,0,0:0:0:0:
329,192,5576,1,0,0:0:0:0:
475,192,5576,1,0,0:0:0:0:
109,192,5657,1,0,0:0:0:0:
256,192,5657,1,0,0:0:0:0:
329,192,5738,1,0,0:0:0:0:
402,192,5738,1,0,0:0:0:0:
182,192,5819,1,0,0:0:0:0:
36,192,5819,1,0,0:0:0:0:
256,192,5900,1,0,0:0:0:0:
402,192,5900,1,0,0:0:0:0:
182,192,5981,1,0,0:0:0:0:
109,192,5981,1,0,0:0:0:0:
329,192,6062,1,0,0:0:0:0:
475,192,6062,1,0,0:0:0:0:
182,192,6143,1,0,0:0:0:0:
36,192,6143,1,0,0:0:0:0:
256,192,6224,1,0,0:0:0:0:
402,192,6224,1,0,0:0:0:0:
109,192,6306,1,0,0:0:0:0:
182,192,6306,1,0,0:0:0:0:
329,192,6387,1,0,0:0:0:0:
475,192,6387,1,0,0:0:0:0:
256,192,6468,128,0,6954:0:0:0:0:
182,192,6468,1,0,0:0:0:0:
36,192,6468,1,0,0:0:0:0:
109,192,6549,1,0,0:0:0:0:
182,192,6630,1,0,0:0:0:0:
329,192,6711,1,0,0:0:0:0:
109,192,6792,128,0,6954:0:0:0:0:
36,192,6792,1,0,0:0:0:0:
475,192,6792,1,0,0:0:0:0:
402,192,6873,1,0,0:0:0:0:
329,192,6954,1,0,0:0:0:0:
182,192,7035,1,0,0:0:0:0:
256,192,7116,128,0,7603:0:0:0:0:
36,192,7116,1,0,0:0:0:0:
109,192,7197,1,0,0:0:0:0:
182,192,7278,1,0,0:0:0:0:
109,192,7360,1,0,0:0:0:0:
402,192,7441,128,0,7603:0:0:0:0:
36,192,7441,1,0,0:0:0:0:
475,192,7441,1,0,0:0:0:0:
329,192,7522,1,0,0:0:0:0:
182,192,7603,1,0,0:0:0:0:
109,192,7684,1,0,0:0:0:0:
329,192,7765,128,0,8008:0:0:0:0:
182,192,7765,1,0,0:0:0:0:
36,192,7765,1,0,0:0:0:0:
109,192,7846,1,0,0:0:0:0:
256,192,7846,1,0,0:0:0:0:
475,192,7927,1,0,0:0:0:0:
402,192,7927,1,0,0:0:0:0:
182,192,8008,1,0,0:0:0:0:
109,192,8008,1,0,0:0:0:0:
329,192,8089,128,0,8170:0:0:0:0:
36,192,8089,1,0,0:0:0:0:
256,192,8089,1,0,0:0:0:0:
109,192,8170,1,0,0:0:0:0:
475,192,8170,1,0,0:0:0:0:
402,192,8251,1,0,0:0:0:0:
182,192,8251,1,0,0:0:0:0:
329,192,8333,1,0,0:0:0:0:
109,192,8333,1,0,0:0:0:0:
256,192,8414,1,0,0:0:0:0:
36,192,8414,1,0,0:0:0:0:
109,192,8495,1,0,0:0:0:0:
329,192,8495,1,0,0:0:0:0:
182,192,8576,1,0,0:0:0:0:
402,192,8576,1,0,0:0:0:0:
256,192,8657,1,0,0:0:0:0:
475,192,8657,1,0,0:0:0:0:
329,192,8738,1,0,0:0:0:0:
109,192,8738,1,0,0:0:0:0:
256,192,8819,1,0,0:0:0:0:
36,192,8819,1,0,0:0:0:0:
182,192,8900,1,0,0:0:0:0:
475,192,8900,1,0,0:0:0:0:
109,192,8981,1,0,0:0:0:0:
402,192,8981,1,0,0:0:0:0:
402,192,9062,128,0,9549:0:0:0:0:
36,192,9062,1,0,0:0:0:0:
329,192,9062,1,0,0:0:0:0:
109,192,9143,1,0,0:0:0:0:
182,192,9224,1,0,0:0:0:0:
109,192,9306,1,0,0:0:0:0:
256,192,9387,128,0,9549:0:0:0:0:
36,192,9387,1,0,0:0:0:0:
329,192,9468,1,0,0:0:0:0:
475,192,9549,1,0,0:0:0:0:
329,192,9630,1,0,0:0:0:0:
109,192,9711,128,0,10197:0:0:0:0:
475,192,9711,1,0,0:0:0:0:
402,192,9792,1,0,0:0:0:0:
329,192,9873,1,0,0:0:0:0:
402,192,9954,1,0,0:0:0:0:
256,192,10035,128,0,10197:0:0:0:0:
475,192,10035,1,0,0:0:0:0:
36,192,10116,1,0,0:0:0:0:
182,192,10197,1,0,0:0:0:0:
329,192,10278,1,0,0:0:0:0:
475,192,10360,1,0,0:0:0:0:
182,192,10360,1,0,0:0:0:0:
402,192,10441,1,0,0:0:0:0:
109,192,10441,1,0,0:0:0:0:
329,192,10522,1,0,0:0:0:0:
36,192,10522,1,0,0:0:0:0:
256,192,10603,1,0,0:0:0:0:
475,192,10603,1,0,0:0:0:0:
182,192,10684,1,0,0:0:0:0:
402,192,10684,1,0,0:0:0:0:
329,192,10765,1,0,0:0:0:0:
109,192,10765,1,0,0:0:0:0:
256,192,10846,1,0,0:0:0:0:
36,192,10846,1,0,0:0:0:0:
109,192,10927,1,0,0:0:0:0:
329,192,10927,1,0,0:0:0:0:
182,192,11008,1,0,0:0:0:0:
402,192,11008,1,0,0:0:0:0:
256,192,11089,1,0,0:0:0:0:
475,192,11089,1,0,0:0:0:0:
402,192,11170,1,0,0:0:0:0:
182,192,11170,1,0,0:0:0:0:
329,192,11251,1,0,0:0:0:0:
109,192,11251,1,0,0:0:0:0:
256,192,11333,1,0,0:0:0:0:
36,192,11333,1,0,0:0:0:0:
182,192,11414,1,0,0:0:0:0:
475,192,11414,1,0,0:0:0:0:
402,192,11495,1,0,0:0:0:0:
109,192,11495,1,0,0:0:0:0:
329,192,11576,1,0,0:0:0:0:
36,192,11576,1,0,0:0:0:0:
256,192,11657,128,0,12143:0:0:0:0:
109,192,11657,1,0,0:0:0:0:
402,192,11657,1,0,0:0:0:0:
182,192,11738,1,0,0:0:0:0:
109,192,11819,1,0,0:0:0:0:
36,192,11900,1,0,0:0:0:0:
402,192,11981,128,0,12143:0:0:0:0:
109,192,11981,1,0,0:0:0:0:
475,192,11981,1,0,0:0:0:0:
182,192,12062,1,0,0:0:0:0:
109,192,12143,1,0,0:0:0:0:
182,192,12224,1,0,0:0:0:0:
256,192,12306,128,0,12792:0:0:0:0:
329,192,12306,1,0,0:0:0:0:
475,192,12306,1,0,0:0:0:0:
402,192,12387,1,0,0:0:0:0:
329,192,12468,1,0,0:0:0:0:
402,192,12549,1,0,0:0:0:0:
109,192,12630,128,0,12792:0:0:0:0:
475,192,12630,1,0,0:0:0:0:
36,192,12630,1,0,0:0:0:0:
402,192,12711,1,0,0:0:0:0:
329,192,12792,1,0,0:0:0:0:
256,192,12873,1,0,0:0:0:0:
36,192,12954,1,0,0:0:0:0:
329,192,12954,1,0,0:0:0:0:
109,192,13035,1,0,0:0:0:0:
402,192,13035,1,0,0:0:0:0:
182,192,13116,1,0,0:0:0:0:
475,192,13116,1,0,0:0:0:0:
256,192,13197,1,0,0:0:0:0:
36,192,13197,1,0,0:0:0:0:
329,192,13278,1,0,0:0:0:0:
109,192,13278,1,0,0:0:0:0:
402,192,13360,1,0,0:0:0:0:
182,192,13360,1,0,0:0:0:0:
475,192,13441,1,0,0:0:0:0:
256,192,13441,1,0,0:0:0:0:
182,192,13522,1,0,0:0:0:0:
402,192,13522,1,0,0:0:0:0:
109,192,13603,1,0,0:0:0:0:
329,192,13603,1,0,0:0:0:0:
256,192,13684,1,0,0:0:0:0:
36,192,13684,1,0,0:0:0:0:
329,192,13765,1,0,0:0:0:0:
109,192,13765,1,0,0:0:0:0:
402,192,13846,1,0,0:0:0:0:
182,192,13846,1,0,0:0:0:0:
475,192,13927,1,0,0:0:0:0:
256,192,13927,1,0,0:0:0:0:
402,192,14008,1,0,0:0:0:0:
182,192,14008,1,0,0:0:0:0:
329,192,14089,1,0,0:0:0:0:
109,192,14089,1,0,0:0:0:0:
402,192,14170,1,0,0:0:0:0:
36,192,14170,1,0,0:0:0:0:
256,192,14251,128,0,14738:0:0:0:0:
475,192,14251,1,0,0:0:0:0:
109,192,14251,1,0,0:0:0:0:
329,192,14333,1,0,0:0:0:0:
402,192,14414,1,0,0:0:0:0:
475,192,14495,1,0,0:0:0:0:
109,192,14576,128,0,14738:0:0:0:0:
402,192,14576,1,0,0:0:0:0:
329,192,14657,1,0,0:0:0:0:
182,192,14738,1,0,0:0:0:0:
36,192,14819,1,0,0:0:0:0:
256,192,14900,128,0,15387:0:0:0:0:
109,192,14900,1,0,0:0:0:0:
182,192,14981,1,0,0:0:0:0:
475,192,15062,1,0,0:0:0:0:
329,192,15143,1,0,0:0:0:0:
402,192,15224,128,0,15387:0:0:0:0:
182,192,15224,1,0,0:0:0:0:
109,192,15306,1,0,0:0:0:0:
36,192,15387,1,0,0:0:0:0:
109,192,15468,1,0,0:0:0:0:
182,192,15549,1,0,0:0:0:0:
329,192,15549,1,0,0:0:0:0:
256,192,15630,1,0,0:0:0:0:
402,192,15630,1,0,0:0:0:0:
182,192,15711,1,0,0:0:0:0:
36,192,15711,1,0,0:0:0:0:
329,192,15792,1,0,0:0:0:0:
475,192,15792,1,0,0:0:0:0:
182,192,15873,1,0,0:0:0:0:
36,192,15873,1,0,0:0:0:0:
256,192,15954,1,0,0:0:0:0:
329,192,15954,1,0,0:0:0:0:
402,192,16035,1,0,0:0:0:0:
109,192,16035,1,0,0:0:0:0:
182,192,16116,1,0,0:0:0:0:
256,192,16116,1,0,0:0:0:0:
329,192,16197,1,0,0:0:0:0:
475,192,16197,1,0,0:0:0:0:
402,192,16278,1,0,0:0:0:0:
182,192,16278,1,0,0:0:0:0:
329,192,16360,1,0,0:0:0:0:
256,192,16360,1,0,0:0:0:0:
36,192,16441,1,0,0:0:0:0:
182,192,16441,1,0,0:0:0:0:
109,192,16522,1,0,0:0:0:0:
402,192,16522,1,0,0:0:0:0:
329,192,16603,1,0,0:0:0:0:
182,192,16603,1,0,0:0:0:0:
256,192,16684,1,0,0:0:0:0:
475,192,16684,1,0,0:0:0:0:
402,192,16765,1,0,0:0:0:0:
182,192,16765,1,0,0:0:0:0:
109,192,16846,128,0,17333:0:0:0:0:
329,192,16846,1,0,0:0:0:0:
402,192,16927,1,0,0:0:0:0:
475,192,17008,1,0,0:0:0:0:
402,192,17089,1,0,0:0:0:0:
256,192,17170,128,0,17333:0:0:0:0:
329,192,17170,1,0,0:0:0:0:
36,192,17251,1,0,0:0:0:0:
182,192,17333,1,0,0:0:0:0:
329,192,17414,1,0,0:0:0:0:
402,192,17495,128,0,17981:0:0:0:0:
182,192,17495,1,0,0:0:0:0:
109,192,17576,1,0,0:0:0:0:
36,192,17657,1,0,0:0:0:0:
109,192,17738,1,0,0:0:0:0:
256,192,17819,128,0,17981:0:0:0:0:
182,192,17819,1,0,0:0:0:0:
109,192,17900,1,0,0:0:0:0:
36,192,17981,1,0,0:0:0:0:
329,192,18062,1,0,0:0:0:0:
475,192,18143,1,0,0:0:0:0:
182,192,18143,1,0,0:0:0:0:
402,192,18224,1,0,0:0:0:0:
109,192,18224,1,0,0:0:0:0:
329,192,18306,1,0,0:0:0:0:
36,192,18306,1,0,0:0:0:0:
256,192,18387,1,0,0:0:0:0:
475,192,18387,1,0,0:0:0:0:
182,192,18468,1,0,0:0:0:0:
402,192,18468,1,0,0:0:0:0:
329,192,18549,1,0,0:0:0:0:
109,192,18549,1,0,0:0:0:0:
36,192,18630,1,0,0:0:0:0:
256,192,18630,1,0,0:0:0:0:
329,192,18711,1,0,0:0:0:0:
109,192,18711,1,0,0:0:0:0:
402,192,18792,1,0,0:0:0:0:
182,192,18792,1,0,0:0:0:0:
475,192,18873,1,0,0:0:0:0:
256,192,18873,1,0,0:0:0:0:
329,192,18954,1,0,0:0:0:0:
36,192,18954,1,0,0:0:0:0:
402,192,19035,1,0,0:0:0:0:
109,192,19035,1,0,0:0:0:0:
475,192,19116,1,0,0:0:0:0:
182,192,19116,1,0,0:0:0:0:
402,192,19197,1,0,0:0:0:0:
109,192,19197,1,0,0:0:0:0:
329,192,19278,1,0,0:0:0:0:
36,192,19278,1,0,0:0:0:0:
256,192,19360,1,0,0:0:0:0:
475,192,19360,1,0,0:0:0:0:
256,192,19441,128,0,19927:0:0:0:0:
182,192,19441,1,0,0:0:0:0:
402,192,19441,1,0,0:0:0:0:
109,192,19522,1,0,0:0:0:0:
36,192,19603,1,0,0:0:0:0:
109,192,19684,1,0,0:0:0:0:
109,192,19765,128,0,19927:0:0:0:0:
182,192,19765,1,0,0:0:0:0:
329,192,19846,1,0,0:0:0:0:
475,192,19927,1,0,0:0:0:0:
402,192,20008,1,0,0:0:0:0:
256,192,20089,128,0,20576:0:0:0:0:
329,192,20089,1,0,0:0:0:0:
182,192,20089,1,0,0:0:0:0:
109,192,20170,1,0,0:0:0:0:
36,192,20251,1,0,0:0:0:0:
109,192,20333,1,0,0:0:0:0:
402,192,20414,128,0,20576:0:0:0:0:
182,192,20414,1,0,0:0:0:0:
329,192,20495,1,0,0:0:0:0:
475,192,20576,1,0,0:0:0:0:
329,192,20657,1,0,0:0:0:0:
182,192,20738,1,0,0:0:0:0:
36,192,20738,1,0,0:0:0:0:
329,192,20819,1,0,0:0:0:0:
475,192,20819,1,0,0:0:0:0:
182,192,20900,1,0,0:0:0:0:
109,192,20900,1,0,0:0:0:0:
329,192,20981,1,0,0:0:0:0:
402,192,20981,1,0,0:0:0:0:
182,192,21062,1,0,0:0:0:0:
36,192,21062,1,0,0:0:0:0:
256,192,21062,1,0,0:0:0:0:
329,192,21143,1,0,0:0:0:0:
475,192,21143,1,0,0:0:0:0:
402,192,21224,1,0,0:0:0:0:
256,192,21224,1,0,0:0:0:0:
109,192,21306,1,0,0:0:0:0:
182,192,21306,1,0,0:0:0:0:
256,192,21387,1,0,0:0:0:0:
475,192,21387,1,0,0:0:0:0:
36,192,21468,1,0,0:0:0:0:
182,192,21468,1,0,0:0:0:0:
329,192,21549,1,0,0:0:0:0:
402,192,21549,1,0,0:0:0:0:
256,192,21630,1,0,0:0:0:0:
475,192,21630,1,0,0:0:0:0:
36,192,21711,1,0,0:0:0:0:
109,192,21711,1,0,0:0:0:0:
182,192,21711,1,0,0:0:0:0:
329,192,21792,1,0,0:0:0:0:
256,192,21873,1,0,0:0:0:0:
182,192,21873,1,0,0:0:0:0:
109,192,21873,1,0,0:0:0:0:
402,192,21954,1,0,0:0:0:0:
182,192,22035,1,0,0:0:0:0:
329,192,22035,1,0,0:0:0:0:
256,192,22035,128,0,22522:0:0:0:0:
36,192,22035,1,0,0:0:0:0:
402,192,22116,1,0,0:0:0:0:
475,192,22197,1,0,0:0:0:0:
402,192,22278,1,0,0:0:0:0:
109,192,22360,128,0,22522:0:0:0:0:
329,192,22360,1,0,0:0:0:0:
182,192,22360,1,0,0:0:0:0:
475,192,22360,1,0,0:0:0:0:
36,192,22441,1,0,0:0:0:0:
182,192,22522,1,0,0:0:0:0:
402,192,22603,1,0,0:0:0:0:
256,192,22684,128,0,23170:0:0:0:0:
475,192,22684,1,0,0:0:0:0:
329,192,22684,1,0,0:0:0:0:
182,192,22684,1,0,0:0:0:0:
109,192,22765,1,0,0:0:0:0:
36,192,22846,1,0,0:0:0:0:
109,192,22927,1,0,0:0:0:0:
402,192,23008,128,0,23170:0:0:0:0:
182,192,23008,1,0,0:0:0:0:
36,192,23008,1,0,0:0:0:0:
329,192,23008,1,0,0:0:0:0:
475,192,23089,1,0,0:0:0:0:
329,192,23170,1,0,0:0:0:0:
109,192,23251,1,0,0:0:0:0:
182,192,23333,1,0,0:0:0:0:
36,192,23333,1,0,0:0:0:0:
329,192,23333,1,0,0:0:0:0:
109,192,23414,1,0,0:0:0:0:
256,192,23414,1,0,0:0:0:0:
182,192,23495,1,0,0:0:0:0:
329,192,23495,1,0,0:0:0:0:
256,192,23576,1,0,0:0:0:0:
402,192,23576,1,0,0:0:0:0:
329,192,23657,1,0,0:0:0:0:
475,192,23657,1,0,0:0:0:0:
36,192,23657,1,0,0:0:0:0:
109,192,23738,1,0,0:0:0:0:
256,192,23738,1,0,0:0:0:0:
475,192,23819,1,0,0:0:0:0:
329,192,23819,1,0,0:0:0:0:
256,192,23900,1,0,0:0:0:0:
402,192,23900,1,0,0:0:0:0:
182,192,23981,1,0,0:0:0:0:
36,192,23981,1,0,0:0:0:0:
329,192,23981,1,0,0:0:0:0:
109,192,24062,1,0,0:0:0:0:
256,192,24062,1,0,0:0:0:0:
182,192,24143,1,0,0:0:0:0:
329,192,24143,1,0,0:0:0:0:
256,192,24224,1,0,0:0:0:0:
402,192,24224,1,0,0:0:0:0:
329,192,24306,1,0,0:0:0:0:
475,192,24306,1,0,0:0:0:0:
36,192,24306,1,0,0:0:0:0:
109,192,24387,1,0,0:0:0:0:
256,192,24387,1,0,0:0:0:0:
329,192,24468,1,0,0:0:0:0:
475,192,24468,1,0,0:0:0:0:
256,192,24549,1,0,0:0:0:0:
109,192,24549,1,0,0:0:0:0:
109,192,24630,128,0,25116:0:0:0:0:
182,192,24630,1,0,0:0:0:0:
36,192,24630,1,0,0:0:0:0:
329,192,24630,1,0,0:0:0:0:
402,192,24711,1,0,0:0:0:0:
475,192,24792,1,0,0:0:0:0:
402,192,24873,1,0,0:0:0:0:
256,192,24954,128,0,25116:0:0:0:0:
329,192,24954,1,0,0:0:0:0:
475,192,24954,1,0,0:0:0:0:
36,192,25035,1,0,0:0:0:0:
182,192,25116,1,0,0:0:0:0:
256,192,25197,1,0,0:0:0:0:
402,192,25278,128,0,25765:0:0:0:0:
182,192,25278,1,0,0:0:0:0:
36,192,25278,1,0,0:0:0:0:
109,192,25360,1,0,0:0:0:0:
182,192,25441,1,0,0:0:0:0:
109,192,25522,1,0,0:0:0:0:
256,192,25603,128,0,25765:0:0:0:0:
36,192,25603,1,0,0:0:0:0:
182,192,25603,1,0,0:0:0:0:
475,192,25684,1,0,0:0:0:0:
329,192,25765,1,0,0:0:0:0:
256,192,25846,1,0,0:0:0:0:
182,192,25927,1,0,0:0:0:0:
36,192,25927,1,0,0:0:0:0:
329,192,25927,1,0,0:0:0:0:
402,192,26008,1,0,0:0:0:0:
109,192,26008,1,0,0:0:0:0:
182,192,26089,1,0,0:0:0:0:
475,192,26089,1,0,0:0:0:0:
402,192,26170,1,0,0:0:0:0:
256,192,26170,1,0,0:0:0:0:
329,192,26251,1,0,0:0:0:0:
109,192,26251,1,0,0:0:0:0:
36,192,26251,1,0,0:0:0:0:
182,192,26333,1,0,0:0:0:0:
475,192,26333,1,0,0:0:0:0:
402,192,26414,1,0,0:0:0:0:
109,192,26414,1,0,0:0:0:0:
329,192,26495,1,0,0:0:0:0:
36,192,26495,1,0,0:0:0:0:
256,192,26576,1,0,0:0:0:0:
109,192,26576,1,0,0:0:0:0:
182,192,26576,1,0,0:0:0:0:
329,192,26657,1,0,0:0:0:0:
475,192,26657,1,0,0:0:0:0:
402,192,26738,1,0,0:0:0:0:
256,192,26738,1,0,0:0:0:0:
36,192,26738,1,0,0:0:0:0:
329,192,26819,1,0,0:0:0:0:
182,192,26819,1,0,0:0:0:0:
256,192,26900,1,0,0:0:0:0:
109,192,26900,1,0,0:0:0:0:
475,192,26900,1,0,0:0:0:0:
182,192,26981,1,0,0:0:0:0:
402,192,26981,1,0,0:0:0:0:
329,192,27062,1,0,0:0:0:0:
36,192,27062,1,0,0:0:0:0:
109,192,27143,1,0,0:0:0:0:
402,192,27143,1,0,0:0:0:0:
256,192,27224,128,0,27711:0:0:0:0:
182,192,27224,1,0,0:0:0:0:
475,192,27224,1,0,0:0:0:0:
329,192,27224,1,0,0:0:0:0:
109,192,27306,1,0,0:0:0:0:
36,192,27387,1,0,0:0:0:0:
109,192,27468,1,0,0:0:0:0:
402,192,27549,128,0,27711:0:0:0:0:
182,192,27549,1,0,0:0:0:0:
36,192,27549,1,0,0:0:0:0:
329,192,27549,1,0,0:0:0:0:
475,192,27630,1,0,0:0:0:0:
329,192,27711,1,0,0:0:0:0:
182,192,27792,1,0,0:0:0:0:
256,192,27873,128,0,28360:0:0:0:0:
109,192,27873,1,0,0:0:0:0:
36,192,27873,1,0,0:0:0:0:
475,192,27873,1,0,0:0:0:0:
402,192,27954,1,0,0:0:0:0:
329,192,28035,1,0,0:0:0:0:
402,192,28116,1,0,0:0:0:0:
109,192,28197,128,0,28360:0:0:0:0:
475,192,28197,1,0,0:0:0:0:
182,192,28197,1,0,0:0:0:0:
36,192,28278,1,0,0:0:0:0:
182,192,28360,1,0,0:0:0:0:
256,192,28441,1,0,0:0:0:0:
329,192,28522,1,0,0:0:0:0:
475,192,28522,1,0,0:0:0:0:
36,192,28522,1,0,0:0:0:0:
109,192,28603,1,0,0:0:0:0:
402,192,28603,1,0,0:0:0:0:
182,192,28684,1,0,0:0:0:0:
329,192,28684,1,0,0:0:0:0:
256,192,28765,1,0,0:0:0:0:
36,192,28765,1,0,0:0:0:0:
109,192,28846,1,0,0:0:0:0:
475,192,28846,1,0,0:0:0:0:
402,192,28846,1,0,0:0:0:0:
329,192,28927,1,0,0:0:0:0:
182,192,28927,1,0,0:0:0:0:
256,192,29008,1,0,0:0:0:0:
36,192,29008,1,0,0:0:0:0:
182,192,29089,1,0,0:0:0:0:
402,192,29089,1,0,0:0:0:0:
109,192,29170,1,0,0:0:0:0:
329,192,29170,1,0,0:0:0:0:
475,192,29170,1,0,0:0:0:0:
256,192,29251,1,0,0:0:0:0:
36,192,29251,1,0,0:0:0:0:
182,192,29333,1,0,0:0:0:0:
402,192,29333,1,0,0:0:0:0:
109,192,29414,1,0,0:0:0:0:
329,192,29414,1,0,0:0:0:0:
36,192,29495,1,0,0:0:0:0:
402,192,29495,1,0,0:0:0:0:
475,192,29495,1,0,0:0:0:0:
182,192,29576,1,0,0:0:0:0:
329,192,29576,1,0,0:0:0:0:
256,192,29657,1,0,0:0:0:0:
109,192,29657,1,0,0:0:0:0:
329,192,29738,1,0,0:0:0:0:
36,192,29738,1,0,0:0:0:0:
109,192,29819,128,0,30306:0:0:0:0:
402,192,29819,1,0,0:0:0:0:
182,192,29819,1,0,0:0:0:0:
475,192,29819,1,0,0:0:0:0:
329,192,29900,1,0,0:0:0:0:
402,192,29981,1,0,0:0:0:0:
475,192,30062,1,0,0:0:0:0:
256,192,30143,128,0,30306:0:0:0:0:
402,192,30143,1,0,0:0:0:0:
182,192,30143,1,0,0:0:0:0:
36,192,30143,1,0,0:0:0:0:
329,192,30224,1,0,0:0:0:0:
402,192,30306,1,0,0:0:0:0:
329,192,30387,1,0,0:0:0:0:
402,192,30468,128,0,30954:0:0:0:0:
256,192,30468,1,0,0:0:0:0:
36,192,30468,1,0,0:0:0:0:
475,192,30468,1,0,0:0:0:0:
109,192,30549,1,0,0:0:0:0:
182,192,30630,1,0,0:0:0:0:
109,192,30711,1,0,0:0:0:0:
256,192,30792,128,0,30954:0:0:0:0:
36,192,30792,1,0,0:0:0:0:
329,192,30792,1,0,0:0:0:0:
475,192,30792,1,0,0:0:0:0:
109,192,30873,1,0,0:0:0:0:
182,192,30954,1,0,0:0:0:0:
329,192,31035,1,0,0:0:0:0:
256,192,31116,1,0,0:0:0:0:
36,192,31116,1,0,0:0:0:0:
109,192,31116,1,0,0:0:0:0:
182,192,31197,1,0,0:0:0:0:
402,192,31197,1,0,0:0:0:0:
256,192,31278,1,0,0:0:0:0:
475,192,31278,1,0,0:0:0:0:
329,192,31360,1,0,0:0:0:0:
109,192,31360,1,0,0:0:0:0:
402,192,31441,1,0,0:0:0:0:
36,192,31441,1,0,0:0:0:0:
182,192,31441,1,0,0:0:0:0:
329,192,31522,1,0,0:0:0:0:
109,192,31522,1,0,0:0:0:0:
256,192,31603,1,0,0:0:0:0:
475,192,31603,1,0,0:0:0:0:
182,192,31684,1,0,0:0:0:0:
402,192,31684,1,0,0:0:0:0:
109,192,31765,1,0,0:0:0:0:
329,192,31765,1,0,0:0:0:0:
36,192,31765,1,0,0:0:0:0:
182,192,31846,1,0,0:0:0:0:
475,192,31846,1,0,0:0:0:0:
256,192,31927,1,0,0:0:0:0:
36,192,31927,1,0,0:0:0:0:
109,192,31927,1,0,0:0:0:0:
402,192,32008,1,0,0:0:0:0:
329,192,32008,1,0,0:0:0:0:
182,192,32008,1,0,0:0:0:0:
475,192,32089,1,0,0:0:0:0:
256,192,32089,1,0,0:0:0:0:
36,192,32089,1,0,0:0:0:0:
402,192,32170,1,0,0:0:0:0:
109,192,32170,1,0,0:0:0:0:
329,192,32251,1,0,0:0:0:0:
182,192,32251,1,0,0:0:0:0:
402,192,32333,1,0,0:0:0:0:
36,192,32333,1,0,0:0:0:0:
109,192,32414,128,0,32900:0:0:0:0:
256,192,32414,128,0,32576:0:0:0:0:
475,192,32414,1,0,0:0:0:0:
182,192,32414,1,0,0:0:0:0:
329,192,32414,1,0,0:0:0:0:
402,192,32495,1,0,0:0:0:0:
329,192,32576,1,0,0:0:0:0:
402,192,32657,1,0,0:0:0:0:
256,192,32738,128,0,32900:0:0:0:0:
182,192,32738,1,0,0:0:0:0:
36,192,32738,1,0,0:0:0:0:
475,192,32738,1,0,0:0:0:0:
402,192,32819,1,0,0:0:0:0:
329,192,32900,1,0,0:0:0:0:
475,192,32981,1,0,0:0:0:0:
256,192,33062,128,0,33224:0:0:0:0:
402,192,33062,128,0,33549:0:0:0:0:
36,192,33062,1,0,0:0:0:0:
182,192,33062,1,0,0:0:0:0:
329,192,33062,1,0,0:0:0:0:
109,192,33143,1,0,0:0:0:0:
182,192,33224,1,0,0:0:0:0:
109,192,33306,1,0,0:0:0:0:
256,192,33387,128,0,33549:0:0:0:0:
36,192,33387,1,0,0:0:0:0:
329,192,33387,1,0,0:0:0:0:
475,192,33387,1,0,0:0:0:0:
109,192,33468,1,0,0:0:0:0:
182,192,33549,1,0,0:0:0:0:
256,192,33630,1,0,0:0:0:0:
329,192,33711,1,0,0:0:0:0:
475,192,33711,1,0,0:0:0:0:
36,192,33711,1,0,0:0:0:0:
109,192,33792,1,0,0:0:0:0:
402,192,33792,1,0,0:0:0:0:
329,192,33873,1,0,0:0:0:0:
182,192,33873,1,0,0:0:0:0:
256,192,33954,1,0,0:0:0:0:
475,192,33954,1,0,0:0:0:0:
182,192,34035,1,0,0:0:0:0:
402,192,34035,1,0,0:0:0:0:
36,192,34035,1,0,0:0:0:0:
109,192,34116,1,0,0:0:0:0:
329,192,34116,1,0,0:0:0:0:
256,192,34197,1,0,0:0:0:0:
475,192,34197,1,0,0:0:0:0:
182,192,34278,1,0,0:0:0:0:
402,192,34278,1,0,0:0:0:0:
109,192,34360,1,0,0:0:0:0:
329,192,34360,1,0,0:0:0:0:
36,192,34360,1,0,0:0:0:0:
402,192,34441,1,0,0:0:0:0:
182,192,34441,1,0,0:0:0:0:
475,192,34522,1,0,0:0:0:0:
256,192,34522,1,0,0:0:0:0:
182,192,34603,1,0,0:0:0:0:
402,192,34603,1,0,0:0:0:0:
36,192,34684,1,0,0:0:0:0:
329,192,34684,1,0,0:0:0:0:
109,192,34684,1,0,0:0:0:0:
182,192,34765,1,0,0:0:0:0:
256,192,34846,1,0,0:0:0:0:
36,192,34846,1,0,0:0:0:0:
402,192,34927,1,0,0:0:0:0:
475,192,34927,1,0,0:0:0:0:
256,192,35008,128,0,35495:0:0:0:0:
109,192,35008,128,0,35170:0:0:0:0:
182,192,35008,1,0,0:0:0:0:
36,192,35008,1,0,0:0:0:0:
329,192,35008,1,0,0:0:0:0:
402,192,35089,1,0,0:0:0:0:
475,192,35170,1,0,0:0:0:0:
402,192,35251,1,0,0:0:0:0:
109,192,35333,128,0,35495:0:0:0:0:
329,192,35333,1,0,0:0:0:0:
182,192,35333,1,0,0:0:0:0:
36,192,35333,1,0,0:0:0:0:
402,192,35414,1,0,0:0:0:0:
475,192,35495,1,0,0:0:0:0:
329,192,35576,1,0,0:0:0:0:
256,192,35657,128,0,36143:0:0:0:0:
402,192,35657,128,0,35819:0:0:0:0:
182,192,35657,1,0,0:0:0:0:
36,192,35657,1,0,0:0:0:0:
475,192,35657,1,0,0:0:0:0:
109,192,35738,1,0,0:0:0:0:
182,192,35819,1,0,0:0:0:0:
109,192,35900,1,0,0:0:0:0:
402,192,35981,128,0,36143:0:0:0:0:
36,192,35981,1,0,0:0:0:0:
329,192,35981,1,0,0:0:0:0:
475,192,35981,1,0,0:0:0:0:
109,192,36062,1,0,0:0:0:0:
182,192,36143,1,0,0:0:0:0:
329,192,36224,1,0,0:0:0:0:
256,192,36306,128,0,36387:0:0:0:0:
402,192,36306,1,0,0:0:0:0:
475,192,36306,1,0,0:0:0:0:
36,192,36306,1,0,0:0:0:0:
109,192,36387,1,0,0:0:0:0:
329,192,36387,1,0,0:0:0:0:
256,192,36468,128,0,36549:0:0:0:0:
402,192,36468,1,0,0:0:0:0:
182,192,36468,1,0,0:0:0:0:
109,192,36549,1,0,0:0:0:0:
256,192,36589,128,0,36670:0:0:0:0:
36,192,36630,1,0,0:0:0:0:
329,192,36630,1,0,0:0:0:0:
475,192,36630,1,0,0:0:0:0:
256,192,36711,128,0,36792:0:0:0:0:
402,192,36711,1,0,0:0:0:0:
109,192,36711,1,0,0:0:0:0:
329,192,36792,1,0,0:0:0:0:
182,192,36792,1,0,0:0:0:0:
256,192,36833,128,0,36873:0:0:0:0:
109,192,36873,1,0,0:0:0:0:
402,192,36873,1,0,0:0:0:0:
256,192,36914,128,0,37035:0:0:0:0:
36,192,36954,1,0,0:0:0:0:
182,192,36954,1,0,0:0:0:0:
475,192,36954,1,0,0:0:0:0:
402,192,37035,1,0,0:0:0:0:
109,192,37035,1,0,0:0:0:0:
329,192,37116,1,0,0:0:0:0:
475,192,37116,1,0,0:0:0:0:
182,192,37116,1,0,0:0:0:0:
109,192,37197,1,0,0:0:0:0:
402,192,37197,1,0,0:0:0:0:
256,192,37278,128,0,37400:0:0:0:0:
36,192,37278,1,0,0:0:0:0:
182,192,37278,1,0,0:0:0:0:
329,192,37278,1,0,0:0:0:0:
402,192,37360,1,0,0:0:0:0:
475,192,37360,1,0,0:0:0:0:
182,192,37441,1,0,0:0:0:0:
109,192,37441,1,0,0:0:0:0:
329,192,37522,1,0,0:0:0:0:
402,192,37522,1,0,0:0:0:0:
109,192,37603,128,0,38089:0:0:0:0:
256,192,37603,128,0,37765:0:0:0:0:
475,192,37603,1,0,0:0:0:0:
182,192,37603,1,0,0:0:0:0:
36,192,37603,1,0,0:0:0:0:
402,192,37684,1,0,0:0:0:0:
329,192,37765,1,0,0:0:0:0:
402,192,37846,1,0,0:0:0:0:
475,192,37927,1,0,0:0:0:0:
256,192,37927,128,0,38089:0:0:0:0:
182,192,37927,1,0,0:0:0:0:
36,192,37927,1,0,0:0:0:0:
402,192,38008,1,0,0:0:0:0:
329,192,38089,1,0,0:0:0:0:
475,192,38170,1,0,0:0:0:0:
256,192,38251,128,0,38414:0:0:0:0:
182,192,38251,1,0,0:0:0:0:
36,192,38251,1,0,0:0:0:0:
329,192,38251,1,0,0:0:0:0:
402,192,38251,128,0,38738:0:0:0:0:
109,192,38333,1,0,0:0:0:0:
182,192,38414,1,0,0:0:0:0:
109,192,38495,1,0,0:0:0:0:
256,192,38576,128,0,38738:0:0:0:0:
36,192,38576,1,0,0:0:0:0:
329,192,38576,1,0,0:0:0:0:
475,192,38576,1,0,0:0:0:0:
109,192,38657,1,0,0:0:0:0:
182,192,38738,1,0,0:0:0:0:
36,192,38819,1,0,0:0:0:0:
109,192,38900,128,0,39387:0:0:0:0:
256,192,38900,128,0,39062:0:0:0:0:
329,192,38900,1,0,0:0:0:0:
475,192,38900,1,0,0:0:0:0:
182,192,38900,1,0,0:0:0:0:
402,192,38981,1,0,0:0:0:0:
329,192,39062,1,0,0:0:0:0:
402,192,39143,1,0,0:0:0:0:
256,192,39224,128,0,39387:0:0:0:0:
475,192,39224,1,0,0:0:0:0:
182,192,39224,1,0,0:0:0:0:
36,192,39224,1,0,0:0:0:0:
402,192,39306,1,0,0:0:0:0:
329,192,39387,1,0,0:0:0:0:
475,192,39468,1,0,0:0:0:0:
402,192,39549,128,0,40035:0:0:0:0:
256,192,39549,128,0,39711:0:0:0:0:
182,192,39549,1,0,0:0:0:0:
36,192,39549,1,0,0:0:0:0:
329,192,39549,1,0,0:0:0:0:
109,192,39630,1,0,0:0:0:0:
182,192,39711,1,0,0:0:0:0:
109,192,39792,1,0,0:0:0:0:
256,192,39873,128,0,40035:0:0:0:0:
36,192,39873,1,0,0:0:0:0:
329,192,39873,1,0,0:0:0:0:
475,192,39873,1,0,0:0:0:0:
109,192,39954,1,0,0:0:0:0:
182,192,40035,1,0,0:0:0:0:
36,192,40116,1,0,0:0:0:0:
475,192,40197,1,0,0:0:0:0:
256,192,40197,1,0,0:0:0:0:
109,192,40197,128,0,40684:0:0:0:0:
402,192,40197,1,0,0:0:0:0:
256,192,40522,128,0,40684:0:0:0:0:
329,192,40522,1,0,0:0:0:0:
475,192,40522,1,0,0:0:0:0:
402,192,40522,1,0,0:0:0:0:
182,192,40603,1,0,0:0:0:0:
36,192,40684,1,0,0:0:0:0:
182,192,40765,1,0,0:0:0:0:
402,192,40846,128,0,41333:0:0:0:0:
256,192,40846,1,0,0:0:0:0:
36,192,40846,1,0,0:0:0:0:
109,192,40846,1,0,0:0:0:0:
256,192,41170,128,0,41333:0:0:0:0:
36,192,41170,1,0,0:0:0:0:
182,192,41170,1,0,0:0:0:0:
109,192,41170,1,0,0:0:0:0:
329,192,41251,1,0,0:0:0:0:
475,192,41333,1,0,0:0:0:0:
329,192,41414,1,0,0:0:0:0:
109,192,41495,1,0,0:0:0:0:
182,192,41495,1,0,0:0:0:0:
256,192,41495,1,0,0:0:0:0:
182,192,41576,1,0,0:0:0:0:
256,192,41576,1,0,0:0:0:0:
329,192,41576,1,0,0:0:0:0:
402,192,41738,1,0,0:0:0:0:
329,192,41738,1,0,0:0:0:0:
256,192,41738,1,0,0:0:0:0:
256,192,41900,1,0,0:0:0:0:
329,192,41900,1,0,0:0:0:0:
182,192,41900,1,0,0:0:0:0:
109,192,42062,1,0,0:0:0:0:
182,192,42062,1,0,0:0:0:0:
256,192,42062,1,0,0:0:0:0:
329,192,42143,128,0,42630:0:0:0:0:
182,192,42143,1,0,0:0:0:0:
256,192,42143,1,0,0:0:0:0:
402,192,42143,1,0,0:0:0:0:
256,192,42468,128,0,42792:0:0:0:0:
182,192,42468,1,0,0:0:0:0:
36,192,42468,1,0,0:0:0:0:
475,192,42792,1,0,0:0:0:0:
329,192,42792,1,0,0:0:0:0:
109,192,42792,128,0,43441:0:0:0:0:
36,192,42792,1,0,0:0:0:0:
402,192,42873,1,0,0:0:0:0:
256,192,42873,1,0,0:0:0:0:
329,192,42954,1,0,0:0:0:0:
182,192,42954,1,0,0:0:0:0:
256,192,43035,1,0,0:0:0:0:
402,192,43035,1,0,0:0:0:0:
329,192,43116,1,0,0:0:0:0:
475,192,43116,1,0,0:0:0:0:
36,192,43116,1,0,0:0:0:0:
402,192,43197,1,0,0:0:0:0:
256,192,43197,1,0,0:0:0:0:
329,192,43278,1,0,0:0:0:0:
182,192,43278,1,0,0:0:0:0:
256,192,43360,1,0,0:0:0:0:
402,192,43360,1,0,0:0:0:0:
402,192,43441,128,0,43927:0:0:0:0:
329,192,43441,1,0,0:0:0:0:
182,192,43441,1,0,0:0:0:0:
475,192,43441,1,0,0:0:0:0:
256,192,43522,1,0,0:0:0:0:
109,192,43522,1,0,0:0:0:0:
182,192,43603,1,0,0:0:0:0:
36,192,43603,1,0,0:0:0:0:
109,192,43684,1,0,0:0:0:0:
256,192,43684,1,0,0:0:0:0:
182,192,43765,1,0,0:0:0:0:
329,192,43765,1,0,0:0:0:0:
475,192,43765,1,0,0:0:0:0:
256,192,43846,1,0,0:0:0:0:
109,192,43846,1,0,0:0:0:0:
256,192,43927,128,0,44251:0:0:0:0:
182,192,43927,1,0,0:0:0:0:
36,192,43927,1,0,0:0:0:0:
109,192,44008,1,0,0:0:0:0:
402,192,44008,1,0,0:0:0:0:
182,192,44089,1,0,0:0:0:0:
475,192,44089,1,0,0:0:0:0:
329,192,44089,1,0,0:0:0:0:
402,192,44170,1,0,0:0:0:0:
109,192,44170,1,0,0:0:0:0:
182,192,44251,1,0,0:0:0:0:
475,192,44251,1,0,0:0:0:0:
402,192,44333,1,0,0:0:0:0:
36,192,44333,1,0,0:0:0:0:
109,192,44414,128,0,44576:0:0:0:0:
329,192,44414,1,0,0:0:0:0:
182,192,44414,1,0,0:0:0:0:
475,192,44414,1,0,0:0:0:0:
256,192,44495,1,0,0:0:0:0:
402,192,44495,1,0,0:0:0:0:
256,192,44576,128,0,44657:0:0:0:0:
329,192,44576,1,0,0:0:0:0:
475,192,44576,1,0,0:0:0:0:
402,192,44657,1,0,0:0:0:0:
182,192,44657,1,0,0:0:0:0:
402,192,44738,128,0,45062:0:0:0:0:
329,192,44738,1,0,0:0:0:0:
109,192,44738,1,0,0:0:0:0:
36,192,44738,1,0,0:0:0:0:
182,192,44819,1,0,0:0:0:0:
475,192,44819,1,0,0:0:0:0:
36,192,44900,1,0,0:0:0:0:
329,192,44900,1,0,0:0:0:0:
475,192,44981,1,0,0:0:0:0:
256,192,44981,1,0,0:0:0:0:
182,192,45062,128,0,45143:0:0:0:0:
329,192,45062,128,0,45184:0:0:0:0:
36,192,45062,128,0,45103:0:0:0:0:
109,192,45062,1,0,0:0:0:0:
256,192,45224,128,0,45306:0:0:0:0:
402,192,45224,128,0,45346:0:0:0:0:
109,192,45224,128,0,45265:0:0:0:0:
182,192,45224,1,0,0:0:0:0:
329,192,45387,128,0,45468:0:0:0:0:
182,192,45387,128,0,45427:0:0:0:0:
475,192,45387,128,0,45630:0:0:0:0:
256,192,45387,1,0,0:0:0:0:
256,192,45549,128,0,45711:0:0:0:0:
109,192,45549,1,0,0:0:0:0:
329,192,45711,128,0,45792:0:0:0:0:
182,192,45711,128,0,45833:0:0:0:0:
475,192,45711,128,0,45751:0:0:0:0:
402,192,45711,1,0,0:0:0:0:
256,192,45873,128,0,45954:0:0:0:0:
402,192,45873,128,0,45914:0:0:0:0:
109,192,45873,128,0,45995:0:0:0:0:
329,192,45873,1,0,0:0:0:0:
329,192,46035,128,0,46076:0:0:0:0:
182,192,46035,128,0,46116:0:0:0:0:
36,192,46035,128,0,46157:0:0:0:0:
256,192,46035,1,0,0:0:0:0:
402,192,46197,1,0,0:0:0:0:
109,192,46197,1,0,0:0:0:0:
182,192,46278,1,0,0:0:0:0:
475,192,46278,1,0,0:0:0:0:
109,192,46360,128,0,46481:0:0:0:0:
256,192,46360,128,0,46441:0:0:0:0:
402,192,46360,128,0,46400:0:0:0:0:
329,192,46360,1,0,0:0:0:0:
36,192,46522,128,0,46643:0:0:0:0:
182,192,46522,128,0,46603:0:0:0:0:
329,192,46522,128,0,46562:0:0:0:0:
256,192,46522,1,0,0:0:0:0:
256,192,46684,128,0,46765:0:0:0:0:
402,192,46684,128,0,46724:0:0:0:0:
329,192,46684,1,0,0:0:0:0:
109,192,46684,128,0,46968:0:0:0:0:
475,192,46765,128,0,46927:0:0:0:0:
402,192,46846,128,0,46927:0:0:0:0:
36,192,46846,1,0,0:0:0:0:
329,192,46927,128,0,47008:0:0:0:0:
109,192,47008,128,0,47049:0:0:0:0:
256,192,47008,128,0,47089:0:0:0:0:
402,192,47008,128,0,47292:0:0:0:0:
182,192,47008,1,0,0:0:0:0:
36,192,47089,128,0,47251:0:0:0:0:
109,192,47170,128,0,47251:0:0:0:0:
475,192,47170,1,0,0:0:0:0:
182,192,47251,128,0,47333:0:0:0:0:
402,192,47333,128,0,47373:0:0:0:0:
256,192,47333,128,0,47414:0:0:0:0:
109,192,47333,128,0,47657:0:0:0:0:
329,192,47333,1,0,0:0:0:0:
475,192,47414,128,0,47576:0:0:0:0:
402,192,47495,128,0,47576:0:0:0:0:
182,192,47495,1,0,0:0:0:0:
36,192,47495,1,0,0:0:0:0:
329,192,47576,128,0,47657:0:0:0:0:
182,192,47657,1,0,0:0:0:0:
36,192,47657,1,0,0:0:0:0:
256,192,47657,1,0,0:0:0:0:
402,192,47738,1,0,0:0:0:0:
475,192,47738,1,0,0:0:0:0:
329,192,47819,1,0,0:0:0:0:
256,192,47819,1,0,0:0:0:0:
109,192,47819,1,0,0:0:0:0:
182,192,47900,1,0,0:0:0:0:
36,192,47900,1,0,0:0:0:0:
256,192,47981,128,0,48630:0:0:0:0:
329,192,47981,1,0,0:0:0:0:
402,192,47981,1,0,0:0:0:0:
475,192,47981,1,0,0:0:0:0:
182,192,48062,1,0,0:0:0:0:
36,192,48062,1,0,0:0:0:0:
109,192,48143,1,0,0:0:0:0:
402,192,48143,1,0,0:0:0:0:
329,192,48224,1,0,0:0:0:0:
475,192,48224,1,0,0:0:0:0:
402,192,48306,1,0,0:0:0:0:
36,192,48306,1,0,0:0:0:0:
182,192,48306,1,0,0:0:0:0:
109,192,48387,1,0,0:0:0:0:
329,192,48387,1,0,0:0:0:0:
182,192,48468,1,0,0:0:0:0:
402,192,48468,1,0,0:0:0:0:
329,192,48549,1,0,0:0:0:0:
36,192,48549,1,0,0:0:0:0:
402,192,48630,128,0,49116:0:0:0:0:
109,192,48630,1,0,0:0:0:0:
182,192,48630,1,0,0:0:0:0:
475,192,48630,1,0,0:0:0:0:
329,192,48711,1,0,0:0:0:0:
36,192,48711,1,0,0:0:0:0:
109,192,48792,1,0,0:0:0:0:
256,192,48792,1,0,0:0:0:0:
182,192,48873,1,0,0:0:0:0:
329,192,48873,1,0,0:0:0:0:
475,192,48954,1,0,0:0:0:0:
256,192,48954,1,0,0:0:0:0:
36,192,48954,1,0,0:0:0:0:
182,192,49035,1,0,0:0:0:0:
329,192,49035,1,0,0:0:0:0:
109,192,49116,128,0,49441:0:0:0:0:
256,192,49116,1,0,0:0:0:0:
36,192,49116,1,0,0:0:0:0:
475,192,49197,1,0,0:0:0:0:
329,192,49197,1,0,0:0:0:0:
402,192,49278,1,0,0:0:0:0:
182,192,49278,1,0,0:0:0:0:
36,192,49278,1,0,0:0:0:0:
256,192,49360,128,0,49441:0:0:0:0:
329,192,49360,1,0,0:0:0:0:
475,192,49360,1,0,0:0:0:0:
402,192,49441,1,0,0:0:0:0:
182,192,49441,1,0,0:0:0:0:
256,192,49522,1,0,0:0:0:0:
475,192,49522,1,0,0:0:0:0:
182,192,49603,128,0,49684:0:0:0:0:
329,192,49603,128,0,49724:0:0:0:0:
36,192,49603,128,0,49643:0:0:0:0:
109,192,49603,1,0,0:0:0:0:
256,192,49765,128,0,49846:0:0:0:0:
109,192,49765,128,0,49806:0:0:0:0:
402,192,49765,128,0,49887:0:0:0:0:
182,192,49765,1,0,0:0:0:0:
256,192,49927,1,0,0:0:0:0:
182,192,49927,128,0,49968:0:0:0:0:
329,192,49927,128,0,50008:0:0:0:0:
475,192,49927,128,0,50251:0:0:0:0:
256,192,50089,1,0,0:0:0:0:
36,192,50089,1,0,0:0:0:0:
182,192,50170,1,0,0:0:0:0:
402,192,50170,1,0,0:0:0:0:
109,192,50251,1,0,0:0:0:0:
329,192,50251,1,0,0:0:0:0:
256,192,50251,1,0,0:0:0:0:
36,192,50333,1,0,0:0:0:0:
475,192,50333,1,0,0:0:0:0:
329,192,50414,1,0,0:0:0:0:
402,192,50414,1,0,0:0:0:0:
182,192,50414,1,0,0:0:0:0:
109,192,50495,1,0,0:0:0:0:
36,192,50495,1,0,0:0:0:0:
402,192,50576,1,0,0:0:0:0:
475,192,50576,1,0,0:0:0:0:
256,192,50576,1,0,0:0:0:0:
109,192,50657,1,0,0:0:0:0:
329,192,50657,1,0,0:0:0:0:
182,192,50738,1,0,0:0:0:0:
36,192,50738,1,0,0:0:0:0:
256,192,50819,1,0,0:0:0:0:
475,192,50819,1,0,0:0:0:0:
402,192,50900,1,0,0:0:0:0:
329,192,50900,1,0,0:0:0:0:
36,192,50900,1,0,0:0:0:0:
109,192,50981,1,0,0:0:0:0:
256,192,50981,1,0,0:0:0:0:
182,192,51062,1,0,0:0:0:0:
475,192,51062,1,0,0:0:0:0:
402,192,51143,1,0,0:0:0:0:
36,192,51143,1,0,0:0:0:0:
256,192,51224,1,0,0:0:0:0:
109,192,51224,1,0,0:0:0:0:
329,192,51224,1,0,0:0:0:0:
182,192,51306,1,0,0:0:0:0:
475,192,51306,1,0,0:0:0:0:
402,192,51387,1,0,0:0:0:0:
36,192,51387,1,0,0:0:0:0:
109,192,51468,1,0,0:0:0:0:
329,192,51468,1,0,0:0:0:0:
182,192,51549,1,0,0:0:0:0:
475,192,51549,1,0,0:0:0:0:
402,192,51549,1,0,0:0:0:0:
329,192,51630,1,0,0:0:0:0:
109,192,51630,1,0,0:0:0:0:
402,192,51711,1,0,0:0:0:0:
256,192,51711,1,0,0:0:0:0:
36,192,51711,1,0,0:0:0:0:
109,192,51792,1,0,0:0:0:0:
182,192,51792,1,0,0:0:0:0:
256,192,51873,128,0,52360:0:0:0:0:
402,192,51873,1,0,0:0:0:0:
329,192,51873,1,0,0:0:0:0:
475,192,51873,1,0,0:0:0:0:
36,192,51873,1,0,0:0:0:0:
36,192,51954,1,0,0:0:0:0:
36,192,52035,1,0,0:0:0:0:
36,192,52116,1,0,0:0:0:0:
329,192,52197,1,0,0:0:0:0:
475,192,52197,1,0,0:0:0:0:
402,192,52197,1,0,0:0:0:0:
36,192,52197,1,0,0:0:0:0:
36,192,52278,1,0,0:0:0:0:
109,192,52360,1,0,0:0:0:0:
36,192,52360,1,0,0:0:0:0:
182,192,52441,1,0,0:0:0:0:
256,192,52441,1,0,0:0:0:0:
402,192,52522,1,0,0:0:0:0:
109,192,52522,1,0,0:0:0:0:
475,192,52522,1,0,0:0:0:0:
256,192,52603,1,0,0:0:0:0:
329,192,52603,1,0,0:0:0:0:
36,192,52603,1,0,0:0:0:0:
182,192,52684,1,0,0:0:0:0:
109,192,52684,1,0,0:0:0:0:
475,192,52684,1,0,0:0:0:0:
402,192,52846,1,0,0:0:0:0:
329,192,52846,1,0,0:0:0:0:
36,192,52846,1,0,0:0:0:0:
256,192,53170,1,0,0:0:0:0:
182,192,53170,1,0,0:0:0:0:
109,192,53170,1,0,0:0:0:0:
182,192,53333,1,0,0:0:0:0:
329,192,53495,1,0,0:0:0:0:
402,192,53495,1,0,0:0:0:0:
475,192,53495,1,0,0:0:0:0:
402,192,53657,1,0,0:0:0:0:
182,192,53819,1,0,0:0:0:0:
109,192,53819,1,0,0:0:0:0:
36,192,53819,1,0,0:0:0:0:
109,192,53981,1,0,0:0:0:0:
256,192,54143,1,0,0:0:0:0:
329,192,54143,1,0,0:0:0:0:
402,192,54143,1,0,0:0:0:0:
329,192,54306,1,0,0:0:0:0:
182,192,54468,1,0,0:0:0:0:
109,192,54468,1,0,0:0:0:0:
36,192,54468,1,0,0:0:0:0:
109,192,54630,1,0,0:0:0:0:
182,192,54792,1,0,0:0:0:0:
109,192,54792,1,0,0:0:0:0:
36,192,54792,1,0,0:0:0:0:
109,192,54954,1,0,0:0:0:0:
182,192,55116,1,0,0:0:0:0:
256,192,55116,1,0,0:0:0:0:
329,192,55116,1,0,0:0:0:0:
256,192,55278,1,0,0:0:0:0:
256,192,55441,1,0,0:0:0:0:
329,192,55441,1,0,0:0:0:0:
402,192,55441,1,0,0:0:0:0:
329,192,55603,1,0,0:0:0:0:
329,192,55765,1,0,0:0:0:0:
402,192,55765,1,0,0:0:0:0:
475,192,55765,1,0,0:0:0:0:
402,192,55927,1,0,0:0:0:0:
182,192,56089,1,0,0:0:0:0:
109,192,56089,1,0,0:0:0:0:
36,192,56089,1,0,0:0:0:0:
109,192,56251,1,0,0:0:0:0:
182,192,56414,1,0,0:0:0:0:
256,192,56414,1,0,0:0:0:0:
329,192,56414,1,0,0:0:0:0:
256,192,56576,1,0,0:0:0:0:
329,192,56738,1,0,0:0:0:0:
182,192,56738,1,0,0:0:0:0:
256,192,56738,1,0,0:0:0:0:
329,192,56900,1,0,0:0:0:0:
329,192,57062,1,0,0:0:0:0:
402,192,57062,1,0,0:0:0:0:
475,192,57062,1,0,0:0:0:0:
329,192,57387,1,0,0:0:0:0:
256,192,57387,1,0,0:0:0:0:
109,192,57387,1,0,0:0:0:0:
36,192,57387,1,0,0:0:0:0:
182,192,57711,1,0,0:0:0:0:
256,192,57711,1,0,0:0:0:0:
402,192,57711,1,0,0:0:0:0:
475,192,57711,1,0,0:0:0:0:
109,192,57873,1,0,0:0:0:0:
256,192,57954,1,0,0:0:0:0:
402,192,58035,1,0,0:0:0:0:
475,192,58035,1,0,0:0:0:0:
329,192,58035,1,0,0:0:0:0:
329,192,58197,1,0,0:0:0:0:
402,192,58197,1,0,0:0:0:0:
475,192,58197,1,0,0:0:0:0:
256,192,58197,1,0,0:0:0:0:
109,192,58278,1,0,0:0:0:0:
36,192,58278,1,0,0:0:0:0:
402,192,58360,1,0,0:0:0:0:
256,192,58360,1,0,0:0:0:0:
475,192,58360,1,0,0:0:0:0:
329,192,58360,1,0,0:0:0:0:
182,192,58360,1,0,0:0:0:0:
36,192,58684,1,0,0:0:0:0:
109,192,58684,1,0,0:0:0:0:
256,192,58684,1,0,0:0:0:0:
182,192,59008,1,0,0:0:0:0:
256,192,59008,1,0,0:0:0:0:
402,192,59008,1,0,0:0:0:0:
475,192,59333,1,0,0:0:0:0:
329,192,59333,1,0,0:0:0:0:
256,192,59333,1,0,0:0:0:0:
402,192,59495,1,0,0:0:0:0:
36,192,59657,1,0,0:0:0:0:
109,192,59657,1,0,0:0:0:0:
182,192,59657,1,0,0:0:0:0:
109,192,59819,1,0,0:0:0:0:
109,192,59981,1,0,0:0:0:0:
182,192,59981,1,0,0:0:0:0:
36,192,59981,1,0,0:0:0:0:
329,192,59981,1,0,0:0:0:0:
256,192,60143,1,0,0:0:0:0:
329,192,60306,1,0,0:0:0:0:
402,192,60306,1,0,0:0:0:0:
475,192,60306,1,0,0:0:0:0:
402,192,60468,1,0,0:0:0:0:
329,192,60630,1,0,0:0:0:0:
402,192,60630,1,0,0:0:0:0:
475,192,60630,1,0,0:0:0:0:
329,192,60792,1,0,0:0:0:0:
329,192,60954,1,0,0:0:0:0:
402,192,60954,1,0,0:0:0:0:
256,192,60954,1,0,0:0:0:0:
256,192,61116,1,0,0:0:0:0:
182,192,61278,1,0,0:0:0:0:
256,192,61278,1,0,0:0:0:0:
329,192,61278,1,0,0:0:0:0:
182,192,61441,1,0,0:0:0:0:
182,192,61603,1,0,0:0:0:0:
256,192,61603,1,0,0:0:0:0:
109,192,61603,1,0,0:0:0:0:
109,192,61765,1,0,0:0:0:0:
36,192,61927,1,0,0:0:0:0:
109,192,61927,1,0,0:0:0:0:
182,192,61927,1,0,0:0:0:0:
182,192,62089,1,0,0:0:0:0:
402,192,62251,1,0,0:0:0:0:
329,192,62251,1,0,0:0:0:0:
475,192,62251,1,0,0:0:0:0:
402,192,62414,1,0,0:0:0:0:
329,192,62576,1,0,0:0:0:0:
256,192,62576,1,0,0:0:0:0:
182,192,62576,1,0,0:0:0:0:
256,192,62738,1,0,0:0:0:0:
182,192,62900,1,0,0:0:0:0:
109,192,62900,1,0,0:0:0:0:
36,192,62900,1,0,0:0:0:0:
256,192,62981,1,0,0:0:0:0:
329,192,62981,1,0,0:0:0:0:
402,192,63062,1,0,0:0:0:0:
475,192,63062,1,0,0:0:0:0:
329,192,63143,1,0,0:0:0:0:
256,192,63143,1,0,0:0:0:0:
402,192,63224,1,0,0:0:0:0:
475,192,63224,1,0,0:0:0:0:
109,192,63224,1,0,0:0:0:0:
256,192,63306,1,0,0:0:0:0:
182,192,63306,1,0,0:0:0:0:
109,192,63387,1,0,0:0:0:0:
36,192,63387,1,0,0:0:0:0:
182,192,63468,1,0,0:0:0:0:
256,192,63468,1,0,0:0:0:0:
109,192,63549,1,0,0:0:0:0:
36,192,63549,1,0,0:0:0:0:
402,192,63549,1,0,0:0:0:0:
329,192,63711,1,0,0:0:0:0:
256,192,63792,1,0,0:0:0:0:
329,192,63873,1,0,0:0:0:0:
402,192,63873,1,0,0:0:0:0:
475,192,63873,1,0,0:0:0:0:
402,192,64035,1,0,0:0:0:0:
256,192,64197,1,0,0:0:0:0:
329,192,64197,1,0,0:0:0:0:
402,192,64197,1,0,0:0:0:0:
329,192,64360,1,0,0:0:0:0:
329,192,64522,1,0,0:0:0:0:
256,192,64522,1,0,0:0:0:0:
182,192,64522,1,0,0:0:0:0:
256,192,64684,1,0,0:0:0:0:
182,192,64846,1,0,0:0:0:0:
256,192,64846,1,0,0:0:0:0:
109,192,64846,1,0,0:0:0:0:
182,192,65008,1,0,0:0:0:0:
182,192,65170,1,0,0:0:0:0:
109,192,65170,1,0,0:0:0:0:
36,192,65170,1,0,0:0:0:0:
109,192,65333,1,0,0:0:0:0:
329,192,65495,1,0,0:0:0:0:
402,192,65495,1,0,0:0:0:0:
475,192,65495,1,0,0:0:0:0:
402,192,65657,1,0,0:0:0:0:
329,192,65819,1,0,0:0:0:0:
256,192,65819,1,0,0:0:0:0:
182,192,65819,1,0,0:0:0:0:
256,192,65981,1,0,0:0:0:0:
182,192,66143,1,0,0:0:0:0:
109,192,66143,1,0,0:0:0:0:
36,192,66143,1,0,0:0:0:0:
109,192,66306,1,0,0:0:0:0:
182,192,66468,1,0,0:0:0:0:
256,192,66468,1,0,0:0:0:0:
329,192,66468,1,0,0:0:0:0:
256,192,66630,1,0,0:0:0:0:
329,192,66792,1,0,0:0:0:0:
402,192,66792,1,0,0:0:0:0:
475,192,66792,1,0,0:0:0:0:
402,192,66954,1,0,0:0:0:0:
329,192,67116,1,0,0:0:0:0:
402,192,67116,1,0,0:0:0:0:
475,192,67116,1,0,0:0:0:0:
329,192,67278,1,0,0:0:0:0:
329,192,67441,1,0,0:0:0:0:
256,192,67441,1,0,0:0:0:0:
402,192,67441,1,0,0:0:0:0:
182,192,67603,1,0,0:0:0:0:
109,192,67684,1,0,0:0:0:0:
36,192,67765,1,0,0:0:0:0:
256,192,67765,1,0,0:0:0:0:
329,192,67765,1,0,0:0:0:0:
329,192,67927,1,0,0:0:0:0:
402,192,68008,1,0,0:0:0:0:
475,192,68089,1,0,0:0:0:0:
256,192,68089,1,0,0:0:0:0:
182,192,68089,1,0,0:0:0:0:
182,192,68251,1,0,0:0:0:0:
109,192,68333,1,0,0:0:0:0:
36,192,68414,1,0,0:0:0:0:
329,192,68414,1,0,0:0:0:0:
256,192,68414,1,0,0:0:0:0:
109,192,68576,1,0,0:0:0:0:
182,192,68576,1,0,0:0:0:0:
402,192,68576,1,0,0:0:0:0:
475,192,68738,1,0,0:0:0:0:
256,192,68738,1,0,0:0:0:0:
36,192,68738,1,0,0:0:0:0:
402,192,68819,1,0,0:0:0:0:
329,192,68900,1,0,0:0:0:0:
256,192,68981,1,0,0:0:0:0:
182,192,69062,1,0,0:0:0:0:
109,192,69062,1,0,0:0:0:0:
36,192,69062,1,0,0:0:0:0:
256,192,69224,1,0,0:0:0:0:
329,192,69387,1,0,0:0:0:0:
475,192,69387,1,0,0:0:0:0:
402,192,69387,1,0,0:0:0:0:
256,192,69468,1,0,0:0:0:0:
182,192,69549,1,0,0:0:0:0:
109,192,69630,1,0,0:0:0:0:
329,192,69711,1,0,0:0:0:0:
402,192,69711,1,0,0:0:0:0:
475,192,69711,1,0,0:0:0:0:
256,192,69873,1,0,0:0:0:0:
182,192,70035,1,0,0:0:0:0:
36,192,70035,1,0,0:0:0:0:
109,192,70035,1,0,0:0:0:0:
256,192,70116,1,0,0:0:0:0:
329,192,70197,1,0,0:0:0:0:
402,192,70278,1,0,0:0:0:0:
182,192,70360,1,0,0:0:0:0:
109,192,70360,1,0,0:0:0:0:
36,192,70360,1,0,0:0:0:0:
256,192,70522,1,0,0:0:0:0:
329,192,70684,1,0,0:0:0:0:
402,192,70684,1,0,0:0:0:0:
475,192,70684,1,0,0:0:0:0:
256,192,70765,1,0,0:0:0:0:
182,192,70846,1,0,0:0:0:0:
109,192,70927,1,0,0:0:0:0:
329,192,71008,1,0,0:0:0:0:
402,192,71008,1,0,0:0:0:0:
475,192,71008,1,0,0:0:0:0:
256,192,71170,1,0,0:0:0:0:
182,192,71333,1,0,0:0:0:0:
36,192,71333,1,0,0:0:0:0:
109,192,71333,1,0,0:0:0:0:
182,192,71495,1,0,0:0:0:0:
256,192,71495,1,0,0:0:0:0:
109,192,71495,1,0,0:0:0:0:
402,192,71576,1,0,0:0:0:0:
182,192,71657,1,0,0:0:0:0:
256,192,71657,1,0,0:0:0:0:
329,192,71657,1,0,0:0:0:0:
109,192,71738,1,0,0:0:0:0:
182,192,71819,1,0,0:0:0:0:
256,192,71900,1,0,0:0:0:0:
329,192,71981,1,0,0:0:0:0:
402,192,71981,1,0,0:0:0:0:
475,192,71981,1,0,0:0:0:0:
402,192,72143,1,0,0:0:0:0:
329,192,72143,1,0,0:0:0:0:
256,192,72143,1,0,0:0:0:0:
329,192,72306,1,0,0:0:0:0:
256,192,72306,1,0,0:0:0:0:
182,192,72306,1,0,0:0:0:0:
329,192,72549,1,0,0:0:0:0:
256,192,72630,1,0,0:0:0:0:
109,192,72792,5,0,0:0:0:0:
36,192,72792,1,0,0:0:0:0:
256,192,72873,1,0,0:0:0:0:
182,192,72873,1,0,0:0:0:0:
109,192,72954,1,0,0:0:0:0:
36,192,72954,1,0,0:0:0:0:
402,192,73116,1,0,0:0:0:0:
475,192,73116,1,0,0:0:0:0:
329,192,73197,1,0,0:0:0:0:
256,192,73197,1,0,0:0:0:0:
402,192,73278,1,0,0:0:0:0:
475,192,73278,1,0,0:0:0:0:
109,192,73441,1,0,0:0:0:0:
36,192,73441,1,0,0:0:0:0:
182,192,73522,1,0,0:0:0:0:
256,192,73522,1,0,0:0:0:0:
109,192,73603,1,0,0:0:0:0:
36,192,73603,1,0,0:0:0:0:
402,192,73765,1,0,0:0:0:0:
475,192,73765,1,0,0:0:0:0:
329,192,73846,1,0,0:0:0:0:
256,192,73846,1,0,0:0:0:0:
402,192,73927,1,0,0:0:0:0:
475,192,73927,1,0,0:0:0:0:
109,192,73927,128,0,74414:0:0:0:0:
256,192,74251,128,0,74414:0:0:0:0:
402,192,74414,1,0,0:0:0:0:
475,192,74414,1,0,0:0:0:0:
402,192,74576,128,0,75062:0:0:0:0:
256,192,74900,128,0,75062:0:0:0:0:
36,192,74900,1,0,0:0:0:0:
109,192,74981,1,0,0:0:0:0:
182,192,75062,1,0,0:0:0:0:
109,192,75143,1,0,0:0:0:0:
36,192,75224,1,0,0:0:0:0:
329,192,75224,1,0,0:0:0:0:
475,192,75224,1,0,0:0:0:0:
256,192,75387,1,0,0:0:0:0:
182,192,75549,1,0,0:0:0:0:
256,192,75711,1,0,0:0:0:0:
109,192,75711,1,0,0:0:0:0:
402,192,75873,128,0,76360:0:0:0:0:
182,192,76035,1,0,0:0:0:0:
36,192,76035,1,0,0:0:0:0:
256,192,76197,128,0,76360:0:0:0:0:
109,192,76197,1,0,0:0:0:0:
182,192,76360,1,0,0:0:0:0:
36,192,76360,1,0,0:0:0:0:
36,192,76522,1,0,0:0:0:0:
182,192,76522,1,0,0:0:0:0:
109,192,76522,1,0,0:0:0:0:
256,192,76684,1,0,0:0:0:0:
329,192,76846,1,0,0:0:0:0:
256,192,77008,1,0,0:0:0:0:
475,192,77008,1,0,0:0:0:0:
109,192,77170,1,0,0:0:0:0:
256,192,77251,1,0,0:0:0:0:
182,192,77333,1,0,0:0:0:0:
329,192,77333,1,0,0:0:0:0:
402,192,77414,1,0,0:0:0:0:
256,192,77495,1,0,0:0:0:0:
182,192,77657,1,0,0:0:0:0:
36,192,77657,1,0,0:0:0:0:
109,192,77657,1,0,0:0:0:0:
256,192,77738,1,0,0:0:0:0:
329,192,77819,1,0,0:0:0:0:
475,192,77819,1,0,0:0:0:0:
402,192,77819,1,0,0:0:0:0:
256,192,77981,1,0,0:0:0:0:
182,192,78143,1,0,0:0:0:0:
109,192,78306,1,0,0:0:0:0:
182,192,78468,1,0,0:0:0:0:
256,192,78508,1,0,0:0:0:0:
182,192,78549,1,0,0:0:0:0:
256,192,78589,1,0,0:0:0:0:
329,192,78630,1,0,0:0:0:0:
402,192,78630,1,0,0:0:0:0:
475,192,78630,1,0,0:0:0:0:
109,192,78711,1,0,0:0:0:0:
182,192,78792,1,0,0:0:0:0:
329,192,78792,1,0,0:0:0:0:
256,192,78954,1,0,0:0:0:0:
109,192,78954,1,0,0:0:0:0:
36,192,78954,1,0,0:0:0:0:
182,192,79116,1,0,0:0:0:0:
329,192,79116,1,0,0:0:0:0:
475,192,79116,1,0,0:0:0:0:
402,192,79116,128,0,79603:0:0:0:0:
256,192,79441,128,0,79603:0:0:0:0:
182,192,79441,1,0,0:0:0:0:
36,192,79441,1,0,0:0:0:0:
329,192,79441,1,0,0:0:0:0:
109,192,79765,128,0,80251:0:0:0:0:
329,192,79765,1,0,0:0:0:0:
475,192,79765,1,0,0:0:0:0:
182,192,79765,1,0,0:0:0:0:
256,192,80089,128,0,80251:0:0:0:0:
329,192,80089,1,0,0:0:0:0:
475,192,80089,1,0,0:0:0:0:
36,192,80089,1,0,0:0:0:0:
402,192,80414,128,0,80900:0:0:0:0:
182,192,80414,1,0,0:0:0:0:
36,192,80414,1,0,0:0:0:0:
329,192,80414,1,0,0:0:0:0:
256,192,80738,128,0,80900:0:0:0:0:
182,192,80738,1,0,0:0:0:0:
36,192,80738,1,0,0:0:0:0:
475,192,80738,1,0,0:0:0:0:
109,192,80900,1,0,0:0:0:0:
182,192,81062,1,0,0:0:0:0:
36,192,81062,1,0,0:0:0:0:
329,192,81062,1,0,0:0:0:0:
256,192,81224,1,0,0:0:0:0:
329,192,81387,1,0,0:0:0:0:
475,192,81387,1,0,0:0:0:0:
109,192,81387,1,0,0:0:0:0:
256,192,81549,1,0,0:0:0:0:
402,192,81711,128,0,81954:0:0:0:0:
182,192,81711,1,0,0:0:0:0:
109,192,81711,1,0,0:0:0:0:
256,192,81873,128,0,81954:0:0:0:0:
329,192,81873,1,0,0:0:0:0:
109,192,82035,128,0,82278:0:0:0:0:
329,192,82035,1,0,0:0:0:0:
402,192,82035,1,0,0:0:0:0:
256,192,82197,128,0,82278:0:0:0:0:
182,192,82197,1,0,0:0:0:0:
402,192,82360,128,0,82603:0:0:0:0:
182,192,82360,1,0,0:0:0:0:
109,192,82360,1,0,0:0:0:0:
256,192,82522,128,0,82603:0:0:0:0:
329,192,82522,1,0,0:0:0:0:
109,192,82684,128,0,82927:0:0:0:0:
329,192,82684,1,0,0:0:0:0:
402,192,82684,1,0,0:0:0:0:
256,192,82846,128,0,82927:0:0:0:0:
182,192,82846,1,0,0:0:0:0:
402,192,82846,1,0,0:0:0:0:
475,192,82846,1,0,0:0:0:0:
36,192,83008,128,0,83251:0:0:0:0:
109,192,83008,128,0,83211:0:0:0:0:
182,192,83008,128,0,83170:0:0:0:0:
256,192,83008,1,0,0:0:0:0:
329,192,83008,1,0,0:0:0:0:
402,192,83008,1,0,0:0:0:0:
475,192,83008,1,0,0:0:0:0:
182,192,83251,128,0,83495:0:0:0:0:
256,192,83251,128,0,83454:0:0:0:0:
329,192,83251,128,0,83414:0:0:0:0:
402,192,83251,1,0,0:0:0:0:
475,192,83251,1,0,0:0:0:0:
475,192,83495,128,0,83657:0:0:0:0:
402,192,83495,128,0,83616:0:0:0:0:
329,192,83495,128,0,83576:0:0:0:0:
109,192,83495,1,0,0:0:0:0:
36,192,83495,1,0,0:0:0:0:
36,192,83657,128,0,83860:0:0:0:0:
109,192,83657,128,0,83819:0:0:0:0:
182,192,83657,128,0,83778:0:0:0:0:
256,192,83657,128,0,83738:0:0:0:0:
329,192,83657,128,0,83697:0:0:0:0:
475,192,83819,5,0,0:0:0:0:
402,192,83860,1,0,0:0:0:0:
329,192,83900,1,0,0:0:0:0:
256,192,83941,1,0,0:0:0:0:
182,192,83981,5,0,0:0:0:0:
36,192,83981,128,0,84103:0:0:0:0:
475,192,83981,1,0,0:0:0:0:
402,192,83981,1,0,0:0:0:0:
256,192,84022,1,0,0:0:0:0:
109,192,84022,128,0,84143:0:0:0:0:
329,192,84062,1,0,0:0:0:0:
182,192,84062,128,0,84184:0:0:0:0:
402,192,84103,1,0,0:0:0:0:
256,192,84103,128,0,84224:0:0:0:0:
329,192,84143,128,0,84265:0:0:0:0:
475,192,84143,1,0,0:0:0:0:
402,192,84184,128,0,84306:0:0:0:0:
36,192,84184,1,0,0:0:0:0:
475,192,84224,128,0,84306:0:0:0:0:
109,192,84224,1,0,0:0:0:0:
182,192,84265,1,0,0:0:0:0:
256,192,84306,1,0,0:0:0:0:
109,192,84306,128,0,84468:0:0:0:0:
36,192,84306,128,0,84954:0:0:0:0:
329,192,84306,1,0,0:0:0:0:
182,192,84387,128,0,84549:0:0:0:0:
329,192,84387,1,0,0:0:0:0:
256,192,84468,128,0,84630:0:0:0:0:
402,192,84468,1,0,0:0:0:0:
329,192,84549,128,0,84711:0:0:0:0:
475,192,84549,1,0,0:0:0:0:
402,192,84630,128,0,84792:0:0:0:0:
109,192,84630,1,0,0:0:0:0:
182,192,84630,1,0,0:0:0:0:
475,192,84711,128,0,84873:0:0:0:0:
182,192,84711,1,0,0:0:0:0:
256,192,84792,1,0,0:0:0:0:
109,192,84792,128,0,85522:0:0:0:0:
182,192,84873,128,0,85441:0:0:0:0:
329,192,84873,1,0,0:0:0:0:
475,192,84954,128,0,85441:0:0:0:0:
256,192,84954,128,0,85360:0:0:0:0:
402,192,84954,1,0,0:0:0:0:
329,192,85035,128,0,85278:0:0:0:0:
36,192,85035,1,0,0:0:0:0:
402,192,85116,128,0,85197:0:0:0:0:
36,192,85197,1,0,0:0:0:0:
402,192,85278,1,0,0:0:0:0:
36,192,85278,1,0,0:0:0:0:
329,192,85360,1,0,0:0:0:0:
256,192,85441,1,0,0:0:0:0:
36,192,85441,128,0,85765:0:0:0:0:
329,192,85522,1,0,0:0:0:0:
475,192,85522,128,0,85684:0:0:0:0:
256,192,85603,1,0,0:0:0:0:
109,192,85603,1,0,0:0:0:0:
402,192,85603,128,0,85765:0:0:0:0:
182,192,85684,1,0,0:0:0:0:
329,192,85684,128,0,85846:0:0:0:0:
475,192,85765,128,0,85927:0:0:0:0:
109,192,85765,1,0,0:0:0:0:
256,192,85765,128,0,85927:0:0:0:0:
36,192,85846,1,0,0:0:0:0:
182,192,85846,128,0,86008:0:0:0:0:
36,192,85927,128,0,86089:0:0:0:0:
109,192,85927,128,0,86089:0:0:0:0:
329,192,85927,1,0,0:0:0:0:
402,192,85927,1,0,0:0:0:0:
329,192,86008,1,0,0:0:0:0:
475,192,86089,128,0,86170:0:0:0:0:
256,192,86089,1,0,0:0:0:0:
402,192,86089,128,0,86819:0:0:0:0:
182,192,86170,1,0,0:0:0:0:
329,192,86170,128,0,86738:0:0:0:0:
475,192,86251,128,0,86576:0:0:0:0:
109,192,86251,1,0,0:0:0:0:
256,192,86251,128,0,86657:0:0:0:0:
182,192,86333,128,0,86576:0:0:0:0:
36,192,86333,1,0,0:0:0:0:
109,192,86414,128,0,86495:0:0:0:0:
36,192,86414,1,0,0:0:0:0:
36,192,86576,128,0,86738:0:0:0:0:
109,192,86576,1,0,0:0:0:0:
182,192,86657,1,0,0:0:0:0:
475,192,86738,128,0,86900:0:0:0:0:
256,192,86738,1,0,0:0:0:0:
109,192,86738,1,0,0:0:0:0:
329,192,86819,1,0,0:0:0:0:
109,192,86819,128,0,86981:0:0:0:0:
36,192,86900,128,0,87224:0:0:0:0:
182,192,86900,128,0,87062:0:0:0:0:
402,192,86900,1,0,0:0:0:0:
256,192,86981,128,0,87143:0:0:0:0:
475,192,86981,1,0,0:0:0:0:
329,192,87062,128,0,87224:0:0:0:0:
402,192,87062,1,0,0:0:0:0:
402,192,87143,128,0,87306:0:0:0:0:
109,192,87143,1,0,0:0:0:0:
475,192,87224,128,0,87306:0:0:0:0:
182,192,87224,1,0,0:0:0:0:
109,192,87224,128,0,87954:0:0:0:0:
256,192,87306,1,0,0:0:0:0:
182,192,87306,128,0,87873:0:0:0:0:
475,192,87387,128,0,87468:0:0:0:0:
256,192,87387,128,0,87792:0:0:0:0:
329,192,87468,128,0,87711:0:0:0:0:
475,192,87549,128,0,87630:0:0:0:0:
402,192,87549,128,0,87630:0:0:0:0:
36,192,87549,1,0,0:0:0:0:
475,192,87711,128,0,87792:0:0:0:0:
36,192,87711,1,0,0:0:0:0:
402,192,87711,1,0,0:0:0:0:
329,192,87792,1,0,0:0:0:0:
36,192,87873,1,0,0:0:0:0:
256,192,87873,1,0,0:0:0:0:
475,192,87873,128,0,87954:0:0:0:0:
329,192,87954,1,0,0:0:0:0:
402,192,87954,128,0,88116:0:0:0:0:
329,192,88035,128,0,88197:0:0:0:0:
475,192,88035,128,0,88116:0:0:0:0:
182,192,88035,1,0,0:0:0:0:
256,192,88116,128,0,88197:0:0:0:0:
109,192,88116,1,0,0:0:0:0:
182,192,88197,128,0,88522:0:0:0:0:
475,192,88197,128,0,88481:0:0:0:0:
36,192,88197,128,0,88278:0:0:0:0:
109,192,88197,128,0,88319:0:0:0:0:
402,192,88278,1,0,0:0:0:0:
329,192,88360,1,0,0:0:0:0:
256,192,88441,1,0,0:0:0:0:
402,192,88522,128,0,88684:0:0:0:0:
36,192,88522,128,0,88806:0:0:0:0:
475,192,88522,128,0,88603:0:0:0:0:
109,192,88522,1,0,0:0:0:0:
329,192,88522,128,0,88846:0:0:0:0:
256,192,88603,1,0,0:0:0:0:
182,192,88684,1,0,0:0:0:0:
109,192,88765,1,0,0:0:0:0:
109,192,88846,128,0,89008:0:0:0:0:
36,192,88846,128,0,88927:0:0:0:0:
182,192,88846,128,0,89170:0:0:0:0:
475,192,88846,128,0,89170:0:0:0:0:
256,192,88846,1,0,0:0:0:0:
329,192,88927,1,0,0:0:0:0:
256,192,89008,1,0,0:0:0:0:
402,192,89008,1,0,0:0:0:0:
402,192,89170,1,0,0:0:0:0:
256,192,89170,1,0,0:0:0:0:
36,192,89170,128,0,89251:0:0:0:0:
109,192,89170,128,0,89333:0:0:0:0:
182,192,89211,128,0,89333:0:0:0:0:
329,192,89251,1,0,0:0:0:0:
475,192,89333,128,0,89414:0:0:0:0:
402,192,89333,128,0,89495:0:0:0:0:
256,192,89333,1,0,0:0:0:0:
329,192,89373,128,0,89495:0:0:0:0:
182,192,89414,1,0,0:0:0:0:
36,192,89495,128,0,90143:0:0:0:0:
109,192,89495,128,0,89657:0:0:0:0:
256,192,89495,1,0,0:0:0:0:
329,192,89576,1,0,0:0:0:0:
182,192,89576,128,0,89738:0:0:0:0:
402,192,89657,1,0,0:0:0:0:
256,192,89657,128,0,89819:0:0:0:0:
475,192,89738,1,0,0:0:0:0:
329,192,89738,128,0,89900:0:0:0:0:
182,192,89819,1,0,0:0:0:0:
109,192,89819,1,0,0:0:0:0:
402,192,89819,128,0,89981:0:0:0:0:
182,192,89900,1,0,0:0:0:0:
475,192,89900,128,0,90062:0:0:0:0:
109,192,89981,128,0,90711:0:0:0:0:
256,192,89981,1,0,0:0:0:0:
329,192,90062,1,0,0:0:0:0:
182,192,90062,128,0,90630:0:0:0:0:
402,192,90143,1,0,0:0:0:0:
256,192,90143,128,0,90549:0:0:0:0:
475,192,90143,128,0,90630:0:0:0:0:
36,192,90224,1,0,0:0:0:0:
329,192,90224,128,0,90468:0:0:0:0:
402,192,90306,128,0,90387:0:0:0:0:
36,192,90387,1,0,0:0:0:0:
36,192,90468,1,0,0:0:0:0:
402,192,90468,1,0,0:0:0:0:
329,192,90549,1,0,0:0:0:0:
36,192,90630,128,0,90954:0:0:0:0:
256,192,90630,1,0,0:0:0:0:
475,192,90711,128,0,90873:0:0:0:0:
329,192,90711,1,0,0:0:0:0:
109,192,90792,1,0,0:0:0:0:
256,192,90792,1,0,0:0:0:0:
402,192,90792,128,0,90954:0:0:0:0:
329,192,90873,128,0,91035:0:0:0:0:
182,192,90873,1,0,0:0:0:0:
256,192,90954,128,0,91116:0:0:0:0:
109,192,90954,1,0,0:0:0:0:
475,192,90954,128,0,91116:0:0:0:0:
182,192,91035,128,0,91197:0:0:0:0:
36,192,91035,1,0,0:0:0:0:
402,192,91116,1,0,0:0:0:0:
329,192,91116,1,0,0:0:0:0:
109,192,91116,128,0,91278:0:0:0:0:
36,192,91116,128,0,91278:0:0:0:0:
329,192,91197,1,0,0:0:0:0:
475,192,91278,128,0,91360:0:0:0:0:
256,192,91278,1,0,0:0:0:0:
402,192,91278,128,0,91846:0:0:0:0:
182,192,91360,1,0,0:0:0:0:
329,192,91360,128,0,91765:0:0:0:0:
475,192,91441,128,0,91765:0:0:0:0:
109,192,91441,1,0,0:0:0:0:
256,192,91441,128,0,91684:0:0:0:0:
36,192,91522,1,0,0:0:0:0:
182,192,91522,128,0,91603:0:0:0:0:
36,192,91603,1,0,0:0:0:0:
109,192,91603,128,0,91684:0:0:0:0:
182,192,91684,128,0,91765:0:0:0:0:
109,192,91765,1,0,0:0:0:0:
36,192,91765,128,0,91927:0:0:0:0:
256,192,91765,128,0,91846:0:0:0:0:
182,192,91846,1,0,0:0:0:0:
329,192,91846,128,0,91927:0:0:0:0:
475,192,91927,128,0,92089:0:0:0:0:
109,192,91927,1,0,0:0:0:0:
256,192,91927,1,0,0:0:0:0:
402,192,91927,128,0,92008:0:0:0:0:
109,192,92008,128,0,92170:0:0:0:0:
329,192,92008,1,0,0:0:0:0:
402,192,92089,1,0,0:0:0:0:
182,192,92089,128,0,92251:0:0:0:0:
36,192,92089,128,0,92414:0:0:0:0:
475,192,92170,1,0,0:0:0:0:
256,192,92170,128,0,92333:0:0:0:0:
402,192,92251,1,0,0:0:0:0:
329,192,92251,128,0,92414:0:0:0:0:
109,192,92333,1,0,0:0:0:0:
402,192,92333,128,0,92495:0:0:0:0:
475,192,92414,128,0,92495:0:0:0:0:
182,192,92414,1,0,0:0:0:0:
109,192,92414,128,0,92981:0:0:0:0:
256,192,92495,1,0,0:0:0:0:
182,192,92495,128,0,92900:0:0:0:0:
475,192,92576,128,0,92657:0:0:0:0:
329,192,92576,1,0,0:0:0:0:
256,192,92576,128,0,92819:0:0:0:0:
402,192,92657,1,0,0:0:0:0:
329,192,92657,128,0,92738:0:0:0:0:
36,192,92738,1,0,0:0:0:0:
402,192,92738,128,0,92819:0:0:0:0:
475,192,92738,128,0,92819:0:0:0:0:
329,192,92819,128,0,92900:0:0:0:0:
36,192,92900,1,0,0:0:0:0:
475,192,92900,128,0,92981:0:0:0:0:
402,192,92900,1,0,0:0:0:0:
256,192,92900,128,0,92981:0:0:0:0:
329,192,92981,1,0,0:0:0:0:
182,192,92981,128,0,93062:0:0:0:0:
256,192,93062,1,0,0:0:0:0:
36,192,93062,1,0,0:0:0:0:
475,192,93062,128,0,93143:0:0:0:0:
109,192,93062,128,0,93143:0:0:0:0:
329,192,93143,1,0,0:0:0:0:
402,192,93143,128,0,93306:0:0:0:0:
329,192,93224,128,0,93387:0:0:0:0:
475,192,93224,128,0,93306:0:0:0:0:
182,192,93224,1,0,0:0:0:0:
109,192,93306,1,0,0:0:0:0:
256,192,93306,128,0,93387:0:0:0:0:
36,192,93387,1,0,0:0:0:0:
475,192,93387,128,0,94278:0:0:0:0:
402,192,93468,1,0,0:0:0:0:
109,192,93468,1,0,0:0:0:0:
329,192,93549,1,0,0:0:0:0:
182,192,93549,1,0,0:0:0:0:
256,192,93630,1,0,0:0:0:0:
36,192,93630,1,0,0:0:0:0:
329,192,93711,1,0,0:0:0:0:
109,192,93711,1,0,0:0:0:0:
182,192,93711,1,0,0:0:0:0:
256,192,93792,1,0,0:0:0:0:
36,192,93792,1,0,0:0:0:0:
109,192,93873,1,0,0:0:0:0:
329,192,93873,1,0,0:0:0:0:
256,192,93954,1,0,0:0:0:0:
402,192,93954,1,0,0:0:0:0:
36,192,94035,1,0,0:0:0:0:
109,192,94035,1,0,0:0:0:0:
182,192,94035,1,0,0:0:0:0:
182,192,94197,1,0,0:0:0:0:
109,192,94197,1,0,0:0:0:0:
256,192,94197,1,0,0:0:0:0:
475,192,94360,128,0,94441:0:0:0:0:
402,192,94360,1,0,0:0:0:0:
329,192,94360,1,0,0:0:0:0:
256,192,94360,1,0,0:0:0:0:
182,192,94360,128,0,94441:0:0:0:0:
109,192,94441,128,0,94522:0:0:0:0:
475,192,94522,128,0,94603:0:0:0:0:
329,192,94522,1,0,0:0:0:0:
256,192,94522,1,0,0:0:0:0:
182,192,94522,1,0,0:0:0:0:
36,192,94522,128,0,94603:0:0:0:0:
182,192,94603,128,0,94684:0:0:0:0:
109,192,94684,128,0,94927:0:0:0:0:
36,192,94684,128,0,95333:0:0:0:0:
402,192,94684,1,0,0:0:0:0:
256,192,94684,1,0,0:0:0:0:
329,192,94684,1,0,0:0:0:0:
256,192,94765,128,0,95008:0:0:0:0:
475,192,94765,1,0,0:0:0:0:
402,192,94846,128,0,95089:0:0:0:0:
329,192,94846,1,0,0:0:0:0:
182,192,94927,128,0,95089:0:0:0:0:
475,192,94927,1,0,0:0:0:0:
329,192,95008,128,0,95170:0:0:0:0:
109,192,95008,1,0,0:0:0:0:
475,192,95089,128,0,95251:0:0:0:0:
256,192,95089,1,0,0:0:0:0:
402,192,95170,1,0,0:0:0:0:
109,192,95170,128,0,95333:0:0:0:0:
329,192,95251,1,0,0:0:0:0:
182,192,95251,128,0,95414:0:0:0:0:
475,192,95333,128,0,95819:0:0:0:0:
402,192,95333,1,0,0:0:0:0:
256,192,95333,128,0,95495:0:0:0:0:
36,192,95414,1,0,0:0:0:0:
329,192,95414,128,0,95576:0:0:0:0:
109,192,95414,128,0,95576:0:0:0:0:
402,192,95495,128,0,95657:0:0:0:0:
182,192,95495,128,0,95657:0:0:0:0:
36,192,95576,1,0,0:0:0:0:
256,192,95576,128,0,95738:0:0:0:0:
329,192,95657,128,0,95819:0:0:0:0:
109,192,95657,1,0,0:0:0:0:
402,192,95738,128,0,95819:0:0:0:0:
182,192,95738,1,0,0:0:0:0:
36,192,95819,128,0,96143:0:0:0:0:
256,192,95819,1,0,0:0:0:0:
475,192,95900,128,0,96062:0:0:0:0:
182,192,95900,1,0,0:0:0:0:
329,192,95981,1,0,0:0:0:0:
402,192,95981,1,0,0:0:0:0:
109,192,95981,128,0,96062:0:0:0:0:
256,192,96062,128,0,96143:0:0:0:0:
475,192,96143,128,0,96306:0:0:0:0:
402,192,96143,128,0,96224:0:0:0:0:
182,192,96143,128,0,96224:0:0:0:0:
36,192,96224,1,0,0:0:0:0:
329,192,96224,128,0,96306:0:0:0:0:
36,192,96306,128,0,96427:0:0:0:0:
256,192,96306,1,0,0:0:0:0:
109,192,96306,1,0,0:0:0:0:
182,192,96306,1,0,0:0:0:0:
475,192,96387,128,0,96549:0:0:0:0:
36,192,96468,128,0,96549:0:0:0:0:
182,192,96468,1,0,0:0:0:0:
329,192,96468,1,0,0:0:0:0:
402,192,96468,1,0,0:0:0:0:
256,192,96549,1,0,0:0:0:0:
109,192,96549,1,0,0:0:0:0:
475,192,96630,128,0,96954:0:0:0:0:
182,192,96630,1,0,0:0:0:0:
329,192,96630,1,0,0:0:0:0:
402,192,96630,1,0,0:0:0:0:
256,192,96792,1,0,0:0:0:0:
182,192,96873,1,0,0:0:0:0:
36,192,96954,128,0,97116:0:0:0:0:
109,192,96954,1,0,0:0:0:0:
256,192,96954,128,0,97035:0:0:0:0:
402,192,96954,1,0,0:0:0:0:
182,192,97035,1,0,0:0:0:0:
402,192,97035,128,0,97116:0:0:0:0:
256,192,97116,1,0,0:0:0:0:
109,192,97116,1,0,0:0:0:0:
329,192,97116,128,0,97197:0:0:0:0:
475,192,97197,128,0,97278:0:0:0:0:
402,192,97197,1,0,0:0:0:0:
109,192,97278,128,0,97360:0:0:0:0:
36,192,97278,128,0,97603:0:0:0:0:
182,192,97278,128,0,97441:0:0:0:0:
329,192,97278,1,0,0:0:0:0:
256,192,97278,1,0,0:0:0:0:
256,192,97360,128,0,97522:0:0:0:0:
475,192,97360,1,0,0:0:0:0:
329,192,97441,128,0,97603:0:0:0:0:
402,192,97441,1,0,0:0:0:0:
402,192,97522,128,0,97684:0:0:0:0:
109,192,97522,1,0,0:0:0:0:
182,192,97603,1,0,0:0:0:0:
109,192,97603,128,0,97684:0:0:0:0:
475,192,97603,128,0,97684:0:0:0:0:
256,192,97684,1,0,0:0:0:0:
182,192,97684,128,0,97765:0:0:0:0:
475,192,97765,128,0,97846:0:0:0:0:
256,192,97765,128,0,97846:0:0:0:0:
109,192,97765,1,0,0:0:0:0:
329,192,97846,128,0,97927:0:0:0:0:
182,192,97846,1,0,0:0:0:0:
475,192,97927,128,0,98008:0:0:0:0:
402,192,97927,128,0,98008:0:0:0:0:
36,192,97927,1,0,0:0:0:0:
256,192,97927,1,0,0:0:0:0:
109,192,98008,128,0,98089:0:0:0:0:
329,192,98008,1,0,0:0:0:0:
402,192,98089,1,0,0:0:0:0:
475,192,98089,128,0,98170:0:0:0:0:
36,192,98089,1,0,0:0:0:0:
182,192,98089,128,0,98170:0:0:0:0:
256,192,98170,128,0,98251:0:0:0:0:
109,192,98170,1,0,0:0:0:0:
475,192,98251,128,0,98333:0:0:0:0:
182,192,98251,1,0,0:0:0:0:
329,192,98251,1,0,0:0:0:0:
36,192,98251,1,0,0:0:0:0:
402,192,98333,128,0,98495:0:0:0:0:
256,192,98333,1,0,0:0:0:0:
182,192,98414,1,0,0:0:0:0:
475,192,98414,128,0,98495:0:0:0:0:
329,192,98414,128,0,98576:0:0:0:0:
36,192,98414,1,0,0:0:0:0:
256,192,98495,128,0,98576:0:0:0:0:
109,192,98495,1,0,0:0:0:0:
36,192,98576,128,0,98657:0:0:0:0:
109,192,98576,128,0,98697:0:0:0:0:
182,192,98576,128,0,98900:0:0:0:0:
475,192,98576,128,0,98860:0:0:0:0:
402,192,98657,1,0,0:0:0:0:
329,192,98738,1,0,0:0:0:0:
256,192,98819,1,0,0:0:0:0:
109,192,98900,1,0,0:0:0:0:
329,192,98900,128,0,99224:0:0:0:0:
475,192,98900,128,0,98981:0:0:0:0:
402,192,98900,128,0,99062:0:0:0:0:
36,192,98900,128,0,99184:0:0:0:0:
256,192,98981,1,0,0:0:0:0:
182,192,99062,1,0,0:0:0:0:
109,192,99143,1,0,0:0:0:0:
475,192,99224,128,0,99549:0:0:0:0:
256,192,99224,1,0,0:0:0:0:
182,192,99224,128,0,99549:0:0:0:0:
109,192,99224,128,0,99387:0:0:0:0:
36,192,99224,128,0,99306:0:0:0:0:
329,192,99306,1,0,0:0:0:0:
402,192,99387,1,0,0:0:0:0:
256,192,99387,1,0,0:0:0:0:
109,192,99549,1,0,0:0:0:0:
36,192,99549,128,0,99630:0:0:0:0:
329,192,99549,1,0,0:0:0:0:
402,192,99549,1,0,0:0:0:0:
256,192,99549,1,0,0:0:0:0:
256,192,99711,1,0,0:0:0:0:
402,192,99711,1,0,0:0:0:0:
36,192,99711,128,0,99792:0:0:0:0:
329,192,99792,1,0,0:0:0:0:
475,192,99792,1,0,0:0:0:0:
256,192,99873,1,0,0:0:0:0:
182,192,99873,1,0,0:0:0:0:
402,192,99873,1,0,0:0:0:0:
109,192,99873,128,0,100116:0:0:0:0:
36,192,99873,128,0,100522:0:0:0:0:
475,192,99954,1,0,0:0:0:0:
256,192,99954,128,0,100197:0:0:0:0:
329,192,100035,1,0,0:0:0:0:
402,192,100035,128,0,100278:0:0:0:0:
475,192,100116,1,0,0:0:0:0:
182,192,100116,128,0,100278:0:0:0:0:
109,192,100197,1,0,0:0:0:0:
329,192,100197,128,0,100360:0:0:0:0:
256,192,100278,1,0,0:0:0:0:
475,192,100278,128,0,100441:0:0:0:0:
109,192,100360,128,0,100522:0:0:0:0:
402,192,100360,1,0,0:0:0:0:
182,192,100441,128,0,100603:0:0:0:0:
329,192,100441,1,0,0:0:0:0:
256,192,100522,128,0,100684:0:0:0:0:
402,192,100522,1,0,0:0:0:0:
475,192,100522,128,0,101008:0:0:0:0:
109,192,100603,128,0,100765:0:0:0:0:
329,192,100603,128,0,100765:0:0:0:0:
36,192,100603,1,0,0:0:0:0:
182,192,100684,128,0,100846:0:0:0:0:
402,192,100684,128,0,100846:0:0:0:0:
256,192,100765,128,0,100927:0:0:0:0:
36,192,100765,1,0,0:0:0:0:
109,192,100846,1,0,0:0:0:0:
329,192,100846,128,0,101008:0:0:0:0:
182,192,100927,1,0,0:0:0:0:
402,192,100927,128,0,101008:0:0:0:0:
256,192,101008,1,0,0:0:0:0:
36,192,101008,128,0,101333:0:0:0:0:
182,192,101089,1,0,0:0:0:0:
475,192,101089,128,0,101251:0:0:0:0:
109,192,101170,128,0,101251:0:0:0:0:
402,192,101170,1,0,0:0:0:0:
329,192,101170,1,0,0:0:0:0:
256,192,101251,128,0,101333:0:0:0:0:
182,192,101333,128,0,101414:0:0:0:0:
402,192,101333,128,0,101414:0:0:0:0:
475,192,101333,128,0,101495:0:0:0:0:
329,192,101414,128,0,101495:0:0:0:0:
36,192,101414,1,0,0:0:0:0:
109,192,101495,1,0,0:0:0:0:
182,192,101495,1,0,0:0:0:0:
36,192,101495,128,0,101616:0:0:0:0:
256,192,101495,1,0,0:0:0:0:
475,192,101576,128,0,101738:0:0:0:0:
329,192,101657,1,0,0:0:0:0:
402,192,101657,1,0,0:0:0:0:
36,192,101657,128,0,101738:0:0:0:0:
182,192,101657,1,0,0:0:0:0:
109,192,101738,1,0,0:0:0:0:
256,192,101738,1,0,0:0:0:0:
329,192,101819,1,0,0:0:0:0:
402,192,101819,1,0,0:0:0:0:
475,192,101819,128,0,102143:0:0:0:0:
182,192,101819,1,0,0:0:0:0:
256,192,101981,1,0,0:0:0:0:
182,192,102062,1,0,0:0:0:0:
256,192,102143,128,0,102224:0:0:0:0:
402,192,102143,1,0,0:0:0:0:
36,192,102143,128,0,102306:0:0:0:0:
109,192,102143,1,0,0:0:0:0:
402,192,102224,128,0,102306:0:0:0:0:
182,192,102224,1,0,0:0:0:0:
329,192,102306,128,0,102387:0:0:0:0:
109,192,102306,1,0,0:0:0:0:
256,192,102306,1,0,0:0:0:0:
402,192,102387,1,0,0:0:0:0:
475,192,102387,128,0,102468:0:0:0:0:
182,192,102468,128,0,102630:0:0:0:0:
36,192,102468,128,0,102792:0:0:0:0:
475,192,102549,1,0,0:0:0:0:
256,192,102549,128,0,102711:0:0:0:0:
402,192,102630,1,0,0:0:0:0:
329,192,102630,128,0,102792:0:0:0:0:
109,192,102711,1,0,0:0:0:0:
402,192,102711,128,0,102792:0:0:0:0:
475,192,102792,128,0,102873:0:0:0:0:
182,192,102792,1,0,0:0:0:0:
256,192,102873,1,0,0:0:0:0:
109,192,102873,1,0,0:0:0:0:
475,192,102954,128,0,103035:0:0:0:0:
329,192,102954,1,0,0:0:0:0:
402,192,102954,1,0,0:0:0:0:
182,192,103035,1,0,0:0:0:0:
109,192,103035,1,0,0:0:0:0:
36,192,103116,1,0,0:0:0:0:
475,192,103116,128,0,103197:0:0:0:0:
256,192,103116,1,0,0:0:0:0:
402,192,103116,1,0,0:0:0:0:
182,192,103197,1,0,0:0:0:0:
329,192,103197,1,0,0:0:0:0:
36,192,103278,1,0,0:0:0:0:
475,192,103278,128,0,103360:0:0:0:0:
402,192,103278,1,0,0:0:0:0:
109,192,103278,1,0,0:0:0:0:
329,192,103360,1,0,0:0:0:0:
256,192,103441,1,0,0:0:0:0:
36,192,103441,1,0,0:0:0:0:
475,192,103441,128,0,103522:0:0:0:0:
329,192,103522,1,0,0:0:0:0:
402,192,103522,128,0,103684:0:0:0:0:
329,192,103603,128,0,103765:0:0:0:0:
475,192,103603,128,0,103684:0:0:0:0:
182,192,103603,1,0,0:0:0:0:
109,192,103684,1,0,0:0:0:0:
256,192,103684,128,0,103846:0:0:0:0:
36,192,103765,1,0,0:0:0:0:
182,192,103765,128,0,103927:0:0:0:0:
475,192,103765,128,0,104089:0:0:0:0:
402,192,103846,1,0,0:0:0:0:
109,192,103846,128,0,104008:0:0:0:0:
329,192,103927,1,0,0:0:0:0:
36,192,103927,128,0,104049:0:0:0:0:
402,192,104008,128,0,104089:0:0:0:0:
256,192,104008,1,0,0:0:0:0:
329,192,104089,1,0,0:0:0:0:
109,192,104089,1,0,0:0:0:0:
182,192,104089,1,0,0:0:0:0:
36,192,104089,128,0,104251:0:0:0:0:
402,192,104251,1,0,0:0:0:0:
256,192,104251,1,0,0:0:0:0:
36,192,104333,128,0,104414:0:0:0:0:
329,192,104414,1,0,0:0:0:0:
182,192,104414,1,0,0:0:0:0:
109,192,104414,1,0,0:0:0:0:
475,192,104414,128,0,104454:0:0:0:0:
475,192,104495,128,0,104535:0:0:0:0:
256,192,104576,1,0,0:0:0:0:
182,192,104576,1,0,0:0:0:0:
402,192,104576,1,0,0:0:0:0:
475,192,104576,128,0,104657:0:0:0:0:
36,192,104738,128,0,104819:0:0:0:0:
329,192,104738,1,0,0:0:0:0:
182,192,104738,1,0,0:0:0:0:
109,192,104738,1,0,0:0:0:0:
36,192,104900,128,0,104981:0:0:0:0:
402,192,104900,1,0,0:0:0:0:
256,192,104900,1,0,0:0:0:0:
109,192,105062,128,0,105224:0:0:0:0:
36,192,105062,128,0,105711:0:0:0:0:
256,192,105062,1,0,0:0:0:0:
475,192,105062,1,0,0:0:0:0:
402,192,105062,1,0,0:0:0:0:
182,192,105143,128,0,105306:0:0:0:0:
329,192,105143,1,0,0:0:0:0:
256,192,105224,128,0,105387:0:0:0:0:
402,192,105224,1,0,0:0:0:0:
329,192,105306,128,0,105468:0:0:0:0:
475,192,105306,1,0,0:0:0:0:
402,192,105387,128,0,105549:0:0:0:0:
109,192,105387,1,0,0:0:0:0:
182,192,105387,1,0,0:0:0:0:
475,192,105468,128,0,105630:0:0:0:0:
182,192,105468,1,0,0:0:0:0:
256,192,105549,1,0,0:0:0:0:
109,192,105549,128,0,106278:0:0:0:0:
182,192,105630,128,0,106197:0:0:0:0:
329,192,105630,1,0,0:0:0:0:
475,192,105711,128,0,106197:0:0:0:0:
256,192,105711,128,0,106116:0:0:0:0:
402,192,105711,1,0,0:0:0:0:
329,192,105792,128,0,106035:0:0:0:0:
36,192,105792,1,0,0:0:0:0:
402,192,105873,128,0,105954:0:0:0:0:
36,192,105954,1,0,0:0:0:0:
402,192,106035,1,0,0:0:0:0:
36,192,106035,1,0,0:0:0:0:
329,192,106116,1,0,0:0:0:0:
256,192,106197,1,0,0:0:0:0:
36,192,106197,128,0,106522:0:0:0:0:
329,192,106278,1,0,0:0:0:0:
475,192,106278,128,0,106441:0:0:0:0:
402,192,106360,128,0,106522:0:0:0:0:
256,192,106360,1,0,0:0:0:0:
109,192,106360,1,0,0:0:0:0:
182,192,106441,1,0,0:0:0:0:
329,192,106441,128,0,106603:0:0:0:0:
475,192,106522,128,0,106684:0:0:0:0:
109,192,106522,1,0,0:0:0:0:
256,192,106522,128,0,106684:0:0:0:0:
36,192,106603,1,0,0:0:0:0:
182,192,106603,128,0,106765:0:0:0:0:
109,192,106684,128,0,106846:0:0:0:0:
36,192,106684,128,0,106846:0:0:0:0:
402,192,106684,1,0,0:0:0:0:
329,192,106684,1,0,0:0:0:0:
329,192,106765,1,0,0:0:0:0:
256,192,106846,1,0,0:0:0:0:
402,192,106846,128,0,107576:0:0:0:0:
475,192,106846,128,0,106927:0:0:0:0:
182,192,106927,1,0,0:0:0:0:
329,192,106927,128,0,107495:0:0:0:0:
109,192,107008,1,0,0:0:0:0:
256,192,107008,128,0,107414:0:0:0:0:
475,192,107008,128,0,107333:0:0:0:0:
182,192,107089,128,0,107333:0:0:0:0:
36,192,107089,1,0,0:0:0:0:
109,192,107170,128,0,107251:0:0:0:0:
36,192,107170,1,0,0:0:0:0:
36,192,107333,128,0,107495:0:0:0:0:
109,192,107333,1,0,0:0:0:0:
182,192,107414,1,0,0:0:0:0:
256,192,107495,1,0,0:0:0:0:
109,192,107495,1,0,0:0:0:0:
475,192,107495,128,0,107657:0:0:0:0:
329,192,107576,1,0,0:0:0:0:
109,192,107576,128,0,107738:0:0:0:0:
36,192,107657,128,0,107981:0:0:0:0:
182,192,107657,128,0,107819:0:0:0:0:
402,192,107657,1,0,0:0:0:0:
256,192,107738,128,0,107900:0:0:0:0:
475,192,107738,1,0,0:0:0:0:
329,192,107819,128,0,107981:0:0:0:0:
402,192,107819,1,0,0:0:0:0:
402,192,107900,128,0,108062:0:0:0:0:
109,192,107900,1,0,0:0:0:0:
182,192,107981,1,0,0:0:0:0:
109,192,107981,128,0,108711:0:0:0:0:
475,192,107981,128,0,108062:0:0:0:0:
256,192,108062,1,0,0:0:0:0:
182,192,108062,128,0,108630:0:0:0:0:
475,192,108143,128,0,108224:0:0:0:0:
256,192,108143,128,0,108549:0:0:0:0:
329,192,108224,128,0,108468:0:0:0:0:
475,192,108306,128,0,108387:0:0:0:0:
402,192,108306,128,0,108387:0:0:0:0:
36,192,108306,1,0,0:0:0:0:
402,192,108468,1,0,0:0:0:0:
475,192,108468,128,0,108549:0:0:0:0:
36,192,108468,1,0,0:0:0:0:
329,192,108549,1,0,0:0:0:0:
475,192,108630,128,0,108711:0:0:0:0:
36,192,108630,1,0,0:0:0:0:
256,192,108630,1,0,0:0:0:0:
402,192,108711,128,0,108873:0:0:0:0:
329,192,108711,1,0,0:0:0:0:
182,192,108792,1,0,0:0:0:0:
475,192,108792,128,0,108873:0:0:0:0:
329,192,108792,128,0,108954:0:0:0:0:
109,192,108873,1,0,0:0:0:0:
256,192,108873,128,0,108954:0:0:0:0:
36,192,108954,128,0,109035:0:0:0:0:
109,192,108954,128,0,109076:0:0:0:0:
182,192,108954,128,0,109278:0:0:0:0:
475,192,108954,128,0,109238:0:0:0:0:
402,192,109035,1,0,0:0:0:0:
329,192,109116,1,0,0:0:0:0:
256,192,109197,1,0,0:0:0:0:
109,192,109278,1,0,0:0:0:0:
329,192,109278,128,0,109603:0:0:0:0:
475,192,109278,128,0,109360:0:0:0:0:
402,192,109278,128,0,109441:0:0:0:0:
36,192,109278,128,0,109562:0:0:0:0:
256,192,109360,1,0,0:0:0:0:
182,192,109441,1,0,0:0:0:0:
109,192,109522,1,0,0:0:0:0:
475,192,109603,128,0,109968:0:0:0:0:
256,192,109603,1,0,0:0:0:0:
182,192,109603,128,0,109927:0:0:0:0:
109,192,109603,128,0,109765:0:0:0:0:
36,192,109603,128,0,109684:0:0:0:0:
329,192,109684,1,0,0:0:0:0:
402,192,109765,1,0,0:0:0:0:
256,192,109765,1,0,0:0:0:0:
109,192,109927,1,0,0:0:0:0:
36,192,109927,128,0,110008:0:0:0:0:
329,192,109927,1,0,0:0:0:0:
402,192,109927,1,0,0:0:0:0:
256,192,109927,1,0,0:0:0:0:
256,192,110089,1,0,0:0:0:0:
402,192,110089,1,0,0:0:0:0:
36,192,110089,128,0,110170:0:0:0:0:
329,192,110170,1,0,0:0:0:0:
182,192,110170,1,0,0:0:0:0:
256,192,110251,1,0,0:0:0:0:
36,192,110251,128,0,110900:0:0:0:0:
109,192,110251,128,0,110414:0:0:0:0:
402,192,110251,1,0,0:0:0:0:
475,192,110251,1,0,0:0:0:0:
329,192,110333,1,0,0:0:0:0:
182,192,110333,128,0,110495:0:0:0:0:
402,192,110414,1,0,0:0:0:0:
256,192,110414,128,0,110576:0:0:0:0:
475,192,110495,1,0,0:0:0:0:
329,192,110495,128,0,110657:0:0:0:0:
182,192,110576,1,0,0:0:0:0:
109,192,110576,1,0,0:0:0:0:
402,192,110576,128,0,110738:0:0:0:0:
182,192,110657,1,0,0:0:0:0:
475,192,110657,128,0,110819:0:0:0:0:
256,192,110738,1,0,0:0:0:0:
182,192,110738,128,0,111306:0:0:0:0:
329,192,110819,1,0,0:0:0:0:
109,192,110819,128,0,111224:0:0:0:0:
402,192,110900,1,0,0:0:0:0:
329,192,110900,128,0,111143:0:0:0:0:
475,192,110900,128,0,111387:0:0:0:0:
36,192,110981,1,0,0:0:0:0:
256,192,110981,128,0,111224:0:0:0:0:
402,192,111062,128,0,111143:0:0:0:0:
36,192,111143,1,0,0:0:0:0:
36,192,111224,1,0,0:0:0:0:
402,192,111224,1,0,0:0:0:0:
329,192,111224,128,0,111306:0:0:0:0:
256,192,111306,1,0,0:0:0:0:
109,192,111306,128,0,111387:0:0:0:0:
36,192,111387,128,0,111711:0:0:0:0:
402,192,111387,1,0,0:0:0:0:
182,192,111387,128,0,111468:0:0:0:0:
475,192,111468,128,0,111630:0:0:0:0:
329,192,111468,1,0,0:0:0:0:
109,192,111549,1,0,0:0:0:0:
256,192,111549,1,0,0:0:0:0:
402,192,111549,128,0,111711:0:0:0:0:
329,192,111630,128,0,111792:0:0:0:0:
182,192,111630,1,0,0:0:0:0:
256,192,111711,128,0,111873:0:0:0:0:
109,192,111711,1,0,0:0:0:0:
475,192,111711,128,0,111873:0:0:0:0:
182,192,111792,128,0,111954:0:0:0:0:
36,192,111792,1,0,0:0:0:0:
402,192,111873,1,0,0:0:0:0:
329,192,111873,1,0,0:0:0:0:
109,192,111873,128,0,112035:0:0:0:0:
36,192,111873,128,0,112035:0:0:0:0:
256,192,111954,1,0,0:0:0:0:
475,192,112035,128,0,112116:0:0:0:0:
329,192,112035,128,0,112603:0:0:0:0:
182,192,112035,1,0,0:0:0:0:
402,192,112116,128,0,112522:0:0:0:0:
256,192,112116,1,0,0:0:0:0:
475,192,112197,128,0,112522:0:0:0:0:
182,192,112197,128,0,112441:0:0:0:0:
109,192,112197,1,0,0:0:0:0:
256,192,112278,128,0,112522:0:0:0:0:
36,192,112278,1,0,0:0:0:0:
109,192,112360,128,0,112441:0:0:0:0:
36,192,112522,128,0,112684:0:0:0:0:
182,192,112522,128,0,112603:0:0:0:0:
109,192,112522,1,0,0:0:0:0:
402,192,112603,128,0,112684:0:0:0:0:
256,192,112603,1,0,0:0:0:0:
475,192,112684,128,0,112846:0:0:0:0:
329,192,112684,128,0,112765:0:0:0:0:
109,192,112765,128,0,112927:0:0:0:0:
256,192,112765,1,0,0:0:0:0:
182,192,112846,128,0,113008:0:0:0:0:
36,192,112846,128,0,113170:0:0:0:0:
329,192,112846,1,0,0:0:0:0:
256,192,112927,128,0,113089:0:0:0:0:
402,192,112927,1,0,0:0:0:0:
329,192,113008,128,0,113170:0:0:0:0:
475,192,113008,1,0,0:0:0:0:
109,192,113089,1,0,0:0:0:0:
402,192,113089,128,0,113251:0:0:0:0:
475,192,113170,128,0,113251:0:0:0:0:
109,192,113170,128,0,113900:0:0:0:0:
182,192,113170,1,0,0:0:0:0:
182,192,113251,128,0,113819:0:0:0:0:
256,192,113251,1,0,0:0:0:0:
256,192,113333,128,0,113738:0:0:0:0:
475,192,113333,128,0,113414:0:0:0:0:
329,192,113414,128,0,113657:0:0:0:0:
36,192,113495,1,0,0:0:0:0:
402,192,113495,128,0,113576:0:0:0:0:
475,192,113495,128,0,113576:0:0:0:0:
36,192,113657,1,0,0:0:0:0:
475,192,113657,128,0,113738:0:0:0:0:
402,192,113657,1,0,0:0:0:0:
329,192,113738,1,0,0:0:0:0:
256,192,113819,1,0,0:0:0:0:
36,192,113819,1,0,0:0:0:0:
475,192,113819,128,0,113900:0:0:0:0:
329,192,113900,1,0,0:0:0:0:
402,192,113900,128,0,114062:0:0:0:0:
329,192,113981,128,0,114143:0:0:0:0:
475,192,113981,128,0,114062:0:0:0:0:
182,192,113981,1,0,0:0:0:0:
109,192,114062,1,0,0:0:0:0:
256,192,114062,128,0,114224:0:0:0:0:
36,192,114143,1,0,0:0:0:0:
182,192,114143,128,0,114306:0:0:0:0:
475,192,114143,128,0,114468:0:0:0:0:
402,192,114224,1,0,0:0:0:0:
109,192,114224,128,0,114387:0:0:0:0:
329,192,114306,1,0,0:0:0:0:
36,192,114306,128,0,114427:0:0:0:0:
402,192,114387,128,0,114468:0:0:0:0:
256,192,114387,1,0,0:0:0:0:
329,192,114468,1,0,0:0:0:0:
109,192,114468,1,0,0:0:0:0:
36,192,114468,128,0,114792:0:0:0:0:
182,192,114468,128,0,114549:0:0:0:0:
402,192,114630,1,0,0:0:0:0:
256,192,114630,128,0,114711:0:0:0:0:
475,192,114792,128,0,115157:0:0:0:0:
182,192,114792,1,0,0:0:0:0:
109,192,114792,1,0,0:0:0:0:
329,192,114792,128,0,114873:0:0:0:0:
182,192,114954,1,0,0:0:0:0:
402,192,114954,1,0,0:0:0:0:
256,192,114954,128,0,115035:0:0:0:0:
329,192,115035,1,0,0:0:0:0:
36,192,115116,128,0,115197:0:0:0:0:
109,192,115116,1,0,0:0:0:0:
402,192,115116,1,0,0:0:0:0:
182,192,115116,128,0,115197:0:0:0:0:
329,192,115197,1,0,0:0:0:0:
36,192,115278,128,0,115360:0:0:0:0:
402,192,115278,1,0,0:0:0:0:
256,192,115278,1,0,0:0:0:0:
182,192,115360,1,0,0:0:0:0:
109,192,115441,128,0,115603:0:0:0:0:
36,192,115441,128,0,116089:0:0:0:0:
256,192,115441,1,0,0:0:0:0:
402,192,115441,1,0,0:0:0:0:
475,192,115441,1,0,0:0:0:0:
182,192,115522,128,0,115684:0:0:0:0:
329,192,115522,1,0,0:0:0:0:
256,192,115603,128,0,115765:0:0:0:0:
402,192,115603,1,0,0:0:0:0:
329,192,115684,128,0,115846:0:0:0:0:
475,192,115684,1,0,0:0:0:0:
402,192,115765,128,0,115927:0:0:0:0:
109,192,115765,1,0,0:0:0:0:
182,192,115765,1,0,0:0:0:0:
475,192,115846,128,0,116008:0:0:0:0:
182,192,115846,1,0,0:0:0:0:
256,192,115927,1,0,0:0:0:0:
109,192,115927,128,0,116657:0:0:0:0:
182,192,116008,128,0,116576:0:0:0:0:
329,192,116008,1,0,0:0:0:0:
475,192,116089,128,0,116576:0:0:0:0:
256,192,116089,128,0,116495:0:0:0:0:
402,192,116089,1,0,0:0:0:0:
329,192,116170,128,0,116414:0:0:0:0:
36,192,116170,1,0,0:0:0:0:
402,192,116251,128,0,116333:0:0:0:0:
36,192,116333,1,0,0:0:0:0:
402,192,116414,1,0,0:0:0:0:
36,192,116414,1,0,0:0:0:0:
329,192,116495,1,0,0:0:0:0:
256,192,116576,1,0,0:0:0:0:
36,192,116576,128,0,116900:0:0:0:0:
329,192,116657,1,0,0:0:0:0:
475,192,116657,128,0,116819:0:0:0:0:
402,192,116738,128,0,116900:0:0:0:0:
256,192,116738,1,0,0:0:0:0:
109,192,116738,1,0,0:0:0:0:
182,192,116819,1,0,0:0:0:0:
329,192,116819,128,0,116981:0:0:0:0:
475,192,116900,128,0,117062:0:0:0:0:
109,192,116900,1,0,0:0:0:0:
256,192,116900,128,0,117062:0:0:0:0:
36,192,116981,1,0,0:0:0:0:
182,192,116981,128,0,117143:0:0:0:0:
109,192,117062,128,0,117224:0:0:0:0:
36,192,117062,128,0,117224:0:0:0:0:
402,192,117062,1,0,0:0:0:0:
329,192,117062,1,0,0:0:0:0:
329,192,117143,1,0,0:0:0:0:
256,192,117224,1,0,0:0:0:0:
402,192,117224,128,0,117954:0:0:0:0:
475,192,117224,128,0,117306:0:0:0:0:
182,192,117306,1,0,0:0:0:0:
329,192,117306,128,0,117873:0:0:0:0:
109,192,117387,1,0,0:0:0:0:
256,192,117387,128,0,117792:0:0:0:0:
475,192,117387,128,0,117711:0:0:0:0:
182,192,117468,128,0,117711:0:0:0:0:
36,192,117468,1,0,0:0:0:0:
109,192,117549,128,0,117630:0:0:0:0:
36,192,117549,1,0,0:0:0:0:
36,192,117711,128,0,117873:0:0:0:0:
109,192,117711,1,0,0:0:0:0:
182,192,117792,1,0,0:0:0:0:
256,192,117873,1,0,0:0:0:0:
109,192,117873,1,0,0:0:0:0:
475,192,117873,128,0,118035:0:0:0:0:
329,192,117954,1,0,0:0:0:0:
109,192,117954,128,0,118116:0:0:0:0:
36,192,118035,128,0,118360:0:0:0:0:
182,192,118035,128,0,118197:0:0:0:0:
402,192,118035,1,0,0:0:0:0:
256,192,118116,128,0,118278:0:0:0:0:
475,192,118116,1,0,0:0:0:0:
329,192,118197,128,0,118360:0:0:0:0:
402,192,118197,1,0,0:0:0:0:
402,192,118278,128,0,118441:0:0:0:0:
109,192,118278,1,0,0:0:0:0:
182,192,118360,1,0,0:0:0:0:
109,192,118360,128,0,119089:0:0:0:0:
475,192,118360,128,0,118441:0:0:0:0:
256,192,118441,1,0,0:0:0:0:
182,192,118441,128,0,119008:0:0:0:0:
475,192,118522,128,0,118603:0:0:0:0:
256,192,118522,128,0,118927:0:0:0:0:
329,192,118603,128,0,118846:0:0:0:0:
475,192,118684,128,0,118765:0:0:0:0:
402,192,118684,128,0,118765:0:0:0:0:
36,192,118684,1,0,0:0:0:0:
402,192,118846,1,0,0:0:0:0:
475,192,118846,128,0,118927:0:0:0:0:
36,192,118846,1,0,0:0:0:0:
329,192,118927,1,0,0:0:0:0:
475,192,119008,128,0,119089:0:0:0:0:
36,192,119008,1,0,0:0:0:0:
256,192,119008,1,0,0:0:0:0:
402,192,119089,128,0,119251:0:0:0:0:
329,192,119089,1,0,0:0:0:0:
182,192,119170,1,0,0:0:0:0:
475,192,119170,128,0,119251:0:0:0:0:
329,192,119170,128,0,119333:0:0:0:0:
256,192,119251,128,0,119414:0:0:0:0:
109,192,119251,1,0,0:0:0:0:
475,192,119333,128,0,119657:0:0:0:0:
182,192,119333,128,0,119495:0:0:0:0:
36,192,119333,1,0,0:0:0:0:
109,192,119414,128,0,119576:0:0:0:0:
402,192,119414,1,0,0:0:0:0:
36,192,119495,128,0,119616:0:0:0:0:
329,192,119495,1,0,0:0:0:0:
256,192,119576,1,0,0:0:0:0:
402,192,119576,128,0,119657:0:0:0:0:
182,192,119657,1,0,0:0:0:0:
36,192,119657,128,0,119981:0:0:0:0:
329,192,119657,1,0,0:0:0:0:
109,192,119657,1,0,0:0:0:0:
256,192,119819,1,0,0:0:0:0:
402,192,119819,1,0,0:0:0:0:
182,192,119981,1,0,0:0:0:0:
109,192,119981,1,0,0:0:0:0:
475,192,119981,128,0,120346:0:0:0:0:
329,192,119981,1,0,0:0:0:0:
402,192,120143,1,0,0:0:0:0:
182,192,120143,1,0,0:0:0:0:
256,192,120143,1,0,0:0:0:0:
182,192,120306,1,0,0:0:0:0:
109,192,120306,1,0,0:0:0:0:
36,192,120306,128,0,120387:0:0:0:0:
329,192,120306,1,0,0:0:0:0:
256,192,120468,1,0,0:0:0:0:
402,192,120468,1,0,0:0:0:0:
36,192,120468,128,0,120549:0:0:0:0:
36,192,120630,128,0,121278:0:0:0:0:
109,192,120630,128,0,120792:0:0:0:0:
329,192,120711,1,0,0:0:0:0:
182,192,120711,128,0,120873:0:0:0:0:
402,192,120792,1,0,0:0:0:0:
256,192,120792,128,0,120954:0:0:0:0:
475,192,120873,1,0,0:0:0:0:
329,192,120873,128,0,121035:0:0:0:0:
182,192,120954,1,0,0:0:0:0:
109,192,120954,1,0,0:0:0:0:
402,192,120954,128,0,121116:0:0:0:0:
182,192,121035,1,0,0:0:0:0:
475,192,121035,128,0,121197:0:0:0:0:
109,192,121116,128,0,121846:0:0:0:0:
256,192,121116,1,0,0:0:0:0:
329,192,121197,1,0,0:0:0:0:
182,192,121197,128,0,121765:0:0:0:0:
402,192,121278,1,0,0:0:0:0:
256,192,121278,128,0,121684:0:0:0:0:
475,192,121278,128,0,121765:0:0:0:0:
36,192,121360,1,0,0:0:0:0:
329,192,121360,128,0,121603:0:0:0:0:
402,192,121441,128,0,121522:0:0:0:0:
36,192,121522,1,0,0:0:0:0:
36,192,121603,1,0,0:0:0:0:
402,192,121603,1,0,0:0:0:0:
329,192,121684,1,0,0:0:0:0:
36,192,121765,128,0,122089:0:0:0:0:
256,192,121765,1,0,0:0:0:0:
182,192,121846,1,0,0:0:0:0:
256,192,121927,1,0,0:0:0:0:
402,192,121927,1,0,0:0:0:0:
475,192,121927,1,0,0:0:0:0:
329,192,122008,1,0,0:0:0:0:
182,192,122089,128,0,122170:0:0:0:0:
402,192,122089,1,0,0:0:0:0:
475,192,122170,1,0,0:0:0:0:
329,192,122251,128,0,122333:0:0:0:0:
256,192,122251,1,0,0:0:0:0:
109,192,122251,1,0,0:0:0:0:
182,192,122333,1,0,0:0:0:0:
475,192,122414,128,0,122495:0:0:0:0:
109,192,122414,1,0,0:0:0:0:
36,192,122495,1,0,0:0:0:0:
329,192,122576,128,0,122900:0:0:0:0:
182,192,122576,1,0,0:0:0:0:
256,192,122576,1,0,0:0:0:0:
109,192,122657,1,0,0:0:0:0:
182,192,122738,1,0,0:0:0:0:
256,192,122819,1,0,0:0:0:0:
182,192,122900,128,0,122941:0:0:0:0:
475,192,122900,1,0,0:0:0:0:
402,192,122900,1,0,0:0:0:0:
109,192,123062,128,0,123103:0:0:0:0:
329,192,123062,1,0,0:0:0:0:
402,192,123062,1,0,0:0:0:0:
329,192,123224,1,0,0:0:0:0:
475,192,123224,1,0,0:0:0:0:
36,192,123224,128,0,123265:0:0:0:0:
109,192,123306,1,0,0:0:0:0:
256,192,123306,1,0,0:0:0:0:
329,192,123387,1,0,0:0:0:0:
475,192,123387,1,0,0:0:0:0:
36,192,123468,1,0,0:0:0:0:
182,192,123468,1,0,0:0:0:0:
256,192,123549,1,0,0:0:0:0:
402,192,123549,1,0,0:0:0:0:
182,192,123630,1,0,0:0:0:0:
36,192,123630,1,0,0:0:0:0:
109,192,123711,1,0,0:0:0:0:
329,192,123711,1,0,0:0:0:0:
256,192,123792,1,0,0:0:0:0:
475,192,123792,1,0,0:0:0:0:
402,192,123873,1,0,0:0:0:0:
182,192,123873,128,0,123914:0:0:0:0:
329,192,124035,1,0,0:0:0:0:
109,192,124035,128,0,124076:0:0:0:0:
256,192,124197,1,0,0:0:0:0:
36,192,124197,128,0,124238:0:0:0:0:
475,192,124197,1,0,0:0:0:0:
402,192,124197,1,0,0:0:0:0:
109,192,124360,128,0,124400:0:0:0:0:
329,192,124360,1,0,0:0:0:0:
256,192,124522,128,0,125819:0:0:0:0:
182,192,124522,1,0,0:0:0:0:
109,192,124522,1,0,0:0:0:0:
36,192,124522,1,0,0:0:0:0:
329,192,124603,1,0,0:0:0:0:
475,192,124603,1,0,0:0:0:0:
402,192,124684,1,0,0:0:0:0:
109,192,124684,1,0,0:0:0:0:
36,192,124765,1,0,0:0:0:0:
182,192,124765,1,0,0:0:0:0:
329,192,124846,1,0,0:0:0:0:
402,192,124846,1,0,0:0:0:0:
475,192,124846,1,0,0:0:0:0:
36,192,124927,1,0,0:0:0:0:
182,192,124927,1,0,0:0:0:0:
109,192,125008,1,0,0:0:0:0:
402,192,125008,1,0,0:0:0:0:
329,192,125089,1,0,0:0:0:0:
475,192,125089,1,0,0:0:0:0:
182,192,125170,1,0,0:0:0:0:
109,192,125170,1,0,0:0:0:0:
36,192,125170,1,0,0:0:0:0:
329,192,125251,1,0,0:0:0:0:
475,192,125251,1,0,0:0:0:0:
402,192,125333,1,0,0:0:0:0:
109,192,125333,1,0,0:0:0:0:
36,192,125333,1,0,0:0:0:0:
182,192,125333,1,0,0:0:0:0:
329,192,125414,1,0,0:0:0:0:
475,192,125414,1,0,0:0:0:0:
402,192,125495,1,0,0:0:0:0:
182,192,125495,1,0,0:0:0:0:
109,192,125495,1,0,0:0:0:0:
36,192,125495,1,0,0:0:0:0:
329,192,125576,1,0,0:0:0:0:
475,192,125576,1,0,0:0:0:0:
109,192,125657,1,0,0:0:0:0:
402,192,125657,1,0,0:0:0:0:
36,192,125657,1,0,0:0:0:0:
182,192,125657,1,0,0:0:0:0:
329,192,125738,1,0,0:0:0:0:
475,192,125738,1,0,0:0:0:0:
182,192,125819,1,0,0:0:0:0:
109,192,125819,1,0,0:0:0:0:
36,192,125819,1,0,0:0:0:0:
402,192,125900,1,0,0:0:0:0:
256,192,125900,1,0,0:0:0:0:
329,192,125981,1,0,0:0:0:0:
182,192,125981,1,0,0:0:0:0:
256,192,126062,1,0,0:0:0:0:
109,192,126062,1,0,0:0:0:0:
182,192,126143,1,0,0:0:0:0:
36,192,126143,1,0,0:0:0:0:
329,192,126143,1,0,0:0:0:0:
475,192,126224,1,0,0:0:0:0:
256,192,126224,1,0,0:0:0:0:
402,192,126306,1,0,0:0:0:0:
182,192,126306,1,0,0:0:0:0:
329,192,126387,1,0,0:0:0:0:
109,192,126387,1,0,0:0:0:0:
256,192,126468,1,0,0:0:0:0:
36,192,126468,1,0,0:0:0:0:
475,192,126468,1,0,0:0:0:0:
109,192,126549,1,0,0:0:0:0:
329,192,126549,1,0,0:0:0:0:
182,192,126630,1,0,0:0:0:0:
402,192,126630,1,0,0:0:0:0:
256,192,126711,1,0,0:0:0:0:
475,192,126711,1,0,0:0:0:0:
402,192,126792,1,0,0:0:0:0:
329,192,126792,1,0,0:0:0:0:
109,192,126792,1,0,0:0:0:0:
256,192,126873,1,0,0:0:0:0:
475,192,126873,1,0,0:0:0:0:
182,192,126954,1,0,0:0:0:0:
402,192,126954,1,0,0:0:0:0:
109,192,127035,1,0,0:0:0:0:
329,192,127035,1,0,0:0:0:0:
256,192,127116,1,0,0:0:0:0:
475,192,127116,1,0,0:0:0:0:
36,192,127116,128,0,127157:0:0:0:0:
109,192,127197,1,0,0:0:0:0:
402,192,127197,1,0,0:0:0:0:
329,192,127278,1,0,0:0:0:0:
182,192,127278,1,0,0:0:0:0:
256,192,127360,1,0,0:0:0:0:
475,192,127360,1,0,0:0:0:0:
402,192,127441,1,0,0:0:0:0:
36,192,127441,1,0,0:0:0:0:
182,192,127441,128,0,127481:0:0:0:0:
109,192,127522,1,0,0:0:0:0:
329,192,127522,1,0,0:0:0:0:
182,192,127603,1,0,0:0:0:0:
475,192,127603,1,0,0:0:0:0:
256,192,127684,1,0,0:0:0:0:
402,192,127684,1,0,0:0:0:0:
109,192,127765,1,0,0:0:0:0:
36,192,127765,1,0,0:0:0:0:
329,192,127765,128,0,127806:0:0:0:0:
182,192,127846,1,0,0:0:0:0:
475,192,127846,1,0,0:0:0:0:
402,192,127927,1,0,0:0:0:0:
109,192,127927,1,0,0:0:0:0:
329,192,128008,1,0,0:0:0:0:
36,192,128008,1,0,0:0:0:0:
475,192,128089,128,0,128130:0:0:0:0:
256,192,128089,1,0,0:0:0:0:
109,192,128089,1,0,0:0:0:0:
402,192,128170,1,0,0:0:0:0:
182,192,128170,1,0,0:0:0:0:
329,192,128251,1,0,0:0:0:0:
109,192,128251,1,0,0:0:0:0:
256,192,128333,1,0,0:0:0:0:
36,192,128333,1,0,0:0:0:0:
329,192,128414,128,0,128454:0:0:0:0:
182,192,128414,1,0,0:0:0:0:
475,192,128414,1,0,0:0:0:0:
109,192,128414,1,0,0:0:0:0:
402,192,128495,1,0,0:0:0:0:
36,192,128495,1,0,0:0:0:0:
109,192,128576,1,0,0:0:0:0:
475,192,128576,1,0,0:0:0:0:
182,192,128657,1,0,0:0:0:0:
402,192,128657,1,0,0:0:0:0:
256,192,128738,1,0,0:0:0:0:
329,192,128738,1,0,0:0:0:0:
36,192,128738,1,0,0:0:0:0:
109,192,128819,1,0,0:0:0:0:
475,192,128819,1,0,0:0:0:0:
402,192,128900,1,0,0:0:0:0:
182,192,128900,1,0,0:0:0:0:
329,192,128981,1,0,0:0:0:0:
36,192,128981,1,0,0:0:0:0:
182,192,129062,128,0,129103:0:0:0:0:
256,192,129062,1,0,0:0:0:0:
109,192,129062,1,0,0:0:0:0:
475,192,129062,1,0,0:0:0:0:
402,192,129143,1,0,0:0:0:0:
36,192,129143,1,0,0:0:0:0:
329,192,129224,1,0,0:0:0:0:
109,192,129224,1,0,0:0:0:0:
256,192,129306,1,0,0:0:0:0:
475,192,129306,1,0,0:0:0:0:
36,192,129306,1,0,0:0:0:0:
329,192,129387,1,0,0:0:0:0:
402,192,129387,1,0,0:0:0:0:
109,192,129387,1,0,0:0:0:0:
182,192,129468,1,0,0:0:0:0:
256,192,129468,1,0,0:0:0:0:
475,192,129549,1,0,0:0:0:0:
329,192,129549,1,0,0:0:0:0:
402,192,129630,1,0,0:0:0:0:
109,192,129630,1,0,0:0:0:0:
36,192,129711,128,0,129751:0:0:0:0:
182,192,129711,1,0,0:0:0:0:
256,192,129711,1,0,0:0:0:0:
475,192,129711,1,0,0:0:0:0:
402,192,129792,1,0,0:0:0:0:
109,192,129792,1,0,0:0:0:0:
329,192,129873,1,0,0:0:0:0:
182,192,129873,1,0,0:0:0:0:
256,192,129954,1,0,0:0:0:0:
36,192,129954,1,0,0:0:0:0:
182,192,130035,128,0,130076:0:0:0:0:
402,192,130035,1,0,0:0:0:0:
475,192,130035,1,0,0:0:0:0:
109,192,130035,1,0,0:0:0:0:
329,192,130116,1,0,0:0:0:0:
36,192,130116,1,0,0:0:0:0:
256,192,130197,1,0,0:0:0:0:
475,192,130197,1,0,0:0:0:0:
182,192,130278,1,0,0:0:0:0:
402,192,130278,1,0,0:0:0:0:
329,192,130360,128,0,130400:0:0:0:0:
256,192,130360,1,0,0:0:0:0:
475,192,130360,1,0,0:0:0:0:
36,192,130360,1,0,0:0:0:0:
109,192,130441,1,0,0:0:0:0:
402,192,130441,1,0,0:0:0:0:
329,192,130522,1,0,0:0:0:0:
182,192,130522,1,0,0:0:0:0:
256,192,130603,1,0,0:0:0:0:
36,192,130603,1,0,0:0:0:0:
475,192,130684,128,0,130724:0:0:0:0:
109,192,130684,1,0,0:0:0:0:
182,192,130684,1,0,0:0:0:0:
402,192,130684,1,0,0:0:0:0:
329,192,130765,1,0,0:0:0:0:
36,192,130765,1,0,0:0:0:0:
256,192,130846,1,0,0:0:0:0:
109,192,130846,1,0,0:0:0:0:
329,192,130927,1,0,0:0:0:0:
182,192,130927,1,0,0:0:0:0:
402,192,131008,1,0,0:0:0:0:
109,192,131008,1,0,0:0:0:0:
36,192,131008,1,0,0:0:0:0:
475,192,131089,1,0,0:0:0:0:
256,192,131089,1,0,0:0:0:0:
402,192,131170,1,0,0:0:0:0:
182,192,131170,1,0,0:0:0:0:
329,192,131251,1,0,0:0:0:0:
109,192,131251,1,0,0:0:0:0:
256,192,131333,1,0,0:0:0:0:
36,192,131333,1,0,0:0:0:0:
109,192,131414,1,0,0:0:0:0:
329,192,131414,1,0,0:0:0:0:
182,192,131495,1,0,0:0:0:0:
402,192,131495,1,0,0:0:0:0:
256,192,131576,1,0,0:0:0:0:
475,192,131576,1,0,0:0:0:0:
329,192,131657,1,0,0:0:0:0:
36,192,131657,1,0,0:0:0:0:
402,192,131657,1,0,0:0:0:0:
256,192,131738,1,0,0:0:0:0:
475,192,131738,1,0,0:0:0:0:
182,192,131819,1,0,0:0:0:0:
402,192,131819,1,0,0:0:0:0:
109,192,131900,1,0,0:0:0:0:
329,192,131900,1,0,0:0:0:0:
36,192,131981,1,0,0:0:0:0:
256,192,131981,1,0,0:0:0:0:
475,192,131981,1,0,0:0:0:0:
182,192,132062,1,0,0:0:0:0:
402,192,132062,1,0,0:0:0:0:
329,192,132143,1,0,0:0:0:0:
109,192,132143,1,0,0:0:0:0:
402,192,132224,1,0,0:0:0:0:
36,192,132224,1,0,0:0:0:0:
475,192,132265,1,0,0:0:0:0:
256,192,132306,1,0,0:0:0:0:
109,192,132306,1,0,0:0:0:0:
329,192,132306,1,0,0:0:0:0:
182,192,132387,1,0,0:0:0:0:
402,192,132387,1,0,0:0:0:0:
256,192,132468,1,0,0:0:0:0:
475,192,132468,1,0,0:0:0:0:
329,192,132549,1,0,0:0:0:0:
109,192,132549,1,0,0:0:0:0:
36,192,132630,128,0,132670:0:0:0:0:
402,192,132630,1,0,0:0:0:0:
182,192,132630,1,0,0:0:0:0:
256,192,132630,1,0,0:0:0:0:
475,192,132711,1,0,0:0:0:0:
109,192,132711,1,0,0:0:0:0:
402,192,132792,1,0,0:0:0:0:
36,192,132792,1,0,0:0:0:0:
329,192,132873,1,0,0:0:0:0:
109,192,132873,1,0,0:0:0:0:
182,192,132954,128,0,132995:0:0:0:0:
256,192,132954,1,0,0:0:0:0:
475,192,132954,1,0,0:0:0:0:
402,192,132954,1,0,0:0:0:0:
329,192,133035,1,0,0:0:0:0:
36,192,133035,1,0,0:0:0:0:
402,192,133116,1,0,0:0:0:0:
109,192,133116,1,0,0:0:0:0:
475,192,133197,1,0,0:0:0:0:
182,192,133197,1,0,0:0:0:0:
329,192,133278,128,0,133319:0:0:0:0:
109,192,133278,1,0,0:0:0:0:
36,192,133278,1,0,0:0:0:0:
402,192,133278,1,0,0:0:0:0:
256,192,133360,1,0,0:0:0:0:
475,192,133360,1,0,0:0:0:0:
182,192,133441,1,0,0:0:0:0:
402,192,133441,1,0,0:0:0:0:
109,192,133522,1,0,0:0:0:0:
329,192,133522,1,0,0:0:0:0:
475,192,133603,128,0,133643:0:0:0:0:
36,192,133603,1,0,0:0:0:0:
256,192,133603,1,0,0:0:0:0:
182,192,133603,1,0,0:0:0:0:
329,192,133927,1,0,0:0:0:0:
256,192,134251,128,0,134292:0:0:0:0:
402,192,134251,1,0,0:0:0:0:
182,192,134576,128,0,134616:0:0:0:0:
475,192,134576,1,0,0:0:0:0:
36,192,134900,128,0,134941:0:0:0:0:
402,192,134900,1,0,0:0:0:0:
