osu file format v14

[General]
AudioFilename: audio.mp3
AudioLeadIn: 0
PreviewTime: -1
Countdown: 0
SampleSet: Drum
StackLeniency: 0.7
Mode: 2
LetterboxInBreaks: 0
WidescreenStoryboard: 0

[Editor]
DistanceSpacing: 0.4
BeatDivisor: 8
GridSize: 8
TimelineZoom: 3.700001

[Metadata]
Title:Espgaluda II - Stage 4
TitleUnicode:ケイブラブ - ウェッハといっしょ
Artist:COOL&CREATE
ArtistUnicode:COOL&CREATE
Creator:uvxo
Version:Platter
Source:Espgaluda II
Tags:
BeatmapID:4537957
BeatmapSetID:2153633

[Difficulty]
HPDrainRate:6.5
CircleSize:3.4
OverallDifficulty:7
ApproachRate:9.3
SliderMultiplier:2.5
SliderTickRate:1

[Events]
//Background and Video events
0,0,"ec2eb88e-b65b-4847-a446-70579481ab2c.jpg",0,0
//Break Periods
//Storyboard Layer 0 (Background)
//Storyboard Layer 1 (Fail)
//Storyboard Layer 2 (Pass)
//Storyboard Layer 3 (Foreground)
//Storyboard Layer 4 (Overlay)
//Storyboard Sound Samples

[TimingPoints]
15,315.789473684211,4,3,0,100,1,0
500,315.789473684211,4,3,0,100,1,0
500,-200,4,3,0,40,0,0
1769,-133.333333333333,4,3,0,50,0,0
3039,-200,4,3,0,50,0,0
5579,315.789473684211,4,3,0,100,1,0
5579,-166.666666666667,4,3,0,75,0,0
6842,-133.333333333333,4,3,0,75,0,0
8105,-153.846153846154,4,3,0,75,0,0
15684,-133.333333333333,4,3,0,75,0,0
21052,-100,4,3,0,15,0,0
22000,-80,4,3,0,100,0,0
32105,315.789473684211,4,3,0,100,1,0
32105,-133.333333333333,4,3,0,100,0,0
32736,-100,4,3,0,100,0,0
35105,-133.333333333333,4,3,0,100,0,0
35894,-80,4,3,0,100,0,0
37157,-66.6666666666667,4,3,0,100,0,0
42210,-80,4,3,0,100,0,0
42683,-200,4,3,0,100,0,0
43157,-80,4,3,0,100,0,0
45210,-200,4,3,0,100,0,0
45683,-80,4,3,0,100,0,0

[Colours]
Combo1 : 255,255,255
Combo2 : 255,128,255

[HitObjects]
240,192,500,5,0,0:0:0:0:
168,192,657,2,0,L|128:192,2,31.25
312,192,975,2,0,L|344:192,1,31.25
384,192,1134,1,0,0:0:0:0:
440,192,1293,2,0,L|454:155,2,31.25
192,192,1610,1,0,0:0:0:0:
136,192,1690,1,0,0:0:0:0:
96,192,1769,5,0,0:0:0:0:
96,192,1928,2,0,P|88:144|64:88,2,93.7500035762788
256,192,2404,2,0,P|208:200|152:192,1,93.7500035762788
48,192,2722,1,0,0:0:0:0:
0,192,2880,1,0,0:0:0:0:
40,192,3039,6,0,L|136:104,1,125
240,192,3515,1,0,0:0:0:0:
168,192,3673,2,0,P|208:152|280:144,1,125
384,192,4150,1,0,0:0:0:0:
312,192,4309,2,0,L|288:64,1,125
280,192,4785,1,0,0:0:0:0:
352,192,4944,2,0,L|424:80,1,125
496,192,5419,1,0,0:0:0:0:
352,192,5579,5,0,0:0:0:0:
288,192,5736,2,0,L|248:184,2,37.4999988555909
128,192,6052,2,0,L|168:176,1,37.4999988555909
232,128,6210,1,0,0:0:0:0:
128,80,6368,2,0,L|112:32,2,37.4999988555909
0,144,6684,1,0,0:0:0:0:
104,192,6842,5,0,0:0:0:0:
208,192,7000,2,0,P|264:200|312:192,1,93.7500035762788,0|0,0:0|0:0,0:3:0:0:
256,192,7315,1,0,0:0:0:0:
304,192,7473,1,0,0:0:0:0:
360,192,7631,2,0,P|416:184|464:192,2,93.7500035762788
304,192,8026,1,0,0:0:0:0:
248,192,8105,6,0,L|152:40,1,162.499992561341
72,192,8579,1,0,0:0:0:0:
160,192,8736,2,0,B|200:176|224:128|240:88|240:40,1,162.499992561341
304,192,9210,1,0,0:0:0:0:
232,192,9368,2,0,P|264:224|272:272,1,81.2499962806703
464,192,9684,1,0,0:0:0:0:
416,192,9842,1,0,0:0:0:0:
304,192,10000,2,0,L|392:152,1,81.2499962806703
256,136,10315,1,0,0:0:0:0:
208,80,10473,1,0,0:0:0:0:
368,80,10631,6,0,P|384:120|376:208,1,121.874994421006
224,192,10947,1,0,0:0:0:0:
176,192,11026,2,0,L|128:192,1,40.6249981403352
88,192,11263,5,0,0:0:0:0:
88,192,11421,2,0,B|64:184|48:160|40:128,2,81.2499962806703
256,192,11894,1,0,0:0:0:0:
192,192,12052,2,0,L|288:192,1,81.2499962806703
392,192,12368,1,0,0:0:0:0:
360,192,12526,2,0,P|336:248|344:272,1,81.2499962806703
512,192,12842,2,0,L|416:192,1,81.2499962806703
384,192,13079,1,0,0:0:0:0:
320,192,13157,5,0,0:0:0:0:
256,192,13315,2,0,L|184:128,1,81.2499962806703
240,80,13631,1,0,0:0:0:0:
112,112,13789,1,0,0:0:0:0:
48,192,13947,2,0,P|40:232|56:280,1,81.2499962806703
224,192,14263,1,0,0:0:0:0:
288,192,14342,1,0,0:0:0:0:
352,192,14421,1,0,0:0:0:0:
352,192,14579,2,0,L|288:136,1,81.2499962806703
352,192,14894,6,0,P|320:120|331:67,1,121.874994421006
440,192,15210,2,0,L|496:120,2,81.2499962806703
256,192,15605,1,0,0:0:0:0:
221,192,15684,6,0,P|181:192|125:192,1,93.7500035762788
8,32,16000,2,0,P|0:80|0:96,1,46.8750017881394
64,32,16157,1,0,0:0:0:0:
128,192,16236,2,0,P|176:184|240:192,1,93.7500035762788
280,192,16473,1,0,0:0:0:0:
144,192,16631,1,0,0:0:0:0:
216,192,16789,1,0,0:0:0:0:
504,192,16947,6,0,P|464:192|392:200,1,93.7500035762788
304,192,17263,2,0,B|296:145|296:145|304:137,2,46.8750017881394
336,64,17500,2,0,L|416:16,1,93.7500035762788
432,80,17736,1,0,0:0:0:0:
368,192,17894,1,0,0:0:0:0:
48,192,18052,1,0,0:0:0:0:
40,192,18131,1,0,0:0:0:0:
32,192,18210,5,0,0:0:0:0:
56,72,18605,1,0,0:0:0:0:
114,142,18684,1,0,0:0:0:0:
416,144,18763,2,0,L|416:200,4,46.8750017881394
352,144,19157,2,0,L|424:64,1,93.7500035762788
328,248,19394,1,0,0:0:0:0:
296,320,19473,6,0,L|208:272,1,93.7500035762788
144,208,19789,2,0,L|232:160,1,93.7500035762788
56,248,20105,1,0,0:0:0:0:
8,112,20263,1,0,0:0:0:0:
336,192,20421,1,0,0:0:0:0:
360,264,20579,5,0,0:0:0:0:
304,264,20657,1,0,0:0:0:0:
248,264,20736,1,0,0:0:0:0:
192,264,20815,1,0,0:0:0:0:
136,264,20894,1,0,0:0:0:0:
80,264,20973,1,0,0:0:0:0:
24,264,21052,6,0,L|30:199,3,62.5
168,200,21368,2,0,L|160:264,3,62.5
304,192,21684,1,0,0:0:0:0:
344,192,21763,1,0,0:0:0:0:
384,192,21842,1,0,0:0:0:0:
424,192,21921,1,0,0:0:0:0:
456,144,22000,6,0,P|424:112|144:80,1,312.5
176,184,22473,1,0,0:0:0:0:
72,192,22631,2,0,L|72:32,1,156.25
61,290,22947,2,0,L|181:178,1,156.25
424,192,23263,2,0,P|448:104|416:32,1,156.25
424,192,23579,1,0,0:0:0:0:
296,184,23736,1,0,0:0:0:0:
368,184,23894,2,0,P|416:128|432:24,1,156.25
496,176,24210,1,0,0:0:0:0:
288,184,24368,1,0,0:0:0:0:
376,288,24526,6,0,B|274:272|282:256|338:232|274:168,1,156.25
136,184,24842,1,0,0:0:0:0:
280,184,25000,1,0,0:0:0:0:
208,184,25157,2,0,L|64:80,1,156.25
0,192,25473,2,0,L|168:112,1,156.25
216,120,25710,1,0,0:0:0:0:
288,120,25789,1,0,0:0:0:0:
352,120,25947,5,0,0:0:0:0:
288,240,26105,2,0,L|176:96,1,156.25
288,336,26421,2,0,L|376:200,1,156.25
480,96,26736,1,0,0:0:0:0:
320,96,26894,1,0,0:0:0:0:
496,96,27052,6,0,B|512:144|456:160|536:208|496:272,1,156.25
504,320,27368,1,0,0:0:0:0:
344,144,27526,2,0,B|303:170|338:217|245:206|243:258,1,156.25
280,328,27842,2,0,P|368:320|424:264,2,156.25
184,192,28315,2,0,P|160:144|48:104,1,156.25
0,192,28631,1,0,0:0:0:0:
96,336,28789,2,0,L|40:176,2,156.25
320,336,29263,1,0,0:0:0:0:
240,336,29421,1,0,0:0:0:0:
400,336,29579,6,0,P|408:288|376:176,1,156.25
208,224,29894,2,0,P|216:136|256:72,1,156.25
80,144,30210,2,0,P|80:64|32:-8,1,156.25
272,272,30526,2,0,P|248:184|184:120,1,156.25
408,352,30842,2,0,L|512:224,2,156.25
280,360,31315,5,0,0:0:0:0:
200,360,31473,1,0,0:0:0:0:
120,360,31631,1,0,0:0:0:0:
40,360,31789,1,0,0:0:0:0:
280,360,31947,1,0,0:0:0:0:
40,360,32105,6,0,B|136:320|224:264|176:120|192:152,1,281.250010728836
192,176,32736,2,0,L|312:96,1,125
304,176,32973,1,0,0:0:0:0:
304,272,33052,2,0,L|416:192,1,125
432,144,33289,1,0,0:0:0:0:
432,192,33368,2,0,P|464:232|472:328,2,125
256,192,33842,1,0,0:0:0:0:
408,192,34000,1,0,0:0:0:0:
176,192,34157,2,0,L|176:128,2,62.5
216,272,34473,1,0,0:0:0:0:
96,296,34631,6,0,P|48:232|40:168,1,125
184,48,35105,2,0,B|224:72|96:128|304:112|264:208,1,187.500007152558
344,304,35815,1,0,0:0:0:0:
400,224,35894,2,0,L|448:64,2,156.25
312,184,36368,2,0,P|232:152|160:160,1,156.25
136,192,36684,1,0,0:0:0:0:
0,192,36842,2,0,L|160:152,1,156.25
328,296,37157,6,0,L|136:224,1,187.500007152558
256,120,37473,1,0,0:0:0:0:
336,192,37631,2,0,L|512:96,2,187.500007152558
416,280,38105,2,0,L|512:112,1,187.500007152558
488,328,38421,5,0,0:0:0:0:
256,328,38579,1,0,0:0:0:0:
320,264,38736,1,0,0:0:0:0:
168,328,38894,1,0,0:0:0:0:
120,264,39052,1,0,0:0:0:0:
288,224,39210,2,0,P|312:184|392:64,1,187.500007152558
504,240,39526,1,0,0:0:0:0:
256,224,39683,5,0,0:0:0:0:
56,200,39841,1,0,0:0:0:0:
0,192,39999,1,0,0:0:0:0:
240,192,40157,2,0,L|360:48,1,187.500007152558
416,72,40473,1,0,0:0:0:0:
304,192,40631,2,0,L|160:64,1,187.500007152558
24,192,40947,2,0,L|176:56,1,187.500007152558
416,192,41262,2,0,L|216:160,1,187.500007152558
64,192,41578,2,0,L|280:192,1,187.500007152558
472,192,41815,1,0,0:0:0:0:
472,192,41894,1,0,0:0:0:0:
480,192,42052,1,0,0:0:0:0:
352,192,42210,6,0,P|320:168|176:120,2,156.25
424,232,42683,2,0,P|408:184|416:112,1,125
504,192,43157,1,0,0:0:0:0:
320,192,43315,1,0,0:0:0:0:
200,192,43473,2,0,P|160:152|64:152,1,156.25
8,128,43789,1,0,0:0:0:0:
80,192,43947,2,0,P|112:176|320:320,1,312.5
272,192,44420,1,0,0:0:0:0:
496,192,44578,1,0,0:0:0:0:
352,192,44736,6,0,P|320:168|176:120,2,156.25
424,232,45210,2,0,P|408:184|416:112,1,125
504,192,45683,1,0,0:0:0:0:
320,192,45841,1,0,0:0:0:0:
200,192,45999,2,0,P|160:152|64:152,1,156.25
0,184,46315,1,0,0:0:0:0:
112,104,46473,1,0,0:0:0:0:
256,192,46631,1,0,0:0:0:0:
168,192,46789,2,0,L|72:192,1,78.125
296,320,46947,1,0,0:0:0:0:
416,240,47105,1,0,0:0:0:0:
344,304,47262,6,0,P|312:232|256:160,1,156.25
48,208,47578,2,0,P|72:128|144:56,1,156.25
