osu file format v14

[General]
AudioFilename: audio.mp3
AudioLeadIn: 0
PreviewTime: -1
Countdown: 0
SampleSet: Normal
StackLeniency: 0.7
Mode: 3
LetterboxInBreaks: 0
SpecialStyle: 0
WidescreenStoryboard: 0

[Editor]
DistanceSpacing: 1.2
BeatDivisor: 4
GridSize: 4
TimelineZoom: 1.2

[Metadata]
Title:Sons
TitleUnicode:Sons
Artist:CONCORDE
ArtistUnicode:CONCORDE
Creator:Enygmatique
Version:Hard
Source:
Tags:
BeatmapID:1813593
BeatmapSetID:867554

[Difficulty]
HPDrainRate:7.5
CircleSize:4
OverallDifficulty:7.5
ApproachRate:5
SliderMultiplier:1.4
SliderTickRate:1

[Events]
//Background and Video events
0,0,"maxresdefault.jpg",0,0
//Break Periods
//Storyboard Layer 0 (Background)
//Storyboard Layer 1 (Fail)
//Storyboard Layer 2 (Pass)
//Storyboard Layer 3 (Foreground)
//Storyboard Sound Samples

[TimingPoints]
170,288.461538461538,4,1,0,34,1,0
19091,288.461538461538,4,1,0,34,1,0
46927,288.461538461538,4,1,0,34,1,0
88537,288.461538461538,4,1,0,34,1,0
113994,288.461538461538,4,1,0,34,1,0
141758,288.461538461538,4,1,0,34,1,0
147527,288.461538461538,4,1,0,34,1,0
171829,288.461538461538,4,1,0,34,1,0
192654,288.461538461538,4,1,0,34,1,0
206572,288.461538461538,4,1,0,34,1,0

[HitObjects]
448,192,602,128,0,891:0:0:0:0:
320,192,891,128,0,1035:0:0:0:0:
192,192,1035,128,0,1179:0:0:0:0:
448,192,1179,128,0,1323:0:0:0:0:
320,192,1323,128,0,1468:0:0:0:0:
192,192,1468,128,0,1612:0:0:0:0:
448,192,1612,128,0,1756:0:0:0:0:
320,192,1756,128,0,1900:0:0:0:0:
192,192,1900,128,0,2044:0:0:0:0:
448,192,2044,128,0,2189:0:0:0:0:
320,192,2189,128,0,2333:0:0:0:0:
192,192,2333,128,0,2477:0:0:0:0:
448,192,2477,128,0,2621:0:0:0:0:
320,192,2621,128,0,2766:0:0:0:0:
64,192,2766,128,0,2910:0:0:0:0:
448,192,2910,128,0,3198:0:0:0:0:
192,192,3198,128,0,3343:0:0:0:0:
320,192,3343,128,0,3487:0:0:0:0:
64,192,3487,128,0,3631:0:0:0:0:
192,192,3631,128,0,3775:0:0:0:0:
320,192,3775,128,0,3919:0:0:0:0:
64,192,3919,128,0,4064:0:0:0:0:
192,192,4064,128,0,4208:0:0:0:0:
320,192,4208,128,0,4352:0:0:0:0:
64,192,4352,128,0,4496:0:0:0:0:
192,192,4496,128,0,4641:0:0:0:0:
320,192,4641,128,0,4785:0:0:0:0:
64,192,4785,128,0,4929:0:0:0:0:
192,192,4929,128,0,5073:0:0:0:0:
320,192,5073,128,0,5218:0:0:0:0:
448,192,5218,128,0,5506:0:0:0:0:
320,192,5506,128,0,5650:0:0:0:0:
192,192,5650,128,0,5794:0:0:0:0:
448,192,5794,128,0,5939:0:0:0:0:
64,192,5939,128,0,6083:0:0:0:0:
192,192,6083,128,0,6227:0:0:0:0:
320,192,6227,128,0,6371:0:0:0:0:
192,192,6371,128,0,6516:0:0:0:0:
448,192,6516,128,0,6660:0:0:0:0:
64,192,6660,128,0,6804:0:0:0:0:
320,192,6804,128,0,6948:0:0:0:0:
192,192,6948,128,0,7093:0:0:0:0:
64,192,7093,128,0,7237:0:0:0:0:
320,192,7237,128,0,7381:0:0:0:0:
192,192,7381,128,0,7525:0:0:0:0:
448,192,7525,128,0,7814:0:0:0:0:
64,192,7814,128,0,7958:0:0:0:0:
192,192,7958,128,0,8102:0:0:0:0:
320,192,8102,128,0,8246:0:0:0:0:
64,192,8246,128,0,8391:0:0:0:0:
192,192,8391,128,0,8535:0:0:0:0:
320,192,8535,128,0,8679:0:0:0:0:
64,192,8679,128,0,8823:0:0:0:0:
192,192,8823,128,0,8968:0:0:0:0:
320,192,8968,128,0,9112:0:0:0:0:
64,192,9112,128,0,9256:0:0:0:0:
192,192,9256,128,0,9400:0:0:0:0:
448,192,9256,1,0,0:0:0:0:
448,192,9400,128,0,9544:0:0:0:0:
320,192,9544,1,0,0:0:0:0:
64,192,9544,128,0,9689:0:0:0:0:
320,192,9689,1,0,0:0:0:0:
192,192,9689,128,0,9833:0:0:0:0:
320,192,9833,1,0,0:0:0:0:
64,192,9833,128,0,9977:0:0:0:0:
448,192,9977,1,0,0:0:0:0:
192,192,10121,1,0,0:0:0:0:
192,192,10266,1,0,0:0:0:0:
320,192,10410,1,0,0:0:0:0:
64,192,10410,1,0,0:0:0:0:
448,192,10410,128,0,10554:0:0:0:0:
192,192,10554,1,0,0:0:0:0:
64,192,10698,1,0,0:0:0:0:
64,192,10843,1,0,0:0:0:0:
320,192,10987,1,0,0:0:0:0:
64,192,11131,1,0,0:0:0:0:
192,192,11275,1,0,0:0:0:0:
64,192,11419,1,0,0:0:0:0:
320,192,11564,1,0,0:0:0:0:
448,192,11564,128,0,11708:0:0:0:0:
192,192,11708,1,0,0:0:0:0:
64,192,11852,1,0,0:0:0:0:
192,192,11996,1,0,0:0:0:0:
448,192,12141,1,0,0:0:0:0:
64,192,12285,1,0,0:0:0:0:
192,192,12429,1,0,0:0:0:0:
64,192,12573,1,0,0:0:0:0:
320,192,12718,1,0,0:0:0:0:
448,192,12718,128,0,12862:0:0:0:0:
192,192,12862,1,0,0:0:0:0:
64,192,13006,1,0,0:0:0:0:
192,192,13150,1,0,0:0:0:0:
448,192,13294,1,0,0:0:0:0:
192,192,13439,1,0,0:0:0:0:
64,192,13583,1,0,0:0:0:0:
192,192,13727,1,0,0:0:0:0:
320,192,13871,1,0,0:0:0:0:
448,192,13871,128,0,14016:0:0:0:0:
192,192,14016,1,0,0:0:0:0:
64,192,14160,1,0,0:0:0:0:
192,192,14304,1,0,0:0:0:0:
448,192,14448,1,0,0:0:0:0:
192,192,14593,1,0,0:0:0:0:
64,192,14737,1,0,0:0:0:0:
192,192,14881,1,0,0:0:0:0:
320,192,15025,1,0,0:0:0:0:
448,192,15025,128,0,15169:0:0:0:0:
192,192,15169,1,0,0:0:0:0:
64,192,15314,1,0,0:0:0:0:
448,192,15458,1,0,0:0:0:0:
192,192,15602,1,0,0:0:0:0:
320,192,15746,1,0,0:0:0:0:
64,192,15891,1,0,0:0:0:0:
192,192,16035,1,0,0:0:0:0:
320,192,16179,1,0,0:0:0:0:
448,192,16179,128,0,16323:0:0:0:0:
192,192,16323,1,0,0:0:0:0:
64,192,16468,1,0,0:0:0:0:
192,192,16612,1,0,0:0:0:0:
320,192,16756,1,0,0:0:0:0:
64,192,16900,1,0,0:0:0:0:
192,192,17044,1,0,0:0:0:0:
448,192,17044,1,0,0:0:0:0:
320,192,17044,1,0,0:0:0:0:
64,192,17189,1,0,0:0:0:0:
320,192,17333,1,0,0:0:0:0:
448,192,17333,1,0,0:0:0:0:
192,192,17477,1,0,0:0:0:0:
64,192,17621,1,0,0:0:0:0:
192,192,17766,1,0,0:0:0:0:
448,192,17766,128,0,17910:0:0:0:0:
320,192,17910,1,0,0:0:0:0:
64,192,18054,1,0,0:0:0:0:
192,192,18198,1,0,0:0:0:0:
320,192,18198,1,0,0:0:0:0:
448,192,18198,128,0,18343:0:0:0:0:
320,192,18343,1,0,0:0:0:0:
192,192,18487,1,0,0:0:0:0:
448,192,18487,1,0,0:0:0:0:
320,192,18487,1,0,0:0:0:0:
64,192,18631,1,0,0:0:0:0:
320,192,18631,1,0,0:0:0:0:
192,192,18631,1,0,0:0:0:0:
192,192,18775,1,0,0:0:0:0:
320,192,19064,1,0,0:0:0:0:
448,192,19064,1,0,0:0:0:0:
192,192,19235,1,0,0:0:0:0:
64,192,19307,1,0,0:0:0:0:
192,192,19379,1,0,0:0:0:0:
320,192,19379,1,0,0:0:0:0:
448,192,19379,128,0,19667:0:0:0:0:
64,192,19523,1,0,0:0:0:0:
192,192,19595,1,0,0:0:0:0:
320,192,19667,1,0,0:0:0:0:
64,192,19667,1,0,0:0:0:0:
192,192,19812,1,0,0:0:0:0:
320,192,19956,128,0,20172:0:0:0:0:
64,192,19956,1,0,0:0:0:0:
448,192,19956,1,0,0:0:0:0:
192,192,20100,1,0,0:0:0:0:
64,192,20100,1,0,0:0:0:0:
448,192,20244,1,0,0:0:0:0:
64,192,20389,1,0,0:0:0:0:
192,192,20533,128,0,20749:0:0:0:0:
320,192,20533,1,0,0:0:0:0:
448,192,20677,1,0,0:0:0:0:
320,192,20821,1,0,0:0:0:0:
448,192,20821,1,0,0:0:0:0:
192,192,20965,1,0,0:0:0:0:
320,192,21110,128,0,21326:0:0:0:0:
64,192,21110,1,0,0:0:0:0:
448,192,21110,1,0,0:0:0:0:
192,192,21254,1,0,0:0:0:0:
64,192,21398,1,0,0:0:0:0:
192,192,21398,1,0,0:0:0:0:
320,192,21542,1,0,0:0:0:0:
192,192,21542,1,0,0:0:0:0:
448,192,21687,128,0,21903:0:0:0:0:
64,192,21687,1,0,0:0:0:0:
320,192,21687,1,0,0:0:0:0:
192,192,21831,1,0,0:0:0:0:
320,192,21975,1,0,0:0:0:0:
64,192,21975,1,0,0:0:0:0:
192,192,22119,1,0,0:0:0:0:
448,192,22264,128,0,22480:0:0:0:0:
320,192,22264,1,0,0:0:0:0:
192,192,22408,1,0,0:0:0:0:
64,192,22408,1,0,0:0:0:0:
320,192,22552,1,0,0:0:0:0:
192,192,22696,1,0,0:0:0:0:
448,192,22840,128,0,23057:0:0:0:0:
64,192,22840,1,0,0:0:0:0:
192,192,22985,1,0,0:0:0:0:
320,192,23129,1,0,0:0:0:0:
64,192,23129,1,0,0:0:0:0:
192,192,23273,1,0,0:0:0:0:
448,192,23417,128,0,23634:0:0:0:0:
320,192,23417,1,0,0:0:0:0:
192,192,23417,1,0,0:0:0:0:
192,192,23562,1,0,0:0:0:0:
64,192,23706,1,0,0:0:0:0:
320,192,23706,1,0,0:0:0:0:
448,192,23850,1,0,0:0:0:0:
192,192,23994,128,0,24211:0:0:0:0:
320,192,23994,1,0,0:0:0:0:
64,192,23994,1,0,0:0:0:0:
448,192,24139,1,0,0:0:0:0:
320,192,24283,1,0,0:0:0:0:
448,192,24283,1,0,0:0:0:0:
64,192,24427,1,0,0:0:0:0:
192,192,24571,128,0,24788:0:0:0:0:
320,192,24571,1,0,0:0:0:0:
448,192,24571,1,0,0:0:0:0:
64,192,24715,1,0,0:0:0:0:
320,192,24860,1,0,0:0:0:0:
448,192,24860,1,0,0:0:0:0:
64,192,25004,1,0,0:0:0:0:
192,192,25148,128,0,25365:0:0:0:0:
320,192,25148,1,0,0:0:0:0:
448,192,25148,1,0,0:0:0:0:
64,192,25292,1,0,0:0:0:0:
320,192,25437,1,0,0:0:0:0:
448,192,25437,1,0,0:0:0:0:
64,192,25581,1,0,0:0:0:0:
192,192,25725,128,0,25941:0:0:0:0:
448,192,25725,1,0,0:0:0:0:
320,192,25725,1,0,0:0:0:0:
320,192,25869,1,0,0:0:0:0:
64,192,26014,1,0,0:0:0:0:
448,192,26014,1,0,0:0:0:0:
192,192,26158,1,0,0:0:0:0:
64,192,26302,128,0,26518:0:0:0:0:
320,192,26302,1,0,0:0:0:0:
448,192,26302,1,0,0:0:0:0:
192,192,26446,1,0,0:0:0:0:
192,192,26590,1,0,0:0:0:0:
448,192,26590,1,0,0:0:0:0:
320,192,26735,1,0,0:0:0:0:
64,192,26879,128,0,27095:0:0:0:0:
448,192,26879,1,0,0:0:0:0:
192,192,26879,1,0,0:0:0:0:
192,192,27023,1,0,0:0:0:0:
320,192,27167,1,0,0:0:0:0:
448,192,27167,1,0,0:0:0:0:
64,192,27240,1,0,0:0:0:0:
192,192,27312,128,0,27384:0:0:0:0:
448,192,27312,1,0,0:0:0:0:
320,192,27456,128,0,27528:0:0:0:0:
64,192,27456,1,0,0:0:0:0:
192,192,27600,128,0,27672:0:0:0:0:
448,192,27600,1,0,0:0:0:0:
64,192,27744,1,0,0:0:0:0:
320,192,27744,1,0,0:0:0:0:
448,192,27744,1,0,0:0:0:0:
192,192,27816,1,0,0:0:0:0:
320,192,27889,1,0,0:0:0:0:
448,192,27961,1,0,0:0:0:0:
64,192,28033,1,0,0:0:0:0:
192,192,28033,1,0,0:0:0:0:
448,192,28105,1,0,0:0:0:0:
320,192,28177,1,0,0:0:0:0:
64,192,28249,1,0,0:0:0:0:
192,192,28249,1,0,0:0:0:0:
320,192,28321,1,0,0:0:0:0:
448,192,28321,128,0,28610:0:0:0:0:
64,192,28465,1,0,0:0:0:0:
192,192,28538,1,0,0:0:0:0:
320,192,28610,1,0,0:0:0:0:
64,192,28610,1,0,0:0:0:0:
192,192,28754,1,0,0:0:0:0:
320,192,28898,128,0,29115:0:0:0:0:
64,192,28898,1,0,0:0:0:0:
448,192,28898,1,0,0:0:0:0:
192,192,28970,1,0,0:0:0:0:
64,192,29042,1,0,0:0:0:0:
192,192,29115,1,0,0:0:0:0:
448,192,29187,1,0,0:0:0:0:
192,192,29259,1,0,0:0:0:0:
64,192,29331,1,0,0:0:0:0:
448,192,29403,1,0,0:0:0:0:
192,192,29475,128,0,29691:0:0:0:0:
320,192,29475,1,0,0:0:0:0:
64,192,29547,1,0,0:0:0:0:
448,192,29619,1,0,0:0:0:0:
64,192,29691,1,0,0:0:0:0:
320,192,29764,1,0,0:0:0:0:
448,192,29764,1,0,0:0:0:0:
64,192,29836,1,0,0:0:0:0:
192,192,29908,1,0,0:0:0:0:
448,192,29980,1,0,0:0:0:0:
320,192,30052,128,0,30268:0:0:0:0:
64,192,30052,1,0,0:0:0:0:
448,192,30124,1,0,0:0:0:0:
192,192,30196,1,0,0:0:0:0:
64,192,30340,1,0,0:0:0:0:
192,192,30340,1,0,0:0:0:0:
448,192,30413,1,0,0:0:0:0:
320,192,30485,1,0,0:0:0:0:
192,192,30485,1,0,0:0:0:0:
64,192,30557,1,0,0:0:0:0:
448,192,30629,128,0,30845:0:0:0:0:
320,192,30629,1,0,0:0:0:0:
192,192,30629,1,0,0:0:0:0:
64,192,30701,1,0,0:0:0:0:
192,192,30773,1,0,0:0:0:0:
320,192,30845,1,0,0:0:0:0:
64,192,30917,1,0,0:0:0:0:
192,192,30917,1,0,0:0:0:0:
320,192,30990,1,0,0:0:0:0:
192,192,31062,1,0,0:0:0:0:
64,192,31134,1,0,0:0:0:0:
448,192,31206,128,0,31422:0:0:0:0:
320,192,31206,1,0,0:0:0:0:
192,192,31278,1,0,0:0:0:0:
64,192,31350,1,0,0:0:0:0:
192,192,31422,1,0,0:0:0:0:
320,192,31494,1,0,0:0:0:0:
64,192,31566,1,0,0:0:0:0:
192,192,31639,1,0,0:0:0:0:
320,192,31711,1,0,0:0:0:0:
448,192,31783,128,0,31999:0:0:0:0:
64,192,31783,1,0,0:0:0:0:
320,192,31855,1,0,0:0:0:0:
192,192,31927,1,0,0:0:0:0:
320,192,31999,1,0,0:0:0:0:
64,192,32071,1,0,0:0:0:0:
192,192,32071,1,0,0:0:0:0:
320,192,32143,1,0,0:0:0:0:
192,192,32215,1,0,0:0:0:0:
64,192,32288,1,0,0:0:0:0:
448,192,32360,128,0,32576:0:0:0:0:
320,192,32360,1,0,0:0:0:0:
192,192,32360,1,0,0:0:0:0:
64,192,32432,1,0,0:0:0:0:
320,192,32504,1,0,0:0:0:0:
192,192,32576,1,0,0:0:0:0:
64,192,32648,1,0,0:0:0:0:
320,192,32648,1,0,0:0:0:0:
192,192,32720,1,0,0:0:0:0:
448,192,32792,1,0,0:0:0:0:
192,192,32937,128,0,33153:0:0:0:0:
64,192,32937,1,0,0:0:0:0:
448,192,32937,1,0,0:0:0:0:
320,192,33009,1,0,0:0:0:0:
448,192,33081,1,0,0:0:0:0:
64,192,33153,1,0,0:0:0:0:
320,192,33225,1,0,0:0:0:0:
448,192,33225,1,0,0:0:0:0:
64,192,33369,1,0,0:0:0:0:
192,192,33514,128,0,33730:0:0:0:0:
448,192,33514,1,0,0:0:0:0:
320,192,33586,1,0,0:0:0:0:
64,192,33658,1,0,0:0:0:0:
448,192,33730,1,0,0:0:0:0:
320,192,33802,1,0,0:0:0:0:
448,192,33874,1,0,0:0:0:0:
64,192,33946,1,0,0:0:0:0:
320,192,34018,1,0,0:0:0:0:
192,192,34090,128,0,34307:0:0:0:0:
448,192,34090,1,0,0:0:0:0:
320,192,34163,1,0,0:0:0:0:
64,192,34235,1,0,0:0:0:0:
320,192,34379,1,0,0:0:0:0:
448,192,34379,1,0,0:0:0:0:
192,192,34451,1,0,0:0:0:0:
64,192,34523,1,0,0:0:0:0:
320,192,34595,1,0,0:0:0:0:
192,192,34667,128,0,34884:0:0:0:0:
448,192,34667,1,0,0:0:0:0:
64,192,34740,1,0,0:0:0:0:
320,192,34812,1,0,0:0:0:0:
448,192,34884,1,0,0:0:0:0:
64,192,34956,1,0,0:0:0:0:
320,192,34956,1,0,0:0:0:0:
448,192,35028,1,0,0:0:0:0:
192,192,35100,1,0,0:0:0:0:
320,192,35172,1,0,0:0:0:0:
64,192,35244,128,0,35461:0:0:0:0:
448,192,35244,1,0,0:0:0:0:
320,192,35316,1,0,0:0:0:0:
192,192,35389,1,0,0:0:0:0:
320,192,35461,1,0,0:0:0:0:
192,192,35533,1,0,0:0:0:0:
448,192,35533,1,0,0:0:0:0:
64,192,35605,1,0,0:0:0:0:
320,192,35677,1,0,0:0:0:0:
64,192,35821,128,0,36038:0:0:0:0:
448,192,35821,1,0,0:0:0:0:
192,192,35821,1,0,0:0:0:0:
192,192,35965,1,0,0:0:0:0:
320,192,36038,1,0,0:0:0:0:
448,192,36110,1,0,0:0:0:0:
192,192,36110,1,0,0:0:0:0:
64,192,36182,1,0,0:0:0:0:
320,192,36254,1,0,0:0:0:0:
64,192,36326,1,0,0:0:0:0:
448,192,36398,128,0,36687:0:0:0:0:
192,192,36398,1,0,0:0:0:0:
320,192,36470,1,0,0:0:0:0:
64,192,36542,1,0,0:0:0:0:
192,192,36615,1,0,0:0:0:0:
320,192,36687,1,0,0:0:0:0:
64,192,36759,1,0,0:0:0:0:
192,192,36831,1,0,0:0:0:0:
448,192,36903,1,0,0:0:0:0:
64,192,36975,1,0,0:0:0:0:
320,192,36975,128,0,37191:0:0:0:0:
448,192,37047,1,0,0:0:0:0:
192,192,37047,1,0,0:0:0:0:
64,192,37119,1,0,0:0:0:0:
192,192,37191,1,0,0:0:0:0:
448,192,37264,1,0,0:0:0:0:
64,192,37264,1,0,0:0:0:0:
192,192,37336,1,0,0:0:0:0:
320,192,37336,1,0,0:0:0:0:
448,192,37408,1,0,0:0:0:0:
64,192,37480,1,0,0:0:0:0:
320,192,37552,1,0,0:0:0:0:
192,192,37552,128,0,37768:0:0:0:0:
448,192,37696,1,0,0:0:0:0:
64,192,37696,1,0,0:0:0:0:
448,192,37840,1,0,0:0:0:0:
320,192,37840,1,0,0:0:0:0:
64,192,37913,1,0,0:0:0:0:
192,192,37985,1,0,0:0:0:0:
448,192,38129,1,0,0:0:0:0:
320,192,38129,128,0,38345:0:0:0:0:
192,192,38129,1,0,0:0:0:0:
64,192,38201,1,0,0:0:0:0:
192,192,38273,1,0,0:0:0:0:
192,192,38417,1,0,0:0:0:0:
64,192,38417,1,0,0:0:0:0:
448,192,38490,1,0,0:0:0:0:
320,192,38562,1,0,0:0:0:0:
64,192,38562,1,0,0:0:0:0:
192,192,38634,1,0,0:0:0:0:
448,192,38706,128,0,38922:0:0:0:0:
64,192,38706,1,0,0:0:0:0:
320,192,38778,1,0,0:0:0:0:
192,192,38850,1,0,0:0:0:0:
64,192,38922,1,0,0:0:0:0:
320,192,38994,1,0,0:0:0:0:
448,192,39066,1,0,0:0:0:0:
192,192,39139,1,0,0:0:0:0:
64,192,39211,1,0,0:0:0:0:
320,192,39283,1,0,0:0:0:0:
448,192,39283,128,0,39499:0:0:0:0:
192,192,39355,1,0,0:0:0:0:
64,192,39427,1,0,0:0:0:0:
192,192,39499,1,0,0:0:0:0:
320,192,39571,1,0,0:0:0:0:
64,192,39643,1,0,0:0:0:0:
192,192,39715,1,0,0:0:0:0:
320,192,39788,1,0,0:0:0:0:
64,192,39860,1,0,0:0:0:0:
448,192,39860,128,0,40076:0:0:0:0:
320,192,39932,1,0,0:0:0:0:
192,192,40004,1,0,0:0:0:0:
64,192,40076,1,0,0:0:0:0:
320,192,40148,1,0,0:0:0:0:
64,192,40220,1,0,0:0:0:0:
192,192,40292,1,0,0:0:0:0:
64,192,40365,1,0,0:0:0:0:
192,192,40437,1,0,0:0:0:0:
320,192,40437,1,0,0:0:0:0:
448,192,40437,128,0,40653:0:0:0:0:
64,192,40509,1,0,0:0:0:0:
192,192,40581,1,0,0:0:0:0:
320,192,40653,1,0,0:0:0:0:
64,192,40725,1,0,0:0:0:0:
192,192,40725,1,0,0:0:0:0:
320,192,40797,1,0,0:0:0:0:
448,192,40869,1,0,0:0:0:0:
320,192,40941,1,0,0:0:0:0:
64,192,41014,1,0,0:0:0:0:
192,192,41014,128,0,41230:0:0:0:0:
448,192,41014,1,0,0:0:0:0:
320,192,41086,1,0,0:0:0:0:
448,192,41158,1,0,0:0:0:0:
64,192,41230,1,0,0:0:0:0:
448,192,41302,1,0,0:0:0:0:
320,192,41302,1,0,0:0:0:0:
192,192,41374,1,0,0:0:0:0:
64,192,41446,1,0,0:0:0:0:
320,192,41518,1,0,0:0:0:0:
448,192,41590,1,0,0:0:0:0:
192,192,41590,128,0,41807:0:0:0:0:
64,192,41735,1,0,0:0:0:0:
320,192,41807,1,0,0:0:0:0:
448,192,41879,1,0,0:0:0:0:
320,192,41951,1,0,0:0:0:0:
64,192,42023,1,0,0:0:0:0:
320,192,42095,1,0,0:0:0:0:
448,192,42167,1,0,0:0:0:0:
192,192,42167,128,0,42384:0:0:0:0:
320,192,42240,1,0,0:0:0:0:
64,192,42312,1,0,0:0:0:0:
448,192,42384,1,0,0:0:0:0:
320,192,42456,1,0,0:0:0:0:
448,192,42528,1,0,0:0:0:0:
64,192,42600,1,0,0:0:0:0:
320,192,42672,1,0,0:0:0:0:
448,192,42744,1,0,0:0:0:0:
192,192,42744,128,0,42961:0:0:0:0:
64,192,42816,1,0,0:0:0:0:
320,192,42889,1,0,0:0:0:0:
448,192,42961,1,0,0:0:0:0:
64,192,43033,1,0,0:0:0:0:
320,192,43033,1,0,0:0:0:0:
448,192,43105,1,0,0:0:0:0:
192,192,43177,1,0,0:0:0:0:
448,192,43321,1,0,0:0:0:0:
320,192,43321,1,0,0:0:0:0:
64,192,43321,128,0,43538:0:0:0:0:
192,192,43393,1,0,0:0:0:0:
320,192,43538,1,0,0:0:0:0:
448,192,43610,1,0,0:0:0:0:
192,192,43610,1,0,0:0:0:0:
64,192,43682,1,0,0:0:0:0:
192,192,43754,1,0,0:0:0:0:
320,192,43826,1,0,0:0:0:0:
192,192,43898,1,0,0:0:0:0:
448,192,43898,1,0,0:0:0:0:
64,192,43898,128,0,44115:0:0:0:0:
320,192,43970,1,0,0:0:0:0:
192,192,44042,1,0,0:0:0:0:
320,192,44115,1,0,0:0:0:0:
448,192,44187,1,0,0:0:0:0:
64,192,44259,1,0,0:0:0:0:
192,192,44331,1,0,0:0:0:0:
320,192,44403,1,0,0:0:0:0:
64,192,44475,128,0,44691:0:0:0:0:
448,192,44475,1,0,0:0:0:0:
320,192,44547,1,0,0:0:0:0:
192,192,44619,1,0,0:0:0:0:
320,192,44691,1,0,0:0:0:0:
192,192,44764,1,0,0:0:0:0:
448,192,44764,1,0,0:0:0:0:
64,192,44836,1,0,0:0:0:0:
320,192,44908,1,0,0:0:0:0:
64,192,45052,128,0,45268:0:0:0:0:
448,192,45052,1,0,0:0:0:0:
192,192,45052,1,0,0:0:0:0:
192,192,45196,1,0,0:0:0:0:
320,192,45268,1,0,0:0:0:0:
448,192,45340,1,0,0:0:0:0:
192,192,45340,1,0,0:0:0:0:
64,192,45413,1,0,0:0:0:0:
320,192,45485,1,0,0:0:0:0:
64,192,45557,1,0,0:0:0:0:
448,192,45629,128,0,45917:0:0:0:0:
192,192,45629,1,0,0:0:0:0:
320,192,45701,1,0,0:0:0:0:
64,192,45773,1,0,0:0:0:0:
192,192,45845,1,0,0:0:0:0:
320,192,45917,1,0,0:0:0:0:
64,192,45990,1,0,0:0:0:0:
192,192,46062,1,0,0:0:0:0:
320,192,46062,1,0,0:0:0:0:
448,192,46134,1,0,0:0:0:0:
64,192,46206,1,0,0:0:0:0:
448,192,46278,1,0,0:0:0:0:
192,192,46278,1,0,0:0:0:0:
320,192,46278,1,0,0:0:0:0:
64,192,46350,1,0,0:0:0:0:
192,192,46422,1,0,0:0:0:0:
448,192,46494,1,0,0:0:0:0:
64,192,46494,1,0,0:0:0:0:
192,192,46566,1,0,0:0:0:0:
320,192,46566,1,0,0:0:0:0:
320,192,46711,1,0,0:0:0:0:
448,192,46711,1,0,0:0:0:0:
192,192,46855,1,0,0:0:0:0:
320,192,46855,1,0,0:0:0:0:
64,192,47503,128,0,49018:0:0:0:0:
320,192,47503,1,0,0:0:0:0:
448,192,47503,1,0,0:0:0:0:
320,192,48657,1,0,0:0:0:0:
448,192,48657,1,0,0:0:0:0:
192,192,49090,1,0,0:0:0:0:
448,192,49090,1,0,0:0:0:0:
320,192,49234,1,0,0:0:0:0:
192,192,49234,1,0,0:0:0:0:
64,192,49306,1,0,0:0:0:0:
192,192,49378,1,0,0:0:0:0:
320,192,49451,1,0,0:0:0:0:
448,192,49523,1,0,0:0:0:0:
320,192,49595,1,0,0:0:0:0:
192,192,49667,1,0,0:0:0:0:
192,192,49811,1,0,0:0:0:0:
320,192,49811,1,0,0:0:0:0:
448,192,49811,128,0,51326:0:0:0:0:
192,192,50244,1,0,0:0:0:0:
320,192,50244,1,0,0:0:0:0:
64,192,50244,128,0,50965:0:0:0:0:
320,192,50965,1,0,0:0:0:0:
192,192,50965,1,0,0:0:0:0:
192,192,51398,1,0,0:0:0:0:
448,192,51398,1,0,0:0:0:0:
192,192,51542,1,0,0:0:0:0:
320,192,51542,1,0,0:0:0:0:
64,192,51614,1,0,0:0:0:0:
192,192,51686,1,0,0:0:0:0:
320,192,51758,1,0,0:0:0:0:
448,192,51830,1,0,0:0:0:0:
320,192,51902,1,0,0:0:0:0:
192,192,51975,1,0,0:0:0:0:
64,192,52119,128,0,53633:0:0:0:0:
320,192,52119,1,0,0:0:0:0:
448,192,52119,1,0,0:0:0:0:
320,192,52551,1,0,0:0:0:0:
448,192,52551,1,0,0:0:0:0:
192,192,53273,1,0,0:0:0:0:
448,192,53273,1,0,0:0:0:0:
192,192,53705,1,0,0:0:0:0:
320,192,53705,1,0,0:0:0:0:
448,192,53705,128,0,53850:0:0:0:0:
320,192,53850,1,0,0:0:0:0:
64,192,53850,1,0,0:0:0:0:
192,192,53850,128,0,53922:0:0:0:0:
192,192,53994,128,0,54066:0:0:0:0:
320,192,53994,1,0,0:0:0:0:
192,192,54138,128,0,54210:0:0:0:0:
448,192,54138,1,0,0:0:0:0:
192,192,54282,128,0,54354:0:0:0:0:
64,192,54282,1,0,0:0:0:0:
192,192,54426,128,0,54499:0:0:0:0:
320,192,54426,1,0,0:0:0:0:
192,192,54571,128,0,54643:0:0:0:0:
448,192,54571,1,0,0:0:0:0:
192,192,54715,128,0,54787:0:0:0:0:
64,192,54715,1,0,0:0:0:0:
192,192,54859,128,0,54931:0:0:0:0:
320,192,54859,1,0,0:0:0:0:
192,192,55003,1,0,0:0:0:0:
448,192,55003,1,0,0:0:0:0:
192,192,55076,1,0,0:0:0:0:
64,192,55076,1,0,0:0:0:0:
192,192,55148,1,0,0:0:0:0:
448,192,55148,1,0,0:0:0:0:
192,192,55220,1,0,0:0:0:0:
64,192,55220,1,0,0:0:0:0:
320,192,55292,1,0,0:0:0:0:
448,192,55364,1,0,0:0:0:0:
192,192,55364,1,0,0:0:0:0:
64,192,55436,1,0,0:0:0:0:
320,192,55508,1,0,0:0:0:0:
448,192,55508,1,0,0:0:0:0:
192,192,55580,1,0,0:0:0:0:
448,192,55652,1,0,0:0:0:0:
64,192,55652,1,0,0:0:0:0:
320,192,55725,1,0,0:0:0:0:
64,192,55797,1,0,0:0:0:0:
448,192,55797,1,0,0:0:0:0:
192,192,55869,1,0,0:0:0:0:
320,192,55869,1,0,0:0:0:0:
192,192,56157,1,0,0:0:0:0:
448,192,56157,1,0,0:0:0:0:
320,192,56157,128,0,56446:0:0:0:0:
192,192,56590,128,0,56878:0:0:0:0:
64,192,56590,1,0,0:0:0:0:
448,192,56590,1,0,0:0:0:0:
64,192,57023,128,0,58465:0:0:0:0:
320,192,57023,1,0,0:0:0:0:
448,192,57023,1,0,0:0:0:0:
192,192,57600,1,0,0:0:0:0:
448,192,57600,1,0,0:0:0:0:
320,192,57888,1,0,0:0:0:0:
192,192,57888,1,0,0:0:0:0:
448,192,57888,128,0,58465:0:0:0:0:
320,192,58249,1,0,0:0:0:0:
192,192,58465,1,0,0:0:0:0:
320,192,58465,128,0,59042:0:0:0:0:
64,192,58753,1,0,0:0:0:0:
448,192,58898,1,0,0:0:0:0:
192,192,59042,128,0,59619:0:0:0:0:
64,192,59042,1,0,0:0:0:0:
448,192,59042,1,0,0:0:0:0:
448,192,59330,1,0,0:0:0:0:
448,192,59619,1,0,0:0:0:0:
64,192,59619,1,0,0:0:0:0:
320,192,59619,128,0,59979:0:0:0:0:
64,192,59907,1,0,0:0:0:0:
192,192,59979,128,0,60773:0:0:0:0:
64,192,60051,1,0,0:0:0:0:
448,192,60051,1,0,0:0:0:0:
320,192,60196,1,0,0:0:0:0:
448,192,60196,1,0,0:0:0:0:
64,192,60484,1,0,0:0:0:0:
448,192,60773,128,0,61422:0:0:0:0:
64,192,60773,1,0,0:0:0:0:
320,192,60773,1,0,0:0:0:0:
192,192,61061,1,0,0:0:0:0:
320,192,61205,1,0,0:0:0:0:
192,192,61350,1,0,0:0:0:0:
320,192,61350,1,0,0:0:0:0:
320,192,61638,1,0,0:0:0:0:
64,192,61782,1,0,0:0:0:0:
192,192,61782,1,0,0:0:0:0:
192,192,61926,1,0,0:0:0:0:
448,192,61926,1,0,0:0:0:0:
64,192,61926,128,0,62215:0:0:0:0:
320,192,62215,1,0,0:0:0:0:
192,192,62359,128,0,62648:0:0:0:0:
448,192,62503,1,0,0:0:0:0:
448,192,62792,128,0,64234:0:0:0:0:
64,192,62792,1,0,0:0:0:0:
320,192,63369,1,0,0:0:0:0:
64,192,63657,128,0,64234:0:0:0:0:
192,192,63657,1,0,0:0:0:0:
320,192,63946,1,0,0:0:0:0:
192,192,64234,128,0,64811:0:0:0:0:
320,192,64234,1,0,0:0:0:0:
64,192,64523,1,0,0:0:0:0:
320,192,64811,128,0,65388:0:0:0:0:
448,192,64811,1,0,0:0:0:0:
64,192,64811,1,0,0:0:0:0:
192,192,65100,1,0,0:0:0:0:
64,192,65388,128,0,65749:0:0:0:0:
448,192,65388,1,0,0:0:0:0:
192,192,65388,1,0,0:0:0:0:
320,192,65676,1,0,0:0:0:0:
448,192,65676,1,0,0:0:0:0:
192,192,65749,128,0,66109:0:0:0:0:
320,192,65965,1,0,0:0:0:0:
64,192,65965,1,0,0:0:0:0:
448,192,66253,1,0,0:0:0:0:
320,192,66326,128,0,66542:0:0:0:0:
192,192,66470,1,0,0:0:0:0:
64,192,66470,1,0,0:0:0:0:
192,192,66542,1,0,0:0:0:0:
448,192,66542,1,0,0:0:0:0:
64,192,66686,1,0,0:0:0:0:
192,192,66686,1,0,0:0:0:0:
192,192,66830,1,0,0:0:0:0:
320,192,66830,1,0,0:0:0:0:
320,192,66975,1,0,0:0:0:0:
448,192,66975,1,0,0:0:0:0:
64,192,67119,1,0,0:0:0:0:
192,192,67119,1,0,0:0:0:0:
192,192,67263,1,0,0:0:0:0:
320,192,67263,1,0,0:0:0:0:
320,192,67407,1,0,0:0:0:0:
448,192,67407,1,0,0:0:0:0:
64,192,67696,128,0,70220:0:0:0:0:
192,192,67696,128,0,68201:0:0:0:0:
320,192,67696,128,0,68056:0:0:0:0:
448,192,67696,128,0,67912:0:0:0:0:
448,192,67984,128,0,68633:0:0:0:0:
320,192,68128,128,0,68489:0:0:0:0:
192,192,68273,128,0,68922:0:0:0:0:
320,192,68561,128,0,68777:0:0:0:0:
448,192,68705,128,0,69210:0:0:0:0:
320,192,68850,128,0,69066:0:0:0:0:
192,192,68994,128,0,69499:0:0:0:0:
320,192,69138,128,0,69354:0:0:0:0:
448,192,69282,128,0,69787:0:0:0:0:
320,192,69426,128,0,69643:0:0:0:0:
192,192,69571,128,0,70076:0:0:0:0:
320,192,69715,128,0,69931:0:0:0:0:
448,192,69859,128,0,72527:0:0:0:0:
320,192,70003,128,0,70364:0:0:0:0:
192,192,70148,128,0,70508:0:0:0:0:
64,192,70292,128,0,70652:0:0:0:0:
320,192,70436,128,0,70941:0:0:0:0:
192,192,70580,128,0,70797:0:0:0:0:
64,192,70725,128,0,71229:0:0:0:0:
192,192,70869,128,0,71085:0:0:0:0:
320,192,71013,128,0,71806:0:0:0:0:
192,192,71157,128,0,71374:0:0:0:0:
64,192,71301,128,0,71518:0:0:0:0:
192,192,71446,128,0,71662:0:0:0:0:
64,192,71590,128,0,71951:0:0:0:0:
192,192,71734,128,0,72095:0:0:0:0:
320,192,71878,128,0,72239:0:0:0:0:
64,192,72023,128,0,72383:0:0:0:0:
192,192,72167,128,0,72816:0:0:0:0:
320,192,72311,128,0,72672:0:0:0:0:
64,192,72455,128,0,74258:0:0:0:0:
448,192,72600,128,0,73104:0:0:0:0:
320,192,72744,128,0,72960:0:0:0:0:
192,192,72888,128,0,73393:0:0:0:0:
320,192,73032,128,0,73249:0:0:0:0:
448,192,73176,128,0,73681:0:0:0:0:
320,192,73321,128,0,73537:0:0:0:0:
192,192,73465,128,0,73970:0:0:0:0:
320,192,73609,128,0,73826:0:0:0:0:
448,192,73753,128,0,75701:0:0:0:0:
320,192,73898,128,0,74114:0:0:0:0:
192,192,74042,128,0,74402:0:0:0:0:
320,192,74186,128,0,74547:0:0:0:0:
64,192,74330,128,0,74691:0:0:0:0:
192,192,74475,128,0,74835:0:0:0:0:
320,192,74619,128,0,74979:0:0:0:0:
64,192,74763,128,0,75268:0:0:0:0:
192,192,74907,128,0,75124:0:0:0:0:
320,192,75051,128,0,75556:0:0:0:0:
192,192,75196,128,0,75412:0:0:0:0:
64,192,75340,128,0,76854:0:0:0:0:
192,192,75484,128,0,76277:0:0:0:0:
320,192,75628,128,0,75845:0:0:0:0:
448,192,75773,128,0,75989:0:0:0:0:
320,192,75917,128,0,76133:0:0:0:0:
448,192,76061,128,0,76566:0:0:0:0:
320,192,76205,128,0,76422:0:0:0:0:
192,192,76350,128,0,76854:0:0:0:0:
320,192,76494,128,0,76710:0:0:0:0:
448,192,76638,128,0,76854:0:0:0:0:
320,192,76782,128,0,76854:0:0:0:0:
448,192,76926,128,0,77215:0:0:0:0:
64,192,77071,1,0,0:0:0:0:
192,192,77143,1,0,0:0:0:0:
320,192,77215,1,0,0:0:0:0:
64,192,77215,1,0,0:0:0:0:
192,192,77359,1,0,0:0:0:0:
320,192,77503,128,0,77720:0:0:0:0:
64,192,77503,1,0,0:0:0:0:
448,192,77503,1,0,0:0:0:0:
192,192,77576,1,0,0:0:0:0:
64,192,77648,1,0,0:0:0:0:
192,192,77720,1,0,0:0:0:0:
448,192,77792,1,0,0:0:0:0:
192,192,77864,1,0,0:0:0:0:
64,192,77936,1,0,0:0:0:0:
448,192,78008,1,0,0:0:0:0:
192,192,78080,128,0,78297:0:0:0:0:
320,192,78080,1,0,0:0:0:0:
64,192,78152,1,0,0:0:0:0:
448,192,78225,1,0,0:0:0:0:
64,192,78297,1,0,0:0:0:0:
320,192,78369,1,0,0:0:0:0:
448,192,78369,1,0,0:0:0:0:
64,192,78441,1,0,0:0:0:0:
192,192,78513,1,0,0:0:0:0:
448,192,78585,1,0,0:0:0:0:
320,192,78657,128,0,78874:0:0:0:0:
64,192,78657,1,0,0:0:0:0:
448,192,78729,1,0,0:0:0:0:
192,192,78801,1,0,0:0:0:0:
64,192,78946,1,0,0:0:0:0:
192,192,78946,1,0,0:0:0:0:
448,192,79018,1,0,0:0:0:0:
320,192,79090,1,0,0:0:0:0:
192,192,79090,1,0,0:0:0:0:
64,192,79162,1,0,0:0:0:0:
448,192,79234,128,0,79451:0:0:0:0:
320,192,79234,1,0,0:0:0:0:
192,192,79234,1,0,0:0:0:0:
64,192,79306,1,0,0:0:0:0:
192,192,79378,1,0,0:0:0:0:
320,192,79451,1,0,0:0:0:0:
64,192,79523,1,0,0:0:0:0:
192,192,79523,1,0,0:0:0:0:
320,192,79595,1,0,0:0:0:0:
192,192,79667,1,0,0:0:0:0:
64,192,79739,1,0,0:0:0:0:
448,192,79811,128,0,80027:0:0:0:0:
320,192,79811,1,0,0:0:0:0:
192,192,79883,1,0,0:0:0:0:
64,192,79955,1,0,0:0:0:0:
192,192,80027,1,0,0:0:0:0:
320,192,80100,1,0,0:0:0:0:
64,192,80172,1,0,0:0:0:0:
192,192,80244,1,0,0:0:0:0:
320,192,80316,1,0,0:0:0:0:
448,192,80388,128,0,80604:0:0:0:0:
64,192,80388,1,0,0:0:0:0:
320,192,80460,1,0,0:0:0:0:
192,192,80532,1,0,0:0:0:0:
320,192,80604,1,0,0:0:0:0:
64,192,80676,1,0,0:0:0:0:
192,192,80676,1,0,0:0:0:0:
320,192,80749,1,0,0:0:0:0:
192,192,80821,1,0,0:0:0:0:
64,192,80893,1,0,0:0:0:0:
448,192,80965,128,0,81181:0:0:0:0:
320,192,80965,1,0,0:0:0:0:
192,192,80965,1,0,0:0:0:0:
64,192,81037,1,0,0:0:0:0:
320,192,81109,1,0,0:0:0:0:
192,192,81181,1,0,0:0:0:0:
64,192,81253,1,0,0:0:0:0:
320,192,81253,1,0,0:0:0:0:
192,192,81326,1,0,0:0:0:0:
448,192,81398,1,0,0:0:0:0:
192,192,81542,128,0,81758:0:0:0:0:
64,192,81542,1,0,0:0:0:0:
448,192,81542,1,0,0:0:0:0:
320,192,81614,1,0,0:0:0:0:
448,192,81686,1,0,0:0:0:0:
64,192,81758,1,0,0:0:0:0:
320,192,81830,1,0,0:0:0:0:
448,192,81830,1,0,0:0:0:0:
64,192,81975,1,0,0:0:0:0:
192,192,82119,128,0,82335:0:0:0:0:
448,192,82119,1,0,0:0:0:0:
320,192,82191,1,0,0:0:0:0:
64,192,82263,1,0,0:0:0:0:
448,192,82335,1,0,0:0:0:0:
320,192,82407,1,0,0:0:0:0:
448,192,82479,1,0,0:0:0:0:
64,192,82551,1,0,0:0:0:0:
320,192,82624,1,0,0:0:0:0:
192,192,82696,128,0,82912:0:0:0:0:
448,192,82696,1,0,0:0:0:0:
320,192,82768,1,0,0:0:0:0:
64,192,82840,1,0,0:0:0:0:
320,192,82984,1,0,0:0:0:0:
448,192,82984,1,0,0:0:0:0:
192,192,83056,1,0,0:0:0:0:
64,192,83128,1,0,0:0:0:0:
320,192,83201,1,0,0:0:0:0:
192,192,83273,128,0,83489:0:0:0:0:
448,192,83273,1,0,0:0:0:0:
64,192,83345,1,0,0:0:0:0:
320,192,83417,1,0,0:0:0:0:
448,192,83489,1,0,0:0:0:0:
64,192,83561,1,0,0:0:0:0:
320,192,83561,1,0,0:0:0:0:
448,192,83633,1,0,0:0:0:0:
192,192,83705,1,0,0:0:0:0:
320,192,83777,1,0,0:0:0:0:
64,192,83850,128,0,84066:0:0:0:0:
448,192,83850,1,0,0:0:0:0:
320,192,83922,1,0,0:0:0:0:
192,192,83994,1,0,0:0:0:0:
320,192,84066,1,0,0:0:0:0:
192,192,84138,1,0,0:0:0:0:
448,192,84138,1,0,0:0:0:0:
64,192,84210,1,0,0:0:0:0:
320,192,84282,1,0,0:0:0:0:
64,192,84426,128,0,84643:0:0:0:0:
448,192,84426,1,0,0:0:0:0:
192,192,84426,1,0,0:0:0:0:
192,192,84571,1,0,0:0:0:0:
320,192,84643,1,0,0:0:0:0:
448,192,84715,1,0,0:0:0:0:
192,192,84715,1,0,0:0:0:0:
64,192,84787,1,0,0:0:0:0:
320,192,84859,1,0,0:0:0:0:
64,192,84931,1,0,0:0:0:0:
448,192,85003,128,0,85292:0:0:0:0:
192,192,85003,1,0,0:0:0:0:
320,192,85076,1,0,0:0:0:0:
64,192,85148,1,0,0:0:0:0:
192,192,85220,1,0,0:0:0:0:
320,192,85292,1,0,0:0:0:0:
64,192,85364,1,0,0:0:0:0:
192,192,85364,1,0,0:0:0:0:
448,192,85508,1,0,0:0:0:0:
320,192,85508,1,0,0:0:0:0:
192,192,85652,1,0,0:0:0:0:
64,192,85652,1,0,0:0:0:0:
192,192,85797,1,0,0:0:0:0:
320,192,85797,1,0,0:0:0:0:
64,192,85941,1,0,0:0:0:0:
192,192,85941,1,0,0:0:0:0:
320,192,86085,1,0,0:0:0:0:
448,192,86085,1,0,0:0:0:0:
64,192,86229,1,0,0:0:0:0:
320,192,86229,1,0,0:0:0:0:
192,192,86229,128,0,86446:0:0:0:0:
448,192,86446,1,0,0:0:0:0:
320,192,86446,1,0,0:0:0:0:
64,192,86518,1,0,0:0:0:0:
192,192,86590,1,0,0:0:0:0:
448,192,86734,1,0,0:0:0:0:
320,192,86734,128,0,86951:0:0:0:0:
192,192,86734,1,0,0:0:0:0:
64,192,86806,1,0,0:0:0:0:
192,192,86878,1,0,0:0:0:0:
192,192,87023,1,0,0:0:0:0:
64,192,87023,1,0,0:0:0:0:
448,192,87095,1,0,0:0:0:0:
320,192,87167,1,0,0:0:0:0:
64,192,87167,1,0,0:0:0:0:
192,192,87239,1,0,0:0:0:0:
448,192,87311,128,0,87527:0:0:0:0:
64,192,87311,1,0,0:0:0:0:
320,192,87383,1,0,0:0:0:0:
192,192,87455,1,0,0:0:0:0:
64,192,87527,1,0,0:0:0:0:
320,192,87600,1,0,0:0:0:0:
448,192,87672,1,0,0:0:0:0:
192,192,87744,1,0,0:0:0:0:
64,192,87816,1,0,0:0:0:0:
320,192,87888,1,0,0:0:0:0:
448,192,87888,128,0,88104:0:0:0:0:
192,192,87960,1,0,0:0:0:0:
64,192,88032,1,0,0:0:0:0:
192,192,88104,1,0,0:0:0:0:
320,192,88176,1,0,0:0:0:0:
64,192,88249,1,0,0:0:0:0:
192,192,88321,1,0,0:0:0:0:
320,192,88393,1,0,0:0:0:0:
64,192,88465,1,0,0:0:0:0:
192,192,88465,1,0,0:0:0:0:
448,192,88537,128,0,88753:0:0:0:0:
320,192,88609,1,0,0:0:0:0:
192,192,88681,1,0,0:0:0:0:
64,192,88753,1,0,0:0:0:0:
320,192,88825,1,0,0:0:0:0:
64,192,88897,1,0,0:0:0:0:
192,192,88969,1,0,0:0:0:0:
64,192,89041,1,0,0:0:0:0:
192,192,89113,1,0,0:0:0:0:
320,192,89113,1,0,0:0:0:0:
448,192,89113,128,0,89330:0:0:0:0:
64,192,89186,1,0,0:0:0:0:
192,192,89258,1,0,0:0:0:0:
320,192,89330,1,0,0:0:0:0:
64,192,89402,1,0,0:0:0:0:
192,192,89402,1,0,0:0:0:0:
320,192,89474,1,0,0:0:0:0:
448,192,89546,1,0,0:0:0:0:
320,192,89618,1,0,0:0:0:0:
64,192,89690,1,0,0:0:0:0:
192,192,89690,128,0,89907:0:0:0:0:
448,192,89690,1,0,0:0:0:0:
320,192,89762,1,0,0:0:0:0:
448,192,89835,1,0,0:0:0:0:
64,192,89907,1,0,0:0:0:0:
448,192,89979,1,0,0:0:0:0:
320,192,89979,1,0,0:0:0:0:
192,192,90051,1,0,0:0:0:0:
64,192,90123,1,0,0:0:0:0:
320,192,90195,1,0,0:0:0:0:
448,192,90267,1,0,0:0:0:0:
192,192,90267,128,0,90484:0:0:0:0:
64,192,90412,1,0,0:0:0:0:
320,192,90484,1,0,0:0:0:0:
448,192,90556,1,0,0:0:0:0:
320,192,90628,1,0,0:0:0:0:
192,192,90700,1,0,0:0:0:0:
64,192,90772,1,0,0:0:0:0:
448,192,90844,1,0,0:0:0:0:
192,192,90844,128,0,91061:0:0:0:0:
320,192,90844,1,0,0:0:0:0:
64,192,90988,1,0,0:0:0:0:
448,192,91061,1,0,0:0:0:0:
320,192,91133,1,0,0:0:0:0:
448,192,91205,1,0,0:0:0:0:
64,192,91277,1,0,0:0:0:0:
320,192,91349,1,0,0:0:0:0:
448,192,91421,1,0,0:0:0:0:
192,192,91421,128,0,91637:0:0:0:0:
64,192,91493,1,0,0:0:0:0:
320,192,91565,1,0,0:0:0:0:
448,192,91637,1,0,0:0:0:0:
64,192,91710,1,0,0:0:0:0:
320,192,91710,1,0,0:0:0:0:
448,192,91782,1,0,0:0:0:0:
192,192,91854,1,0,0:0:0:0:
448,192,91998,1,0,0:0:0:0:
320,192,91998,1,0,0:0:0:0:
64,192,91998,128,0,92214:0:0:0:0:
192,192,92070,1,0,0:0:0:0:
320,192,92214,1,0,0:0:0:0:
448,192,92287,1,0,0:0:0:0:
192,192,92287,1,0,0:0:0:0:
64,192,92359,1,0,0:0:0:0:
192,192,92431,1,0,0:0:0:0:
320,192,92503,1,0,0:0:0:0:
192,192,92575,1,0,0:0:0:0:
448,192,92575,1,0,0:0:0:0:
64,192,92575,128,0,92791:0:0:0:0:
320,192,92647,1,0,0:0:0:0:
192,192,92719,1,0,0:0:0:0:
320,192,92791,1,0,0:0:0:0:
448,192,92863,1,0,0:0:0:0:
64,192,92936,1,0,0:0:0:0:
192,192,93008,1,0,0:0:0:0:
448,192,93080,1,0,0:0:0:0:
64,192,93152,128,0,93368:0:0:0:0:
192,192,93152,1,0,0:0:0:0:
320,192,93152,1,0,0:0:0:0:
448,192,93224,1,0,0:0:0:0:
192,192,93296,1,0,0:0:0:0:
320,192,93368,1,0,0:0:0:0:
192,192,93440,1,0,0:0:0:0:
448,192,93440,1,0,0:0:0:0:
64,192,93512,1,0,0:0:0:0:
320,192,93585,1,0,0:0:0:0:
64,192,93729,128,0,93945:0:0:0:0:
448,192,93729,1,0,0:0:0:0:
192,192,93729,1,0,0:0:0:0:
320,192,93729,1,0,0:0:0:0:
192,192,93873,1,0,0:0:0:0:
320,192,93945,1,0,0:0:0:0:
448,192,94017,1,0,0:0:0:0:
192,192,94017,1,0,0:0:0:0:
64,192,94089,1,0,0:0:0:0:
320,192,94161,1,0,0:0:0:0:
64,192,94234,1,0,0:0:0:0:
448,192,94306,128,0,94594:0:0:0:0:
192,192,94306,1,0,0:0:0:0:
320,192,94378,1,0,0:0:0:0:
64,192,94450,1,0,0:0:0:0:
192,192,94522,1,0,0:0:0:0:
320,192,94594,1,0,0:0:0:0:
64,192,94666,1,0,0:0:0:0:
192,192,94738,1,0,0:0:0:0:
320,192,94738,1,0,0:0:0:0:
448,192,94811,1,0,0:0:0:0:
64,192,94883,1,0,0:0:0:0:
192,192,94883,1,0,0:0:0:0:
320,192,94955,1,0,0:0:0:0:
192,192,95027,1,0,0:0:0:0:
64,192,95099,1,0,0:0:0:0:
448,192,95171,1,0,0:0:0:0:
320,192,95171,1,0,0:0:0:0:
192,192,95243,1,0,0:0:0:0:
64,192,95315,1,0,0:0:0:0:
448,192,95387,1,0,0:0:0:0:
320,192,95387,1,0,0:0:0:0:
64,192,95460,1,0,0:0:0:0:
192,192,95460,1,0,0:0:0:0:
320,192,95532,1,0,0:0:0:0:
192,192,95604,1,0,0:0:0:0:
448,192,95676,1,0,0:0:0:0:
320,192,95748,1,0,0:0:0:0:
64,192,95820,1,0,0:0:0:0:
320,192,95892,1,0,0:0:0:0:
192,192,95964,1,0,0:0:0:0:
64,192,96036,1,0,0:0:0:0:
448,192,96036,128,0,96325:0:0:0:0:
320,192,96036,1,0,0:0:0:0:
64,192,96181,1,0,0:0:0:0:
192,192,96253,1,0,0:0:0:0:
64,192,96325,1,0,0:0:0:0:
320,192,96325,1,0,0:0:0:0:
192,192,96397,1,0,0:0:0:0:
448,192,96541,1,0,0:0:0:0:
64,192,96541,1,0,0:0:0:0:
320,192,96541,128,0,96758:0:0:0:0:
192,192,96613,1,0,0:0:0:0:
64,192,96686,1,0,0:0:0:0:
192,192,96758,1,0,0:0:0:0:
64,192,96830,1,0,0:0:0:0:
448,192,96902,1,0,0:0:0:0:
192,192,96974,1,0,0:0:0:0:
64,192,97046,1,0,0:0:0:0:
448,192,97118,1,0,0:0:0:0:
320,192,97190,1,0,0:0:0:0:
192,192,97190,128,0,97407:0:0:0:0:
64,192,97262,1,0,0:0:0:0:
448,192,97335,1,0,0:0:0:0:
64,192,97407,1,0,0:0:0:0:
448,192,97479,1,0,0:0:0:0:
320,192,97479,1,0,0:0:0:0:
64,192,97551,1,0,0:0:0:0:
192,192,97623,1,0,0:0:0:0:
448,192,97695,1,0,0:0:0:0:
64,192,97767,1,0,0:0:0:0:
320,192,97767,128,0,97984:0:0:0:0:
448,192,97839,1,0,0:0:0:0:
192,192,97911,1,0,0:0:0:0:
192,192,98056,1,0,0:0:0:0:
64,192,98056,1,0,0:0:0:0:
448,192,98128,1,0,0:0:0:0:
192,192,98200,1,0,0:0:0:0:
320,192,98200,1,0,0:0:0:0:
64,192,98272,1,0,0:0:0:0:
192,192,98344,1,0,0:0:0:0:
320,192,98344,1,0,0:0:0:0:
448,192,98344,128,0,98561:0:0:0:0:
64,192,98416,1,0,0:0:0:0:
192,192,98488,1,0,0:0:0:0:
320,192,98561,1,0,0:0:0:0:
192,192,98633,1,0,0:0:0:0:
64,192,98633,1,0,0:0:0:0:
320,192,98705,1,0,0:0:0:0:
192,192,98777,1,0,0:0:0:0:
64,192,98849,1,0,0:0:0:0:
320,192,98921,1,0,0:0:0:0:
448,192,98921,128,0,99137:0:0:0:0:
192,192,98993,1,0,0:0:0:0:
64,192,99065,1,0,0:0:0:0:
192,192,99137,1,0,0:0:0:0:
320,192,99210,1,0,0:0:0:0:
64,192,99282,1,0,0:0:0:0:
192,192,99354,1,0,0:0:0:0:
320,192,99426,1,0,0:0:0:0:
64,192,99498,1,0,0:0:0:0:
448,192,99498,128,0,99714:0:0:0:0:
320,192,99570,1,0,0:0:0:0:
192,192,99642,1,0,0:0:0:0:
320,192,99714,1,0,0:0:0:0:
192,192,99786,1,0,0:0:0:0:
64,192,99786,1,0,0:0:0:0:
320,192,99859,1,0,0:0:0:0:
192,192,99931,1,0,0:0:0:0:
64,192,100003,1,0,0:0:0:0:
320,192,100003,1,0,0:0:0:0:
192,192,100075,1,0,0:0:0:0:
448,192,100075,128,0,100291:0:0:0:0:
64,192,100147,1,0,0:0:0:0:
320,192,100219,1,0,0:0:0:0:
192,192,100291,1,0,0:0:0:0:
320,192,100363,1,0,0:0:0:0:
64,192,100363,1,0,0:0:0:0:
192,192,100436,1,0,0:0:0:0:
448,192,100508,1,0,0:0:0:0:
320,192,100580,1,0,0:0:0:0:
448,192,100652,1,0,0:0:0:0:
64,192,100652,1,0,0:0:0:0:
192,192,100652,128,0,100868:0:0:0:0:
320,192,100724,1,0,0:0:0:0:
448,192,100796,1,0,0:0:0:0:
64,192,100868,1,0,0:0:0:0:
448,192,100940,1,0,0:0:0:0:
320,192,100940,1,0,0:0:0:0:
192,192,101012,1,0,0:0:0:0:
64,192,101085,1,0,0:0:0:0:
320,192,101157,1,0,0:0:0:0:
448,192,101229,1,0,0:0:0:0:
192,192,101229,128,0,101445:0:0:0:0:
320,192,101301,1,0,0:0:0:0:
64,192,101373,1,0,0:0:0:0:
448,192,101445,1,0,0:0:0:0:
320,192,101517,1,0,0:0:0:0:
448,192,101589,1,0,0:0:0:0:
192,192,101589,1,0,0:0:0:0:
64,192,101661,1,0,0:0:0:0:
320,192,101734,1,0,0:0:0:0:
448,192,101806,1,0,0:0:0:0:
192,192,101806,128,0,102022:0:0:0:0:
320,192,101878,1,0,0:0:0:0:
64,192,101950,1,0,0:0:0:0:
448,192,102094,1,0,0:0:0:0:
320,192,102094,1,0,0:0:0:0:
192,192,102166,1,0,0:0:0:0:
64,192,102238,1,0,0:0:0:0:
320,192,102311,1,0,0:0:0:0:
192,192,102383,128,0,102599:0:0:0:0:
64,192,102455,1,0,0:0:0:0:
448,192,102455,1,0,0:0:0:0:
320,192,102527,1,0,0:0:0:0:
448,192,102599,1,0,0:0:0:0:
320,192,102671,1,0,0:0:0:0:
64,192,102671,1,0,0:0:0:0:
448,192,102743,1,0,0:0:0:0:
192,192,102815,1,0,0:0:0:0:
320,192,102887,1,0,0:0:0:0:
448,192,102960,1,0,0:0:0:0:
64,192,102960,128,0,103176:0:0:0:0:
192,192,102960,1,0,0:0:0:0:
320,192,103032,1,0,0:0:0:0:
192,192,103104,1,0,0:0:0:0:
320,192,103176,1,0,0:0:0:0:
448,192,103248,1,0,0:0:0:0:
192,192,103248,1,0,0:0:0:0:
64,192,103320,1,0,0:0:0:0:
320,192,103392,1,0,0:0:0:0:
192,192,103392,1,0,0:0:0:0:
192,192,103536,1,0,0:0:0:0:
448,192,103536,1,0,0:0:0:0:
64,192,103536,128,0,103753:0:0:0:0:
320,192,103536,1,0,0:0:0:0:
192,192,103681,1,0,0:0:0:0:
320,192,103753,1,0,0:0:0:0:
192,192,103825,1,0,0:0:0:0:
448,192,103825,1,0,0:0:0:0:
64,192,103897,1,0,0:0:0:0:
192,192,103969,1,0,0:0:0:0:
64,192,104041,1,0,0:0:0:0:
320,192,104041,1,0,0:0:0:0:
192,192,104113,1,0,0:0:0:0:
448,192,104113,128,0,104402:0:0:0:0:
320,192,104186,1,0,0:0:0:0:
64,192,104258,1,0,0:0:0:0:
192,192,104330,1,0,0:0:0:0:
320,192,104402,1,0,0:0:0:0:
64,192,104474,1,0,0:0:0:0:
192,192,104546,1,0,0:0:0:0:
320,192,104546,1,0,0:0:0:0:
448,192,104618,1,0,0:0:0:0:
320,192,104690,128,0,104907:0:0:0:0:
64,192,104690,1,0,0:0:0:0:
192,192,104762,1,0,0:0:0:0:
448,192,104762,1,0,0:0:0:0:
64,192,104835,1,0,0:0:0:0:
192,192,104907,1,0,0:0:0:0:
64,192,104979,1,0,0:0:0:0:
448,192,104979,1,0,0:0:0:0:
320,192,105051,1,0,0:0:0:0:
192,192,105051,1,0,0:0:0:0:
448,192,105123,1,0,0:0:0:0:
64,192,105195,1,0,0:0:0:0:
192,192,105267,128,0,105484:0:0:0:0:
320,192,105267,1,0,0:0:0:0:
64,192,105411,1,0,0:0:0:0:
448,192,105411,1,0,0:0:0:0:
320,192,105556,1,0,0:0:0:0:
448,192,105556,1,0,0:0:0:0:
64,192,105628,1,0,0:0:0:0:
192,192,105700,1,0,0:0:0:0:
192,192,105844,1,0,0:0:0:0:
320,192,105844,128,0,106061:0:0:0:0:
448,192,105844,1,0,0:0:0:0:
64,192,105916,1,0,0:0:0:0:
192,192,105988,1,0,0:0:0:0:
64,192,106133,1,0,0:0:0:0:
192,192,106133,1,0,0:0:0:0:
448,192,106205,1,0,0:0:0:0:
64,192,106277,1,0,0:0:0:0:
320,192,106277,1,0,0:0:0:0:
192,192,106349,1,0,0:0:0:0:
64,192,106421,1,0,0:0:0:0:
448,192,106421,128,0,106637:0:0:0:0:
320,192,106493,1,0,0:0:0:0:
192,192,106565,1,0,0:0:0:0:
64,192,106637,1,0,0:0:0:0:
320,192,106710,1,0,0:0:0:0:
448,192,106782,1,0,0:0:0:0:
192,192,106854,1,0,0:0:0:0:
64,192,106926,1,0,0:0:0:0:
448,192,106998,128,0,107214:0:0:0:0:
320,192,106998,1,0,0:0:0:0:
192,192,107070,1,0,0:0:0:0:
64,192,107142,1,0,0:0:0:0:
192,192,107214,1,0,0:0:0:0:
320,192,107286,1,0,0:0:0:0:
64,192,107359,1,0,0:0:0:0:
192,192,107431,1,0,0:0:0:0:
320,192,107503,1,0,0:0:0:0:
448,192,107575,128,0,107791:0:0:0:0:
64,192,107575,1,0,0:0:0:0:
320,192,107647,1,0,0:0:0:0:
192,192,107719,1,0,0:0:0:0:
64,192,107791,1,0,0:0:0:0:
320,192,107863,1,0,0:0:0:0:
64,192,107936,1,0,0:0:0:0:
192,192,108008,1,0,0:0:0:0:
64,192,108080,1,0,0:0:0:0:
448,192,108152,128,0,108368:0:0:0:0:
320,192,108152,1,0,0:0:0:0:
192,192,108152,1,0,0:0:0:0:
64,192,108224,1,0,0:0:0:0:
192,192,108296,1,0,0:0:0:0:
320,192,108368,1,0,0:0:0:0:
192,192,108440,1,0,0:0:0:0:
64,192,108440,1,0,0:0:0:0:
320,192,108512,1,0,0:0:0:0:
448,192,108585,1,0,0:0:0:0:
320,192,108657,1,0,0:0:0:0:
448,192,108729,1,0,0:0:0:0:
192,192,108729,128,0,108945:0:0:0:0:
64,192,108729,1,0,0:0:0:0:
320,192,108801,1,0,0:0:0:0:
448,192,108873,1,0,0:0:0:0:
64,192,108945,1,0,0:0:0:0:
320,192,109017,1,0,0:0:0:0:
448,192,109017,1,0,0:0:0:0:
192,192,109089,1,0,0:0:0:0:
64,192,109161,1,0,0:0:0:0:
320,192,109234,1,0,0:0:0:0:
192,192,109306,128,0,109522:0:0:0:0:
448,192,109306,1,0,0:0:0:0:
64,192,109450,1,0,0:0:0:0:
320,192,109522,1,0,0:0:0:0:
448,192,109594,1,0,0:0:0:0:
320,192,109666,1,0,0:0:0:0:
64,192,109738,1,0,0:0:0:0:
320,192,109811,1,0,0:0:0:0:
192,192,109883,128,0,110099:0:0:0:0:
448,192,109883,1,0,0:0:0:0:
320,192,109955,1,0,0:0:0:0:
64,192,110027,1,0,0:0:0:0:
448,192,110099,1,0,0:0:0:0:
320,192,110171,1,0,0:0:0:0:
448,192,110243,1,0,0:0:0:0:
64,192,110315,1,0,0:0:0:0:
320,192,110387,1,0,0:0:0:0:
192,192,110460,128,0,110676:0:0:0:0:
448,192,110460,1,0,0:0:0:0:
64,192,110532,1,0,0:0:0:0:
320,192,110604,1,0,0:0:0:0:
448,192,110676,1,0,0:0:0:0:
320,192,110748,1,0,0:0:0:0:
64,192,110748,1,0,0:0:0:0:
448,192,110820,1,0,0:0:0:0:
192,192,110892,1,0,0:0:0:0:
64,192,111036,128,0,111253:0:0:0:0:
320,192,111036,1,0,0:0:0:0:
448,192,111036,1,0,0:0:0:0:
192,192,111109,1,0,0:0:0:0:
320,192,111253,1,0,0:0:0:0:
192,192,111325,1,0,0:0:0:0:
448,192,111325,1,0,0:0:0:0:
64,192,111397,1,0,0:0:0:0:
192,192,111469,1,0,0:0:0:0:
320,192,111541,1,0,0:0:0:0:
64,192,111613,128,0,111830:0:0:0:0:
448,192,111613,1,0,0:0:0:0:
192,192,111613,1,0,0:0:0:0:
320,192,111686,1,0,0:0:0:0:
192,192,111758,1,0,0:0:0:0:
320,192,111830,1,0,0:0:0:0:
448,192,111902,1,0,0:0:0:0:
64,192,111974,1,0,0:0:0:0:
192,192,112046,1,0,0:0:0:0:
320,192,112118,1,0,0:0:0:0:
448,192,112190,1,0,0:0:0:0:
320,192,112262,1,0,0:0:0:0:
192,192,112262,1,0,0:0:0:0:
64,192,112407,1,0,0:0:0:0:
192,192,112407,1,0,0:0:0:0:
448,192,112551,1,0,0:0:0:0:
320,192,112551,1,0,0:0:0:0:
64,192,112695,1,0,0:0:0:0:
192,192,112695,1,0,0:0:0:0:
448,192,112695,1,0,0:0:0:0:
192,192,112767,1,0,0:0:0:0:
320,192,112767,1,0,0:0:0:0:
448,192,112839,1,0,0:0:0:0:
320,192,112839,1,0,0:0:0:0:
64,192,112911,1,0,0:0:0:0:
192,192,112911,1,0,0:0:0:0:
320,192,112984,1,0,0:0:0:0:
192,192,112984,1,0,0:0:0:0:
192,192,113056,1,0,0:0:0:0:
448,192,113056,1,0,0:0:0:0:
64,192,113128,1,0,0:0:0:0:
320,192,113128,1,0,0:0:0:0:
192,192,113200,1,0,0:0:0:0:
448,192,113200,1,0,0:0:0:0:
64,192,113272,1,0,0:0:0:0:
320,192,113272,1,0,0:0:0:0:
192,192,113344,1,0,0:0:0:0:
448,192,113344,128,0,113633:0:0:0:0:
320,192,113416,1,0,0:0:0:0:
64,192,113416,1,0,0:0:0:0:
192,192,113488,1,0,0:0:0:0:
64,192,113561,1,0,0:0:0:0:
192,192,113633,1,0,0:0:0:0:
64,192,113705,1,0,0:0:0:0:
320,192,113705,1,0,0:0:0:0:
192,192,113777,1,0,0:0:0:0:
448,192,113777,1,0,0:0:0:0:
320,192,113849,1,0,0:0:0:0:
64,192,113849,1,0,0:0:0:0:
320,192,113993,1,0,0:0:0:0:
448,192,113993,1,0,0:0:0:0:
64,192,113993,1,0,0:0:0:0:
192,192,114066,1,0,0:0:0:0:
64,192,114138,1,0,0:0:0:0:
192,192,114210,1,0,0:0:0:0:
320,192,114282,1,0,0:0:0:0:
192,192,114354,1,0,0:0:0:0:
448,192,114426,1,0,0:0:0:0:
320,192,114498,1,0,0:0:0:0:
64,192,114570,1,0,0:0:0:0:
192,192,114570,1,0,0:0:0:0:
320,192,114643,1,0,0:0:0:0:
192,192,114715,1,0,0:0:0:0:
448,192,114787,1,0,0:0:0:0:
320,192,114859,1,0,0:0:0:0:
320,192,114931,1,0,0:0:0:0:
320,192,115003,1,0,0:0:0:0:
64,192,115075,1,0,0:0:0:0:
320,192,115147,1,0,0:0:0:0:
448,192,115147,1,0,0:0:0:0:
192,192,115219,1,0,0:0:0:0:
64,192,115292,1,0,0:0:0:0:
320,192,115364,1,0,0:0:0:0:
192,192,115436,1,0,0:0:0:0:
192,192,115508,1,0,0:0:0:0:
192,192,115580,1,0,0:0:0:0:
320,192,115652,1,0,0:0:0:0:
64,192,115724,1,0,0:0:0:0:
192,192,115724,1,0,0:0:0:0:
448,192,115796,1,0,0:0:0:0:
192,192,115869,1,0,0:0:0:0:
448,192,115941,1,0,0:0:0:0:
320,192,116013,1,0,0:0:0:0:
320,192,116085,1,0,0:0:0:0:
320,192,116157,1,0,0:0:0:0:
64,192,116229,1,0,0:0:0:0:
192,192,116301,1,0,0:0:0:0:
320,192,116301,1,0,0:0:0:0:
448,192,116301,1,0,0:0:0:0:
64,192,116373,1,0,0:0:0:0:
448,192,116445,1,0,0:0:0:0:
192,192,116518,1,0,0:0:0:0:
320,192,116590,1,0,0:0:0:0:
320,192,116662,1,0,0:0:0:0:
320,192,116734,1,0,0:0:0:0:
64,192,116806,1,0,0:0:0:0:
320,192,116878,1,0,0:0:0:0:
448,192,116878,1,0,0:0:0:0:
192,192,116950,1,0,0:0:0:0:
64,192,117022,1,0,0:0:0:0:
448,192,117094,1,0,0:0:0:0:
192,192,117167,1,0,0:0:0:0:
192,192,117239,1,0,0:0:0:0:
192,192,117311,1,0,0:0:0:0:
320,192,117383,1,0,0:0:0:0:
64,192,117455,1,0,0:0:0:0:
192,192,117455,1,0,0:0:0:0:
448,192,117527,1,0,0:0:0:0:
192,192,117599,1,0,0:0:0:0:
64,192,117671,1,0,0:0:0:0:
320,192,117744,1,0,0:0:0:0:
320,192,117816,1,0,0:0:0:0:
320,192,117888,1,0,0:0:0:0:
192,192,117960,1,0,0:0:0:0:
320,192,118032,1,0,0:0:0:0:
448,192,118032,1,0,0:0:0:0:
64,192,118104,1,0,0:0:0:0:
320,192,118176,1,0,0:0:0:0:
448,192,118248,1,0,0:0:0:0:
192,192,118320,1,0,0:0:0:0:
192,192,118393,1,0,0:0:0:0:
192,192,118465,1,0,0:0:0:0:
64,192,118537,1,0,0:0:0:0:
192,192,118609,1,0,0:0:0:0:
320,192,118609,1,0,0:0:0:0:
448,192,118609,1,0,0:0:0:0:
64,192,118681,1,0,0:0:0:0:
320,192,118753,1,0,0:0:0:0:
192,192,118825,1,0,0:0:0:0:
448,192,118897,1,0,0:0:0:0:
448,192,118969,1,0,0:0:0:0:
448,192,119042,1,0,0:0:0:0:
320,192,119114,1,0,0:0:0:0:
64,192,119186,1,0,0:0:0:0:
192,192,119186,1,0,0:0:0:0:
448,192,119258,1,0,0:0:0:0:
192,192,119330,1,0,0:0:0:0:
320,192,119402,1,0,0:0:0:0:
64,192,119474,1,0,0:0:0:0:
64,192,119546,1,0,0:0:0:0:
64,192,119618,1,0,0:0:0:0:
192,192,119691,1,0,0:0:0:0:
320,192,119763,1,0,0:0:0:0:
448,192,119763,1,0,0:0:0:0:
192,192,119835,1,0,0:0:0:0:
64,192,119907,1,0,0:0:0:0:
448,192,119979,1,0,0:0:0:0:
320,192,120051,1,0,0:0:0:0:
320,192,120123,1,0,0:0:0:0:
320,192,120195,1,0,0:0:0:0:
448,192,120268,1,0,0:0:0:0:
64,192,120340,1,0,0:0:0:0:
192,192,120340,1,0,0:0:0:0:
320,192,120412,1,0,0:0:0:0:
192,192,120484,1,0,0:0:0:0:
448,192,120556,1,0,0:0:0:0:
64,192,120628,1,0,0:0:0:0:
64,192,120700,1,0,0:0:0:0:
64,192,120772,1,0,0:0:0:0:
192,192,120844,1,0,0:0:0:0:
320,192,120917,1,0,0:0:0:0:
448,192,120917,1,0,0:0:0:0:
64,192,120917,1,0,0:0:0:0:
192,192,120989,1,0,0:0:0:0:
64,192,121061,1,0,0:0:0:0:
320,192,121133,1,0,0:0:0:0:
448,192,121205,1,0,0:0:0:0:
448,192,121277,1,0,0:0:0:0:
448,192,121349,1,0,0:0:0:0:
320,192,121421,1,0,0:0:0:0:
64,192,121493,1,0,0:0:0:0:
192,192,121493,1,0,0:0:0:0:
448,192,121566,1,0,0:0:0:0:
64,192,121638,1,0,0:0:0:0:
320,192,121710,1,0,0:0:0:0:
64,192,121782,1,0,0:0:0:0:
448,192,121854,1,0,0:0:0:0:
192,192,121926,1,0,0:0:0:0:
320,192,121926,1,0,0:0:0:0:
64,192,121998,1,0,0:0:0:0:
320,192,122070,1,0,0:0:0:0:
448,192,122070,1,0,0:0:0:0:
192,192,122143,1,0,0:0:0:0:
64,192,122215,1,0,0:0:0:0:
320,192,122287,1,0,0:0:0:0:
64,192,122359,1,0,0:0:0:0:
192,192,122431,1,0,0:0:0:0:
320,192,122503,1,0,0:0:0:0:
448,192,122503,1,0,0:0:0:0:
64,192,122575,1,0,0:0:0:0:
192,192,122647,1,0,0:0:0:0:
320,192,122647,1,0,0:0:0:0:
448,192,122719,1,0,0:0:0:0:
64,192,122792,1,0,0:0:0:0:
192,192,122864,1,0,0:0:0:0:
64,192,122936,1,0,0:0:0:0:
192,192,123008,1,0,0:0:0:0:
320,192,123080,1,0,0:0:0:0:
448,192,123080,1,0,0:0:0:0:
64,192,123224,1,0,0:0:0:0:
192,192,123224,1,0,0:0:0:0:
320,192,123224,1,0,0:0:0:0:
448,192,123296,1,0,0:0:0:0:
320,192,123368,1,0,0:0:0:0:
64,192,123441,1,0,0:0:0:0:
448,192,123513,1,0,0:0:0:0:
448,192,123585,1,0,0:0:0:0:
448,192,123657,1,0,0:0:0:0:
320,192,123729,1,0,0:0:0:0:
64,192,123801,1,0,0:0:0:0:
192,192,123801,1,0,0:0:0:0:
448,192,123873,1,0,0:0:0:0:
64,192,123945,1,0,0:0:0:0:
320,192,124018,1,0,0:0:0:0:
192,192,124090,1,0,0:0:0:0:
192,192,124162,1,0,0:0:0:0:
192,192,124234,1,0,0:0:0:0:
64,192,124306,1,0,0:0:0:0:
320,192,124378,1,0,0:0:0:0:
448,192,124378,1,0,0:0:0:0:
192,192,124450,1,0,0:0:0:0:
64,192,124522,1,0,0:0:0:0:
320,192,124594,1,0,0:0:0:0:
448,192,124667,1,0,0:0:0:0:
448,192,124739,1,0,0:0:0:0:
448,192,124811,1,0,0:0:0:0:
320,192,124883,1,0,0:0:0:0:
64,192,124955,1,0,0:0:0:0:
192,192,124955,1,0,0:0:0:0:
448,192,125027,1,0,0:0:0:0:
192,192,125099,1,0,0:0:0:0:
64,192,125171,1,0,0:0:0:0:
320,192,125243,1,0,0:0:0:0:
320,192,125316,1,0,0:0:0:0:
320,192,125388,1,0,0:0:0:0:
192,192,125460,1,0,0:0:0:0:
64,192,125532,1,0,0:0:0:0:
448,192,125532,1,0,0:0:0:0:
320,192,125604,1,0,0:0:0:0:
192,192,125676,1,0,0:0:0:0:
448,192,125748,1,0,0:0:0:0:
64,192,125820,1,0,0:0:0:0:
64,192,125893,1,0,0:0:0:0:
64,192,125965,1,0,0:0:0:0:
192,192,126037,1,0,0:0:0:0:
448,192,126109,1,0,0:0:0:0:
320,192,126109,1,0,0:0:0:0:
64,192,126181,1,0,0:0:0:0:
448,192,126253,1,0,0:0:0:0:
192,192,126325,1,0,0:0:0:0:
320,192,126397,1,0,0:0:0:0:
320,192,126469,1,0,0:0:0:0:
320,192,126542,1,0,0:0:0:0:
448,192,126614,1,0,0:0:0:0:
64,192,126686,1,0,0:0:0:0:
192,192,126686,1,0,0:0:0:0:
320,192,126758,1,0,0:0:0:0:
192,192,126830,1,0,0:0:0:0:
448,192,126902,1,0,0:0:0:0:
64,192,126974,1,0,0:0:0:0:
64,192,127046,1,0,0:0:0:0:
64,192,127118,1,0,0:0:0:0:
192,192,127191,1,0,0:0:0:0:
320,192,127263,1,0,0:0:0:0:
448,192,127263,1,0,0:0:0:0:
64,192,127335,1,0,0:0:0:0:
320,192,127407,1,0,0:0:0:0:
448,192,127479,1,0,0:0:0:0:
192,192,127551,1,0,0:0:0:0:
192,192,127623,1,0,0:0:0:0:
192,192,127695,1,0,0:0:0:0:
320,192,127768,1,0,0:0:0:0:
64,192,127840,1,0,0:0:0:0:
448,192,127840,1,0,0:0:0:0:
192,192,127840,1,0,0:0:0:0:
320,192,127912,1,0,0:0:0:0:
192,192,127984,1,0,0:0:0:0:
448,192,128056,1,0,0:0:0:0:
64,192,128128,1,0,0:0:0:0:
192,192,128128,1,0,0:0:0:0:
192,192,128272,1,0,0:0:0:0:
320,192,128272,1,0,0:0:0:0:
192,192,128417,1,0,0:0:0:0:
448,192,128417,1,0,0:0:0:0:
64,192,128417,1,0,0:0:0:0:
448,192,128561,1,0,0:0:0:0:
64,192,128561,1,0,0:0:0:0:
320,192,128561,1,0,0:0:0:0:
64,192,128705,1,0,0:0:0:0:
192,192,128705,1,0,0:0:0:0:
448,192,128705,1,0,0:0:0:0:
64,192,128849,1,0,0:0:0:0:
448,192,128849,1,0,0:0:0:0:
320,192,128849,1,0,0:0:0:0:
192,192,128993,1,0,0:0:0:0:
320,192,128993,1,0,0:0:0:0:
320,192,129138,1,0,0:0:0:0:
448,192,129138,1,0,0:0:0:0:
192,192,129282,1,0,0:0:0:0:
64,192,129282,1,0,0:0:0:0:
192,192,129426,1,0,0:0:0:0:
320,192,129426,1,0,0:0:0:0:
448,192,129570,1,0,0:0:0:0:
64,192,129570,1,0,0:0:0:0:
320,192,129715,1,0,0:0:0:0:
192,192,129715,1,0,0:0:0:0:
64,192,129859,1,0,0:0:0:0:
192,192,129859,1,0,0:0:0:0:
192,192,130003,1,0,0:0:0:0:
320,192,130003,1,0,0:0:0:0:
64,192,130147,128,0,130436:0:0:0:0:
192,192,130147,128,0,130364:0:0:0:0:
320,192,130147,128,0,130292:0:0:0:0:
448,192,130147,128,0,130219:0:0:0:0:
448,192,130580,128,0,130868:0:0:0:0:
320,192,130580,128,0,130796:0:0:0:0:
192,192,130580,128,0,130724:0:0:0:0:
64,192,130580,128,0,130652:0:0:0:0:
64,192,131013,128,0,131878:0:0:0:0:
320,192,131013,128,0,131878:0:0:0:0:
192,192,131013,1,0,0:0:0:0:
448,192,131013,1,0,0:0:0:0:
192,192,131878,128,0,132455:0:0:0:0:
320,192,132455,128,0,133032:0:0:0:0:
448,192,133032,128,0,133609:0:0:0:0:
192,192,133609,128,0,134042:0:0:0:0:
64,192,134042,128,0,134763:0:0:0:0:
448,192,134618,1,0,0:0:0:0:
192,192,134763,128,0,135700:0:0:0:0:
448,192,135917,128,0,136205:0:0:0:0:
320,192,135917,128,0,136133:0:0:0:0:
192,192,135917,128,0,136061:0:0:0:0:
64,192,135917,128,0,135989:0:0:0:0:
64,192,136349,128,0,136638:0:0:0:0:
192,192,136349,128,0,136566:0:0:0:0:
320,192,136349,128,0,136493:0:0:0:0:
448,192,136349,128,0,136421:0:0:0:0:
448,192,136782,128,0,137647:0:0:0:0:
192,192,136782,128,0,137647:0:0:0:0:
320,192,136782,1,0,0:0:0:0:
64,192,136782,1,0,0:0:0:0:
64,192,137070,1,0,0:0:0:0:
320,192,137070,1,0,0:0:0:0:
320,192,137647,128,0,138224:0:0:0:0:
64,192,137647,1,0,0:0:0:0:
192,192,138224,128,0,138801:0:0:0:0:
64,192,138224,1,0,0:0:0:0:
448,192,138224,1,0,0:0:0:0:
64,192,138801,128,0,139378:0:0:0:0:
320,192,138801,1,0,0:0:0:0:
448,192,138801,1,0,0:0:0:0:
320,192,139378,128,0,139811:0:0:0:0:
192,192,139378,1,0,0:0:0:0:
448,192,139378,1,0,0:0:0:0:
448,192,139811,128,0,140532:0:0:0:0:
64,192,139955,1,0,0:0:0:0:
192,192,139955,1,0,0:0:0:0:
64,192,140388,1,0,0:0:0:0:
320,192,140532,128,0,141109:0:0:0:0:
192,192,140532,1,0,0:0:0:0:
64,192,140532,1,0,0:0:0:0:
64,192,141109,1,0,0:0:0:0:
448,192,141109,1,0,0:0:0:0:
192,192,141109,128,0,141614:0:0:0:0:
320,192,141758,128,0,141902:0:0:0:0:
448,192,141758,128,0,141830:0:0:0:0:
64,192,141758,128,0,142046:0:0:0:0:
192,192,141758,128,0,141974:0:0:0:0:
192,192,142190,128,0,142334:0:0:0:0:
64,192,142190,128,0,142262:0:0:0:0:
448,192,142190,128,0,142479:0:0:0:0:
320,192,142190,128,0,142407:0:0:0:0:
192,192,142623,1,0,0:0:0:0:
448,192,142623,1,0,0:0:0:0:
64,192,142623,128,0,143488:0:0:0:0:
320,192,142623,128,0,143488:0:0:0:0:
192,192,143200,1,0,0:0:0:0:
448,192,143200,1,0,0:0:0:0:
192,192,143488,128,0,144065:0:0:0:0:
448,192,143488,1,0,0:0:0:0:
320,192,144065,128,0,144642:0:0:0:0:
64,192,144065,1,0,0:0:0:0:
448,192,144065,1,0,0:0:0:0:
448,192,144642,128,0,145219:0:0:0:0:
64,192,144642,1,0,0:0:0:0:
192,192,145219,128,0,145652:0:0:0:0:
64,192,145219,1,0,0:0:0:0:
320,192,145219,1,0,0:0:0:0:
64,192,145652,128,0,146373:0:0:0:0:
320,192,145796,1,0,0:0:0:0:
448,192,145796,1,0,0:0:0:0:
448,192,146229,1,0,0:0:0:0:
192,192,146373,128,0,147310:0:0:0:0:
320,192,146373,1,0,0:0:0:0:
448,192,146373,1,0,0:0:0:0:
64,192,146950,1,0,0:0:0:0:
448,192,146950,1,0,0:0:0:0:
448,192,147527,128,0,147815:0:0:0:0:
320,192,147527,128,0,147743:0:0:0:0:
192,192,147527,128,0,147671:0:0:0:0:
64,192,147527,128,0,147599:0:0:0:0:
64,192,147959,128,0,148248:0:0:0:0:
192,192,147959,128,0,148176:0:0:0:0:
320,192,147959,128,0,148103:0:0:0:0:
448,192,147959,128,0,148031:0:0:0:0:
448,192,148392,128,0,149257:0:0:0:0:
192,192,148392,128,0,149257:0:0:0:0:
320,192,148392,1,0,0:0:0:0:
64,192,148392,1,0,0:0:0:0:
64,192,148536,1,0,0:0:0:0:
320,192,148536,1,0,0:0:0:0:
320,192,148680,1,0,0:0:0:0:
64,192,148969,1,0,0:0:0:0:
320,192,148969,1,0,0:0:0:0:
64,192,149113,1,0,0:0:0:0:
320,192,149257,128,0,149834:0:0:0:0:
64,192,149257,1,0,0:0:0:0:
448,192,149546,1,0,0:0:0:0:
192,192,149834,128,0,150411:0:0:0:0:
64,192,149834,1,0,0:0:0:0:
448,192,149834,1,0,0:0:0:0:
320,192,150123,1,0,0:0:0:0:
64,192,150411,128,0,150988:0:0:0:0:
320,192,150411,1,0,0:0:0:0:
448,192,150411,1,0,0:0:0:0:
192,192,150700,1,0,0:0:0:0:
320,192,150988,128,0,151421:0:0:0:0:
192,192,150988,1,0,0:0:0:0:
448,192,150988,1,0,0:0:0:0:
192,192,151277,1,0,0:0:0:0:
448,192,151277,1,0,0:0:0:0:
448,192,151421,128,0,152142:0:0:0:0:
192,192,151421,1,0,0:0:0:0:
64,192,151421,1,0,0:0:0:0:
192,192,151709,1,0,0:0:0:0:
320,192,151709,1,0,0:0:0:0:
192,192,151998,1,0,0:0:0:0:
320,192,152142,128,0,153079:0:0:0:0:
192,192,152142,1,0,0:0:0:0:
64,192,152142,1,0,0:0:0:0:
192,192,152358,1,0,0:0:0:0:
64,192,152430,1,0,0:0:0:0:
448,192,152430,1,0,0:0:0:0:
192,192,152575,1,0,0:0:0:0:
448,192,152719,1,0,0:0:0:0:
192,192,152863,1,0,0:0:0:0:
64,192,153007,1,0,0:0:0:0:
192,192,153152,1,0,0:0:0:0:
64,192,153296,128,0,153801:0:0:0:0:
192,192,153296,128,0,154233:0:0:0:0:
320,192,153296,128,0,153656:0:0:0:0:
448,192,153296,128,0,153512:0:0:0:0:
448,192,153584,128,0,154089:0:0:0:0:
320,192,153728,128,0,153945:0:0:0:0:
64,192,153873,128,0,154377:0:0:0:0:
320,192,154017,128,0,154522:0:0:0:0:
448,192,154161,128,0,154666:0:0:0:0:
192,192,154305,128,0,154810:0:0:0:0:
64,192,154450,128,0,154954:0:0:0:0:
320,192,154594,128,0,155099:0:0:0:0:
448,192,154738,128,0,155387:0:0:0:0:
192,192,154882,128,0,155243:0:0:0:0:
64,192,155027,128,0,156397:0:0:0:0:
320,192,155171,128,0,155531:0:0:0:0:
192,192,155315,128,0,155820:0:0:0:0:
448,192,155459,128,0,156108:0:0:0:0:
320,192,155603,128,0,155964:0:0:0:0:
192,192,155892,128,0,156252:0:0:0:0:
320,192,156036,128,0,156541:0:0:0:0:
448,192,156180,128,0,156974:0:0:0:0:
192,192,156325,128,0,156685:0:0:0:0:
64,192,156469,128,0,157262:0:0:0:0:
320,192,156613,128,0,156829:0:0:0:0:
192,192,156757,128,0,157118:0:0:0:0:
320,192,156902,128,0,157695:0:0:0:0:
448,192,157046,128,0,157551:0:0:0:0:
192,192,157190,128,0,157406:0:0:0:0:
64,192,157334,128,0,158560:0:0:0:0:
192,192,157478,128,0,157839:0:0:0:0:
448,192,157623,128,0,158127:0:0:0:0:
320,192,157767,128,0,158416:0:0:0:0:
192,192,157911,128,0,158272:0:0:0:0:
448,192,158200,128,0,158704:0:0:0:0:
192,192,158344,128,0,158849:0:0:0:0:
320,192,158488,128,0,158993:0:0:0:0:
64,192,158632,128,0,159137:0:0:0:0:
448,192,158776,128,0,159426:0:0:0:0:
192,192,158921,128,0,159281:0:0:0:0:
320,192,159065,128,0,159570:0:0:0:0:
64,192,159209,128,0,159858:0:0:0:0:
192,192,159353,128,0,160147:0:0:0:0:
448,192,159498,128,0,159714:0:0:0:0:
320,192,159642,128,0,160002:0:0:0:0:
448,192,159786,128,0,160435:0:0:0:0:
64,192,159930,128,0,161156:0:0:0:0:
320,192,160075,128,0,160724:0:0:0:0:
192,192,160219,128,0,160579:0:0:0:0:
448,192,160507,128,0,161012:0:0:0:0:
192,192,160651,128,0,160868:0:0:0:0:
320,192,160796,128,0,161301:0:0:0:0:
192,192,160940,128,0,161733:0:0:0:0:
448,192,161084,128,0,161589:0:0:0:0:
64,192,161228,128,0,161445:0:0:0:0:
320,192,161373,128,0,161877:0:0:0:0:
64,192,161517,128,0,162310:0:0:0:0:
448,192,161661,128,0,162743:0:0:0:0:
192,192,161805,128,0,162022:0:0:0:0:
320,192,161950,128,0,162166:0:0:0:0:
192,192,162094,128,0,162454:0:0:0:0:
320,192,162238,128,0,162454:0:0:0:0:
64,192,162382,128,0,162599:0:0:0:0:
320,192,162526,128,0,162887:0:0:0:0:
192,192,162526,128,0,163176:0:0:0:0:
64,192,162671,128,0,163608:0:0:0:0:
448,192,162815,128,0,163320:0:0:0:0:
320,192,162959,128,0,163176:0:0:0:0:
320,192,163248,128,0,163752:0:0:0:0:
192,192,163248,128,0,163464:0:0:0:0:
448,192,163392,128,0,163897:0:0:0:0:
192,192,163536,128,0,163752:0:0:0:0:
64,192,163680,128,0,164185:0:0:0:0:
320,192,163825,128,0,164329:0:0:0:0:
192,192,163825,128,0,164041:0:0:0:0:
448,192,163969,128,0,164618:0:0:0:0:
192,192,164113,128,0,164257:0:0:0:0:
64,192,164257,128,0,165627:0:0:0:0:
192,192,164329,128,0,164474:0:0:0:0:
320,192,164401,128,0,164762:0:0:0:0:
192,192,164546,128,0,164906:0:0:0:0:
448,192,164690,128,0,165339:0:0:0:0:
320,192,164834,128,0,165195:0:0:0:0:
192,192,164978,128,0,165051:0:0:0:0:
192,192,165123,128,0,165483:0:0:0:0:
320,192,165267,128,0,165772:0:0:0:0:
448,192,165411,128,0,166204:0:0:0:0:
192,192,165555,128,0,165916:0:0:0:0:
64,192,165700,128,0,166493:0:0:0:0:
320,192,165844,128,0,166060:0:0:0:0:
192,192,165988,128,0,166349:0:0:0:0:
320,192,166132,128,0,166926:0:0:0:0:
448,192,166276,128,0,166781:0:0:0:0:
192,192,166421,128,0,166637:0:0:0:0:
64,192,166565,128,0,167791:0:0:0:0:
192,192,166709,128,0,167070:0:0:0:0:
448,192,166853,128,0,167358:0:0:0:0:
320,192,166998,128,0,167647:0:0:0:0:
192,192,167142,128,0,167502:0:0:0:0:
448,192,167430,128,0,167935:0:0:0:0:
192,192,167575,128,0,168079:0:0:0:0:
320,192,167719,128,0,168224:0:0:0:0:
64,192,167863,128,0,168368:0:0:0:0:
448,192,168007,128,0,168656:0:0:0:0:
192,192,168151,128,0,168512:0:0:0:0:
320,192,168296,128,0,168801:0:0:0:0:
64,192,168440,128,0,169089:0:0:0:0:
192,192,168584,128,0,169377:0:0:0:0:
448,192,168728,128,0,168945:0:0:0:0:
320,192,168873,128,0,169233:0:0:0:0:
448,192,169017,128,0,169666:0:0:0:0:
64,192,169161,128,0,170387:0:0:0:0:
320,192,169305,128,0,169954:0:0:0:0:
192,192,169450,128,0,169810:0:0:0:0:
448,192,169738,128,0,170243:0:0:0:0:
192,192,169882,128,0,170099:0:0:0:0:
320,192,170026,128,0,170531:0:0:0:0:
192,192,170171,128,0,170964:0:0:0:0:
448,192,170315,128,0,170820:0:0:0:0:
64,192,170459,128,0,170676:0:0:0:0:
320,192,170603,128,0,171108:0:0:0:0:
64,192,170748,128,0,171541:0:0:0:0:
448,192,170892,128,0,171757:0:0:0:0:
192,192,171036,128,0,171252:0:0:0:0:
320,192,171180,128,0,171397:0:0:0:0:
192,192,171325,128,0,171757:0:0:0:0:
320,192,171469,128,0,171685:0:0:0:0:
64,192,171613,128,0,171757:0:0:0:0:
320,192,171829,1,0,0:0:0:0:
192,192,171901,1,0,0:0:0:0:
448,192,171973,1,0,0:0:0:0:
64,192,172045,1,0,0:0:0:0:
192,192,172117,1,0,0:0:0:0:
320,192,172189,1,0,0:0:0:0:
64,192,172261,1,0,0:0:0:0:
192,192,172333,1,0,0:0:0:0:
320,192,172405,1,0,0:0:0:0:
448,192,172405,1,0,0:0:0:0:
192,192,172478,1,0,0:0:0:0:
64,192,172550,1,0,0:0:0:0:
448,192,172622,1,0,0:0:0:0:
320,192,172694,1,0,0:0:0:0:
448,192,172838,1,0,0:0:0:0:
64,192,172982,1,0,0:0:0:0:
192,192,172982,1,0,0:0:0:0:
320,192,173127,1,0,0:0:0:0:
448,192,173271,1,0,0:0:0:0:
64,192,173415,1,0,0:0:0:0:
192,192,173415,128,0,173559:0:0:0:0:
320,192,173559,1,0,0:0:0:0:
448,192,173559,1,0,0:0:0:0:
64,192,173704,1,0,0:0:0:0:
192,192,173848,1,0,0:0:0:0:
448,192,173992,1,0,0:0:0:0:
64,192,174136,1,0,0:0:0:0:
192,192,174136,1,0,0:0:0:0:
448,192,174208,1,0,0:0:0:0:
320,192,174280,1,0,0:0:0:0:
192,192,174353,1,0,0:0:0:0:
448,192,174425,1,0,0:0:0:0:
320,192,174497,1,0,0:0:0:0:
64,192,174569,1,0,0:0:0:0:
192,192,174641,1,0,0:0:0:0:
320,192,174713,1,0,0:0:0:0:
448,192,174713,1,0,0:0:0:0:
192,192,174785,1,0,0:0:0:0:
64,192,174857,1,0,0:0:0:0:
448,192,174929,1,0,0:0:0:0:
192,192,175002,1,0,0:0:0:0:
448,192,175146,1,0,0:0:0:0:
64,192,175290,1,0,0:0:0:0:
192,192,175290,1,0,0:0:0:0:
320,192,175434,1,0,0:0:0:0:
448,192,175579,1,0,0:0:0:0:
192,192,175723,1,0,0:0:0:0:
64,192,175723,128,0,175867:0:0:0:0:
320,192,175867,1,0,0:0:0:0:
448,192,175867,1,0,0:0:0:0:
64,192,176011,1,0,0:0:0:0:
192,192,176155,1,0,0:0:0:0:
448,192,176300,1,0,0:0:0:0:
64,192,176444,1,0,0:0:0:0:
192,192,176444,1,0,0:0:0:0:
448,192,176516,1,0,0:0:0:0:
320,192,176588,1,0,0:0:0:0:
64,192,176660,1,0,0:0:0:0:
192,192,176732,1,0,0:0:0:0:
320,192,176804,1,0,0:0:0:0:
64,192,176877,1,0,0:0:0:0:
192,192,176949,1,0,0:0:0:0:
320,192,177021,1,0,0:0:0:0:
448,192,177021,1,0,0:0:0:0:
64,192,177093,1,0,0:0:0:0:
192,192,177165,1,0,0:0:0:0:
64,192,177237,1,0,0:0:0:0:
320,192,177309,1,0,0:0:0:0:
448,192,177454,1,0,0:0:0:0:
64,192,177598,1,0,0:0:0:0:
192,192,177598,1,0,0:0:0:0:
448,192,177742,1,0,0:0:0:0:
320,192,177886,1,0,0:0:0:0:
192,192,178030,1,0,0:0:0:0:
64,192,178030,128,0,178175:0:0:0:0:
320,192,178175,1,0,0:0:0:0:
448,192,178175,1,0,0:0:0:0:
64,192,178319,1,0,0:0:0:0:
448,192,178463,1,0,0:0:0:0:
320,192,178607,1,0,0:0:0:0:
64,192,178752,1,0,0:0:0:0:
192,192,178752,1,0,0:0:0:0:
320,192,178824,1,0,0:0:0:0:
448,192,178896,1,0,0:0:0:0:
192,192,178968,1,0,0:0:0:0:
64,192,179040,1,0,0:0:0:0:
448,192,179112,1,0,0:0:0:0:
192,192,179184,1,0,0:0:0:0:
64,192,179256,1,0,0:0:0:0:
320,192,179329,1,0,0:0:0:0:
448,192,179329,1,0,0:0:0:0:
192,192,179401,1,0,0:0:0:0:
64,192,179473,1,0,0:0:0:0:
448,192,179617,1,0,0:0:0:0:
320,192,179761,1,0,0:0:0:0:
64,192,179905,1,0,0:0:0:0:
192,192,179905,1,0,0:0:0:0:
320,192,180050,1,0,0:0:0:0:
448,192,180194,1,0,0:0:0:0:
64,192,180338,1,0,0:0:0:0:
192,192,180338,128,0,180482:0:0:0:0:
320,192,180482,1,0,0:0:0:0:
448,192,180482,1,0,0:0:0:0:
192,192,180627,1,0,0:0:0:0:
64,192,180771,1,0,0:0:0:0:
448,192,180915,1,0,0:0:0:0:
64,192,181059,1,0,0:0:0:0:
192,192,181059,1,0,0:0:0:0:
448,192,181131,1,0,0:0:0:0:
320,192,181204,1,0,0:0:0:0:
192,192,181276,1,0,0:0:0:0:
448,192,181348,1,0,0:0:0:0:
320,192,181348,1,0,0:0:0:0:
192,192,181420,1,0,0:0:0:0:
64,192,181492,1,0,0:0:0:0:
320,192,181636,1,0,0:0:0:0:
448,192,181636,1,0,0:0:0:0:
64,192,181780,1,0,0:0:0:0:
192,192,181925,1,0,0:0:0:0:
448,192,182069,1,0,0:0:0:0:
64,192,182213,1,0,0:0:0:0:
192,192,182213,1,0,0:0:0:0:
320,192,182357,1,0,0:0:0:0:
448,192,182502,1,0,0:0:0:0:
64,192,182646,1,0,0:0:0:0:
192,192,182646,128,0,182790:0:0:0:0:
320,192,182790,1,0,0:0:0:0:
448,192,182790,1,0,0:0:0:0:
192,192,182934,1,0,0:0:0:0:
64,192,183078,1,0,0:0:0:0:
448,192,183223,1,0,0:0:0:0:
64,192,183367,1,0,0:0:0:0:
192,192,183367,1,0,0:0:0:0:
320,192,183439,1,0,0:0:0:0:
448,192,183511,1,0,0:0:0:0:
192,192,183583,1,0,0:0:0:0:
320,192,183655,1,0,0:0:0:0:
64,192,183728,1,0,0:0:0:0:
192,192,183800,1,0,0:0:0:0:
64,192,183872,1,0,0:0:0:0:
320,192,183944,1,0,0:0:0:0:
448,192,183944,1,0,0:0:0:0:
192,192,184016,1,0,0:0:0:0:
64,192,184088,1,0,0:0:0:0:
448,192,184160,1,0,0:0:0:0:
320,192,184232,1,0,0:0:0:0:
448,192,184377,1,0,0:0:0:0:
64,192,184521,1,0,0:0:0:0:
192,192,184521,1,0,0:0:0:0:
320,192,184665,1,0,0:0:0:0:
448,192,184809,1,0,0:0:0:0:
64,192,184953,1,0,0:0:0:0:
192,192,184953,128,0,185098:0:0:0:0:
320,192,185098,1,0,0:0:0:0:
448,192,185098,1,0,0:0:0:0:
64,192,185242,1,0,0:0:0:0:
448,192,185386,1,0,0:0:0:0:
320,192,185530,1,0,0:0:0:0:
64,192,185675,1,0,0:0:0:0:
192,192,185675,1,0,0:0:0:0:
448,192,185747,1,0,0:0:0:0:
320,192,185819,1,0,0:0:0:0:
192,192,185891,1,0,0:0:0:0:
448,192,185963,1,0,0:0:0:0:
64,192,185963,1,0,0:0:0:0:
320,192,186035,1,0,0:0:0:0:
192,192,186107,1,0,0:0:0:0:
64,192,186179,1,0,0:0:0:0:
320,192,186252,1,0,0:0:0:0:
448,192,186252,1,0,0:0:0:0:
192,192,186324,1,0,0:0:0:0:
64,192,186396,1,0,0:0:0:0:
320,192,186540,1,0,0:0:0:0:
448,192,186684,1,0,0:0:0:0:
64,192,186828,1,0,0:0:0:0:
192,192,186828,1,0,0:0:0:0:
320,192,186973,1,0,0:0:0:0:
64,192,187117,1,0,0:0:0:0:
192,192,187261,1,0,0:0:0:0:
64,192,187261,128,0,187405:0:0:0:0:
320,192,187405,1,0,0:0:0:0:
448,192,187405,1,0,0:0:0:0:
64,192,187550,1,0,0:0:0:0:
320,192,187694,1,0,0:0:0:0:
448,192,187838,1,0,0:0:0:0:
64,192,187982,1,0,0:0:0:0:
192,192,187982,1,0,0:0:0:0:
448,192,188054,1,0,0:0:0:0:
320,192,188127,1,0,0:0:0:0:
192,192,188199,1,0,0:0:0:0:
448,192,188271,1,0,0:0:0:0:
64,192,188343,1,0,0:0:0:0:
192,192,188415,1,0,0:0:0:0:
64,192,188487,1,0,0:0:0:0:
320,192,188559,1,0,0:0:0:0:
448,192,188559,1,0,0:0:0:0:
64,192,188631,1,0,0:0:0:0:
192,192,188703,1,0,0:0:0:0:
320,192,188776,1,0,0:0:0:0:
64,192,188848,1,0,0:0:0:0:
448,192,188992,1,0,0:0:0:0:
64,192,189136,1,0,0:0:0:0:
192,192,189136,1,0,0:0:0:0:
320,192,189280,1,0,0:0:0:0:
448,192,189425,1,0,0:0:0:0:
192,192,189569,1,0,0:0:0:0:
64,192,189569,128,0,189713:0:0:0:0:
320,192,189713,1,0,0:0:0:0:
448,192,189713,1,0,0:0:0:0:
192,192,189857,1,0,0:0:0:0:
64,192,190002,1,0,0:0:0:0:
320,192,190146,1,0,0:0:0:0:
64,192,190290,1,0,0:0:0:0:
192,192,190290,1,0,0:0:0:0:
320,192,190362,1,0,0:0:0:0:
448,192,190434,1,0,0:0:0:0:
64,192,190506,1,0,0:0:0:0:
320,192,190578,1,0,0:0:0:0:
448,192,190651,1,0,0:0:0:0:
192,192,190723,1,0,0:0:0:0:
64,192,190795,1,0,0:0:0:0:
320,192,190867,1,0,0:0:0:0:
448,192,190867,1,0,0:0:0:0:
192,192,190939,1,0,0:0:0:0:
64,192,191011,1,0,0:0:0:0:
448,192,191083,1,0,0:0:0:0:
320,192,191155,1,0,0:0:0:0:
448,192,191300,1,0,0:0:0:0:
64,192,191444,1,0,0:0:0:0:
192,192,191444,1,0,0:0:0:0:
320,192,191588,1,0,0:0:0:0:
448,192,191732,1,0,0:0:0:0:
64,192,191877,1,0,0:0:0:0:
192,192,191877,128,0,192021:0:0:0:0:
448,192,192021,1,0,0:0:0:0:
320,192,192021,1,0,0:0:0:0:
64,192,192165,1,0,0:0:0:0:
192,192,192309,1,0,0:0:0:0:
448,192,192453,1,0,0:0:0:0:
64,192,192654,1,0,0:0:0:0:
192,192,192654,1,0,0:0:0:0:
320,192,192726,1,0,0:0:0:0:
448,192,192798,1,0,0:0:0:0:
192,192,192870,1,0,0:0:0:0:
320,192,192942,1,0,0:0:0:0:
64,192,193014,1,0,0:0:0:0:
448,192,193014,1,0,0:0:0:0:
192,192,193086,1,0,0:0:0:0:
64,192,193158,1,0,0:0:0:0:
448,192,193230,1,0,0:0:0:0:
320,192,193230,1,0,0:0:0:0:
192,192,193303,1,0,0:0:0:0:
64,192,193375,1,0,0:0:0:0:
64,192,193519,1,0,0:0:0:0:
448,192,193591,1,0,0:0:0:0:
192,192,193807,1,0,0:0:0:0:
64,192,193807,1,0,0:0:0:0:
320,192,193952,1,0,0:0:0:0:
448,192,194096,1,0,0:0:0:0:
64,192,194240,1,0,0:0:0:0:
192,192,194240,128,0,194384:0:0:0:0:
448,192,194384,1,0,0:0:0:0:
320,192,194384,1,0,0:0:0:0:
192,192,194529,1,0,0:0:0:0:
320,192,194673,1,0,0:0:0:0:
448,192,194673,1,0,0:0:0:0:
320,192,194817,1,0,0:0:0:0:
192,192,194961,1,0,0:0:0:0:
64,192,194961,1,0,0:0:0:0:
448,192,195033,1,0,0:0:0:0:
320,192,195105,1,0,0:0:0:0:
192,192,195178,1,0,0:0:0:0:
448,192,195250,1,0,0:0:0:0:
320,192,195250,1,0,0:0:0:0:
192,192,195322,1,0,0:0:0:0:
64,192,195394,1,0,0:0:0:0:
192,192,195466,1,0,0:0:0:0:
320,192,195538,1,0,0:0:0:0:
448,192,195538,1,0,0:0:0:0:
64,192,195610,1,0,0:0:0:0:
192,192,195682,1,0,0:0:0:0:
64,192,195827,1,0,0:0:0:0:
448,192,195971,1,0,0:0:0:0:
64,192,196115,1,0,0:0:0:0:
192,192,196115,1,0,0:0:0:0:
320,192,196259,1,0,0:0:0:0:
448,192,196404,1,0,0:0:0:0:
192,192,196548,1,0,0:0:0:0:
64,192,196548,128,0,196692:0:0:0:0:
320,192,196692,1,0,0:0:0:0:
448,192,196692,1,0,0:0:0:0:
64,192,196836,1,0,0:0:0:0:
192,192,196980,1,0,0:0:0:0:
448,192,197125,1,0,0:0:0:0:
64,192,197269,1,0,0:0:0:0:
192,192,197269,1,0,0:0:0:0:
448,192,197341,1,0,0:0:0:0:
320,192,197413,1,0,0:0:0:0:
192,192,197485,1,0,0:0:0:0:
448,192,197557,1,0,0:0:0:0:
320,192,197629,1,0,0:0:0:0:
64,192,197702,1,0,0:0:0:0:
192,192,197774,1,0,0:0:0:0:
320,192,197846,1,0,0:0:0:0:
448,192,197846,1,0,0:0:0:0:
64,192,197918,1,0,0:0:0:0:
192,192,197990,1,0,0:0:0:0:
448,192,198062,1,0,0:0:0:0:
64,192,198134,1,0,0:0:0:0:
448,192,198279,1,0,0:0:0:0:
64,192,198423,1,0,0:0:0:0:
192,192,198423,1,0,0:0:0:0:
320,192,198567,1,0,0:0:0:0:
448,192,198711,1,0,0:0:0:0:
64,192,198855,1,0,0:0:0:0:
192,192,198855,128,0,199000:0:0:0:0:
320,192,199000,1,0,0:0:0:0:
448,192,199000,1,0,0:0:0:0:
192,192,199144,1,0,0:0:0:0:
320,192,199288,1,0,0:0:0:0:
448,192,199432,1,0,0:0:0:0:
64,192,199577,1,0,0:0:0:0:
192,192,199577,1,0,0:0:0:0:
448,192,199649,1,0,0:0:0:0:
320,192,199721,1,0,0:0:0:0:
192,192,199793,1,0,0:0:0:0:
448,192,199865,1,0,0:0:0:0:
64,192,199937,1,0,0:0:0:0:
192,192,200009,1,0,0:0:0:0:
64,192,200081,1,0,0:0:0:0:
320,192,200154,1,0,0:0:0:0:
448,192,200154,1,0,0:0:0:0:
64,192,200226,1,0,0:0:0:0:
192,192,200298,1,0,0:0:0:0:
320,192,200370,1,0,0:0:0:0:
64,192,200442,1,0,0:0:0:0:
448,192,200586,1,0,0:0:0:0:
64,192,200730,1,0,0:0:0:0:
192,192,200730,1,0,0:0:0:0:
192,192,200875,1,0,0:0:0:0:
320,192,201019,1,0,0:0:0:0:
448,192,201019,1,0,0:0:0:0:
192,192,201019,1,0,0:0:0:0:
64,192,201163,1,0,0:0:0:0:
192,192,201163,128,0,201307:0:0:0:0:
320,192,201307,1,0,0:0:0:0:
448,192,201307,1,0,0:0:0:0:
64,192,201307,1,0,0:0:0:0:
192,192,201452,1,0,0:0:0:0:
192,192,201596,1,0,0:0:0:0:
320,192,201596,1,0,0:0:0:0:
64,192,201596,1,0,0:0:0:0:
448,192,201740,1,0,0:0:0:0:
192,192,201740,1,0,0:0:0:0:
64,192,201884,1,0,0:0:0:0:
448,192,201884,1,0,0:0:0:0:
320,192,201884,128,0,206572:0:0:0:0:
448,192,205995,1,0,0:0:0:0:
192,192,206572,128,0,211187:0:0:0:0:
448,192,206572,1,0,0:0:0:0:
320,192,207148,1,0,0:0:0:0:
64,192,207725,1,0,0:0:0:0:
320,192,208302,1,0,0:0:0:0:
448,192,208591,1,0,0:0:0:0:
320,192,208879,1,0,0:0:0:0:
448,192,208879,1,0,0:0:0:0:
64,192,209456,1,0,0:0:0:0:
448,192,209456,1,0,0:0:0:0:
320,192,210033,1,0,0:0:0:0:
448,192,210033,1,0,0:0:0:0:
320,192,210322,1,0,0:0:0:0:
64,192,210610,1,0,0:0:0:0:
448,192,210610,1,0,0:0:0:0:
320,192,211043,1,0,0:0:0:0:
448,192,211187,128,0,213495:0:0:0:0:
64,192,211187,1,0,0:0:0:0:
320,192,211187,1,0,0:0:0:0:
64,192,211764,1,0,0:0:0:0:
320,192,211764,1,0,0:0:0:0:
192,192,212052,1,0,0:0:0:0:
192,192,212341,1,0,0:0:0:0:
320,192,212341,1,0,0:0:0:0:
192,192,212629,1,0,0:0:0:0:
64,192,212918,1,0,0:0:0:0:
320,192,212918,1,0,0:0:0:0:
192,192,213206,1,0,0:0:0:0:
320,192,213495,128,0,215658:0:0:0:0:
64,192,213495,1,0,0:0:0:0:
192,192,213495,1,0,0:0:0:0:
192,192,213783,1,0,0:0:0:0:
64,192,214072,1,0,0:0:0:0:
448,192,214072,1,0,0:0:0:0:
192,192,214360,1,0,0:0:0:0:
448,192,214504,1,0,0:0:0:0:
64,192,214648,1,0,0:0:0:0:
192,192,214648,1,0,0:0:0:0:
448,192,214793,1,0,0:0:0:0:
192,192,214937,1,0,0:0:0:0:
64,192,214937,1,0,0:0:0:0:
448,192,215081,1,0,0:0:0:0:
64,192,215225,1,0,0:0:0:0:
192,192,215225,1,0,0:0:0:0:
448,192,215370,1,0,0:0:0:0:
64,192,215514,1,0,0:0:0:0:
192,192,215514,1,0,0:0:0:0:
448,192,215802,128,0,216091:0:0:0:0:
320,192,215802,128,0,216019:0:0:0:0:
192,192,215802,128,0,215947:0:0:0:0:
64,192,215802,128,0,215874:0:0:0:0:
64,192,216235,128,0,216523:0:0:0:0:
192,192,216235,128,0,216451:0:0:0:0:
320,192,216235,128,0,216379:0:0:0:0:
448,192,216235,128,0,216307:0:0:0:0:
448,192,216668,128,0,222725:0:0:0:0:
192,192,216668,128,0,216812:0:0:0:0:
64,192,216668,128,0,216884:0:0:0:0:
320,192,216668,128,0,216740:0:0:0:0:
