osu file format v14

[General]
AudioFilename: audio.mp3
AudioLeadIn: 0
PreviewTime: 49985
Countdown: 0
SampleSet: Soft
StackLeniency: 0.7
Mode: 0
LetterboxInBreaks: 0
WidescreenStoryboard: 1

[Editor]
Bookmarks: 74252,97906,104829,139444
DistanceSpacing: 1.4
BeatDivisor: 4
GridSize: 32
TimelineZoom: 1.5

[Metadata]
Title:Talk Too Much
TitleUnicode:Talk Too Much
Artist:COIN
ArtistUnicode:COIN
Creator:Asphyxia
Version:Kyshiro's Insane
Source:
Tags:Kyshiro Fursum Jace foxygrandpa foxy grandpa indie pop
BeatmapID:2004149
BeatmapSetID:901626

[Difficulty]
HPDrainRate:5
CircleSize:3.9
OverallDifficulty:7.5
ApproachRate:8.5
SliderMultiplier:2.2
SliderTickRate:1

[Events]
//Background and Video events
0,0,"72318408_p0.jpg",0,0
//Break Periods
2,125798,129538
//Storyboard Layer 0 (Background)
//Storyboard Layer 1 (Fail)
//Storyboard Layer 2 (Pass)
//Storyboard Layer 3 (Foreground)
//Storyboard Sound Samples

[TimingPoints]
983,576.923076923077,4,2,1,40,1,0
5598,-113.636363636364,4,2,1,40,0,0
14108,-113.636363636364,4,2,1,40,0,0
14252,-113.636363636364,4,2,1,65,0,0
14540,-113.636363636364,4,2,1,5,0,0
14829,-90.9090909090909,4,2,2,65,0,1
19156,-90.9090909090909,4,2,1,65,0,1
19444,-90.9090909090909,4,2,2,65,0,1
23771,-90.9090909090909,4,2,1,65,0,1
24059,-100,4,2,1,50,0,0
32425,-100,4,2,1,55,0,0
32713,-83.3333333333333,4,2,1,60,0,0
33146,-100,4,2,1,5,0,0
33290,-100,4,2,1,55,0,0
42521,-125,4,2,1,50,0,0
44829,-125,4,2,1,45,0,0
47136,-125,4,2,1,40,0,0
49444,-125,4,2,1,30,0,0
50021,-100,4,2,1,25,0,0
50454,-100,4,2,5,5,0,0
50598,-100,4,2,1,50,0,0
51031,-100,4,2,5,5,0,0
51175,-100,4,2,1,75,0,0
51608,-100,4,2,5,5,0,0
51752,-79.3650793650794,4,2,1,70,0,1
52040,-79.3650793650794,4,2,2,70,0,1
56079,-79.3650793650794,4,2,1,70,0,1
56367,-79.3650793650794,4,2,2,70,0,1
60694,-79.3650793650794,4,2,1,70,0,1
60983,-79.3650793650794,4,2,2,70,0,1
61415,-79.3650793650794,4,2,1,70,0,1
61559,-79.3650793650794,4,2,2,70,0,1
63723,-79.3650793650794,4,2,1,70,0,1
63867,-79.3650793650794,4,2,2,70,0,1
64444,-79.3650793650794,4,2,1,70,0,1
65598,-79.3650793650794,4,2,2,70,0,1
69636,-79.3650793650794,4,2,1,70,0,1
70213,-93.4579439252336,4,2,1,60,0,0
70214,-93.4579439252336,4,2,1,60,0,0
70502,-93.4579439252336,4,2,2,60,0,0
79444,-108.695652173913,4,2,1,50,0,0
88098,-108.695652173913,4,2,2,50,0,0
88242,-108.695652173913,4,2,1,50,0,0
97906,-125,4,2,1,50,0,0
104829,-86.9565217391304,4,2,1,50,0,0
105406,-86.9565217391304,4,2,1,20,0,0
105838,-86.9565217391304,4,2,1,5,0,0
105983,-86.9565217391304,4,2,1,50,0,0
106415,-86.9565217391304,4,2,1,5,0,0
106560,-86.9565217391304,4,2,1,50,0,0
106992,-86.9565217391304,4,2,1,5,0,0
107136,-76.3358778625954,4,2,1,75,0,1
107425,-76.3358778625954,4,2,2,75,0,1
111463,-76.3358778625954,4,2,1,75,0,1
111752,-76.3358778625954,4,2,2,75,0,1
116079,-76.3358778625954,4,2,1,75,0,1
116367,-76.3358778625954,4,2,2,75,0,1
116800,-76.3358778625954,4,2,1,75,0,1
116944,-76.3358778625954,4,2,2,75,0,1
119108,-76.3358778625954,4,2,1,75,0,1
119252,-76.3358778625954,4,2,2,75,0,1
119829,-76.3358778625954,4,2,1,75,0,1
120983,-76.3358778625954,4,2,2,75,0,1
123291,-76.3358778625954,4,2,2,65,0,1
125309,-76.3358778625954,4,2,1,50,0,1
125454,-76.3358778625954,4,2,1,40,0,1
125598,-100,4,2,1,50,0,0
130213,-133.333333333333,4,2,1,50,0,0
139444,-107.52688172043,4,2,2,60,0,0
139877,-107.52688172043,4,2,2,5,0,0
140021,-107.52688172043,4,2,2,60,0,0
140454,-107.52688172043,4,2,2,5,0,0
140598,-107.52688172043,4,2,2,60,0,0
141031,-107.52688172043,4,2,2,5,0,0
141175,-107.52688172043,4,2,2,60,0,0
141608,-107.52688172043,4,2,2,5,0,0
141752,-107.52688172043,4,2,2,60,0,0
144492,-107.52688172043,4,2,2,5,0,0
144636,-107.52688172043,4,2,2,60,0,0
145069,-107.52688172043,4,2,2,5,0,0
145213,-107.52688172043,4,2,2,60,0,0
145646,-107.52688172043,4,2,2,5,0,0
145790,-107.52688172043,4,2,2,60,0,0
146223,-107.52688172043,4,2,2,5,0,0
146367,-107.52688172043,4,2,2,60,0,0
146800,-107.52688172043,4,2,1,45,0,0
147233,-107.52688172043,4,2,1,60,0,0
148675,-93.4579439252336,4,2,2,60,0,0
157906,-93.4579439252336,4,2,2,65,0,0
164829,-93.4579439252336,4,2,1,70,0,0
165117,-93.4579439252336,4,2,2,70,0,0
165694,-93.4579439252336,4,2,1,70,0,0
165838,-93.4579439252336,4,2,2,70,0,0
166127,-93.4579439252336,4,2,1,70,0,0
166271,-93.4579439252336,4,2,2,70,0,0
166848,-93.4579439252336,4,2,2,80,0,0
167713,-93.4579439252336,4,2,1,30,0,0
168146,-93.4579439252336,4,2,1,5,0,0
168290,-93.4579439252336,4,2,1,60,0,0
168723,-93.4579439252336,4,2,1,5,0,0
168867,-93.4579439252336,4,2,1,90,0,0
169300,-93.4579439252336,4,2,1,5,0,0
169444,-72.992700729927,4,2,1,80,0,1
169733,-72.992700729927,4,2,2,80,0,1
173771,-72.992700729927,4,2,1,80,0,1
174059,-72.992700729927,4,2,2,80,0,1
179108,-72.992700729927,4,2,1,80,0,1
179252,-72.992700729927,4,2,2,80,0,1
182136,-72.992700729927,4,2,1,80,0,1
183290,-72.992700729927,4,2,2,80,0,1
185021,-72.992700729927,4,2,2,85,0,1
185598,-72.992700729927,4,2,2,75,0,1
187040,-72.992700729927,4,2,2,90,0,1
187329,-72.992700729927,4,2,2,60,0,1
187617,-72.992700729927,4,2,2,30,0,1
187906,-142.857142857143,4,2,1,50,0,0
188339,-142.857142857143,4,2,1,5,0,0

[Colours]
Combo1 : 255,83,83
Combo2 : 255,157,111
Combo3 : 106,255,181
Combo4 : 255,255,170

[HitObjects]
43,75,5598,6,0,L|192:92,1,145.200004431152,2|2,3:2|0:2,0:0:0:0:
296,82,6175,2,0,L|280:145,1,48.4000014770508,0|0,3:0|0:0,0:0:0:0:
264,220,6463,1,2,0:0:0:0:
264,220,6752,2,0,P|331:245|407:212,1,145.200004431152,2|2,3:2|0:2,0:0:0:0:
446,141,7329,1,0,3:0:0:0:
446,141,7906,6,0,P|446:97|442:85,2,48.4000014770508,2|2|2,3:2|0:2|0:2,0:0:0:0:
355,197,8338,2,0,L|297:185,1,48.4000014770508,2|0,0:2|3:0,0:0:0:0:
294,100,8627,1,0,0:0:0:0:
203,30,8771,2,0,L|209:78,1,48.4000014770508,2|0,0:0|0:0,0:0:0:0:
166,166,9059,2,0,B|121:185|121:185|11:154,1,145.200004431152,0|2,3:0|0:0,0:0:0:0:
111,88,9636,1,0,3:0:0:0:
111,88,9925,2,0,L|169:80,1,48.4000014770508,0|2,0:0|0:0,0:0:0:0:
294,137,10213,6,0,P|316:185|294:276,1,145.200004431152,2|2,3:2|0:2,0:0:0:0:
207,324,10790,2,0,L|139:309,2,48.4000014770508,0|0|2,3:0|0:0|0:0,0:0:0:0:
299,368,11223,1,0,0:0:0:0:
387,317,11367,2,0,L|492:337,1,96.8000029541016,2|0,3:2|0:0,0:0:0:0:
441,233,11800,1,2,0:0:0:0:
333,232,11944,2,0,L|268:235,1,48.4000014770508,0|0,0:0|0:0,0:0:0:0:
176,152,12233,5,2,0:0:0:0:
204,146,12377,1,2,0:0:0:0:
232,140,12521,1,2,3:2:0:0:
260,134,12665,1,2,0:0:0:0:
152,56,12954,1,2,0:0:0:0:
123,54,13098,2,0,P|84:39|63:28,1,48.4000014770508,2|0,3:2|0:0,0:0:0:0:
6,147,13386,2,0,P|28:137|50:129,1,48.4000014770508,2|0,0:0|0:0,0:0:0:0:
192,190,13675,2,0,L|178:338,1,145.200004431152,2|0,3:2|0:0,0:0:0:0:
176,360,14252,5,4,0:0:0:0:
116,119,14829,2,0,P|211:95|283:165,1,181.500005538941,4|2,3:1|0:0,0:0:0:0:
351,203,15406,2,0,L|416:190,1,60.5000018463135,10|0,3:2|0:0,0:0:0:0:
276,256,15694,1,2,0:0:0:0:
346,312,15838,1,2,0:0:0:0:
278,368,15983,2,0,L|143:351,1,121.000003692627,2|0,3:2|0:0,0:0:0:0:
107,273,16415,1,2,0:2:0:0:
14,305,16559,1,10,3:2:0:0:
14,305,16848,5,2,0:0:0:0:
107,273,16992,1,4,0:0:0:0:
26,202,17136,2,0,P|15:157|21:132,2,60.5000018463135,2|0|0,3:2|0:0|0:0,0:0:0:0:
117,162,17569,2,0,L|273:182,1,121.000003692627,2|0,0:2|0:0,0:0:0:0:
371,95,18002,2,0,P|327:105|305:123,1,60.5000018463135,2|4,0:0|0:0,0:0:0:0:
374,195,18290,2,0,P|388:280|326:355,1,181.500005538941,2|2,3:2|0:0,0:0:0:0:
232,353,18867,1,10,3:2:0:0:
232,353,19156,5,4,0:0:0:0:
338,316,19300,1,4,0:0:0:0:
252,248,19444,2,0,P|240:175|263:123,1,121.000003692627,2|0,3:2|0:0,0:0:0:0:
351,88,19877,1,2,0:0:0:0:
406,190,20021,2,0,L|333:182,1,60.5000018463135,10|0,3:2|0:0,0:0:0:0:
166,257,20309,2,0,L|239:249,1,60.5000018463135,2|4,0:0|0:0,0:0:0:0:
158,131,20598,2,0,P|84:117|-1:180,1,181.500005538941,2|2,3:2|0:0,0:0:0:0:
252,164,21175,2,0,P|255:105|246:88,1,60.5000018463135,10|0,3:2|0:0,0:0:0:0:
408,22,21463,5,2,0:0:0:0:
350,91,21608,1,4,0:0:0:0:
430,145,21752,2,0,L|415:215,1,60.5000018463135,2|2,3:2|0:0,0:0:0:0:
389,218,22184,2,0,L|404:288,1,60.5000018463135,4|10,0:0|3:2,0:0:0:0:
432,289,22617,2,0,L|417:359,1,60.5000018463135,4|0,0:0|0:0,0:0:0:0:
327,363,22906,2,0,P|281:315|168:304,1,181.500005538941,2|2,3:2|0:0,0:0:0:0:
91,364,23483,1,10,0:0:0:0:
279,219,23771,1,4,0:0:0:0:
137,90,24059,6,0,B|128:217|128:217|88:189,1,165,2|2,0:3|0:0,0:0:0:0:
30,143,24636,1,0,0:0:0:0:
314,109,24925,2,0,L|374:120,1,55,2|0,0:0|0:0,0:0:0:0:
258,195,25213,2,0,P|211:132|231:43,1,165,2|0,0:3|0:0,0:0:0:0:
319,16,25790,1,2,0:3:0:0:
317,35,26367,6,0,L|301:209,1,165,2|2,0:3|0:0,0:0:0:0:
291,295,26944,1,2,0:3:0:0:
447,169,27233,2,0,P|420:158|388:154,1,55,2|0,0:0|0:0,0:0:0:0:
221,247,27521,2,0,P|265:287|372:276,1,165,2|0,0:3|0:0,0:0:0:0:
394,154,28098,2,0,P|350:114|243:125,1,165,2|0,0:3|0:0,0:0:0:0:
307,200,28675,6,0,L|484:183,1,165,2|0,0:3|0:0,0:0:0:0:
506,279,29252,1,2,0:3:0:0:
506,279,29540,2,0,P|484:315|470:350,1,55,2|0,0:0|0:0,0:0:0:0:
378,377,29829,2,0,P|321:317|242:282,1,165,2|0,0:3|0:0,0:0:0:0:
149,296,30406,1,2,0:3:0:0:
149,296,30983,5,2,0:3:0:0:
28,247,31271,1,0,0:0:0:0:
77,127,31559,1,2,0:3:0:0:
196,175,31848,2,0,P|241:167|262:158,1,55,2|0,0:0|0:0,0:0:0:0:
303,29,32136,2,0,L|312:103,1,55,2|0,0:3|0:0,0:0:0:0:
355,176,32425,2,0,L|349:238,1,55,4|0,3:2|0:0,0:0:0:0:
182,265,32713,2,0,B|284:264|259:331|362:330,1,197.99999395752,8|0,0:1|0:0,0:0:0:0:
418,156,33290,6,0,B|368:178|350:230|350:230|325:204|288:186,1,165,0|0,3:0|0:0,0:0:0:0:
225,106,33867,2,0,P|261:85|287:81,1,55,8|0,0:1|0:0,0:0:0:0:
197,207,34156,2,0,P|170:198|148:183,1,55,2|0,0:0|0:0,0:0:0:0:
70,90,34444,2,0,L|62:279,1,165,0|2,3:0|0:0,0:0:0:0:
20,361,35021,1,8,0:1:0:0:
20,361,35598,6,0,L|89:350,1,55,0|0,3:0|0:0,0:0:0:0:
214,301,35886,2,0,L|145:290,1,55,0|2,0:0|0:0,0:0:0:0:
302,362,36175,1,8,0:1:0:0:
302,362,36463,2,0,P|332:322|339:303,1,55,2|0,0:0|0:0,0:0:0:0:
443,325,36752,2,0,P|407:250|412:161,1,165,0|0,3:0|0:0,0:0:0:0:
485,39,37329,2,0,L|496:115,1,55,8|0,0:1|0:0,0:0:0:0:
325,78,37617,2,0,L|401:67,1,55,0|0,0:0|0:0,0:0:0:0:
311,194,37906,6,0,P|213:167|145:183,1,165,0|0,3:0|0:0,0:0:0:0:
68,251,38483,1,8,0:1:0:0:
68,251,38771,2,0,L|-1:240,1,55,2|0,0:0|0:0,0:0:0:0:
138,325,39059,2,0,L|256:308,1,110,0|2,3:0|0:0,0:0:0:0:
341,352,39492,1,2,0:0:0:0:
428,289,39636,2,0,P|437:216|420:178,1,110,8|0,0:1|0:0,0:0:0:0:
422,184,40213,6,0,L|487:194,1,55,0|0,3:0|0:0,0:0:0:0:
406,82,40502,1,0,0:0:0:0:
318,154,40646,2,0,P|317:216|352:269,1,110,2|0,0:0|0:0,0:0:0:0:
406,82,41079,2,0,P|370:52|342:43,1,55,2|0,0:0|0:0,0:0:0:0:
422,184,41367,2,0,P|469:161|502:106,1,110,0|0,3:0|0:0,0:0:0:0:
406,82,41800,1,0,0:0:0:0:
318,154,41944,2,0,P|317:216|352:269,1,110,8|0,0:1|0:0,0:0:0:0:
121,185,42521,5,4,3:1:0:0:
115,201,43098,1,0,3:0:0:0:
109,217,43675,1,0,3:0:0:0:
103,233,44252,1,0,3:0:0:0:
396,128,44829,5,0,3:0:0:0:
321,198,45117,2,0,L|338:310,2,88,0|0|2,0:0|3:0|0:0,0:0:0:0:
251,122,45983,2,0,P|199:94|157:89,1,88,0|0,3:0|0:0,0:0:0:0:
338,51,46559,2,0,P|390:23|432:18,1,88,0|0,3:0|0:0,0:0:0:0:
487,169,47136,5,0,3:0:0:0:
486,186,47713,1,0,3:0:0:0:
485,203,48290,1,0,3:0:0:0:
484,220,48867,1,0,3:0:0:0:
214,270,50021,6,0,P|127:222|176:167,1,165,2|0,0:0|0:0,0:0:0:0:
185,79,50598,6,0,P|186:178|114:163,1,165,2|0,0:0|0:0,0:0:0:0:
33,201,51175,6,0,P|118:149|141:219,1,165,2|0,0:0|0:0,0:0:0:0:
191,328,51752,6,0,P|276:354|359:262,1,207.899993655396,4|4,3:1|0:0,0:0:0:0:
267,188,52329,2,0,L|261:275,1,69.2999978851319,10|0,3:2|0:0,0:0:0:0:
91,220,52617,2,0,P|138:221|185:241,1,69.2999978851319,2|2,0:0|0:0,0:0:0:0:
294,88,52906,2,0,B|237:79|196:112|196:112|182:62|131:34,1,207.899993655396,2|2,3:2|0:0,0:0:0:0:
96,133,53483,1,10,3:2:0:0:
96,133,53771,5,2,0:0:0:0:
182,189,53915,1,4,0:0:0:0:
88,233,54059,2,0,L|111:312,1,69.2999978851319,2|0,3:2|0:0,0:0:0:0:
200,374,54348,2,0,L|219:307,1,69.2999978851319,2|4,0:0|0:0,0:0:0:0:
284,214,54636,2,0,P|230:195|201:198,1,69.2999978851319,10|0,3:2|0:0,0:0:0:0:
327,313,54925,2,0,P|361:309|392:294,1,69.2999978851319,2|2,0:0|0:0,0:0:0:0:
469,194,55213,6,0,L|462:119,1,69.2999978851319,0|0,3:0|0:0,0:0:0:0:
371,157,55502,2,0,L|364:82,1,69.2999978851319,2|2,0:0|0:0,0:0:0:0:
266,158,55790,2,0,L|259:233,1,69.2999978851319,10|0,3:2|0:0,0:0:0:0:
218,346,56079,1,4,0:0:0:0:
142,277,56223,1,4,0:0:0:0:
38,312,56367,6,0,P|-2:229|34:122,1,207.899993655396,0|2,3:0|0:0,0:0:0:0:
192,165,56944,2,0,P|145:185|124:186,1,69.2999978851319,10|0,3:2|0:0,0:0:0:0:
137,9,57233,2,0,L|135:84,1,69.2999978851319,2|4,0:0|0:0,0:0:0:0:
277,235,57521,6,0,L|278:96,1,138.599995770264,0|0,0:0|0:0,0:0:0:0:
352,25,57954,1,2,0:0:0:0:
426,97,58098,1,10,3:2:0:0:
426,97,58386,5,4,0:0:0:0:
352,25,58531,1,4,0:0:0:0:
277,96,58675,1,0,3:0:0:0:
353,167,58819,1,0,0:0:0:0:
426,97,58963,2,0,P|470:105|504:124,1,69.2999978851319,2|6,0:0|0:0,0:0:0:0:
373,188,59252,2,0,P|398:224|409:262,1,69.2999978851319,10|0,0:0|0:0,0:0:0:0:
269,222,59540,2,0,P|261:265|241:300,1,69.2999978851319,4|4,0:0|0:0,0:0:0:0:
255,108,59829,6,0,P|271:66|273:27,1,69.2999978851319,0|0,3:0|0:0,0:0:0:0:
149,104,60118,2,0,P|131:62|105:34,1,69.2999978851319,2|0,0:0|0:0,0:0:0:0:
65,174,60406,2,0,P|23:157|-15:155,1,69.2999978851319,10|0,0:0|0:0,0:0:0:0:
66,301,60694,1,4,3:2:0:0:
154,354,60838,1,4,3:2:0:0:
238,292,60983,6,0,P|258:203|236:142,1,138.599995770264,4|0,0:1|3:0,0:0:0:0:
160,93,61415,1,0,3:0:0:0:
268,52,61559,2,0,P|310:74|351:83,1,69.2999978851319,8|0,0:0|0:0,0:0:0:0:
160,93,61848,2,0,P|118:71|77:62,1,69.2999978851319,2|4,0:0|0:0,0:0:0:0:
16,151,62136,6,0,L|37:295,1,138.599995770264,0|0,3:0|0:0,0:0:0:0:
125,355,62569,2,0,P|202:304|262:300,2,138.599995770264,2|0|4,0:0|0:0|0:0,0:0:0:0:
133,223,63290,5,0,3:0:0:0:
56,274,63434,1,0,0:0:0:0:
215,192,63579,1,2,0:0:0:0:
71,167,63723,1,0,3:0:0:0:
146,62,63867,2,0,L|155:144,1,69.2999978851319,10|0,3:2|0:0,0:0:0:0:
310,103,64156,2,0,P|259:81|224:78,1,69.2999978851319,4|2,0:0|3:2,0:0:0:0:
306,200,64444,6,0,L|457:183,1,138.599995770264,0|2,3:0|0:3,0:0:0:0:
367,305,64877,2,0,P|295:303|226:348,1,138.599995770264,0|0,3:0|0:0,0:0:0:0:
106,238,65309,2,0,L|177:252,1,69.2999978851319,4|4,0:0|0:0,0:0:0:0:
372,109,65598,6,0,B|264:88|284:174|176:154,1,207.899993655396,4|2,3:1|0:0,0:0:0:0:
209,65,66175,1,10,0:0:0:0:
209,65,66463,2,0,P|161:51|130:25,1,69.2999978851319,4|4,0:0|0:0,0:0:0:0:
342,199,66752,2,0,P|355:275|331:341,1,138.599995770264,2|0,3:2|0:0,0:0:0:0:
241,371,67184,1,4,0:0:0:0:
172,297,67329,2,0,L|160:227,1,69.2999978851319,10|0,0:0|0:0,0:0:0:0:
100,72,67617,5,4,0:0:0:0:
180,125,67761,1,4,0:0:0:0:
263,74,67906,2,0,P|302:58|339:53,1,69.2999978851319,0|0,3:0|0:0,0:0:0:0:
348,57,68338,1,0,3:0:0:0:
432,125,68483,2,0,L|421:217,1,69.2999978851319,8|0,0:0|0:0,0:0:0:0:
324,231,68771,2,0,L|335:323,1,69.2999978851319,0|0,3:0|0:0,0:0:0:0:
428,352,69059,1,4,0:0:0:0:
428,352,69348,5,8,0:0:0:0:
362,301,69492,1,8,0:0:0:0:
280,317,69636,1,8,0:1:0:0:
222,377,69781,1,8,0:1:0:0:
139,374,69925,1,8,0:1:0:0:
86,309,70069,1,8,0:1:0:0:
89,231,70213,6,0,L|92:164,1,58.8499982040406,4|0,3:1|0:0,0:0:0:0:
66,80,70502,2,0,L|133:83,1,58.8499982040406,4|4,2:0|2:0,0:0:0:0:
217,50,70790,2,0,L|214:117,1,58.8499982040406,10|0,3:2|0:0,0:0:0:0:
240,201,71079,2,0,L|173:198,1,58.8499982040406,4|4,2:0|2:0,0:0:0:0:
302,299,71367,6,0,P|338:311|375:307,1,58.8499982040406,2|0,3:2|0:0,0:0:0:0:
445,358,71656,2,0,P|457:322|453:285,1,58.8499982040406,4|4,2:0|2:0,0:0:0:0:
504,218,71944,2,0,P|468:206|431:210,1,58.8499982040406,10|0,3:2|0:0,0:0:0:0:
361,159,72233,2,0,P|349:195|353:232,1,58.8499982040406,4|4,2:0|2:0,0:0:0:0:
217,350,72521,5,2,3:2:0:0:
145,327,72665,1,0,0:0:0:0:
145,252,72809,1,4,2:0:0:0:
217,229,72954,1,4,2:0:0:0:
260,289,73098,2,0,P|298:300|334:297,1,58.8499982040406,10|0,3:2|0:0,0:0:0:0:
145,252,73386,2,0,P|107:241|71:244,1,58.8499982040406,4|4,2:0|2:0,0:0:0:0:
182,122,73675,6,0,P|235:186|340:169,1,176.549994612122,2|4,3:2|0:0,0:0:0:0:
416,159,74252,2,0,P|363:95|258:112,1,176.549994612122,10|8,0:0|0:1,0:0:0:0:
345,264,74829,6,0,P|378:274|414:294,1,58.8499982040406,4|0,3:1|0:0,0:0:0:0:
318,347,75117,2,0,P|353:366|378:388,1,58.8499982040406,4|4,2:0|2:0,0:0:0:0:
194,346,75406,2,0,P|167:360|144:377,1,58.8499982040406,10|0,3:2|0:0,0:0:0:0:
166,264,75694,2,0,P|138:272|112:284,1,58.8499982040406,4|4,2:0|2:0,0:0:0:0:
202,112,75983,6,0,L|187:43,1,58.8499982040406,2|0,3:2|0:0,0:0:0:0:
92,166,76271,2,0,P|130:180|160:184,1,58.8499982040406,4|0,2:0|0:0,0:0:0:0:
310,112,76559,2,0,L|325:43,1,58.8499982040406,8|0,0:0|0:0,0:0:0:0:
420,166,76847,2,0,P|382:180|352:184,1,58.8499982040406,4|4,2:0|2:0,0:0:0:0:
225,249,77136,5,2,3:2:0:0:
270,311,77281,1,0,0:0:0:0:
341,339,77425,1,4,2:0:0:0:
417,335,77569,1,4,2:0:0:0:
476,286,77713,2,0,L|490:217,1,58.8499982040406,8|0,0:0|0:0,0:0:0:0:
379,116,78002,2,0,L|390:173,1,58.8499982040406,4|4,2:0|2:0,0:0:0:0:
317,258,78290,2,0,L|135:236,1,176.549994612122,4|0,3:2|0:0,0:0:0:0:
36,283,78867,1,8,0:1:0:0:
22,295,79156,5,8,0:0:0:0:
148,216,79300,5,8,0:0:0:0:
35,171,79444,6,0,P|26:111|72:28,1,151.799994904175,0|0,3:0|0:0,0:0:0:0:
178,3,80021,2,0,L|188:70,1,50.5999983013917,8|0,0:1|0:0,0:0:0:0:
172,150,80309,2,0,L|239:140,1,50.5999983013917,0|0,3:0|0:0,0:0:0:0:
301,73,80598,2,0,P|371:81|438:145,1,151.799994904175,0|2,3:0|0:0,0:0:0:0:
442,242,81175,1,8,0:1:0:0:
442,242,81752,6,0,L|332:229,1,101.199996602783,0|0,3:0|0:0,0:0:0:0:
264,287,82184,1,2,0:0:0:0:
192,220,82329,2,0,P|188:177|196:143,1,50.5999983013917,8|0,0:1|0:0,0:0:0:0:
125,294,82617,2,0,P|126:319|121:344,1,50.5999983013917,2|0,0:0|0:0,0:0:0:0:
42,239,82906,2,0,L|23:72,1,151.799994904175,0|0,3:0|0:0,0:0:0:0:
113,21,83483,1,8,0:1:0:0:
113,21,84059,6,0,P|111:108|56:157,1,151.799994904175,0|0,3:0|0:0,0:0:0:0:
25,268,84636,2,0,P|67:252|96:249,1,50.5999983013917,8|0,0:1|0:0,0:0:0:0:
209,216,84925,2,0,P|184:209|161:198,1,50.5999983013917,2|0,0:0|0:0,0:0:0:0:
263,122,85213,2,0,L|417:142,1,151.799994904175,0|0,0:0|0:0,0:0:0:0:
507,78,85790,1,8,0:1:0:0:
507,78,86367,5,0,3:0:0:0:
327,161,86656,2,0,L|339:227,1,50.5999983013917,0|0,0:0|3:0,0:0:0:0:
427,260,86944,2,0,L|415:326,1,50.5999983013917,8|0,0:1|0:0,0:0:0:0:
329,359,87233,1,2,0:0:0:0:
215,198,87521,5,0,3:0:0:0:
194,301,87809,1,0,3:0:0:0:
408,239,88098,1,8,0:1:0:0:
241,94,88386,1,0,3:0:0:0:
271,224,88675,6,0,L|431:215,1,151.799994904175,0|0,3:0|0:0,0:0:0:0:
478,125,89252,2,0,P|435:110|409:108,1,50.5999983013917,8|0,0:1|0:0,0:0:0:0:
276,123,89540,2,0,P|300:117|323:107,1,50.5999983013917,0|0,3:0|0:0,0:0:0:0:
378,26,89829,2,0,P|325:7|226:35,1,151.799994904175,0|2,3:0|0:0,0:0:0:0:
171,104,90406,1,8,0:1:0:0:
171,104,90983,6,0,L|181:260,1,151.799994904175,0|2,3:0|0:0,0:0:0:0:
131,339,91559,2,0,P|100:350|74:349,1,50.5999983013917,8|0,0:1|0:0,0:0:0:0:
237,337,91848,2,0,P|262:338|285:348,1,50.5999983013917,2|0,0:0|0:0,0:0:0:0:
419,256,92136,2,0,P|361:277|299:264,1,101.199996602783,0|0,3:0|0:0,0:0:0:0:
253,192,92569,1,0,0:0:0:0:
367,123,92713,2,0,L|354:188,2,50.5999983013917,8|0|0,0:1|0:0|0:0,0:0:0:0:
266,65,93146,1,0,0:0:0:0:
175,127,93290,6,0,P|110:127|35:67,1,151.799994904175,0|0,3:0|0:0,0:0:0:0:
175,22,93867,1,8,0:1:0:0:
175,22,94156,2,0,L|250:33,1,50.5999983013917,2|0,0:0|0:0,0:0:0:0:
326,45,94444,2,0,L|308:204,1,151.799994904175,0|0,3:0|0:0,0:0:0:0:
378,268,95021,2,0,P|436:283|517:234,1,151.799994904175,8|0,0:1|0:0,0:0:0:0:
454,134,95598,6,0,P|432:189|431:206,2,50.5999983013917,0|0|0,3:0|0:0|0:0,0:0:0:0:
370,73,96031,1,0,0:0:0:0:
309,155,96175,2,0,L|247:146,1,50.5999983013917,8|0,0:1|0:0,0:0:0:0:
174,236,96463,2,0,L|224:228,1,50.5999983013917,2|0,0:0|0:0,0:0:0:0:
319,283,96752,5,0,3:0:0:0:
174,84,97040,1,0,3:0:0:0:
408,160,97329,1,8,0:1:0:0:
174,236,97617,1,0,3:0:0:0:
319,37,97906,5,4,3:1:0:0:
322,54,98483,1,0,3:0:0:0:
325,71,99059,1,0,3:0:0:0:
328,88,99636,1,0,3:0:0:0:
123,147,100213,5,0,3:0:0:0:
205,221,100502,2,0,L|181:316,2,88,0|0|2,0:0|3:0|0:0,0:0:0:0:
284,142,101367,2,0,P|222:110|183:112,1,88,0|0,3:0|0:0,0:0:0:0:
307,252,101944,2,0,P|349:243|385:219,1,88,0|0,3:0|0:0,0:0:0:0:
466,84,102521,5,0,3:0:0:0:
463,101,103098,1,0,3:0:0:0:
461,118,103675,1,0,3:0:0:0:
459,135,104252,1,0,3:0:0:0:
237,287,105406,6,0,B|191:269|191:269|152:293|152:293|121:260|121:260|70:264,1,189.750003619194,2|0,0:0|0:0,0:0:0:0:
174,132,105983,6,0,B|181:180|181:180|221:202|221:202|208:245|208:245|237:288,1,189.750003619194,2|0,0:0|0:0,0:0:0:0:
71,263,106559,6,0,B|109:232|109:232|108:186|108:186|152:176|152:176|174:129,1,189.750003619194,2|0,0:0|0:0,0:0:0:0:
260,83,107136,6,0,P|181:32|78:103,1,216.150003957825,4|4,3:1|0:0,0:0:0:0:
259,188,107713,2,0,P|309:202|350:194,1,72.0500013192749,10|0,3:2|0:0,0:0:0:0:
173,131,108002,2,0,P|135:167|122:206,1,72.0500013192749,2|2,0:0|0:0,0:0:0:0:
260,294,108290,6,0,L|403:281,1,144.10000263855,2|2,3:2|0:0,0:0:0:0:
488,203,108723,1,2,0:0:0:0:
396,139,108867,1,10,3:2:0:0:
396,139,109156,5,2,0:0:0:0:
488,203,109300,1,4,0:0:0:0:
403,280,109444,2,0,P|341:268|319:253,1,72.0500013192749,2|0,3:2|0:0,0:0:0:0:
202,194,109733,2,0,P|235:180|270:177,1,72.0500013192749,2|4,0:0|0:0,0:0:0:0:
226,305,110021,2,0,L|140:296,1,72.0500013192749,10|0,3:2|0:0,0:0:0:0:
104,128,110309,2,0,L|95:214,1,72.0500013192749,2|2,0:0|0:0,0:0:0:0:
168,55,110598,6,0,P|79:34|27:68,1,144.10000263855,0|2,3:0|0:0,0:0:0:0:
200,156,111031,1,2,0:0:0:0:
279,85,111175,2,0,P|306:49|313:17,1,72.0500013192749,10|0,3:2|0:0,0:0:0:0:
200,156,111463,2,0,P|210:190|233:217,1,72.0500013192749,4|4,0:0|0:0,0:0:0:0:
461,183,111752,6,0,L|308:176,1,144.10000263855,0|0,3:0|0:0,0:0:0:0:
398,89,112184,1,2,0:0:0:0:
478,192,112329,2,0,L|475:275,1,72.0500013192749,10|0,3:2|0:0,0:0:0:0:
330,321,112617,2,0,P|348:293|383:267,1,72.0500013192749,2|4,0:0|0:0,0:0:0:0:
243,243,112906,2,0,P|186:289|106:288,1,144.10000263855,0|0,0:0|0:0,0:0:0:0:
32,206,113338,1,2,0:0:0:0:
148,177,113483,1,10,3:2:0:0:
148,177,113771,6,0,L|80:149,1,72.0500013192749,4|4,0:0|0:0,0:0:0:0:
206,99,114059,1,0,3:0:0:0:
26,57,114204,2,0,P|111:52|162:7,1,144.10000263855,0|6,0:0|0:0,0:0:0:0:
272,123,114636,2,0,P|226:101|190:100,1,72.0500013192749,10|0,0:0|0:0,0:0:0:0:
320,36,114925,2,0,L|398:25,1,72.0500013192749,4|4,0:0|0:0,0:0:0:0:
482,130,115213,6,0,L|470:220,1,72.0500013192749,0|0,3:0|0:0,0:0:0:0:
381,295,115502,2,0,L|371:223,1,72.0500013192749,2|0,0:0|0:0,0:0:0:0:
220,169,115790,2,0,L|208:259,1,72.0500013192749,10|0,0:0|0:0,0:0:0:0:
119,334,116079,2,0,L|109:262,1,72.0500013192749,4|4,3:2|3:2,0:0:0:0:
39,123,116367,5,4,0:1:0:0:
39,123,116656,2,0,P|86:137|137:136,1,72.0500013192749,0|0,3:0|3:0,0:0:0:0:
197,63,116944,2,0,P|273:61|332:101,1,144.10000263855,8|2,0:0|0:0,0:0:0:0:
372,195,117377,1,4,0:0:0:0:
444,113,117521,6,0,P|464:68|465:34,2,72.0500013192749,0|0|0,3:0|0:0|0:0,0:0:0:0:
372,195,117954,2,0,P|382:255|404:280,1,72.0500013192749,2|10,0:0|0:0,0:0:0:0:
449,337,118242,2,0,P|375:299|283:324,1,144.10000263855,0|4,0:0|0:0,0:0:0:0:
165,355,118675,5,0,3:0:0:0:
250,232,118819,1,0,0:0:0:0:
166,271,118963,1,2,0:0:0:0:
172,152,119108,1,0,3:0:0:0:
72,249,119252,2,0,L|94:334,1,72.0500013192749,10|0,3:2|0:0,0:0:0:0:
179,125,119540,2,0,L|197:55,1,72.0500013192749,4|2,0:0|3:2,0:0:0:0:
63,15,119829,6,0,P|42:92|77:151,1,144.10000263855,0|2,3:0|0:3,0:0:0:0:
199,215,120261,2,0,P|118:211|68:253,1,144.10000263855,0|0,3:0|0:0,0:0:0:0:
156,310,120694,1,4,0:0:0:0:
156,310,120983,6,0,L|325:290,1,144.10000263855,4|2,3:1|0:0,0:0:0:0:
420,320,121415,1,2,0:0:0:0:
374,205,121559,2,0,L|287:188,2,72.0500013192749,10|0|4,0:0|0:0|0:0,0:0:0:0:
462,133,121992,1,4,0:0:0:0:
367,77,122136,6,0,P|275:108|224:94,1,144.10000263855,2|0,3:2|0:0,0:0:0:0:
50,56,122569,1,4,0:0:0:0:
141,12,122713,2,0,P|151:73|142:98,1,72.0500013192749,10|0,0:0|0:0,0:0:0:0:
67,219,123002,2,0,P|63:183|74:149,1,72.0500013192749,4|4,0:0|0:0,0:0:0:0:
175,197,123290,5,0,3:0:0:0:
142,298,123434,2,0,P|51:328|-5:304,1,144.10000263855,0|2,0:0|0:0,0:0:0:0:
243,278,123867,2,0,L|325:288,1,72.0500013192749,8|0,0:0|0:0,0:0:0:0:
156,199,124156,2,0,L|74:209,1,72.0500013192749,4|0,0:0|0:0,0:0:0:0:
136,96,124444,6,0,B|248:80|223:168|335:153,1,216.150003957825,0|2,3:0|0:0,0:0:0:0:
368,27,125021,2,0,P|318:48|295:70,1,72.0500013192749,8|0,0:0|0:0,0:0:0:0:
442,185,125309,2,0,L|430:97,1,72.0500013192749,0|0,3:0|3:0,0:0:0:0:
326,260,125598,1,4,0:1:0:0:
65,90,130213,6,0,P|136:85|198:131,2,123.750004720688,2|0|0,0:3|0:0|0:0,0:0:0:0:
144,234,131367,2,0,L|282:216,1,123.750004720688,2|0,0:3|0:0,0:0:0:0:
343,161,131944,2,0,P|362:214|355:248,1,82.5000031471254,2|0,0:3|0:0,0:0:0:0:
182,127,132521,6,0,P|118:106|69:50,1,123.750004720688,2|0,0:3|0:0,0:0:0:0:
39,145,133098,2,0,P|62:206|58:241,1,82.5000031471254,2|0,0:3|0:0,0:0:0:0:
18,359,133675,2,0,L|112:348,1,82.5000031471254,2|0,0:3|0:0,0:0:0:0:
298,280,134252,2,0,L|204:269,1,82.5000031471254,2|0,0:3|0:0,0:0:0:0:
284,156,134829,5,2,0:3:0:0:
288,171,135406,1,2,0:3:0:0:
294,186,135983,6,0,P|297:233|270:312,2,123.750004720688,2|0|0,0:3|0:0|0:0,0:0:0:0:
211,90,137136,2,0,B|252:81|279:46|279:46|312:76|368:77,1,165.000006294251,2|2,0:3|0:3,0:0:0:0:
191,231,138290,2,0,B|149:231|116:261|116:261|89:226|48:217,1,165.000006294251,2|2,0:3|0:3,0:0:0:0:
272,333,139444,6,0,L|436:318,1,153.450004799996,8|0,3:2|0:0,0:0:0:0:
489,255,140021,2,0,P|498:196|479:148,1,102.300003199997,8|0,3:2|0:0,0:0:0:0:
295,104,140598,2,0,P|320:163|400:210,1,153.450004799996,8|0,3:2|0:0,0:0:0:0:
274,243,141175,2,0,P|209:241|163:252,1,102.300003199997,8|0,3:2|0:0,0:0:0:0:
82,47,141752,6,0,L|71:205,1,153.450004799996,8|0,3:2|3:0,0:0:0:0:
60,306,142329,1,8,3:2:0:0:
60,306,142617,1,0,0:0:0:0:
60,306,142906,2,0,B|139:288|126:352|206:334,1,153.450004799996,8|0,3:2|3:2,0:0:0:0:
276,251,143483,2,0,L|214:240,1,51.1500015999985,8|0,3:2|0:0,0:0:0:0:
327,347,143771,2,0,L|389:336,1,51.1500015999985,0|0,3:2|0:0,0:0:0:0:
450,273,144059,6,0,L|461:112,1,153.450004799996,8|0,3:2|0:0,0:0:0:0:
397,38,144636,1,8,3:2:0:0:
397,38,145213,2,0,P|346:96|337:182,1,153.450004799996,8|0,3:2|0:0,0:0:0:0:
362,256,145790,1,8,3:2:0:0:
362,256,146079,1,0,0:0:0:0:
362,256,146367,6,0,L|197:239,2,153.450004799996,8|2|2,3:2|0:0|0:0,0:0:0:0:
139,90,148675,6,0,L|74:95,1,58.8499982040406,4|0,3:1|0:0,0:0:0:0:
128,232,148963,2,0,L|123:167,1,58.8499982040406,0|0,0:0|0:0,0:0:0:0:
282,188,149252,2,0,L|217:193,1,58.8499982040406,10|0,3:2|0:0,0:0:0:0:
235,30,149540,2,0,L|240:95,1,58.8499982040406,0|0,0:0|0:0,0:0:0:0:
374,244,149829,6,0,P|409:252|445:253,1,58.8499982040406,4|0,3:2|0:0,0:0:0:0:
380,137,150117,2,0,P|371:108|359:82,1,58.8499982040406,0|0,0:0|0:0,0:0:0:0:
282,188,150406,2,0,P|257:214|238:244,1,58.8499982040406,10|0,3:2|0:0,0:0:0:0:
217,352,150694,1,0,0:0:0:0:
131,374,150838,1,0,0:0:0:0:
64,315,150983,6,0,L|53:253,1,58.8499982040406,4|0,3:2|0:0,0:0:0:0:
81,138,151271,1,0,0:0:0:0:
167,116,151415,1,0,0:0:0:0:
234,175,151560,2,0,L|245:237,1,58.8499982040406,10|0,3:2|0:0,0:0:0:0:
328,335,151848,1,0,0:0:0:0:
415,348,151992,1,0,0:0:0:0:
479,287,152136,6,0,P|492:209|449:117,1,176.549994612122,8|4,0:0|0:0,0:0:0:0:
344,40,152713,2,0,L|356:117,1,58.8499982040406,10|0,3:2|0:0,0:0:0:0:
196,78,153002,2,0,L|258:85,1,58.8499982040406,2|0,0:0|0:0,0:0:0:0:
340,214,153290,5,4,3:2:0:0:
266,250,153434,1,0,0:0:0:0:
183,250,153579,1,0,0:0:0:0:
109,213,153723,1,0,0:0:0:0:
185,274,153867,2,0,P|203:315|209:343,1,58.8499982040406,10|0,3:2|0:0,0:0:0:0:
263,222,154156,2,0,P|271:193|284:167,1,58.8499982040406,0|0,0:0|0:0,0:0:0:0:
413,63,154444,5,4,3:2:0:0:
452,135,154588,1,0,0:0:0:0:
460,217,154733,1,0,0:0:0:0:
441,297,154877,1,0,0:0:0:0:
477,204,155021,2,0,P|511:183|535:174,1,58.8499982040406,10|0,3:2|0:0,0:0:0:0:
365,234,155309,2,0,P|338:222|313:206,1,58.8499982040406,0|0,0:0|0:0,0:0:0:0:
251,68,155598,6,0,L|246:127,1,58.8499982040406,4|0,3:2|0:0,0:0:0:0:
178,253,155886,2,0,L|173:194,1,58.8499982040406,0|0,0:0|0:0,0:0:0:0:
70,35,156175,2,0,P|28:42|4:57,1,58.8499982040406,10|0,3:2|0:0,0:0:0:0:
44,141,156463,2,0,P|86:134|110:119,1,58.8499982040406,0|0,0:0|0:0,0:0:0:0:
205,55,156752,6,0,B|238:70|257:97|257:97|296:57|357:57,1,176.549994612122,8|4,0:0|0:0,0:0:0:0:
453,106,157329,2,0,L|469:178,1,58.8499982040406,10|0,3:2|0:0,0:0:0:0:
346,213,157617,2,0,L|358:155,1,58.8499982040406,2|0,0:0|0:0,0:0:0:0:
244,206,157906,6,0,P|256:264|271:280,1,58.8499982040406,4|0,3:1|0:0,0:0:0:0:
205,125,158194,2,0,P|160:164|154:185,1,58.8499982040406
346,213,158483,2,0,L|416:202,1,58.8499982040406,10|0,0:0|0:0,0:0:0:0:
486,120,158771,2,0,L|416:109,1,58.8499982040406
304,23,159059,5,4,3:2:0:0:
225,48,159204,1,0,0:0:0:0:
211,129,159348,1,0,0:0:0:0:
265,190,159492,1,0,0:0:0:0:
350,185,159636,2,0,L|429:176,1,58.8499982040406,10|0,3:2|0:0,0:0:0:0:
491,90,159925,2,0,L|412:81,1,58.8499982040406
275,112,160213,6,0,P|248:155|244:174,1,58.8499982040406,4|0,3:2|0:0,0:0:0:0:
187,256,160502,2,0,P|144:229|125:225,1,58.8499982040406,0|0,0:0|0:0,0:0:0:0:
41,177,160790,2,0,P|68:134|72:115,1,58.8499982040406,10|0,3:2|0:0,0:0:0:0:
129,33,161079,2,0,P|172:60|191:64,1,58.8499982040406,0|0,0:0|0:0,0:0:0:0:
335,130,161367,6,0,P|235:122|161:155,1,176.549994612122,8|4,0:0|0:0,0:0:0:0:
112,236,161944,2,0,L|131:325,1,58.8499982040406,10|0,3:2|0:0,0:0:0:0:
54,368,162233,1,2,0:0:0:0:
54,368,162521,6,0,P|28:333|25:306,1,58.8499982040406,4|0,3:1|0:0,0:0:0:0:
123,236,162809,2,0,P|116:264|123:293,1,58.8499982040406,0|0,0:0|0:0,0:0:0:0:
223,265,163098,2,0,P|240:224|262:208,1,58.8499982040406,10|0,3:2|0:0,0:0:0:0:
371,258,163386,2,0,P|343:267|321:286,1,58.8499982040406,0|0,0:0|0:0,0:0:0:0:
470,206,163675,6,0,L|482:137,1,58.8499982040406,4|0,3:2|0:0,0:0:0:0:
366,136,163963,2,0,L|341:70,1,58.8499982040406,0|0,0:0|0:0,0:0:0:0:
238,130,164252,2,0,L|184:85,1,58.8499982040406,10|0,3:2|0:0,0:0:0:0:
125,185,164540,2,0,L|56:173,1,58.8499982040406,0|0,0:0|0:0,0:0:0:0:
155,300,164829,5,0,3:0:0:0:
233,340,164973,1,0,0:0:0:0:
314,307,165117,2,0,P|330:262|328:229,1,58.8499982040406,0|8,3:0|0:0,0:0:0:0:
408,170,165406,1,0,3:0:0:0:
330,130,165550,1,8,0:0:0:0:
249,163,165694,2,0,P|233:208|235:241,1,58.8499982040406,0|0,3:0|3:0,0:0:0:0:
117,201,165983,5,8,3:2:0:0:
71,125,166127,1,0,3:0:0:0:
79,37,166271,2,0,L|146:45,1,58.8499982040406,0|0,3:0|0:0,0:0:0:0:
282,84,166559,2,0,L|215:92,1,58.8499982040406,0|0,3:0|3:0,0:0:0:0:
319,177,166848,1,8,0:0:0:0:
406,189,166992,1,8,0:0:0:0:
493,202,167136,5,0,0:0:0:0:
493,202,167713,6,0,B|422:264|399:192|329:255,1,176.549994612122,2|0,0:0|0:0,0:0:0:0:
331,253,168290,6,0,B|312:160|385:176|366:84,1,176.549994612122,2|0,0:0|0:0,0:0:0:0:
367,86,168867,6,0,B|456:115|405:171|495:201,1,176.549994612122,2|0,0:0|0:0,0:0:0:0:
470,292,169444,6,0,P|360:269|267:339,1,226.050006381111,4|4,3:1|0:0,0:0:0:0:
117,259,170021,2,0,P|159:274|204:277,1,75.3500021270371,10|0,3:2|0:0,0:0:0:0:
254,135,170309,2,0,L|262:228,1,75.3500021270371,2|2,0:0|0:0,0:0:0:0:
187,69,170598,6,0,P|271:42|330:78,1,150.700004254074,2|2,3:2|0:0,0:0:0:0:
371,160,171031,1,2,0:0:0:0:
456,96,171175,2,0,P|476:51|478:17,1,75.3500021270371,10|0,3:2|0:0,0:0:0:0:
371,160,171463,2,0,P|376:197|393:230,1,75.3500021270371,2|4,0:0|0:0,0:0:0:0:
474,349,171752,5,2,3:2:0:0:
380,320,171896,1,0,0:0:0:0:
295,368,172040,2,0,L|208:349,1,75.3500021270371,2|4,0:0|0:0,0:0:0:0:
235,179,172329,2,0,L|262:263,1,75.3500021270371,10|0,3:2|0:0,0:0:0:0:
102,332,172617,2,0,L|161:266,1,75.3500021270371,2|2,0:0|0:0,0:0:0:0:
113,115,172906,6,0,P|71:105|20:116,1,75.3500021270371,0|0,3:0|0:0,0:0:0:0:
158,202,173194,2,0,P|148:244|159:295,1,75.3500021270371,2|2,0:0|0:0,0:0:0:0:
235,138,173483,2,0,P|277:148|328:137,1,75.3500021270371,10|0,3:2|0:0,0:0:0:0:
392,76,173771,1,4,0:0:0:0:
471,147,173915,1,4,0:0:0:0:
388,217,174059,6,0,L|409:367,1,150.700004254074,0|0,3:0|0:0,0:0:0:0:
299,310,174492,1,2,0:0:0:0:
217,368,174636,2,0,P|161:356|131:336,1,75.3500021270371,10|0,3:2|0:0,0:0:0:0:
195,192,174925,2,0,L|209:285,1,75.3500021270371,2|4,0:0|0:0,0:0:0:0:
305,182,175213,6,0,L|325:25,1,150.700004254074,0|0,0:0|0:0,0:0:0:0:
223,78,175646,1,2,0:0:0:0:
138,26,175790,2,0,P|87:10|52:12,1,75.3500021270371,10|0,3:2|0:0,0:0:0:0:
4,128,176079,2,0,P|41:125|76:112,1,75.3500021270371,4|4,0:0|0:0,0:0:0:0:
171,185,176367,5,0,3:0:0:0:
164,267,176511,1,0,0:0:0:0:
157,350,176656,2,0,L|71:338,1,75.3500021270371,2|6,0:0|0:0,0:0:0:0:
250,257,176944,2,0,L|324:246,1,75.3500021270371,10|0,0:0|0:0,0:0:0:0:
465,212,177233,2,0,L|451:307,1,75.3500021270371,4|4,0:0|0:0,0:0:0:0:
368,152,177521,6,0,P|286:123|198:152,1,150.700004254074,0|2,3:0|0:0,0:0:0:0:
141,212,177954,1,0,0:0:0:0:
224,298,178098,2,0,L|231:216,1,75.3500021270371,10|0,0:0|0:0,0:0:0:0:
152,64,178386,1,4,3:2:0:0:
69,73,178531,1,4,3:2:0:0:
24,142,178675,6,0,P|9:224|32:311,1,150.700004254074,4|0,0:1|3:0,0:0:0:0:
117,350,179108,1,0,3:0:0:0:
200,259,179252,2,0,P|140:240|110:245,1,75.3500021270371,8|0,0:0|0:0,0:0:0:0:
266,347,179540,2,0,P|303:344|337:328,1,75.3500021270371,2|4,0:0|0:0,0:0:0:0:
448,246,179829,6,0,L|293:218,1,150.700004254074,0|0,3:0|0:0,0:0:0:0:
183,144,180261,2,0,L|338:116,2,150.700004254074,2|0|4,0:0|0:0|0:0,0:0:0:0:
79,222,180983,5,0,3:0:0:0:
10,88,181127,1,0,0:0:0:0:
91,136,181271,1,2,0:0:0:0:
131,26,181415,1,0,3:0:0:0:
192,118,181559,2,0,L|107:132,1,75.3500021270371,10|0,3:2|0:0,0:0:0:0:
249,202,181848,2,0,L|323:214,1,75.3500021270371,4|2,0:0|3:2,0:0:0:0:
174,266,182136,6,0,P|92:265|30:301,1,150.700004254074,0|2,3:0|0:3,0:0:0:0:
236,339,182569,2,0,P|310:336|376:370,1,150.700004254074,0|0,3:0|0:0,0:0:0:0:
328,205,183002,1,4,0:0:0:0:
385,128,183146,1,4,0:0:0:0:
481,157,183290,6,0,L|462:342,1,150.700004254074,4|2,3:1|0:0,0:0:0:0:
377,371,183723,1,2,0:0:0:0:
248,304,183867,2,0,P|284:290|334:287,1,75.3500021270371,10|0,0:0|0:0,0:0:0:0:
179,376,184156,2,0,P|141:371|106:358,1,75.3500021270371,4|4,0:0|0:0,0:0:0:0:
32,247,184444,6,0,L|184:225,1,150.700004254074,2|0,3:2|0:0,0:0:0:0:
280,186,184877,1,4,0:0:0:0:
190,59,185021,2,0,P|184:106|195:136,1,75.3500021270371,10|0,0:0|0:0,0:0:0:0:
290,273,185309,2,0,P|299:236|292:200,1,75.3500021270371,4|4,0:0|0:0,0:0:0:0:
177,293,185598,5,2,3:2:0:0:
247,369,185742,2,0,P|331:355|396:377,1,150.700004254074,0|2,0:0|0:0,0:0:0:0:
480,248,186175,2,0,L|470:336,1,75.3500021270371,10|0,0:0|0:0,0:0:0:0:
379,137,186463,2,0,L|389:225,1,75.3500021270371,4|0,0:0|0:0,0:0:0:0:
460,76,186752,6,0,P|385:37|314:56,1,150.700004254074,0|8,3:0|0:1,0:0:0:0:
283,122,187184,1,8,0:1:0:0:
234,189,187329,1,0,3:0:0:0:
152,205,187473,1,0,3:0:0:0:
75,172,187617,1,0,3:0:0:0:
35,99,187761,1,0,3:0:0:0:
45,16,187906,6,0,L|167:40,1,115.49999647522,2|0,0:0|0:0,0:0:0:0:
