osu file format v14

[General]
AudioFilename: audio.mp3
AudioLeadIn: 0
PreviewTime: 49985
Countdown: 0
SampleSet: Soft
StackLeniency: 0.7
Mode: 0
LetterboxInBreaks: 0
WidescreenStoryboard: 1

[Editor]
Bookmarks: 139444
DistanceSpacing: 1.1
BeatDivisor: 4
GridSize: 8
TimelineZoom: 0.8999999

[Metadata]
Title:Talk Too Much
TitleUnicode:Talk Too Much
Artist:COIN
ArtistUnicode:COIN
Creator:Asphyxia
Version:Jace's Normal
Source:
Tags:Kyshiro Fursum Jace foxygrandpa foxy grandpa indie pop
BeatmapID:2005000
BeatmapSetID:901626

[Difficulty]
HPDrainRate:3
CircleSize:3
OverallDifficulty:5
ApproachRate:6
SliderMultiplier:1.6
SliderTickRate:1

[Events]
//Background and Video events
0,0,"72318408_p0.jpg",0,0
//Break Periods
2,24259,32091
2,125798,138244
2,167337,168244
//Storyboard Layer 0 (Background)
//Storyboard Layer 1 (Fail)
//Storyboard Layer 2 (Pass)
//Storyboard Layer 3 (Foreground)
//Storyboard Sound Samples

[TimingPoints]
983,576.923076923077,4,2,1,40,1,0
14829,-100,4,2,2,65,0,1
19156,-100,4,2,1,65,0,1
19444,-100,4,2,2,65,0,1
23771,-100,4,2,1,65,0,1
24059,-100,4,2,1,50,0,0
32425,-100,4,2,1,55,0,0
32713,-100,4,2,1,60,0,0
33146,-100,4,2,1,5,0,0
33290,-100,4,2,1,55,0,0
33291,-100,4,2,1,55,0,0
42521,-125,4,2,1,50,0,0
44829,-125,4,2,1,45,0,0
47136,-125,4,2,1,40,0,0
49444,-125,4,2,1,30,0,0
50021,-125,4,2,1,25,0,0
50454,-125,4,2,5,5,0,0
50598,-125,4,2,1,50,0,0
51031,-125,4,2,5,5,0,0
51175,-125,4,2,1,75,0,0
51608,-125,4,2,5,5,0,0
51752,-100,4,2,1,70,0,1
52040,-100,4,2,2,70,0,1
56079,-100,4,2,1,70,0,1
56367,-100,4,2,2,70,0,1
60694,-100,4,2,1,70,0,1
60983,-100,4,2,2,70,0,1
61415,-100,4,2,1,70,0,1
61559,-100,4,2,2,70,0,1
63723,-100,4,2,1,70,0,1
63867,-100,4,2,2,70,0,1
64444,-100,4,2,1,70,0,1
65598,-100,4,2,2,70,0,1
69636,-100,4,2,1,70,0,1
70213,-100,4,2,1,60,0,0
70502,-100,4,2,2,60,0,0
79444,-100,4,2,1,50,0,0
88098,-100,4,2,2,50,0,0
88242,-100,4,2,1,50,0,0
97906,-125,4,2,1,50,0,0
105406,-125,4,2,1,20,0,0
105838,-125,4,2,1,5,0,0
105983,-125,4,2,1,50,0,0
106415,-125,4,2,1,5,0,0
106560,-125,4,2,1,50,0,0
106992,-125,4,2,1,5,0,0
107136,-100,4,2,1,75,0,1
107425,-100,4,2,2,75,0,1
111463,-100,4,2,1,75,0,1
111752,-100,4,2,2,75,0,1
116079,-100,4,2,1,75,0,1
116367,-100,4,2,2,75,0,1
116800,-100,4,2,1,75,0,1
116944,-100,4,2,2,75,0,1
119108,-100,4,2,1,75,0,1
119252,-100,4,2,2,75,0,1
119829,-100,4,2,1,75,0,1
120983,-100,4,2,2,75,0,1
123291,-100,4,2,2,65,0,1
125309,-100,4,2,1,50,0,1
125454,-100,4,2,1,40,0,1
125598,-100,4,2,1,50,0,0
139444,-100,4,2,2,60,0,0
139877,-100,4,2,2,5,0,0
140021,-100,4,2,2,60,0,0
140454,-100,4,2,2,5,0,0
140598,-100,4,2,2,60,0,0
141031,-100,4,2,2,5,0,0
141175,-100,4,2,2,60,0,0
141608,-100,4,2,2,5,0,0
141752,-100,4,2,2,60,0,0
144492,-100,4,2,2,5,0,0
144636,-100,4,2,2,60,0,0
145069,-100,4,2,2,5,0,0
145213,-100,4,2,2,60,0,0
145646,-100,4,2,2,5,0,0
145790,-100,4,2,2,60,0,0
146223,-100,4,2,2,5,0,0
146367,-100,4,2,2,60,0,0
146800,-100,4,2,1,45,0,0
147233,-100,4,2,1,60,0,0
148675,-100,4,2,2,60,0,0
157906,-100,4,2,2,65,0,0
164829,-100,4,2,1,70,0,0
165117,-100,4,2,2,70,0,0
165694,-100,4,2,1,70,0,0
165838,-100,4,2,2,70,0,0
166127,-100,4,2,1,70,0,0
166271,-100,4,2,2,70,0,0
166848,-100,4,2,2,80,0,0
167713,-100,4,2,1,30,0,0
168146,-100,4,2,1,5,0,0
168290,-100,4,2,1,60,0,0
168723,-100,4,2,1,5,0,0
168867,-100,4,2,1,90,0,0
169300,-100,4,2,1,5,0,0
169444,-100,4,2,1,80,0,1
169733,-100,4,2,2,80,0,1
173771,-100,4,2,1,80,0,1
174059,-100,4,2,2,80,0,1
179108,-100,4,2,1,80,0,1
179252,-100,4,2,2,80,0,1
182136,-100,4,2,1,80,0,1
183290,-100,4,2,2,80,0,1
185021,-100,4,2,2,85,0,1
185598,-100,4,2,2,75,0,1
187040,-100,4,2,2,90,0,1
187329,-100,4,2,2,60,0,1
187617,-100,4,2,2,30,0,1
187906,-100,4,2,1,50,0,0
188339,-100,4,2,1,5,0,0

[Colours]
Combo1 : 255,83,83
Combo2 : 255,157,111
Combo3 : 106,255,181
Combo4 : 255,255,170

[HitObjects]
367,311,14829,6,0,L|208:302,1,160,4|10,3:1|3:2,0:0:0:0:
143,362,15694,1,2,0:0:0:0:
55,351,15983,2,0,B|22:276|22:276|47:202,1,160,2|10,3:2|3:2,0:0:0:0:
73,118,16848,1,2,0:0:0:0:
151,158,17137,2,0,L|310:167,3,160,2|10|2|10,3:2|3:2|3:2|3:2,0:0:0:0:
352,244,19156,1,4,0:0:0:0:
433,211,19444,6,0,P|468:137|415:49,1,160,2|10,3:2|3:2,0:0:0:0:
385,0,20310,1,2,0:0:0:0:
310,44,20598,2,0,B|250:35|250:35|222:58|222:58|155:48,1,160,2|10,3:2|3:2,0:0:0:0:
72,33,21463,2,0,L|62:102,3,40,2|4|2|2,0:0|0:0|3:2|0:0,0:0:0:0:
117,144,22185,2,0,L|107:213,1,40,4|10,0:0|3:2,0:0:0:0:
43,238,22617,1,4,0:0:0:0:
86,314,22906,2,0,L|244:291,2,160,2|10|2,3:2|0:0|0:3,0:0:0:0:
11,315,33291,6,0,L|172:299,1,160,0|8,3:0|0:1,0:0:0:0:
237,355,34156,1,2,0:0:0:0:
309,304,34444,2,0,L|470:288,1,160,0|8,3:0|0:1,0:0:0:0:
492,113,35598,2,0,P|419:83|348:114,1,160,0|8,3:0|0:1,0:0:0:0:
301,189,36464,1,2,0:0:0:0:
217,160,36752,2,0,P|188:87|219:16,1,160,0|8,3:0|0:1,0:0:0:0:
43,47,37906,6,0,L|65:212,1,160,0|8,3:0|0:1,0:0:0:0:
79,292,38771,1,2,0:0:0:0:
157,252,39060,2,0,L|315:230,1,160,0|8,3:0|0:1,0:0:0:0:
448,347,40214,2,0,P|406:278|451:194,1,160,0|8,3:0|0:1,0:0:0:0:
480,135,41079,1,2,0:0:0:0:
412,79,41367,2,0,P|338:53|273:95,1,160,0|8,3:0|0:1,0:0:0:0:
229,227,42521,6,0,B|201:192|158:198|158:198|115:252|47:223,2,192,4|2|0,3:1|0:0|3:0,0:0:0:0:
197,364,44829,1,0,3:0:0:0:
332,324,45406,2,0,L|472:340,2,128,0|0|0,3:0|3:0|3:0,3:0:0:0:
256,192,47137,12,2,50021,0:0:0:0:
329,158,51752,6,0,L|150:168,1,160,4|10,3:1|3:2,0:0:0:0:
109,101,52617,1,2,0:0:0:0:
52,168,52906,2,0,B|27:245|27:245|68:316,1,160,2|10,3:2|3:2,0:0:0:0:
152,333,53771,2,0,L|195:329,1,40,2|4,0:0|0:0,0:0:0:0:
236,325,54060,5,2,3:2:0:0:
301,384,54348,1,2,0:0:0:0:
384,357,54637,1,10,3:2:0:0:
402,271,54925,1,2,0:0:0:0:
337,212,55214,2,0,P|314:164|376:78,1,160,0|10,3:0|3:2,0:0:0:0:
231,194,56367,6,0,L|71:187,1,160,0|10,3:0|3:2,0:0:0:0:
5,128,57233,1,2,0:0:0:0:
52,54,57521,2,0,L|212:61,1,160,0|10,0:0|3:2,0:0:0:0:
298,41,58387,1,4,0:0:0:0:
298,41,58531,1,4,0:0:0:0:
298,41,58675,2,0,B|374:14|374:14|449:45,2,160,0|10|0,3:0|0:0|3:0,0:0:0:0:
435,151,60406,1,10,0:0:0:0:
299,264,60983,6,0,P|265:191|307:114,1,160,4|8,0:1|0:0,0:0:0:0:
330,41,61848,1,2,0:0:0:0:
241,50,62137,2,0,B|131:63|131:63|183:113,1,160,0|10,3:0|0:0,0:0:0:0:
43,223,63291,2,0,L|201:202,1,160,0|10,3:0|3:2,0:0:0:0:
287,183,64156,1,4,0:0:0:0:
349,120,64445,2,0,B|391:186|391:186|370:265,1,160,0|8,3:0|0:1,0:0:0:0:
340,347,65310,2,0,L|301:336,1,40,4|4,0:0|0:0,0:0:0:0:
258,346,65598,6,0,L|103:303,1,160,4|10,3:1|0:0,0:0:0:0:
22,267,66464,1,4,0:0:0:0:
74,196,66752,2,0,B|100:122|100:122|60:50,1,160,2|10,3:2|0:0,0:0:0:0:
138,9,67617,1,4,0:0:0:0:
212,55,67906,2,0,L|399:32,2,160,0|8|4,3:0|0:0|0:0,0:0:0:0:
209,142,69348,1,8,0:0:0:0:
283,188,69637,1,8,0:1:0:0:
280,275,69925,1,8,0:1:0:0:
203,316,70214,6,0,P|127:330|68:280,2,160,4|10|2,3:1|3:2|3:2,0:0:0:0:
280,275,71656,1,4,2:0:0:0:
344,332,71944,2,0,P|380:317|419:323,1,80,10|4,3:2|2:0,0:0:0:0:
496,282,72521,2,0,B|460:213|460:213|480:133,1,160,2|10,3:2|3:2,0:0:0:0:
412,75,73387,2,0,L|336:86,2,40,4|4|2,2:0|2:0|3:2,0:0:0:0:
337,234,74252,1,10,0:0:0:0:
285,65,74829,6,0,L|126:87,2,160,4|10|2,3:1|3:2|3:2,0:0:0:0:
372,80,76271,1,4,2:0:0:0:
324,155,76560,2,0,P|319:193|337:228,1,80,8|4,0:0|2:0,0:0:0:0:
417,269,77137,2,0,P|343:317|269:285,1,160,2|8,3:2|0:0,0:0:0:0:
210,350,78002,2,0,L|170:357,2,40,4|4|4,2:0|2:0|3:2,0:0:0:0:
57,262,78867,1,8,0:1:0:0:
86,178,79156,2,8,L|68:105,1,40
66,97,79444,6,0,L|227:113,1,160,0|8,3:0|0:1,0:0:0:0:
308,84,80309,1,0,3:0:0:0:
390,53,80598,2,0,B|413:130|413:130|379:202,1,160,0|8,3:0|0:1,0:0:0:0:
449,364,81752,2,0,P|391:321|288:353,1,160,0|8,3:0|0:1,0:0:0:0:
231,376,82617,1,2,0:0:0:0:
159,325,82906,2,0,P|144:248|188:184,1,160,0|8,3:0|0:1,0:0:0:0:
321,68,84059,6,0,L|160:52,1,160,0|8,3:0|0:1,0:0:0:0:
74,62,84925,1,2,0:0:0:0:
120,137,85214,2,0,L|279:152,1,160,0|8,0:0|0:1,0:0:0:0:
417,47,86367,1,0,3:0:0:0:
499,203,86944,2,0,L|419:195,1,80,8|2,0:1|0:0,0:0:0:0:
349,248,87521,2,0,L|269:240,2,80,0|0|8,3:0|3:0|0:1,0:0:0:0:
402,318,88387,1,0,3:0:0:0:
331,370,88675,6,0,L|147:351,1,160,0|8,3:0|0:1,0:0:0:0:
84,339,89541,1,0,3:0:0:0:
130,264,89829,2,0,B|162:194|162:194|132:117,1,160,0|8,3:0|0:1,0:0:0:0:
232,28,90983,2,0,L|402:11,1,160,0|8,3:0|0:1,0:0:0:0:
471,47,91848,1,2,0:0:0:0:
455,133,92137,2,0,L|285:150,1,160,0|8,3:0|0:1,0:0:0:0:
147,53,93291,6,0,P|109:120|138:191,1,160,0|8,3:0|0:1,0:0:0:0:
196,258,94156,1,2,0:0:0:0:
116,296,94444,2,0,P|177:344|252:326,1,160,0|8,3:0|0:1,0:0:0:0:
425,360,95598,2,0,L|410:191,1,160,0|8,3:0|0:1,0:0:0:0:
405,112,96464,1,2,0:0:0:0:
324,146,96752,2,0,P|249:167|170:109,1,160,0|8,3:0|0:1,0:0:0:0:
57,61,97906,6,0,B|99:24|169:38|128:65|198:84|237:46,2,192,4|2|0,3:1|0:0|3:0,0:0:0:0:
30,198,100213,1,0,3:0:0:0:
163,153,100790,2,0,B|183:214|183:214|159:274,2,128
256,192,102521,12,2,105406,0:0:0:0:
113,357,107137,6,0,L|96:161,1,160,4|10,3:1|3:2,0:0:0:0:
38,133,108002,1,2,0:0:0:0:
78,54,108291,2,0,B|155:26|155:26|248:52,1,160,2|10,3:2|3:2,0:0:0:0:
294,107,109156,2,0,L|333:103,1,40,2|4,0:0|0:0,0:0:0:0:
377,102,109444,5,2,3:2:0:0:
461,128,109733,1,2,0:0:0:0:
492,212,110021,1,10,3:2:0:0:
447,287,110310,1,2,0:0:0:0:
359,299,110598,2,0,L|192:284,1,160,0|10,3:0|3:2,0:0:0:0:
43,366,111752,6,0,P|80:302|49:218,1,160,0|10,3:0|3:2,0:0:0:0:
17,144,112617,1,2,0:0:0:0:
99,111,112906,2,0,L|267:127,1,160,0|10,0:0|3:2,0:0:0:0:
339,90,113771,1,4,0:0:0:0:
339,90,113916,1,4,0:0:0:0:
339,90,114060,2,0,B|361:165|361:165|322:236,2,160,0|10|0,3:0|0:0|3:0,0:0:0:0:
213,214,115791,1,10,0:0:0:0:
254,43,116367,6,0,L|413:53,1,160,4|8,0:1|0:0,0:0:0:0:
471,120,117233,1,2,0:0:0:0:
397,168,117521,2,0,B|337:164|337:164|307:187|307:187|244:184,1,160,0|10,3:0|0:0,0:0:0:0:
120,59,118675,2,0,P|157:126|123:195,1,160,0|10,3:0|3:2,0:0:0:0:
66,263,119541,1,4,0:0:0:0:
93,346,119829,2,0,B|171:365|171:365|241:328,1,160,0|8,3:0|0:1,0:0:0:0:
329,336,120694,2,0,L|401:351,1,40,4|4,0:0|0:0,0:0:0:0:
411,352,120983,6,0,P|459:293|434:220,1,160,4|10,3:1|0:0,0:0:0:0:
390,142,121848,1,4,0:0:0:0:
328,205,122137,2,0,L|151:185,1,160,2|10,3:2|0:0,0:0:0:0:
82,170,123002,1,4,0:0:0:0:
109,86,123290,2,0,L|267:103,2,160,0|8|0,3:0|0:1|3:0,0:0:0:0:
114,261,125021,1,8,0:0:0:0:
192,220,125310,2,0,L|187:180,2,40,0|0|4,3:0|3:0|0:1,0:0:0:0:
75,70,139444,6,0,L|233:50,1,160,8|8,3:2|3:2,0:0:0:0:
393,125,140598,2,0,L|234:144,1,160,8|8,3:2|3:2,0:0:0:0:
97,254,141752,2,0,L|255:234,1,160,8|8,3:2|3:2,0:0:0:0:
415,309,142906,2,0,L|256:328,1,160,8|8,3:2|3:2,0:0:0:0:
256,192,144060,12,8,146367,3:2:0:0:
179,329,148675,6,0,L|-5:315,2,160,4|10|4,3:1|3:2|3:2,0:0:0:0:
250,278,150117,1,0,0:0:0:0:
326,323,150406,2,0,L|418:330,1,80,10|0,3:2|0:0,0:0:0:0:
413,241,150983,2,0,B|275:231|275:231|243:250|243:250|97:239,1,320,4|8,3:2|0:0,0:0:0:0:
6,145,152569,1,4,0:0:0:0:
6,145,152714,2,0,L|98:152,1,80,10|2,3:2|0:0,0:0:0:0:
124,71,153291,6,0,P|191:33|265:62,2,160,4|10|4,3:2|3:2|3:2,0:0:0:0:
259,182,155021,1,10,3:2:0:0:
388,62,155598,2,0,B|322:130|359:247|401:176|430:293|377:359,1,320,4|8,3:2|0:0,0:0:0:0:
245,349,157185,1,4,0:0:0:0:
245,349,157329,1,10,3:2:0:0:
302,282,157617,1,2,0:0:0:0:
239,220,157906,6,0,L|55:206,2,160,4|10|4,3:1|3:2|3:2,0:0:0:0:
310,169,159348,1,0,0:0:0:0:
388,208,159637,2,0,L|480:215,1,80,10|0,3:2|0:0,0:0:0:0:
463,302,160214,2,0,B|325:292|325:292|293:311|293:311|147:300,1,320,4|8,3:2|0:0,0:0:0:0:
56,206,161800,1,4,0:0:0:0:
56,206,161944,2,0,L|135:212,1,80,10|2,3:2|0:0,0:0:0:0:
221,192,162521,6,0,P|253:127|193:29,2,160,4|10|4,3:1|3:2|3:2,0:0:0:0:
127,341,164252,1,10,3:2:0:0:
256,192,164829,12,0,167137,0:0:0:0:
79,320,169444,6,0,L|264:304,1,160,4|10,3:1|3:2,0:0:0:0:
322,276,170310,1,2,0:0:0:0:
384,339,170598,2,0,P|411:269|356:195,1,160,2|10,3:2|3:2,0:0:0:0:
283,184,171464,2,0,L|287:137,1,40,2|4,0:0|0:0,0:0:0:0:
292,100,171752,5,2,3:2:0:0:
239,30,172041,1,2,0:0:0:0:
152,19,172329,1,10,3:2:0:0:
81,72,172617,1,2,0:0:0:0:
71,160,172906,2,0,B|130:154|130:154|160:175|160:175|225:169,1,160,0|10,3:0|3:2,0:0:0:0:
317,319,174060,6,0,P|291:267|356:172,1,160,0|10,3:0|3:2,0:0:0:0:
411,224,174925,1,2,0:0:0:0:
489,266,175214,2,0,P|531:201|505:128,1,160,0|10,0:0|3:2,0:0:0:0:
438,71,176079,1,4,0:0:0:0:
438,71,176223,1,4,0:0:0:0:
438,71,176367,2,0,L|273:94,2,160,0|10|0,3:0|0:0|3:0,0:0:0:0:
361,229,178098,1,10,0:0:0:0:
450,361,178675,6,0,B|481:285|481:285|447:214,1,160,4|8,0:1|0:0,0:0:0:0:
376,159,179540,1,2,0:0:0:0:
290,173,179829,2,0,L|125:196,1,160,0|10,3:0|0:0,0:0:0:0:
10,67,180983,2,0,P|77:26|152:47,1,160,0|10,3:0|3:2,0:0:0:0:
213,111,181848,1,4,0:0:0:0:
281,52,182137,2,0,P|357:73|423:33,1,160,0|8,3:0|0:1,0:0:0:0:
497,81,183002,2,0,L|485:143,1,40,4|4,0:0|0:0,0:0:0:0:
465,157,183291,6,0,L|435:318,1,160,4|10,3:1|0:0,0:0:0:0:
379,381,184156,1,4,0:0:0:0:
301,340,184444,2,0,B|228:308|228:308|152:335,1,160,2|10,3:2|0:0,0:0:0:0:
71,368,185310,1,4,0:0:0:0:
44,284,185598,2,0,L|194:228,2,160,2|10|0,3:2|0:0|3:0,0:0:0:0:
17,200,187041,2,0,L|1:111,1,80,8|0,0:1|3:0,0:0:0:0:
90,121,187617,2,0,L|105:39,1,80,0|2,3:0|0:0,0:0:0:0:
