osu file format v14

[General]
AudioFilename: audio.mp3
AudioLeadIn: 0
PreviewTime: 49985
Countdown: 0
SampleSet: Soft
StackLeniency: 0.5
Mode: 0
LetterboxInBreaks: 0
WidescreenStoryboard: 1

[Editor]
Bookmarks: 97906,104829,139444,148675
DistanceSpacing: 1
BeatDivisor: 4
GridSize: 32
TimelineZoom: 1.5

[Metadata]
Title:Talk Too Much
TitleUnicode:Talk Too Much
Artist:COIN
ArtistUnicode:COIN
Creator:Asphyxia
Version:Fursum's Hard
Source:
Tags:Kyshiro Fursum Jace foxygrandpa foxy grandpa indie pop
BeatmapID:2040415
BeatmapSetID:901626

[Difficulty]
HPDrainRate:4
CircleSize:3.5
OverallDifficulty:6.5
ApproachRate:8
SliderMultiplier:1.5
SliderTickRate:1

[Events]
//Background and Video events
0,0,"72318408_p0.jpg",0,0
//Break Periods
2,125798,138694
//Storyboard Layer 0 (Background)
//Storyboard Layer 1 (Fail)
//Storyboard Layer 2 (Pass)
//Storyboard Layer 3 (Foreground)
//Storyboard Sound Samples

[TimingPoints]
983,576.923076923077,4,2,1,40,1,0
14252,-83.3333333333333,4,2,1,65,0,0
14540,-83.3333333333333,4,2,1,5,0,0
14829,-66.6666666666667,4,2,2,65,0,0
19156,-66.6666666666667,4,2,1,65,0,0
19444,-66.6666666666667,4,2,2,65,0,0
23771,-66.6666666666667,4,2,1,65,0,0
24059,-100,4,2,1,50,0,0
24060,-100,4,2,1,50,0,0
32425,-100,4,2,1,55,0,0
32713,-100,4,2,1,60,0,0
33146,-100,4,2,1,5,0,0
33290,-83.3333333333333,4,2,1,55,0,0
42521,-125,4,2,1,50,0,0
44829,-125,4,2,1,45,0,0
47136,-125,4,2,1,40,0,0
49444,-125,4,2,1,30,0,0
50021,-100,4,2,1,25,0,0
50454,-100,4,2,5,5,0,0
50598,-100,4,2,1,50,0,0
51031,-100,4,2,5,5,0,0
51175,-100,4,2,1,75,0,0
51608,-100,4,2,5,5,0,0
51752,-62.5,4,2,1,70,0,1
52040,-62.5,4,2,2,70,0,1
56079,-62.5,4,2,1,70,0,1
56367,-62.5,4,2,2,70,0,1
60694,-62.5,4,2,1,70,0,1
60983,-62.5,4,2,2,70,0,1
61415,-62.5,4,2,1,70,0,1
61559,-62.5,4,2,2,70,0,1
63723,-62.5,4,2,1,70,0,1
63867,-62.5,4,2,2,70,0,1
64444,-62.5,4,2,1,70,0,1
65598,-62.5,4,2,2,70,0,1
67329,-66.6666666666667,4,2,2,70,0,1
69636,-66.6666666666667,4,2,1,70,0,1
70213,-71.4285714285714,4,2,1,60,0,0
70214,-71.4285714285714,4,2,1,60,0,0
70502,-71.4285714285714,4,2,2,60,0,0
79444,-83.3333333333333,4,2,1,50,0,0
88098,-83.3333333333333,4,2,2,50,0,0
88242,-83.3333333333333,4,2,1,50,0,0
97906,-125,4,2,1,50,0,0
104829,-100,4,2,1,50,0,0
105406,-100,4,2,1,20,0,0
105838,-100,4,2,1,5,0,0
105983,-100,4,2,1,50,0,0
106415,-100,4,2,1,5,0,0
106560,-83.3333333333333,4,2,1,50,0,0
106992,-83.3333333333333,4,2,1,5,0,0
107136,-62.5,4,2,1,75,0,1
107137,-62.5,4,2,1,75,0,1
107425,-62.5,4,2,2,75,0,1
111463,-62.5,4,2,1,75,0,1
111752,-62.5,4,2,2,75,0,1
116079,-62.5,4,2,1,75,0,1
116367,-62.5,4,2,2,75,0,1
116800,-62.5,4,2,1,75,0,1
116944,-62.5,4,2,2,75,0,1
119108,-62.5,4,2,1,75,0,1
119252,-62.5,4,2,2,75,0,1
119829,-62.5,4,2,1,75,0,1
120983,-62.5,4,2,2,75,0,1
122714,-66.6666666666667,4,2,2,75,0,1
123291,-76.9230769230769,4,2,2,65,0,1
125309,-76.9230769230769,4,2,1,50,0,1
125454,-76.9230769230769,4,2,1,40,0,1
125598,-100,4,2,1,50,0,0
139444,-100,4,2,2,60,0,0
146800,-100,4,2,1,45,0,0
147233,-100,4,2,1,60,0,0
148675,-71.4285714285714,4,2,2,60,0,0
157906,-71.4285714285714,4,2,2,65,0,0
164829,-71.4285714285714,4,2,1,70,0,0
165117,-71.4285714285714,4,2,2,70,0,0
165694,-71.4285714285714,4,2,1,70,0,0
165838,-71.4285714285714,4,2,2,70,0,0
166127,-71.4285714285714,4,2,1,70,0,0
166271,-71.4285714285714,4,2,2,70,0,0
166848,-71.4285714285714,4,2,2,80,0,0
167713,-71.4285714285714,4,2,1,30,0,0
168146,-71.4285714285714,4,2,1,5,0,0
168290,-71.4285714285714,4,2,1,60,0,0
168723,-71.4285714285714,4,2,1,5,0,0
168867,-71.4285714285714,4,2,1,90,0,0
169300,-71.4285714285714,4,2,1,5,0,0
169444,-60.6060606060606,4,2,1,80,0,1
169733,-60.6060606060606,4,2,2,80,0,1
173771,-60.6060606060606,4,2,1,80,0,1
174059,-60.6060606060606,4,2,2,80,0,1
179108,-60.6060606060606,4,2,1,80,0,1
179252,-60.6060606060606,4,2,2,80,0,1
182136,-60.6060606060606,4,2,1,80,0,1
183290,-60.6060606060606,4,2,2,80,0,1
185021,-62.5,4,2,2,85,0,1
185598,-71.4285714285714,4,2,2,75,0,1
187040,-71.4285714285714,4,2,2,90,0,1
187329,-71.4285714285714,4,2,2,60,0,1
187617,-71.4285714285714,4,2,2,30,0,1
187906,-142.857142857143,4,2,1,50,0,0
188339,-142.857142857143,4,2,1,5,0,0

[Colours]
Combo1 : 255,83,83
Combo2 : 255,157,111
Combo3 : 106,255,181
Combo4 : 255,255,170

[HitObjects]
116,210,5598,6,0,L|241:195,1,112.5,2|2,3:2|0:2,0:0:0:0:
227,196,6175,1,0,3:0:0:0:
54,285,6463,1,2,0:0:0:0:
54,285,6752,2,0,P|18:221|44:153,1,150,2|0,3:2|3:0,0:0:0:0:
213,287,7906,6,0,L|207:325,1,37.5,2|2,3:2|0:2,0:0:0:0:
301,267,8194,2,0,L|295:305,1,37.5,2|2,0:2|0:2,0:0:0:0:
386,247,8483,1,0,3:0:0:0:
273,96,8771,1,2,0:0:0:0:
273,96,9059,2,0,B|382:84|382:84|405:133,1,150,0|0,3:0|3:0,0:0:0:0:
153,189,10069,1,2,0:0:0:0:
153,189,10213,6,0,P|146:129|129:63,1,112.5,2|2,3:2|0:2,0:0:0:0:
133,78,10790,1,0,3:0:0:0:
253,241,11079,1,2,0:0:0:0:
249,222,11367,2,0,P|257:169|271:124,1,74.9999999999999,2|0,3:2|0:0,0:0:0:0:
262,148,11800,2,0,P|301:114|374:127,1,112.5,2|2,0:0|0:0,0:0:0:0:
421,190,12377,5,2,0:0:0:0:
458,89,12521,1,2,3:2:0:0:
381,24,12665,1,2,0:0:0:0:
333,253,12954,1,2,0:0:0:0:
333,253,13098,1,2,3:2:0:0:
252,126,13386,1,2,0:0:0:0:
228,308,13675,6,0,B|239:315|243:334|243:334|173:337|140:270,1,150,2|4,3:2|0:0,0:0:0:0:
146,280,14829,6,0,B|223:255|234:292|319:264,1,168.750006437302,4|2,3:1|0:0,0:0:0:0:
385,218,15406,2,0,L|394:154,1,56.2500021457672,10|0,3:2|0:0,0:0:0:0:
409,76,15694,1,2,0:0:0:0:
451,275,15983,2,0,P|398:260|358:361,1,168.750006437302,2|2,3:2|0:2,0:0:0:0:
349,345,16559,1,10,3:2:0:0:
117,97,17136,6,0,L|128:163,1,56.2500021457673,2|0,3:2|0:0,0:0:0:0:
215,131,17425,2,0,L|205:75,1,56.2500021457673,0|2,0:0|0:2,0:0:0:0:
294,56,17713,1,10,3:2:0:0:
20,99,18002,1,2,0:0:0:0:
24,116,18290,2,0,B|52:241|52:241|68:257|88:264,1,168.750006437302,2|2,3:2|0:0,0:0:0:0:
172,299,18867,1,10,3:2:0:0:
398,243,19156,1,4,0:0:0:0:
398,243,19300,1,4,0:0:0:0:
398,243,19444,6,0,P|311:237|226:222,1,168.750006437302,2|2,3:2|0:0,0:0:0:0:
155,157,20021,2,0,P|159:88|163:74,1,56.2500021457673,10|0,3:2|0:0,0:0:0:0:
239,52,20309,1,2,0:0:0:0:
51,117,20598,2,0,P|50:173|59:228,1,112.500004291535,2|0,3:2|0:0,0:0:0:0:
46,310,21031,2,0,B|17:299|1:246|98:223|131:296,1,168.750006437302,2|2,0:0|0:0,0:0:0:0:
207,370,21608,5,4,0:0:0:0:
218,262,21752,1,2,3:2:0:0:
228,153,21896,1,2,0:0:0:0:
360,343,22184,1,4,0:0:0:0:
350,234,22328,1,10,3:2:0:0:
499,324,22617,1,4,0:0:0:0:
491,304,22906,2,0,B|436:104,1,168.750006437302,2|2,3:2|0:0,0:0:0:0:
419,55,23483,1,10,0:0:0:0:
419,55,23771,1,4,0:0:0:0:
419,55,24059,6,0,P|350:59|295:129,1,150,2|0,0:3|0:0,0:0:0:0:
298,116,24925,1,2,0:0:0:0:
251,275,25213,2,0,L|203:117,1,150,2|2,0:3|0:3,0:0:0:0:
338,353,26367,6,0,L|358:204,1,150,2|2,0:3|0:3,0:0:0:0:
357,202,27233,1,2,0:0:0:0:
241,296,27521,2,0,B|186:289|186:289|159:298|159:298|63:283,1,150,2|2,0:3|0:3,0:0:0:0:
332,111,28675,6,0,B|277:118|277:118|250:109|250:109|184:119,1,150,2|2,0:3|0:3,0:0:0:0:
187,122,29540,1,2,0:0:0:0:
76,7,29829,2,0,P|53:81|87:150,1,150,2|2,0:3|0:3,0:0:0:0:
81,144,30983,5,2,0:3:0:0:
81,144,31559,1,2,0:3:0:0:
81,144,32136,1,2,0:3:0:0:
238,168,32425,1,4,3:2:0:0:
61,290,32713,2,0,P|130:245|169:264,1,112.5,8|0,0:1|0:0,0:0:0:0:
152,251,33290,6,0,P|194:296|277:312,1,134.999995880127,0|2,3:0|0:0,0:0:0:0:
351,289,33867,1,8,0:1:0:0:
134,364,34156,1,2,0:0:0:0:
351,289,34444,2,0,L|359:148,1,134.999995880127,0|2,3:0|0:0,0:0:0:0:
363,62,35021,1,8,0:1:0:0:
433,320,35598,6,0,P|353:326|303:396,1,134.999995880127,0|2,3:0|0:0,0:0:0:0:
227,342,36175,2,0,P|177:349|117:326,1,89.9999972534181,8|2,0:1|0:0,0:0:0:0:
50,309,36608,1,0,0:0:0:0:
50,309,36752,2,0,L|78:187,1,89.9999972534181,0|0,3:0|0:0,0:0:0:0:
0,60,37329,2,0,L|15:165,1,89.9999972534181,8|0,0:1|0:0,0:0:0:0:
161,246,37906,6,0,B|244:251|205:203|295:209,1,134.999995880127,0|2,3:0|0:0,0:0:0:0:
375,248,38483,1,8,0:1:0:0:
203,120,38771,1,2,0:0:0:0:
375,248,39059,2,0,P|373:307|314:365,1,134.999995880127,0|2,3:0|0:0,0:0:0:0:
222,384,39636,1,8,0:1:0:0:
448,152,40213,6,0,L|280:136,1,134.999995880127,0|2,3:0|0:0,0:0:0:0:
211,129,40790,1,8,0:1:0:0:
421,48,41079,1,2,0:0:0:0:
211,129,41367,2,0,L|232:220,1,89.9999972534181,0|0,3:0|0:0,0:0:0:0:
349,323,41944,2,0,L|328:235,1,89.9999972534181,8|0,0:1|0:0,0:0:0:0:
110,292,42521,6,0,P|146:322|228:300,2,120,4|0|0,3:1|3:0|3:0,0:0:0:0:
110,292,44252,1,0,3:0:0:0:
110,292,44829,6,0,L|118:223,1,60,0|0,3:0|0:0,0:0:0:0:
251,220,45406,2,0,L|244:279,1,60,0|0,3:0|0:0,0:0:0:0:
109,147,45983,2,0,L|117:78,1,60,0|0,3:0|0:0,0:0:0:0:
244,75,46559,2,0,L|237:134,1,60,0|0,3:0|0:0,0:0:0:0:
342,208,47136,6,0,P|366:155|315:93,2,120,0|0|0,3:0|3:0|3:0,0:0:0:0:
342,208,48867,1,0,3:0:0:0:
215,16,50021,5,2,0:0:0:0:
442,207,50598,5,2,0:0:0:0:
145,321,51175,5,2,0:0:0:0:
361,17,51752,6,0,P|352:101|348:205,1,180,4|4,3:1|0:0,0:0:0:0:
390,286,52329,2,0,P|328:295|306:273,1,60,10|0,3:2|0:0,0:0:0:0:
261,226,52617,1,2,0:0:0:0:
66,149,52906,2,0,P|166:139|253:126,1,180,2|2,3:2|0:0,0:0:0:0:
261,226,53483,1,10,3:2:0:0:
412,45,53915,1,4,0:0:0:0:
412,45,54059,6,0,P|464:87|467:106,1,60,2|0,3:2|0:0,0:0:0:0:
465,171,54348,1,2,0:0:0:0:
357,323,54636,2,0,P|372:249|373:185,1,120,10|2,3:2|0:0,0:0:0:0:
291,5,55213,2,0,P|321:81|328:145,1,120,0|2,3:0|0:0,0:0:0:0:
275,208,55646,1,2,0:0:0:0:
275,208,55790,2,0,L|135:193,1,120,10|4,3:2|0:0,0:0:0:0:
69,264,56223,1,4,0:0:0:0:
69,264,56367,6,0,P|133:220|72:110,1,180,0|2,3:0|0:0,0:0:0:0:
30,75,56944,1,10,3:2:0:0:
142,333,57233,1,2,0:0:0:0:
155,340,57521,2,0,B|245:311|238:373|349:332,1,180,0|2,0:0|0:0,0:0:0:0:
415,282,58098,2,0,P|344:283|300:236,1,120,10|4,3:2|0:0,0:0:0:0:
296,155,58531,5,4,0:0:0:0:
380,89,58675,1,0,3:0:0:0:
283,52,58819,1,0,0:0:0:0:
283,52,58963,2,0,L|212:48,1,60,2|6,0:0|0:0,0:0:0:0:
388,94,59252,2,0,L|511:87,1,120,10|4,0:0|0:0,0:0:0:0:
191,171,59829,2,0,L|54:162,1,120,0|2,3:0|0:0,0:0:0:0:
396,243,60406,2,0,L|460:239,3,60,10|0|4|4,0:0|0:0|3:2|3:2,0:0:0:0:
484,341,60983,5,4,0:1:0:0:
472,351,61271,2,0,P|402:332|393:324,1,60,0|0,3:0|3:0,0:0:0:0:
308,337,61559,2,0,P|246:340|214:394,1,120,8|2,0:0|0:0,0:0:0:0:
211,171,62136,2,0,L|201:51,1,120,0|0,3:0|0:0,0:0:0:0:
102,99,62569,2,0,L|107:158,1,60,2|10,0:0|0:0,0:0:0:0:
6,140,62858,1,0,0:0:0:0:
0,154,63146,6,0,P|-15:217|8:293,1,120,4|0,0:0|0:0,0:0:0:0:
77,321,63579,1,2,0:0:0:0:
77,321,63723,1,0,3:0:0:0:
154,265,63867,2,0,L|263:254,1,60,10|0,3:2|0:0,0:0:0:0:
294,306,64156,1,4,0:0:0:0:
358,127,64444,2,0,L|373:257,1,120,0|2,3:0|0:3,0:0:0:0:
386,358,64877,1,0,3:0:0:0:
386,358,65021,1,8,0:1:0:0:
217,82,65309,1,4,0:0:0:0:
76,368,65598,6,0,B|104:326|104:326|79:166,1,180,4|2,3:1|0:0,0:0:0:0:
30,87,66175,2,0,P|14:154|20:168,1,60,10|0,0:0|0:0,0:0:0:0:
92,205,66463,2,0,L|192:184,1,60,4|4,0:0|0:0,0:0:0:0:
215,97,66752,2,0,L|250:287,1,180,2|4,3:2|0:0,0:0:0:0:
249,368,67329,2,0,P|290:310|358:326,1,112.500004291535,10|4,0:0|0:0,0:0:0:0:
422,348,67761,5,4,0:0:0:0:
446,234,67906,1,0,3:0:0:0:
437,364,68050,1,2,0:0:0:0:
343,122,68338,1,0,3:0:0:0:
340,230,68483,1,10,0:0:0:0:
216,48,68771,1,2,3:2:0:0:
216,48,69059,2,0,P|234:114|246:175,1,112.500004291535,4|8,0:0|0:0,0:0:0:0:
186,242,69492,1,8,0:0:0:0:
105,179,69636,5,8,0:1:0:0:
109,163,69781,1,8,0:1:0:0:
113,147,69925,1,8,0:1:0:0:
117,131,70069,1,8,0:1:0:0:
123,113,70213,6,0,P|87:73|50:67,3,52.4999983978272,4|0|4|4,3:1|0:0|2:0|2:0,0:0:0:0:
219,157,70790,2,0,P|241:141|256:117,3,52.4999983978272,10|0|4|4,3:2|0:0|2:0|2:0,0:0:0:0:
177,253,71367,2,0,P|213:293|250:299,3,52.4999983978272,2|0|4|4,3:2|0:0|2:0|2:0,0:0:0:0:
80,208,71944,2,0,P|57:224|43:248,3,52.4999983978272,10|0|4|4,3:2|0:0|2:0|2:0,0:0:0:0:
176,252,72521,6,0,P|190:275|210:291,1,52.4999983978272,2|0,3:2|0:0,0:0:0:0:
219,157,72809,2,0,P|241:141|256:117,1,52.4999983978272,4|4,2:0|2:0,0:0:0:0:
123,113,73098,2,0,P|109:90|89:74,1,52.4999983978272,10|0,3:2|0:0,0:0:0:0:
80,208,73386,2,0,P|57:224|43:248,1,52.4999983978272,4|4,2:0|2:0,0:0:0:0:
177,253,73675,6,0,L|371:225,1,157.499995193482,2|4,3:2|0:0,0:0:0:0:
374,134,74252,2,0,L|218:156,1,157.499995193482,10|8,0:0|0:1,0:0:0:0:
160,41,74829,6,0,L|204:73,3,52.4999983978272,4|0|4|4,3:1|0:0|2:0|2:0,0:0:0:0:
102,178,75406,2,0,L|134:134,3,52.4999983978272,10|0|4|4,3:2|0:0|2:0|2:0,0:0:0:0:
246,242,75983,2,0,L|202:210,3,52.4999983978272,2|0|4|0,3:2|0:0|2:0|0:0,0:0:0:0:
304,105,76560,2,0,L|272:149,3,52.4999983978272,8|0|4|4,0:0|0:0|2:0|2:0,0:0:0:0:
246,242,77136,6,0,L|202:210,1,52.4999983978272,2|0,3:2|0:0,0:0:0:0:
102,178,77425,2,0,L|134:134,1,52.4999983978272,4|4,2:0|2:0,0:0:0:0:
160,41,77713,2,0,L|204:73,1,52.4999983978272,8|0,0:0|0:0,0:0:0:0:
304,105,78002,2,0,L|272:149,1,52.4999983978272,4|4,2:0|2:0,0:0:0:0:
247,240,78290,6,0,P|275:308|392:289,1,209.999993591309,4|8,3:2|0:1,0:0:0:0:
392,289,79156,1,8,0:0:0:0:
379,178,79300,1,8,0:0:0:0:
424,81,79444,5,0,3:0:0:0:
234,168,79733,2,0,L|115:157,1,89.9999972534181,0|8,0:0|0:1,0:0:0:0:
393,285,80309,1,0,3:0:0:0:
195,250,80598,2,0,L|188:71,1,179.999994506836,0|8,3:0|0:1,0:0:0:0:
187,71,81752,6,0,P|121:66|86:146,1,134.999995880127,0|2,3:0|0:0,0:0:0:0:
80,206,82329,1,8,0:1:0:0:
283,140,82617,1,2,0:0:0:0:
80,206,82906,2,0,P|92:263|201:271,1,179.999994506836,0|8,3:0|0:1,0:0:0:0:
197,273,84059,6,0,L|368:266,1,134.999995880127,0|2,3:0|0:0,0:0:0:0:
426,263,84636,1,8,0:1:0:0:
259,365,84925,1,2,0:0:0:0:
426,263,85213,2,0,L|221:255,1,179.999994506836,0|8,0:0|0:1,0:0:0:0:
246,255,86367,5,0,3:0:0:0:
350,79,86800,1,0,3:0:0:0:
350,79,86944,2,0,P|366:120|359:177,1,89.9999972534181,8|2,0:1|0:0,0:0:0:0:
161,203,87521,1,0,3:2:0:0:
390,260,87809,1,0,3:0:0:0:
180,302,88098,1,8,0:1:0:0:
363,165,88386,1,0,3:0:0:0:
237,47,88675,6,0,L|266:219,1,134.999995880127,0|2,3:0|0:0,0:0:0:0:
276,269,89252,1,8,0:1:0:0:
152,117,89540,1,2,3:2:0:0:
276,269,89829,2,0,B|203:290|222:238|130:265,1,134.999995880127,0|2,3:0|0:0,0:0:0:0:
52,293,90406,1,8,0:1:0:0:
52,293,90983,6,0,P|100:290|102:188,1,134.999995880127,0|2,3:0|0:0,0:0:0:0:
70,140,91559,1,8,0:1:0:0:
210,302,91848,1,2,0:0:0:0:
70,140,92136,2,0,P|68:85|142:56,1,134.999995880127,0|0,3:0|0:0,0:0:0:0:
218,68,92713,2,0,P|235:101|217:167,1,89.9999972534181,8|0,0:1|0:0,0:0:0:0:
53,279,93290,6,0,B|147:265|147:265|193:294,1,134.999995880127,0|2,3:0|0:0,0:0:0:0:
256,340,93867,1,8,0:1:0:0:
148,177,94156,1,2,0:0:0:0:
256,340,94444,2,0,B|296:362|296:362|414:340,1,134.999995880127,0|2,3:0|0:0,0:0:0:0:
471,326,95021,1,8,0:1:0:0:
471,326,95598,6,0,L|480:158,1,134.999995880127,0|2,3:0|0:0,0:0:0:0:
485,99,96175,1,8,0:1:0:0:
380,257,96463,1,2,0:0:0:0:
485,99,96752,2,0,P|425:40|346:71,1,134.999995880127,0|0,3:0|0:0,0:0:0:0:
290,69,97329,2,0,L|303:169,1,89.9999972534181,8|0,0:1|3:0,0:0:0:0:
221,322,97906,6,0,B|196:257|245:265|216:195,2,120,4|0|0,3:1|3:0|3:0,0:0:0:0:
221,322,99636,1,0,3:0:0:0:
221,322,100213,2,0,P|274:326|293:317,1,60,0|0,3:0|0:0,0:0:0:0:
392,253,100790,2,0,P|339:249|320:258,1,60,0|2,3:0|0:0,0:0:0:0:
202,191,101367,2,0,P|255:195|274:186,1,60,0|0,3:0|0:0,0:0:0:0:
373,122,101944,2,0,P|320:118|301:127,1,60,0|0,3:0|0:0,0:0:0:0:
126,133,102521,6,0,B|145:209|145:209|147:242|117:265,2,120,0|0|0,3:0|3:0|3:0,0:0:0:0:
126,133,104252,1,0,3:0:0:0:
372,146,105406,5,2,0:0:0:0:
90,61,105983,5,2,0:0:0:0:
150,337,106559,5,2,0:0:0:0:
474,185,107136,6,0,P|404:175|281:187,1,180,4|4,3:1|0:0,0:0:0:0:
203,219,107713,2,0,P|203:154|216:135,1,60,10|0,3:2|0:0,0:0:0:0:
276,92,108002,1,2,0:0:0:0:
376,266,108290,2,0,L|392:72,1,180,2|2,3:2|0:0,0:0:0:0:
398,0,108867,1,10,3:2:0:0:
202,168,109300,1,4,0:0:0:0:
202,168,109444,6,0,P|260:186|275:177,1,60,2|0,3:2|0:0,0:0:0:0:
348,170,109733,1,2,0:0:0:0:
194,283,110021,2,0,P|119:304|96:355,1,120,10|2,3:2|0:0,0:0:0:0:
17,143,110598,2,0,P|53:188|111:196,1,120,0|2,3:0|0:0,0:0:0:0:
207,146,111031,1,2,0:0:0:0:
207,146,111175,2,0,L|341:163,1,120,10|4,3:2|0:0,0:0:0:0:
425,174,111608,1,4,0:0:0:0:
425,174,111752,6,0,P|350:170|337:293,1,180,0|2,3:0|0:0,0:0:0:0:
335,347,112329,1,10,3:2:0:0:
208,90,112617,1,2,0:0:0:0:
214,71,112906,2,0,B|309:34|305:105|396:69,1,180,0|2,0:0|0:0,0:0:0:0:
458,24,113483,2,0,L|432:163,1,120,10|4,3:2|0:0,0:0:0:0:
423,235,113915,5,4,0:0:0:0:
317,161,114059,1,0,3:0:0:0:
226,231,114204,1,0,0:0:0:0:
226,231,114348,2,0,L|232:304,1,60,2|6,0:0|0:0,0:0:0:0:
325,153,114636,2,0,L|334:15,1,120,10|4,0:0|0:0,0:0:0:0:
132,207,115213,2,0,L|139:326,1,120,0|2,3:0|0:0,0:0:0:0:
239,96,115790,2,0,L|244:31,3,60,10|0|4|4,0:0|0:0|3:2|3:2,0:0:0:0:
136,9,116367,5,4,0:1:0:0:
123,17,116656,2,0,P|121:89|128:101,1,60,0|0,3:0|3:0,0:0:0:0:
56,159,116944,2,0,P|79:232|63:289,1,120,8|2,0:0|0:0,0:0:0:0:
281,141,117521,2,0,L|162:159,1,120,0|0,3:0|0:0,0:0:0:0:
211,249,117954,2,0,L|270:238,1,60,2|10,0:0|0:0,0:0:0:0:
268,339,118242,1,0,0:0:0:0:
287,351,118531,6,0,P|347:355|400:329,1,120,4|0,0:0|0:0,0:0:0:0:
458,241,118963,1,2,0:0:0:0:
458,241,119108,1,0,3:0:0:0:
415,144,119252,2,0,P|357:113|352:98,1,60,10|0,3:2|0:0,0:0:0:0:
372,30,119540,1,4,0:0:0:0:
265,202,119829,2,0,L|259:49,1,120,0|2,3:0|0:3,0:0:0:0:
223,0,120261,1,0,3:0:0:0:
223,0,120406,1,8,0:1:0:0:
146,291,120694,1,4,0:0:0:0:
418,182,120983,6,0,B|372:191|332:164|332:164|314:210|266:227,1,180,4|2,3:1|0:0,0:0:0:0:
191,171,121559,2,0,P|196:141|210:115,1,60,10|0,0:0|0:0,0:0:0:0:
179,29,121848,2,0,P|135:62|124:94,1,60,4|4,0:0|0:0,0:0:0:0:
53,133,122136,2,0,B|96:179|82:216|82:216|55:251|69:301,1,180,2|4,3:2|0:0,0:0:0:0:
27,373,122713,2,0,L|159:342,1,120,10|4,0:0|0:0,0:0:0:0:
247,316,123146,5,4,0:0:0:0:
178,220,123290,1,0,3:0:0:0:
235,336,123434,1,2,0:0:0:0:
314,128,123723,1,2,0:0:0:0:
315,249,123867,1,8,0:0:0:0:
467,67,124156,1,4,0:0:0:0:
467,67,124444,2,0,P|451:148|411:214,1,146.249993305207,0|2,3:0|0:0,0:0:0:0:
312,240,125021,1,8,0:0:0:0:
318,226,125309,5,0,3:0:0:0:
305,118,125454,1,0,3:0:0:0:
204,184,125598,1,4,0:1:0:0:
81,264,139444,5,8,3:2:0:0:
285,242,139877,1,0,3:0:0:0:
285,242,140021,1,8,3:2:0:0:
105,260,140309,1,0,0:0:0:0:
175,123,140598,1,8,3:2:0:0:
205,334,141031,1,0,3:0:0:0:
205,334,141175,1,8,3:2:0:0:
387,46,141752,5,8,3:2:0:0:
374,250,142184,1,0,3:0:0:0:
374,250,142329,1,8,3:2:0:0:
385,71,142617,1,0,0:0:0:0:
237,141,142906,1,8,3:2:0:0:
470,159,143338,1,0,3:2:0:0:
470,159,143483,1,8,3:2:0:0:
257,143,143771,1,0,3:2:0:0:
357,301,144059,5,8,3:2:0:0:
377,49,144636,1,8,3:2:0:0:
148,338,145213,1,8,3:2:0:0:
98,84,145790,2,0,P|153:86|174:115,1,75,8|0,3:2|0:0,0:0:0:0:
257,247,146367,6,0,B|262:232|262:232|243:153|243:153|248:138,2,112.5,8|2|2,3:2|0:0|0:0,0:0:0:0:
257,247,148675,6,0,B|232:256|232:256|164:248,3,52.4999983978272,4|0|0|0,3:1|0:0|0:0|0:0,0:0:0:0:
307,126,149252,2,0,B|316:151|316:151|308:219,3,52.4999983978272,10|0|0|0,3:2|0:0|0:0|0:0,0:0:0:0:
184,79,149829,2,0,B|209:70|209:70|277:78,3,52.4999983978272,4|0|0|0,3:2|0:0|0:0|0:0,0:0:0:0:
134,200,150406,2,0,B|125:175|125:175|133:107,3,52.4999983978272,10|0|0|0,3:2|0:0|0:0|0:0,0:0:0:0:
184,79,150983,6,0,B|209:70|209:70|277:78,1,52.4999983978272,4|0,3:2|0:0,0:0:0:0:
307,126,151271,2,0,B|316:151|316:151|308:219,1,52.4999983978272,0|0,0:0|0:0,0:0:0:0:
257,247,151559,2,0,B|232:256|232:256|164:248,1,52.4999983978272,10|0,3:2|0:0,0:0:0:0:
134,200,151848,2,0,B|125:175|125:175|133:107,1,52.4999983978272,0|0,0:0|0:0,0:0:0:0:
184,79,152136,6,0,L|75:66,1,104.999996795654,8|0,0:0|0:0,0:0:0:0:
6,130,152569,1,4,0:0:0:0:
6,130,152713,1,10,3:2:0:0:
126,290,153002,1,2,0:0:0:0:
139,298,153290,6,0,L|149:215,3,52.4999983978272,4|0|0|0,3:2|0:0|0:0|0:0,0:0:0:0:
239,289,153867,2,0,L|249:206,3,52.4999983978272,10|0|0|0,3:2|0:0|0:0|0:0,0:0:0:0:
339,280,154444,2,0,L|349:197,3,52.4999983978272,4|0|0|0,3:2|0:0|0:0|0:0,0:0:0:0:
439,271,155021,2,0,L|449:188,3,52.4999983978272,10|0|0|0,3:2|0:0|0:0|0:0,0:0:0:0:
339,280,155598,6,0,L|349:197,1,52.4999983978272,4|0,3:2|0:0,0:0:0:0:
239,289,155886,2,0,L|249:206,1,52.4999983978272,0|0,0:0|0:0,0:0:0:0:
139,298,156175,2,0,L|149:215,1,52.4999983978272,10|0,3:2|0:0,0:0:0:0:
39,307,156463,2,0,L|49:224,1,52.4999983978272,0|0,0:0|0:0,0:0:0:0:
55,158,156752,2,0,B|94:120|94:120|177:138,1,104.999996795654,8|0,0:0|0:0,0:0:0:0:
226,155,157184,1,4,0:0:0:0:
226,155,157329,1,10,3:2:0:0:
391,74,157617,1,2,0:0:0:0:
408,75,157906,6,0,P|444:114|445:146,3,52.4999983978272,4|0|0|0,3:1|0:0|0:0|0:0,0:0:0:0:
413,202,158483,2,0,P|397:253|369:269,3,52.4999983978272,10|0|0|0,3:2|0:0|0:0|0:0,0:0:0:0:
305,269,159059,2,0,P|252:280|224:265,3,52.4999983978272,4|0|0|0,3:2|0:0|0:0|0:0,0:0:0:0:
192,209,159636,2,0,P|155:169|154:137,3,52.4999983978272,10|0|0|0,3:2|0:0|0:0|0:0,0:0:0:0:
255,282,160213,6,0,P|281:281|304:269,1,52.4999983978272,4|0,3:2|0:0,0:0:0:0:
399,251,160502,2,0,P|411:228|412:202,1,52.4999983978272,0|0,0:0|0:0,0:0:0:0:
443,111,160790,2,0,P|429:88|407:74,1,52.4999983978272,10|0,3:2|0:0,0:0:0:0:
343,3,161079,2,0,P|316:3|293:15,1,52.4999983978272,0|0,0:0|0:0,0:0:0:0:
189,12,161367,6,0,P|181:56|234:110,1,104.999996795654,8|0,0:0|0:0,0:0:0:0:
301,149,161800,1,4,0:0:0:0:
301,149,161944,1,10,3:2:0:0:
91,92,162233,1,2,0:0:0:0:
108,101,162521,6,0,L|118:184,3,52.4999983978272,4|0|0|0,3:1|0:0|0:0|0:0,0:0:0:0:
208,110,163098,2,0,L|218:193,3,52.4999983978272,10|0|0|0,3:2|0:0|0:0|0:0,0:0:0:0:
308,119,163675,2,0,L|318:202,3,52.4999983978272,4|0|0|0,3:2|0:0|0:0|0:0,0:0:0:0:
408,128,164252,2,0,L|418:211,3,52.4999983978272,10|0|0|0,3:2|0:0|0:0|0:0,0:0:0:0:
364,261,164829,6,0,L|265:247,1,52.4999983978272,0|0,3:0|0:0,0:0:0:0:
208,262,165117,1,0,3:0:0:0:
208,262,165261,2,0,L|230:131,1,104.999996795654,8|8,0:0|0:0,0:0:0:0:
124,188,165694,2,0,L|25:174,1,52.4999983978272,0|0,3:0|3:0,0:0:0:0:
6,93,165983,5,8,3:2:0:0:
6,93,166127,1,0,3:0:0:0:
6,93,166271,1,0,3:0:0:0:
211,74,166559,2,0,L|262:81,1,52.4999983978272,0|0,3:0|3:0,0:0:0:0:
365,95,166847,1,8,0:0:0:0:
365,95,166992,1,8,0:0:0:0:
45,163,167713,5,2,0:0:0:0:
319,337,168290,5,2,0:0:0:0:
332,14,168867,5,2,0:0:0:0:
90,266,169444,6,0,P|143:226|279:228,1,185.625001770258,4|4,3:1|0:0,0:0:0:0:
362,196,170021,2,0,P|361:267|352:282,1,61.875000590086,10|0,3:2|0:0,0:0:0:0:
256,293,170309,2,0,P|257:222|266:207,1,61.875000590086,2|2,0:0|0:0,0:0:0:0:
291,126,170598,5,2,3:2:0:0:
151,217,170886,2,0,P|191:154|206:149,1,61.875000590086,2|2,0:0|0:0,0:0:0:0:
291,126,171175,2,0,P|218:142|134:104,1,123.750001180172,10|2,3:2|0:0,0:0:0:0:
65,68,171608,1,4,0:0:0:0:
65,68,171752,6,0,L|74:160,1,61.875000590086,2|0,3:2|0:0,0:0:0:0:
13,222,172040,1,2,0:0:0:0:
181,354,172329,2,0,L|166:208,1,123.750001180172,10|2,3:2|0:0,0:0:0:0:
225,23,172906,2,0,L|237:146,1,123.750001180172,0|2,3:0|0:0,0:0:0:0:
322,223,173338,1,2,0:0:0:0:
322,223,173483,2,0,P|379:175|431:189,1,123.750001180172,10|4,3:2|0:0,0:0:0:0:
488,266,173914,1,0,3:0:0:0:
488,266,174059,6,0,B|454:215|454:215|479:69,1,185.625001770258,0|2,3:0|0:0,0:0:0:0:
498,1,174636,1,10,3:2:0:0:
321,224,174925,1,2,0:0:0:0:
325,239,175213,2,0,B|239:218,1,61.875000590086
154,150,175502,1,0,0:0:0:0:
141,156,175790,2,0,B|178:203|178:203|159:275,1,123.750001180172,10|4,3:2|0:0,0:0:0:0:
70,322,176223,5,4,0:0:0:0:
0,229,176367,1,0,3:0:0:0:
47,129,176511,1,0,0:0:0:0:
47,129,176656,2,0,L|34:43,1,61.875000590086,2|6,0:0|0:0,0:0:0:0:
147,171,176944,2,0,P|205:144|277:171,1,123.750001180172,10|4,0:0|0:0,0:0:0:0:
451,284,177521,2,0,P|393:311|321:284,1,123.750001180172,0|2,3:0|0:0,0:0:0:0:
310,43,178098,2,0,P|333:105|327:125,3,61.875000590086,10|0|4|4,0:0|0:0|3:2|3:2,0:0:0:0:
379,191,178675,5,4,0:1:0:0:
365,201,178963,2,0,L|262:194,1,61.875000590086,0|0,3:0|3:0,0:0:0:0:
206,267,179252,2,0,L|223:123,1,123.750001180172,8|2,0:0|0:0,0:0:0:0:
451,283,179829,2,0,L|468:139,1,123.750001180172,0|0,3:0|0:0,0:0:0:0:
380,101,180261,2,0,L|301:94,1,61.875000590086,2|10,0:0|0:0,0:0:0:0:
225,35,180550,1,0,0:0:0:0:
202,30,180838,6,0,P|216:81|221:185,1,123.750001180172,4|0,0:0|0:0,0:0:0:0:
138,202,181271,1,2,0:0:0:0:
138,202,181415,1,0,3:0:0:0:
36,157,181559,2,0,P|46:81|57:66,1,61.875000590086,10|0,3:2|0:0,0:0:0:0:
99,20,181848,1,4,0:0:0:0:
128,215,182136,2,0,L|274:248,1,123.750001180172,0|2,3:0|0:3,0:0:0:0:
359,279,182569,1,0,3:0:0:0:
359,279,182713,1,8,0:1:0:0:
320,35,183002,2,0,L|329:104,1,61.875000590086,4|4,0:0|0:0,0:0:0:0:
396,185,183290,6,0,P|346:124|240:137,1,185.625001770258,4|2,3:1|0:0,0:0:0:0:
235,231,183867,2,0,P|270:274|346:265,1,123.750001180172,10|4,0:0|0:0,0:0:0:0:
114,82,184444,2,0,L|138:231,1,123.750001180172,2|0,3:2|0:0,0:0:0:0:
76,296,184877,1,4,0:0:0:0:
76,296,185021,2,0,B|137:288|137:288|196:342,1,120,10|4,0:0|0:0,0:0:0:0:
265,361,185454,5,4,0:0:0:0:
314,248,185598,1,2,3:2:0:0:
281,372,185742,1,2,0:0:0:0:
177,149,186031,1,2,0:0:0:0:
180,288,186175,1,10,0:0:0:0:
48,60,186463,1,4,0:0:0:0:
27,76,186752,2,0,P|11:141|18:178,1,104.999996795654,0|8,3:0|0:1,0:0:0:0:
70,269,187184,1,8,0:1:0:0:
182,288,187329,5,0,3:0:0:0:
209,284,187473,1,0,3:0:0:0:
237,291,187617,1,0,3:0:0:0:
265,288,187761,1,0,3:0:0:0:
