osu file format v14

[General]
AudioFilename: audio.mp3
AudioLeadIn: 0
PreviewTime: 49985
Countdown: 0
SampleSet: Soft
StackLeniency: 0.7
Mode: 0
LetterboxInBreaks: 0
WidescreenStoryboard: 1

[Editor]
Bookmarks: 97906,104829,139444
DistanceSpacing: 1.2
BeatDivisor: 4
GridSize: 32
TimelineZoom: 1.7

[Metadata]
Title:Talk Too Much
TitleUnicode:Talk Too Much
Artist:COIN
ArtistUnicode:COIN
Creator:Asphyxia
Version:Decisions
Source:
Tags:Kyshiro Fursum Jace foxygrandpa foxy grandpa indie pop
BeatmapID:1882588
BeatmapSetID:901626

[Difficulty]
HPDrainRate:5
CircleSize:4.2
OverallDifficulty:8
ApproachRate:9
SliderMultiplier:2.8
SliderTickRate:1

[Events]
//Background and Video events
0,0,"72318408_p0.jpg",0,0
//Break Periods
2,125798,136537
//Storyboard Layer 0 (Background)
//Storyboard Layer 1 (Fail)
//Storyboard Layer 2 (Pass)
//Storyboard Layer 3 (Foreground)
//Storyboard Sound Samples

[TimingPoints]
983,576.923076923077,4,2,1,40,1,0
14252,-83.3333333333333,4,2,1,65,0,0
14540,-83.3333333333333,4,2,1,5,0,0
14829,-90.9090909090909,4,2,2,65,0,1
19156,-90.9090909090909,4,2,1,65,0,1
19444,-90.9090909090909,4,2,2,65,0,1
23771,-90.9090909090909,4,2,1,65,0,1
24059,-100,4,2,1,50,0,0
32425,-100,4,2,1,55,0,0
32713,-100,4,2,1,60,0,0
33146,-100,4,2,1,5,0,0
33290,-100,4,2,1,55,0,0
42521,-125,4,2,1,50,0,0
44829,-125,4,2,1,45,0,0
47136,-125,4,2,1,40,0,0
49444,-125,4,2,1,30,0,0
50021,-100,4,2,1,25,0,0
50454,-100,4,2,5,5,0,0
50598,-100,4,2,1,50,0,0
51031,-100,4,2,5,5,0,0
51175,-100,4,2,1,75,0,0
51608,-100,4,2,5,5,0,0
51752,-76.9230769230769,4,2,1,70,0,1
52040,-76.9230769230769,4,2,2,70,0,1
56079,-76.9230769230769,4,2,1,70,0,1
56367,-76.9230769230769,4,2,2,70,0,1
60694,-76.9230769230769,4,2,1,70,0,1
60983,-76.9230769230769,4,2,2,70,0,1
61415,-76.9230769230769,4,2,1,70,0,1
61559,-76.9230769230769,4,2,2,70,0,1
63723,-76.9230769230769,4,2,1,70,0,1
63867,-76.9230769230769,4,2,2,70,0,1
64444,-76.9230769230769,4,2,1,70,0,1
65598,-76.9230769230769,4,2,2,70,0,1
67329,-66.6666666666667,4,2,2,70,0,1
67906,-76.9230769230769,4,2,2,70,0,1
69636,-76.9230769230769,4,2,1,70,0,1
70213,-83.3333333333333,4,2,1,60,0,0
70502,-83.3333333333333,4,2,2,60,0,0
79444,-100,4,2,1,50,0,0
88098,-100,4,2,2,50,0,0
88242,-100,4,2,1,50,0,0
97906,-125,4,2,1,50,0,0
104829,-100,4,2,1,50,0,0
105406,-100,4,2,1,20,0,0
105838,-100,4,2,1,5,0,0
105983,-100,4,2,1,50,0,0
106415,-100,4,2,1,5,0,0
106560,-83.3333333333333,4,2,1,50,0,0
106992,-83.3333333333333,4,2,1,5,0,0
107136,-76.9230769230769,4,2,1,75,0,1
107425,-76.9230769230769,4,2,2,75,0,1
111463,-76.9230769230769,4,2,1,75,0,1
111752,-76.9230769230769,4,2,2,75,0,1
116079,-76.9230769230769,4,2,1,75,0,1
116367,-76.9230769230769,4,2,2,75,0,1
116800,-76.9230769230769,4,2,1,75,0,1
116944,-76.9230769230769,4,2,2,75,0,1
119108,-76.9230769230769,4,2,1,75,0,1
119252,-76.9230769230769,4,2,2,75,0,1
119829,-76.9230769230769,4,2,1,75,0,1
120983,-76.9230769230769,4,2,2,75,0,1
122714,-66.6666666666667,4,2,2,75,0,1
123291,-76.9230769230769,4,2,2,65,0,1
125309,-76.9230769230769,4,2,1,50,0,1
125454,-76.9230769230769,4,2,1,40,0,1
125598,-100,4,2,1,50,0,0
139444,-100,4,2,2,60,0,0
139877,-100,4,2,2,5,0,0
140021,-100,4,2,2,60,0,0
140454,-100,4,2,2,5,0,0
140598,-100,4,2,2,60,0,0
141031,-100,4,2,2,5,0,0
141175,-100,4,2,2,60,0,0
141608,-100,4,2,2,5,0,0
141752,-100,4,2,2,60,0,0
144492,-100,4,2,2,5,0,0
144636,-100,4,2,2,60,0,0
145069,-100,4,2,2,5,0,0
145213,-100,4,2,2,60,0,0
145646,-100,4,2,2,5,0,0
145790,-100,4,2,2,60,0,0
146223,-100,4,2,2,5,0,0
146367,-100,4,2,2,60,0,0
146800,-100,4,2,1,45,0,0
147233,-100,4,2,1,60,0,0
148675,-100,4,2,2,60,0,0
157906,-100,4,2,2,65,0,0
164829,-100,4,2,1,70,0,0
165117,-100,4,2,2,70,0,0
165694,-100,4,2,1,70,0,0
165838,-100,4,2,2,70,0,0
166127,-100,4,2,1,70,0,0
166271,-100,4,2,2,70,0,0
166848,-100,4,2,2,80,0,0
167713,-100,4,2,1,30,0,0
168146,-100,4,2,1,5,0,0
168290,-100,4,2,1,60,0,0
168723,-100,4,2,1,5,0,0
168867,-100,4,2,1,90,0,0
169300,-100,4,2,1,5,0,0
169444,-71.4285714285714,4,2,1,80,0,1
169733,-71.4285714285714,4,2,2,80,0,1
173771,-71.4285714285714,4,2,1,80,0,1
174059,-71.4285714285714,4,2,2,80,0,1
179108,-71.4285714285714,4,2,1,80,0,1
179252,-71.4285714285714,4,2,2,80,0,1
182136,-71.4285714285714,4,2,1,80,0,1
183290,-71.4285714285714,4,2,2,80,0,1
185021,-62.5,4,2,2,85,0,1
185598,-71.4285714285714,4,2,2,75,0,1
187040,-71.4285714285714,4,2,2,90,0,1
187329,-71.4285714285714,4,2,2,60,0,1
187617,-71.4285714285714,4,2,2,30,0,1
187906,-142.857142857143,4,2,1,50,0,0
188339,-142.857142857143,4,2,1,5,0,0

[Colours]
Combo1 : 255,83,83
Combo2 : 255,157,111
Combo3 : 106,255,181
Combo4 : 255,255,170

[HitObjects]
363,338,5598,6,0,P|317:265|352:138,1,210,2|2,3:2|0:2,0:0:0:0:
398,97,6175,1,0,3:0:0:0:
363,338,6464,1,2,0:0:0:0:
398,97,6752,2,0,P|416:165|290:209,1,210,2|2,3:2|0:2,0:0:0:0:
246,175,7329,1,0,3:0:0:0:
246,175,7906,5,2,3:2:0:0:
173,149,8050,1,2,0:2:0:0:
163,279,8194,5,2,0:2:0:0:
123,212,8338,1,2,0:2:0:0:
34,295,8483,5,0,3:0:0:0:
34,295,8627,1,0,0:0:0:0:
46,217,8771,2,0,P|23:184|29:147,1,70,2|0,0:0|0:0,0:0:0:0:
163,279,9060,6,0,P|211:189|184:90,1,210,0|2,3:0|0:0,0:0:0:0:
128,35,9637,1,0,3:0:0:0:
163,279,9925,1,0,0:0:0:0:
123,212,10069,1,2,0:0:0:0:
134,350,10214,6,0,P|235:346|308:273,1,210,2|2,3:2|0:2,0:0:0:0:
321,196,10791,1,0,3:0:0:0:
321,196,10935,1,0,0:0:0:0:
349,359,11079,1,2,0:0:0:0:
349,359,11367,6,0,P|345:287|396:231,1,140,2|0,3:2|0:0,0:0:0:0:
459,261,11800,2,0,P|462:332|411:388,1,140,2|0,0:0|0:0,0:0:0:0:
386,236,12233,1,2,0:0:0:0:
443,184,12377,1,2,0:0:0:0:
370,158,12521,5,2,3:2:0:0:
428,107,12666,1,2,0:0:0:0:
142,158,12954,5,2,0:0:0:0:
84,107,13099,1,2,3:2:0:0:
69,184,13387,5,2,0:0:0:0:
126,236,13675,2,0,P|174:170|293:210,1,210,2|0,3:2|0:0,0:0:0:0:
369,198,14252,6,0,P|280:243|191:248,1,167.999994873047,4|0,0:0|0:0,0:0:0:0:
213,250,14829,6,0,P|185:151|271:49,1,231.000007049561,4|2,3:1|0:0,0:0:0:0:
333,49,15406,1,10,3:2:0:0:
333,49,15550,1,0,0:0:0:0:
298,117,15694,2,0,P|256:134|207:114,1,77.0000023498536,2|2,0:0|0:0,0:0:0:0:
333,49,15983,6,0,P|401:31|445:157,1,231.000007049561,2|2,3:2|0:2,0:0:0:0:
391,210,16560,1,10,3:2:0:0:
458,246,16704,1,0,0:0:0:0:
393,287,16848,1,2,0:0:0:0:
460,322,16992,1,4,0:0:0:0:
395,365,17137,6,0,P|356:378|302:371,1,77.0000023498536,2|0,3:2|0:0,0:0:0:0:
460,322,17425,1,0,0:0:0:0:
282,313,17569,2,0,P|243:297|206:257,1,77.0000023498536,2|10,0:2|3:2,0:0:0:0:
393,287,17858,1,0,0:0:0:0:
228,200,18002,2,0,P|208:162|205:108,1,77.0000023498536,2|4,0:0|0:0,0:0:0:0:
112,262,18291,6,0,P|84:163|170:61,1,231.000007049561,2|2,3:2|0:0,0:0:0:0:
231,57,18867,1,10,3:2:0:0:
231,57,19012,1,0,0:0:0:0:
203,128,19156,1,4,0:0:0:0:
228,200,19300,1,4,0:0:0:0:
314,290,19444,6,0,P|383:203|357:94,1,231.000007049561,2|2,3:2|0:0,0:0:0:0:
308,33,20021,1,10,3:2:0:0:
308,33,20166,1,0,0:0:0:0:
287,107,20310,2,0,P|308:147|358:163,1,77.0000023498536,2|4,0:0|0:0,0:0:0:0:
500,155,20598,6,0,P|456:59|356:93,1,231.000007049561,2|2,3:2|0:0,0:0:0:0:
335,161,21175,2,0,P|380:162|418:127,1,77.0000023498536,10|0,3:2|0:0,0:0:0:0:
356,92,21464,5,2,0:0:0:0:
308,33,21608,1,4,0:0:0:0:
243,153,21752,5,2,3:2:0:0:
244,76,21896,1,2,0:0:0:0:
117,127,22185,5,4,0:0:0:0:
167,68,22329,1,10,3:2:0:0:
37,26,22618,5,4,0:0:0:0:
113,13,22906,2,0,P|28:85|32:196,1,231.000007049561,2|2,3:2|0:0,0:0:0:0:
88,250,23483,1,10,0:0:0:0:
88,250,23627,1,0,3:0:0:0:
56,125,23771,2,0,P|88:144|104:179,1,77.0000023498536,4|4,0:0|0:0,0:0:0:0:
18,279,24060,5,2,0:3:0:0:
18,279,24492,1,2,0:0:0:0:
162,224,24781,1,0,0:0:0:0:
162,224,24925,1,2,0:0:0:0:
420,354,25214,6,0,P|317:360|239:294,1,210,2|0,0:3|0:0,0:0:0:0:
239,294,25791,1,2,0:3:0:0:
306,169,26367,5,2,0:3:0:0:
306,169,26800,2,0,P|332:210|327:243,1,70,2|2,0:0|0:3,0:0:0:0:
331,229,27089,1,0,0:0:0:0:
259,257,27233,2,0,P|233:216|238:183,1,70,2|0,0:0|0:0,0:0:0:0:
190,53,27521,6,0,P|213:153|162:241,1,210,2|0,0:3|0:0,0:0:0:0:
162,241,28098,1,2,0:3:0:0:
162,241,28675,6,0,P|139:141|190:53,1,210,2|0,0:3|0:0,0:0:0:0:
231,117,29252,1,2,0:3:0:0:
231,117,29541,2,0,P|187:133|152:121,1,70,2|0,0:0|0:0,0:0:0:0:
267,53,29829,6,0,P|318:141|295:241,1,210,2|0,0:3|0:0,0:0:0:0:
234,290,30406,1,2,0:3:0:0:
234,290,30983,5,2,0:3:0:0:
234,290,31560,1,2,0:3:0:0:
407,254,31848,5,2,0:0:0:0:
252,171,32137,1,2,0:3:0:0:
102,263,32425,1,4,3:2:0:0:
223,98,32714,2,0,P|293:104|291:237,1,210,8|0,0:1|0:0,0:0:0:0:
432,110,33291,6,0,P|354:176|252:171,1,210,0|0,3:0|0:0,0:0:0:0:
223,98,33867,1,8,0:1:0:0:
432,110,34156,1,2,0:0:0:0:
287,240,34444,2,0,P|328:169|298:107,1,140,0|2,3:0|0:0,0:0:0:0:
254,69,34877,1,2,0:0:0:0:
192,19,35021,1,8,0:1:0:0:
192,19,35598,6,0,P|174:87|300:131,1,210,0|2,3:0|0:0,0:0:0:0:
254,69,36175,2,0,P|270:38|268:4,1,70,8|0,0:1|0:0,0:0:0:0:
192,20,36464,1,2,0:0:0:0:
384,175,36752,2,0,P|281:169|203:235,1,210,0|0,3:0|0:0,0:0:0:0:
176,307,37329,1,8,0:1:0:0:
176,307,37906,6,0,P|269:280|264:183,1,210,0|0,3:0|0:0,0:0:0:0:
211,127,38483,1,8,0:1:0:0:
176,307,38771,1,2,0:0:0:0:
326,229,39060,2,0,P|265:259|202:233,1,140,0|2,3:0|0:0,0:0:0:0:
162,167,39492,1,2,0:0:0:0:
131,96,39636,1,8,0:1:0:0:
131,96,40213,5,0,3:0:0:0:
131,96,40645,1,2,0:0:0:0:
70,144,40790,1,8,0:1:0:0:
179,298,41079,1,2,0:0:0:0:
149,172,41367,2,0,P|92:257|110:358,1,210,0|0,3:0|0:0,0:0:0:0:
184,377,41944,1,8,0:1:0:0:
149,172,42521,5,4,3:1:0:0:
247,140,42954,1,2,0:0:0:0:
247,140,43098,1,0,3:0:0:0:
307,223,43387,1,2,0:0:0:0:
247,306,43675,1,0,3:0:0:0:
149,274,44108,1,0,0:0:0:0:
149,274,44252,1,0,3:0:0:0:
149,274,44829,5,0,3:0:0:0:
222,298,45262,1,2,0:0:0:0:
222,298,45406,1,0,3:0:0:0:
267,235,45695,1,2,0:0:0:0:
222,173,45983,1,0,3:0:0:0:
149,197,46416,1,0,0:0:0:0:
149,197,46560,1,0,3:0:0:0:
149,197,47137,5,0,3:0:0:0:
203,179,47570,1,2,0:0:0:0:
203,179,47714,1,0,3:0:0:0:
237,226,48003,1,2,0:0:0:0:
203,272,48291,1,0,3:0:0:0:
149,254,48723,1,0,0:0:0:0:
149,254,48868,1,0,3:0:0:0:
149,197,49156,1,2,0:0:0:0:
203,179,49444,5,0,3:0:0:0:
203,179,50021,6,0,P|265:139|347:248,1,210,2|0,0:0|0:0,0:0:0:0:
425,256,50598,2,0,P|363:296|281:187,1,210,2|0,0:0|0:0,0:0:0:0:
203,179,51175,2,0,P|266:259|256:360,1,210,2|0,0:0|0:0,0:0:0:0:
163,348,51752,6,0,P|122:368|77:363,1,90.9999958343508,4|0,3:1|0:0,0:0:0:0:
17,293,52041,1,2,0:0:0:0:
69,218,52185,1,4,0:0:0:0:
13,145,52329,2,0,P|60:125|124:147,1,90.9999958343508,10|0,3:2|0:0,0:0:0:0:
187,112,52617,2,0,P|168:70|131:45,1,90.9999958343508,2|2,0:0|0:0,0:0:0:0:
69,218,52906,6,0,P|158:209|238:250,1,181.999991668702,2|2,3:2|0:0,0:0:0:0:
277,332,53339,1,2,0:0:0:0:
346,273,53483,1,10,3:2:0:0:
346,273,53771,1,2,0:0:0:0:
387,354,53916,1,4,0:0:0:0:
377,196,54060,5,2,3:2:0:0:
460,231,54205,1,0,0:0:0:0:
351,117,54348,5,2,0:0:0:0:
438,91,54493,1,4,0:0:0:0:
281,73,54637,6,0,P|304:27|296:-12,1,90.9999958343508,10|0,3:2|0:0,0:0:0:0:
197,106,54925,2,0,P|225:148|263:161,1,90.9999958343508,2|2,0:0|0:0,0:0:0:0:
213,22,55214,6,0,P|161:25|131:51,1,90.9999958343508,0|0,3:0|0:0,0:0:0:0:
245,242,55502,2,0,P|296:238|326:212,1,90.9999958343508,2|2,0:0|0:0,0:0:0:0:
197,106,55791,6,0,P|117:64|27:73,1,181.999991668702,10|4,3:2|0:0,0:0:0:0:
261,160,56223,1,4,0:0:0:0:
213,22,56367,6,0,P|150:102|160:203,1,181.999991668702,0|0,3:0|0:0,0:0:0:0:
203,252,56800,1,2,0:0:0:0:
129,304,56944,1,10,3:2:0:0:
129,304,57233,2,0,P|164:333|208:339,1,90.9999958343508,2|4,0:0|0:0,0:0:0:0:
371,218,57521,6,0,P|281:209|202:251,1,181.999991668702,0|0,0:0|0:0,0:0:0:0:
360,312,57954,1,2,0:0:0:0:
360,312,58098,2,0,P|404:305|439:277,1,90.9999958343508,10|0,3:2|0:0,0:0:0:0:
371,218,58387,1,4,0:0:0:0:
329,137,58531,1,4,0:0:0:0:
235,237,58675,5,0,3:0:0:0:
254,147,58819,1,0,0:0:0:0:
126,153,58964,5,2,0:0:0:0:
198,96,59108,1,6,0:0:0:0:
96,18,59252,6,0,P|163:0|191:15,1,90.9999958343508,10|0,0:0|0:0,0:0:0:0:
126,153,59541,2,0,P|85:172|41:164,1,90.9999958343508,4|4,0:0|0:0,0:0:0:0:
257,56,59829,2,0,L|230:271,2,181.999991668702,0|2|10,3:0|0:0|0:0,0:0:0:0:
257,56,60550,1,0,0:0:0:0:
126,153,60694,5,4,3:2:0:0:
234,236,60839,1,4,3:2:0:0:
360,184,60983,6,0,P|388:149|392:105,1,90.9999958343508,4|0,0:1|0:0,0:0:0:0:
257,56,61271,2,0,P|228:90|224:134,1,90.9999958343508,0|0,3:0|3:0,0:0:0:0:
473,90,61560,2,0,P|393:131|303:122,1,181.999991668702,8|2,0:0|0:0,0:0:0:0:
343,40,61992,1,4,0:0:0:0:
87,23,62137,6,0,P|176:14|256:55,1,181.999991668702,0|0,3:0|0:0,0:0:0:0:
224,134,62569,2,0,P|172:151|117:137,1,90.9999958343508,2|10,0:0|0:0,0:0:0:0:
87,23,62858,1,0,0:0:0:0:
87,23,63002,1,2,0:0:0:0:
87,23,63146,1,4,0:0:0:0:
52,107,63291,5,0,3:0:0:0:
136,146,63435,1,0,0:0:0:0:
78,242,63579,5,2,0:0:0:0:
167,217,63723,1,0,3:0:0:0:
186,329,63867,5,10,3:2:0:0:
238,252,64011,1,0,0:0:0:0:
326,333,64156,5,4,0:0:0:0:
316,240,64300,1,2,3:2:0:0:
427,234,64444,6,0,L|468:44,1,181.999991668702,0|2,3:0|0:3,0:0:0:0:
378,83,64877,1,0,3:0:0:0:
316,240,65021,6,0,P|395:199|485:207,1,181.999991668702,8|4,0:1|0:0,0:0:0:0:
467,296,65454,1,4,0:0:0:0:
348,318,65598,6,0,P|303:322|262:303,1,90.9999958343508,4|0,3:1|0:0,0:0:0:0:
223,221,65887,1,2,0:0:0:0:
281,151,66031,1,2,0:0:0:0:
233,73,66175,2,0,P|188:68|147:87,1,90.9999958343508,10|0,0:0|0:0,0:0:0:0:
56,98,66464,2,0,P|60:53|86:17,1,90.9999958343508,4|4,0:0|0:0,0:0:0:0:
316,120,66752,6,0,P|226:128|147:86,1,181.999991668702,2|0,3:2|0:0,0:0:0:0:
86,17,67185,1,4,0:0:0:0:
420,156,67329,6,0,P|308:157|225:223,1,210.000008010865,10|4,0:0|0:0,0:0:0:0:
213,317,67762,1,4,0:0:0:0:
492,212,67906,6,0,P|374:235|356:94,1,272.999987503052,0|0,3:0|3:0,0:0:0:0:
420,156,68483,1,8,0:0:0:0:
213,317,68771,1,0,3:0:0:0:
86,17,69060,5,4,0:0:0:0:
86,17,69348,5,8,0:0:0:0:
86,17,69420,1,8,0:0:0:0:
86,17,69492,1,8,0:0:0:0:
116,103,69636,1,8,0:1:0:0:
192,153,69780,1,8,0:1:0:0:
282,149,69924,1,8,0:1:0:0:
351,90,70069,1,8,0:1:0:0:
457,318,70214,5,4,3:1:0:0:
429,195,70358,1,0,0:0:0:0:
289,316,70502,5,4,2:0:0:0:
341,211,70646,1,4,2:0:0:0:
181,192,70791,5,10,3:2:0:0:
282,149,70935,1,0,0:0:0:0:
174,33,71079,5,4,2:0:0:0:
271,62,71223,1,4,2:0:0:0:
331,6,71367,5,2,3:2:0:0:
406,0,71512,1,0,0:0:0:0:
464,32,71656,1,4,2:0:0:0:
494,92,71800,1,4,2:0:0:0:
490,150,71944,1,10,3:2:0:0:
457,199,72089,1,0,0:0:0:0:
412,223,72233,1,4,2:0:0:0:
361,225,72377,1,4,2:0:0:0:
271,62,72521,5,2,3:2:0:0:
254,161,72666,1,0,0:0:0:0:
134,114,72810,5,4,2:0:0:0:
188,208,72954,1,4,2:0:0:0:
75,248,73098,5,10,3:2:0:0:
185,288,73242,1,0,0:0:0:0:
123,384,73387,5,4,2:0:0:0:
242,339,73531,1,4,2:0:0:0:
211,55,73675,6,0,P|158:163|186:290,1,251.999992309571,2|4,3:2|0:0,0:0:0:0:
242,339,74252,2,0,P|295:231|267:104,1,251.999992309571,10|8,0:0|0:1,0:0:0:0:
211,55,74829,5,4,3:1:0:0:
90,17,74973,1,0,0:0:0:0:
202,138,75117,5,4,2:0:0:0:
93,183,75261,1,4,2:0:0:0:
267,183,75406,5,10,3:2:0:0:
216,280,75550,1,0,0:0:0:0:
336,148,75694,5,4,2:0:0:0:
357,247,75838,1,4,2:0:0:0:
320,359,75983,5,2,3:2:0:0:
371,357,76127,1,0,0:0:0:0:
416,333,76271,1,4,2:0:0:0:
449,284,76416,1,0,0:0:0:0:
453,226,76560,1,8,0:0:0:0:
423,166,76704,1,0,0:0:0:0:
365,134,76848,1,4,2:0:0:0:
290,140,76993,1,4,2:0:0:0:
216,280,77136,5,2,3:2:0:0:
316,290,77281,1,0,0:0:0:0:
199,203,77425,5,4,2:0:0:0:
290,140,77570,1,4,2:0:0:0:
133,158,77714,5,8,0:0:0:0:
163,43,77859,1,0,0:0:0:0:
57,181,78002,5,4,2:0:0:0:
2,66,78147,1,4,2:0:0:0:
28,252,78291,6,0,P|136:305|263:277,1,251.999992309571,4|0,3:2|0:0,0:0:0:0:
208,212,78867,2,0,P|175:275|185:306,1,83.9999974365235,8|0,0:1|0:0,0:0:0:0:
294,204,79156,1,8,0:0:0:0:
243,136,79300,1,8,0:0:0:0:
305,21,79444,5,0,3:0:0:0:
305,21,79733,2,0,P|368:37|405:22,1,70
445,14,80021,1,8,0:1:0:0:
404,162,80310,1,0,3:0:0:0:
448,309,80598,2,0,P|420:210|468:119,1,210,0|2,3:0|0:0,0:0:0:0:
509,185,81175,1,8,0:1:0:0:
509,185,81752,6,0,P|420:237|320:214,1,210,0|2,3:0|0:0,0:0:0:0:
260,167,82329,1,8,0:1:0:0:
320,25,82617,1,2,0:0:0:0:
260,167,82906,1,0,3:0:0:0:
147,62,83194,1,0,0:0:0:0:
79,24,83338,1,0,0:0:0:0:
15,72,83483,1,8,0:1:0:0:
102,198,83771,1,0,0:0:0:0:
27,333,84060,5,0,3:0:0:0:
176,368,84348,2,0,P|210:363|238:343,1,70
272,272,84636,1,8,0:1:0:0:
409,340,84925,1,2,0:0:0:0:
363,192,85214,2,0,P|315:282|343:381,1,210
409,340,85791,1,8,0:1:0:0:
409,340,86367,5,0,3:0:0:0:
363,192,86656,1,0,0:0:0:0:
424,145,86800,1,0,3:0:0:0:
495,172,86944,1,8,0:1:0:0:
406,45,87233,1,2,0:0:0:0:
363,192,87521,1,0,3:0:0:0:
226,114,87810,1,0,3:0:0:0:
112,224,88098,1,8,0:1:0:0:
177,366,88387,1,0,3:0:0:0:
337,349,88675,5,0,3:0:0:0:
177,366,88963,2,0,P|118:357|99:334,1,70
159,291,89252,1,8,0:1:0:0:
99,148,89541,1,0,3:0:0:0:
181,18,89829,2,0,P|209:116|162:207,1,210,0|2,3:0|0:0,0:0:0:0:
89,232,90406,1,8,0:1:0:0:
89,232,90983,6,0,P|179:184|278:212,1,210,0|2,3:0|0:0,0:0:0:0:
233,275,91560,2,0,P|201:220|206:202,1,70,8|0,0:1|0:0,0:0:0:0:
311,156,91848,2,0,P|279:211|261:215,1,70,2|0,0:0|0:0,0:0:0:0:
234,147,92137,1,0,3:0:0:0:
369,74,92425,1,0,0:0:0:0:
404,142,92569,1,0,0:0:0:0:
464,94,92714,1,8,0:1:0:0:
369,215,93002,1,0,0:0:0:0:
465,335,93291,5,0,3:0:0:0:
313,361,93579,2,0,P|279:356|251:336,1,70,0|0,0:0|0:0,0:0:0:0:
231,261,93867,1,8,0:1:0:0:
120,368,94156,1,2,0:0:0:0:
84,218,94444,1,0,3:0:0:0:
231,261,94733,2,0,P|265:256|293:236,1,70,2|0,0:0|0:0,0:0:0:0:
334,170,95021,1,8,0:1:0:0:
334,170,95598,6,0,P|306:268|353:359,1,210,0|0,3:0|0:0,0:0:0:0:
429,375,96175,1,8,0:1:0:0:
391,225,96464,1,2,0:0:0:0:
467,91,96752,1,0,3:0:0:0:
391,225,97041,2,0,P|359:208|318:214,1,70,0|0,3:0|0:0,0:0:0:0:
341,285,97329,2,0,P|421:299|469:249,1,140,8|0,0:1|3:0,0:0:0:0:
243,194,97906,5,4,3:1:0:0:
102,147,98339,1,2,0:0:0:0:
102,147,98483,1,0,3:0:0:0:
16,266,98772,1,2,0:0:0:0:
102,384,99060,1,0,3:0:0:0:
243,339,99493,1,0,0:0:0:0:
243,339,99637,1,0,3:0:0:0:
213,218,100214,5,0,3:0:0:0:
107,182,100647,1,2,0:0:0:0:
107,182,100791,1,0,3:0:0:0:
42,272,101080,1,2,0:0:0:0:
107,360,101368,1,0,3:0:0:0:
213,326,101801,1,0,0:0:0:0:
213,326,101945,1,0,3:0:0:0:
194,237,102521,5,0,3:0:0:0:
114,210,102954,1,2,0:0:0:0:
114,210,103098,1,0,3:0:0:0:
65,277,103387,1,2,0:0:0:0:
114,343,103675,1,0,3:0:0:0:
194,318,104108,1,0,0:0:0:0:
194,318,104252,1,0,3:0:0:0:
194,237,104541,1,2,0:0:0:0:
114,210,104829,5,0,3:0:0:0:
114,210,105406,6,0,P|176:250|258:141,1,210,2|0,0:0|0:0,0:0:0:0:
335,210,105983,2,0,P|245:248|186:171,1,210,2|0,0:0|0:0,0:0:0:0:
155,0,106560,2,0,P|187:123|109:215,1,251.999992309571,2|0,0:0|0:0,0:0:0:0:
65,134,107137,6,0,P|111:113|175:136,1,90.9999958343508,4|0,3:1|0:0,0:0:0:0:
218,178,107425,1,2,0:0:0:0:
294,129,107569,1,4,0:0:0:0:
353,198,107714,2,0,P|397:202|437:182,1,90.9999958343508,10|0,3:2|0:0,0:0:0:0:
409,36,108002,2,0,P|406:80|379:117,1,90.9999958343508,2|2,0:0|0:0,0:0:0:0:
350,291,108291,6,0,P|345:201|293:128,1,181.999991668702,2|2,3:2|0:0,0:0:0:0:
212,86,108723,1,2,0:0:0:0:
218,178,108867,1,10,3:2:0:0:
218,178,109156,1,2,0:0:0:0:
134,141,109300,1,4,0:0:0:0:
255,248,109444,5,2,3:2:0:0:
166,273,109588,1,0,0:0:0:0:
333,279,109733,5,2,0:0:0:0:
280,355,109877,1,4,0:0:0:0:
407,254,110021,6,0,P|438:285|445:329,1,90.9999958343508,10|0,3:2|0:0,0:0:0:0:
341,202,110310,2,0,P|352:159|386:131,1,90.9999958343508,2|2,0:0|0:0,0:0:0:0:
427,60,110598,6,0,P|457:91|465:135,1,90.9999958343508,0|0,3:0|0:0,0:0:0:0:
370,355,110887,2,0,P|339:324|332:279,1,90.9999958343508,2|2,0:0|0:0,0:0:0:0:
387,130,111175,6,0,P|450:193|469:280,1,181.999991668702,10|4,3:2|0:0,0:0:0:0:
332,278,111608,1,4,0:0:0:0:
427,60,111752,6,0,P|355:112|266:120,1,181.999991668702,0|0,3:0|0:0,0:0:0:0:
185,73,112185,1,2,0:0:0:0:
162,161,112329,1,10,3:2:0:0:
162,161,112617,2,0,P|184:199|224:220,1,90.9999958343508,2|4,0:0|0:0,0:0:0:0:
332,278,112906,6,0,P|252:236|163:245,1,181.999991668702,0|0,0:0|0:0,0:0:0:0:
161,366,113339,1,2,0:0:0:0:
161,366,113483,2,0,P|200:344|223:306,1,90.9999958343508,10|0,3:2|0:0,0:0:0:0:
163,245,113771,1,4,0:0:0:0:
97,308,113916,1,4,0:0:0:0:
164,162,114060,5,0,3:0:0:0:
72,167,114205,1,0,0:0:0:0:
198,87,114348,5,2,0:0:0:0:
124,31,114493,1,6,0:0:0:0:
270,40,114637,6,0,P|321:14|362:23,1,90.9999958343508,10|0,0:0|0:0,0:0:0:0:
395,187,114925,2,0,P|344:213|303:204,1,90.9999958343508,4|4,0:0|0:0,0:0:0:0:
150,94,115214,2,0,L|330:116,2,181.999991668702,0|2|10,3:0|0:0|0:0,0:0:0:0:
150,94,115935,1,0,0:0:0:0:
286,233,116079,5,4,3:2:0:0:
418,202,116223,1,4,3:2:0:0:
337,312,116367,6,0,P|296:331|252:324,1,90.9999958343508,4|0,0:1|0:0,0:0:0:0:
230,157,116656,2,0,P|270:137|314:144,1,90.9999958343508,0|0,3:0|3:0,0:0:0:0:
448,289,116944,2,0,P|358:284|284:231,1,181.999991668702,8|2,0:0|0:0,0:0:0:0:
418,202,117377,1,4,0:0:0:0:
152,88,117521,6,0,P|241:92|315:145,1,181.999991668702,0|0,3:0|0:0,0:0:0:0:
285,232,117954,2,0,P|245:253|200:254,1,90.9999958343508,2|10,0:0|0:0,0:0:0:0:
129,198,118242,1,0,0:0:0:0:
129,198,118387,1,2,0:0:0:0:
129,198,118531,1,4,0:0:0:0:
214,167,118675,5,0,3:0:0:0:
151,101,118819,1,0,0:0:0:0:
290,145,118964,5,2,0:0:0:0:
284,53,119108,1,0,3:0:0:0:
362,176,119252,5,10,3:2:0:0:
416,102,119396,1,0,0:0:0:0:
397,246,119541,5,4,0:0:0:0:
486,224,119685,1,2,3:2:0:0:
378,322,119829,6,0,L|185:295,1,181.999991668702,0|2,3:0|0:3,0:0:0:0:
214,167,120262,1,0,3:0:0:0:
316,255,120406,6,0,P|242:306|152:311,1,181.999991668702,8|4,0:1|0:0,0:0:0:0:
67,279,120839,1,4,0:0:0:0:
121,206,120983,6,0,P|74:186|10:208,1,90.9999958343508,4|0,3:1|0:0,0:0:0:0:
67,279,121271,1,2,0:0:0:0:
152,311,121416,1,2,0:0:0:0:
205,237,121560,2,0,P|252:217|316:239,1,90.9999958343508,10|0,0:0|0:0,0:0:0:0:
379,204,121848,2,0,P|360:162|323:137,1,90.9999958343508,4|4,0:0|0:0,0:0:0:0:
121,188,122137,6,0,P|200:229|289:221,1,181.999991668702,2|0,3:2|0:0,0:0:0:0:
323,137,122570,1,4,0:0:0:0:
0,225,122714,6,0,P|101:215|176:284,1,210.000008010865,10|4,0:0|0:0,0:0:0:0:
215,384,123147,1,4,0:0:0:0:
406,103,123291,6,0,P|362:218|244:181,1,272.999987503052,0|2,3:0|0:0,0:0:0:0:
323,137,123867,1,8,0:0:0:0:
215,384,124156,1,4,0:0:0:0:
107,137,124444,6,0,P|210:137|311:296,1,272.999987503052,0|2,3:0|0:0,0:0:0:0:
219,273,125021,2,0,P|221:228|248:192,1,90.9999958343508,8|0,0:0|0:0,0:0:0:0:
284,337,125310,1,0,3:0:0:0:
197,364,125454,1,0,3:0:0:0:
129,303,125598,5,4,0:1:0:0:
256,192,137137,12,0,139156,0:0:0:0:
68,62,139444,6,0,L|300:91,1,210,8|0,3:2|0:0,0:0:0:0:
320,168,140021,2,0,L|111:141,1,210,8|0,3:2|0:0,0:0:0:0:
55,214,140598,2,0,L|287:243,1,210,8|0,3:2|0:0,0:0:0:0:
307,320,141175,2,0,L|98:293,1,210,8|0,3:2|0:0,0:0:0:0:
7,282,141752,5,8,3:2:0:0:
7,282,142185,1,0,3:0:0:0:
44,364,142329,1,8,3:2:0:0:
136,207,142617,1,0,0:0:0:0:
44,364,142906,1,8,3:2:0:0:
44,364,143339,1,0,3:2:0:0:
98,293,143483,1,8,3:2:0:0:
269,354,143771,1,0,3:2:0:0:
407,235,144060,6,0,L|377:28,1,210,8|0,3:2|0:0,0:0:0:0:
309,88,144637,2,0,L|339:295,1,210,8|0,3:2|0:0,0:0:0:0:
254,261,145214,2,0,L|224:54,1,210,8|0,3:2|0:0,0:0:0:0:
156,114,145791,2,0,L|186:321,1,210,8|0,3:2|0:0,0:0:0:0:
269,358,146367,6,0,B|222:393|152:375|187:333|124:313|70:346,2,210,8|2|2,3:2|0:0|0:0,0:0:0:0:
488,293,148675,5,4,3:1:0:0:
457,214,148819,1,0,0:0:0:0:
377,357,148964,5,0,0:0:0:0:
405,283,149108,1,0,0:0:0:0:
261,335,149252,5,10,3:2:0:0:
325,299,149396,1,0,0:0:0:0:
195,244,149541,5,0,0:0:0:0:
262,256,149685,1,0,0:0:0:0:
207,129,149829,5,4,3:2:0:0:
247,177,149973,1,0,0:0:0:0:
291,51,150117,5,0,0:0:0:0:
290,109,150261,1,0,0:0:0:0:
399,54,150406,5,10,3:2:0:0:
363,94,150550,1,0,0:0:0:0:
489,120,150694,5,0,0:0:0:0:
439,126,150838,1,0,0:0:0:0:
512,249,150983,5,4,3:2:0:0:
457,213,151127,1,0,0:0:0:0:
424,346,151271,5,0,0:0:0:0:
405,283,151415,1,0,0:0:0:0:
298,367,151560,5,10,3:2:0:0:
325,299,151704,1,0,0:0:0:0:
192,295,151848,5,0,0:0:0:0:
262,256,151992,1,0,0:0:0:0:
65,116,152137,6,0,P|143:181|245:175,1,210,8|4,0:0|0:0,0:0:0:0:
271,102,152714,2,0,P|201:113|179:209,1,140,10|2,3:2|0:0,0:0:0:0:
190,375,153291,5,4,3:2:0:0:
109,350,153435,1,0,0:0:0:0:
260,336,153579,5,0,0:0:0:0:
335,312,153723,1,0,0:0:0:0:
190,293,153867,5,10,3:2:0:0:
120,270,154011,1,0,0:0:0:0:
262,256,154156,5,0,0:0:0:0:
327,234,154300,1,0,0:0:0:0:
196,204,154444,5,4,3:2:0:0:
135,183,154588,1,0,0:0:0:0:
270,167,154733,5,0,0:0:0:0:
326,147,154877,1,0,0:0:0:0:
203,116,155021,5,10,3:2:0:0:
150,97,155165,1,0,0:0:0:0:
278,83,155310,5,0,0:0:0:0:
327,65,155454,1,0,0:0:0:0:
204,128,155598,5,4,3:2:0:0:
142,103,155742,1,0,0:0:0:0:
268,186,155887,5,0,0:0:0:0:
336,159,156031,1,0,0:0:0:0:
199,224,156175,5,10,3:2:0:0:
124,194,156319,1,0,0:0:0:0:
261,278,156464,5,0,0:0:0:0:
343,245,156608,1,0,0:0:0:0:
190,375,156752,6,0,P|231:281|197:184,1,210,8|4,0:0|0:0,0:0:0:0:
123,159,157329,2,0,P|134:229|230:251,1,140,10|2,3:2|0:0,0:0:0:0:
263,99,157906,5,4,3:1:0:0:
339,132,158050,1,0,0:0:0:0:
193,160,158194,5,0,0:0:0:0:
122,190,158338,1,0,0:0:0:0:
273,191,158483,5,10,3:2:0:0:
273,191,158627,1,0,0:0:0:0:
273,191,158771,1,0,0:0:0:0:
273,191,158916,1,0,0:0:0:0:
184,236,159060,5,4,3:2:0:0:
117,263,159204,1,0,0:0:0:0:
254,279,159348,5,0,0:0:0:0:
316,304,159492,1,0,0:0:0:0:
183,321,159637,5,10,3:2:0:0:
183,321,159781,1,0,0:0:0:0:
183,321,159925,1,0,0:0:0:0:
183,321,160069,1,0,0:0:0:0:
254,279,160214,5,4,3:2:0:0:
316,304,160358,1,0,0:0:0:0:
194,224,160502,5,0,0:0:0:0:
126,252,160646,1,0,0:0:0:0:
266,167,160791,5,10,3:2:0:0:
341,198,160935,1,0,0:0:0:0:
195,143,161079,5,0,0:0:0:0:
113,178,161223,1,0,0:0:0:0:
150,59,161367,6,0,P|252:52|331:117,1,210,8|4,0:0|0:0,0:0:0:0:
311,199,161944,2,0,P|255:160|252:93,1,140,10|2,3:2|0:0,0:0:0:0:
201,293,162521,5,4,3:1:0:0:
185,376,162665,1,0,0:0:0:0:
279,273,162810,5,0,0:0:0:0:
317,341,162954,1,0,0:0:0:0:
317,198,163098,5,10,3:2:0:0:
317,198,163242,1,0,0:0:0:0:
317,198,163387,1,0,0:0:0:0:
317,198,163531,1,0,0:0:0:0:
287,120,163675,5,4,3:2:0:0:
354,95,163819,1,0,0:0:0:0:
215,89,163964,5,0,0:0:0:0:
247,31,164108,1,0,0:0:0:0:
149,124,164252,5,10,3:2:0:0:
149,124,164396,1,0,0:0:0:0:
149,124,164541,1,0,0:0:0:0:
149,124,164685,1,0,0:0:0:0:
50,69,164829,6,0,P|81:53|115:55,1,70,0|0,3:0|0:0,0:0:0:0:
149,124,165117,1,0,3:0:0:0:
75,249,165262,6,0,P|44:265|10:263,1,70,8|0,0:0|3:0,0:0:0:0:
50,69,165550,1,8,0:0:0:0:
263,86,165694,5,0,3:0:0:0:
149,243,165839,1,0,3:0:0:0:
333,183,165983,1,8,3:2:0:0:
149,124,166127,1,0,3:0:0:0:
263,280,166271,1,0,3:0:0:0:
263,280,166560,5,0,3:0:0:0:
263,280,166704,1,0,3:0:0:0:
263,86,166848,1,8,0:0:0:0:
149,243,166992,1,8,0:0:0:0:
149,243,167714,6,0,P|152:316|17:333,1,210,2|0,0:0|0:0,0:0:0:0:
84,203,168291,2,0,P|80:129|215:112,1,210,2|0,0:0|0:0,0:0:0:0:
334,109,168867,2,0,P|254:172|153:162,1,210,2|0,0:0|0:0,0:0:0:0:
280,44,169444,6,0,P|326:23|390:46,1,97.9999970092774,4|0,3:1|0:0,0:0:0:0:
447,108,169733,1,2,0:0:0:0:
380,192,169877,1,4,0:0:0:0:
435,284,170021,2,0,P|389:305|325:282,1,97.9999970092774,10|0,3:2|0:0,0:0:0:0:
323,119,170310,2,0,P|339:164|379:191,1,97.9999970092774,2|2,0:0|0:0,0:0:0:0:
208,123,170598,6,0,P|302:100|370:30,1,195.999994018555,2|2,3:2|0:0,0:0:0:0:
447,108,171031,1,2,0:0:0:0:
206,33,171175,2,0,P|111:55|43:125,1,195.999994018555,10|2,3:2|0:0,0:0:0:0:
208,123,171608,1,4,0:0:0:0:
262,282,171752,5,2,3:2:0:0:
278,175,171896,1,0,0:0:0:0:
414,236,172041,5,2,0:0:0:0:
357,143,172185,1,4,0:0:0:0:
479,97,172329,6,0,P|444:62|396:55,1,97.9999970092774,10|0,3:2|0:0,0:0:0:0:
414,236,172617,2,0,P|448:270|496:277,1,97.9999970092774,2|2,0:0|0:0,0:0:0:0:
279,192,172906,6,0,P|325:179|356:141,1,97.9999970092774,0|0,3:0|0:0,0:0:0:0:
132,158,173194,2,0,P|85:170|54:208,1,97.9999970092774,2|2,0:0|0:0,0:0:0:0:
269,353,173483,6,0,P|262:256|205:177,1,195.999994018555,10|4,3:2|0:0,0:0:0:0:
355,141,173916,1,4,0:0:0:0:
136,301,174060,6,0,P|232:294|311:237,1,195.999994018555,0|0,3:0|0:0,0:0:0:0:
355,141,174492,1,2,0:0:0:0:
438,210,174637,1,10,3:2:0:0:
438,210,174925,2,0,P|461:166|455:118,1,97.9999970092774,2|4,0:0|0:0,0:0:0:0:
180,77,175214,2,0,P|258:133|354:140,1,195.999994018555,0|0,0:0|0:0,0:0:0:0:
380,35,175646,1,2,0:0:0:0:
186,166,175791,6,0,P|231:147|258:106,1,97.9999970092774,10|0,3:2|0:0,0:0:0:0:
178,0,176079,2,0,P|132:18|105:59,1,97.9999970092774,4|4,0:0|0:0,0:0:0:0:
101,219,176367,5,0,3:0:0:0:
134,323,176512,1,0,0:0:0:0:
267,214,176656,5,2,0:0:0:0:
225,314,176801,1,6,0:0:0:0:
397,316,176944,6,0,P|364:353|318:366,1,97.9999970092774,10|0,0:0|0:0,0:0:0:0:
382,187,177233,2,0,P|412:149|459:136,1,97.9999970092774,4|4,0:0|0:0,0:0:0:0:
225,314,177521,2,0,L|15:288,2,195.999994018555,0|2|10,3:0|0:0|0:0,0:0:0:0:
225,314,178242,1,0,0:0:0:0:
154,129,178387,5,4,3:2:0:0:
30,289,178531,1,4,3:2:0:0:
231,173,178675,6,0,P|198:208|151:219,1,97.9999970092774,4|0,0:1|0:0,0:0:0:0:
80,89,178964,2,0,P|113:54|161:44,1,97.9999970092774,0|0,3:0|3:0,0:0:0:0:
246,290,179252,6,0,P|176:222|153:128,1,195.999994018555,8|2,0:0|0:0,0:0:0:0:
160,43,179685,1,4,0:0:0:0:
316,221,179829,6,0,P|292:314|222:382,1,195.999994018555,0|0,3:0|0:0,0:0:0:0:
121,314,180262,2,0,P|72:311|29:288,1,97.9999970092774,2|10,0:0|0:0,0:0:0:0:
246,290,180550,1,0,0:0:0:0:
246,290,180694,1,2,0:0:0:0:
246,290,180839,1,4,0:0:0:0:
189,168,180983,5,0,3:0:0:0:
129,257,181127,1,0,0:0:0:0:
265,212,181271,5,2,0:0:0:0:
276,318,181415,1,0,3:0:0:0:
354,186,181560,5,10,3:2:0:0:
431,260,181704,1,0,0:0:0:0:
394,110,181848,5,4,0:0:0:0:
500,117,181992,1,2,3:2:0:0:
375,25,182137,6,0,L|173:1,1,195.999994018555,0|2,3:0|0:3,0:0:0:0:
19,60,182569,1,0,3:0:0:0:
273,43,182714,6,0,P|194:99|97:106,1,195.999994018555,8|4,0:1|0:0,0:0:0:0:
19,60,183146,1,4,0:0:0:0:
0,277,183291,6,0,P|38:305|86:308,1,97.9999970092774,4|0,3:1|0:0,0:0:0:0:
170,240,183579,1,2,0:0:0:0:
259,299,183723,1,2,0:0:0:0:
299,199,183867,2,0,P|337:170|385:167,1,97.9999970092774,10|0,0:0|0:0,0:0:0:0:
329,358,184156,2,0,P|302:317|258:298,1,97.9999970092774,4|4,0:0|0:0,0:0:0:0:
426,70,184444,6,0,P|418:166|362:245,1,195.999994018555,2|0,3:2|0:0,0:0:0:0:
262,80,184877,1,4,0:0:0:0:
498,274,185021,6,0,P|405:208|291:198,1,224,10|4,0:0|0:0,0:0:0:0:
194,266,185454,1,4,0:0:0:0:
333,37,185598,6,0,P|379:162|508:126,1,293.999991027832,2|2,3:2|0:0,0:0:0:0:
426,70,186175,1,10,0:0:0:0:
317,364,186464,1,4,0:0:0:0:
98,139,186752,5,0,3:0:0:0:
98,139,186896,1,0,0:0:0:0:
203,113,187041,5,8,0:1:0:0:
128,35,187185,1,8,0:1:0:0:
289,136,187329,5,0,3:0:0:0:
281,28,187473,1,0,3:0:0:0:
340,208,187618,5,0,3:0:0:0:
403,121,187762,1,0,3:0:0:0:
332,295,187906,6,0,P|263:297|189:222,1,146.999995513916,2|0,0:0|0:0,0:0:0:0:
