osu file format v14

[General]
AudioFilename: audio.mp3
AudioLeadIn: 0
PreviewTime: 135153
Countdown: 1
SampleSet: Soft
StackLeniency: 0.7
Mode: 2
LetterboxInBreaks: 0
WidescreenStoryboard: 0

[Editor]
Bookmarks: 13649,19649,25649,31649,37649,49649,55649,61649,73649,91649,97649,108149,120149,126149,129149,132149,135149,147149,159149,183149,195149,207149,219177,426177
DistanceSpacing: 0.8
BeatDivisor: 4
GridSize: 8
TimelineZoom: 1.8

[Metadata]
Title:Gensokyo Millenium ~ History of the Moon
TitleUnicode:Gensokyo Millenium ~ History of the Moon
Artist:CODE-49
ArtistUnicode:CODE-49
Creator:- Chi -
Version:Tsuki
Source:東方Project
Tags:
BeatmapID:1357006
BeatmapSetID:639867

[Difficulty]
HPDrainRate:6
CircleSize:4
OverallDifficulty:9.5
ApproachRate:9.5
SliderMultiplier:1.7
SliderTickRate:1

[Events]
//Background and Video events
0,0,"22409619_p0 (1).jpg",0,0
//Break Periods
2,49877,55123
2,97877,106873
//Storyboard Layer 0 (Background)
//Storyboard Layer 1 (Fail)
//Storyboard Layer 2 (Pass)
//Storyboard Layer 3 (Foreground)
//Storyboard Sound Samples

[TimingPoints]
1677,375,4,2,0,100,1,0
22461,-83.3333333333333,4,2,0,100,0,0
31555,-100,4,2,0,100,0,0
37742,-100,4,2,5,70,0,0
46555,-100,4,2,0,90,0,0
47305,-100,4,2,0,100,0,0
55489,-100,4,2,0,50,0,0
58677,-100,4,2,0,60,0,0
60177,-90.9090909090909,4,2,5,75,0,0
85555,-76.9230769230769,4,2,0,100,0,0
107211,-125,4,2,0,80,0,0
119961,-125,4,2,0,30,0,0
120805,-125,4,2,0,40,0,0
121555,-125,4,2,0,50,0,0
122305,-125,4,2,0,35,0,0
123806,-125,4,2,0,45,0,0
124555,-125,4,2,0,55,0,0
125305,-125,4,2,0,65,0,0
126055,-125,4,2,0,75,0,0
126805,-125,4,2,0,85,0,0
127742,-125,4,2,0,95,0,0
128680,-100,4,2,0,100,0,0
135083,-71.4285714285714,4,2,2,70,0,1
147083,-100,4,2,2,70,0,0
158680,-100,4,2,5,100,0,0
169555,-55.5555555555556,4,2,5,100,0,0
170867,-100,4,2,5,100,0,0
181555,-55.5555555555556,4,2,5,100,0,0
182774,-100,4,2,5,100,0,0
183055,-100,4,2,5,100,0,0
195083,-83.3333333333333,4,2,5,100,0,0

[HitObjects]
160,72,13677,5,2,0:0:0:0:
240,72,14052,1,0,0:0:0:0:
320,72,14427,1,0,0:0:0:0:
224,104,14802,1,0,0:0:0:0:
344,104,15177,5,0,0:0:0:0:
456,104,15552,1,0,0:0:0:0:
368,144,15927,1,0,0:0:0:0:
272,144,16302,1,0,0:0:0:0:
312,184,16395,1,0,0:0:0:0:
272,224,16489,1,0,0:0:0:0:
312,256,16583,1,0,0:0:0:0:
112,256,16677,5,2,0:0:0:0:
40,192,17052,1,0,0:0:0:0:
176,192,17427,1,0,0:0:0:0:
312,192,17802,1,0,0:0:0:0:
408,112,18177,5,0,0:0:0:0:
280,112,18552,1,0,0:0:0:0:
176,112,18927,1,0,0:0:0:0:
328,112,19302,1,0,0:0:0:0:
384,168,19395,1,0,0:0:0:0:
336,224,19489,1,0,0:0:0:0:
88,224,19677,6,0,P|56:192|40:136,1,85,2|0,0:0|0:0,0:0:0:0:
192,224,20052,2,0,P|240:200|272:160,1,85
120,144,20427,2,0,L|208:104,1,85
312,200,20802,2,0,L|200:224,1,85
128,280,21177,6,0,P|128:232|160:184,1,85
312,240,21552,2,0,P|304:184|280:136,1,85
168,160,21927,2,0,P|128:128|112:96,1,85
376,104,22302,5,0,0:0:0:0:
416,128,22395,1,0,0:0:0:0:
440,168,22489,1,0,0:0:0:0:
424,208,22583,1,0,0:0:0:0:
80,240,22677,6,0,L|176:344,2,101.999996887207
432,248,23239,2,0,L|344:336,2,101.999996887207
152,240,23802,2,0,P|72:216|64:176,1,101.999996887207
368,200,24083,5,0,0:0:0:0:
424,160,24177,1,0,0:0:0:0:
440,88,24270,1,0,0:0:0:0:
384,40,24364,1,0,0:0:0:0:
312,16,24458,1,0,0:0:0:0:
232,16,24552,5,0,0:0:0:0:
168,48,24645,1,0,0:0:0:0:
120,96,24739,1,0,0:0:0:0:
120,160,24833,1,0,0:0:0:0:
176,192,24927,1,0,0:0:0:0:
416,184,25020,5,0,0:0:0:0:
464,224,25114,1,0,0:0:0:0:
448,272,25208,1,0,0:0:0:0:
200,296,25302,5,0,0:0:0:0:
152,272,25395,1,0,0:0:0:0:
112,224,25489,1,0,0:0:0:0:
136,168,25583,1,0,0:0:0:0:
304,160,25677,5,0,0:0:0:0:
96,184,26051,1,0,0:0:0:0:
256,184,26427,1,0,0:0:0:0:
392,184,26802,1,0,0:0:0:0:
296,88,27177,5,0,0:0:0:0:
168,88,27552,1,0,0:0:0:0:
64,160,27927,1,0,0:0:0:0:
312,168,28302,1,0,0:0:0:0:
408,176,28677,5,0,0:0:0:0:
208,176,29052,1,0,0:0:0:0:
328,248,29427,1,0,0:0:0:0:
96,248,29802,1,0,0:0:0:0:
208,160,30177,5,0,0:0:0:0:
336,160,30552,1,0,0:0:0:0:
152,160,30927,1,0,0:0:0:0:
384,160,31302,1,0,0:0:0:0:
120,160,31489,1,0,0:0:0:0:
384,160,31677,6,0,L|384:320,1,141.666666666667
152,304,32052,1,0,0:0:0:0:
392,160,32427,2,0,L|392:328,1,141.666666666667
144,304,32802,1,0,0:0:0:0:
400,160,33177,6,0,L|400:320,1,141.666666666667
136,304,33552,1,0,0:0:0:0:
408,160,33927,2,0,L|408:320,1,141.666666666667
128,304,34302,1,0,0:0:0:0:
368,272,34677,5,0,0:0:0:0:
424,248,34770,1,0,0:0:0:0:
448,208,34864,1,0,0:0:0:0:
432,176,34958,1,0,0:0:0:0:
160,272,35052,5,0,0:0:0:0:
104,248,35145,1,0,0:0:0:0:
80,216,35239,1,0,0:0:0:0:
96,184,35333,1,0,0:0:0:0:
384,192,35427,5,0,0:0:0:0:
416,160,35520,1,0,0:0:0:0:
416,112,35614,1,0,0:0:0:0:
368,88,35708,1,0,0:0:0:0:
160,88,35802,5,0,0:0:0:0:
112,112,35895,1,0,0:0:0:0:
112,160,35989,1,0,0:0:0:0:
160,184,36083,1,0,0:0:0:0:
360,192,36177,5,0,0:0:0:0:
392,192,36239,1,0,0:0:0:0:
432,192,36302,1,0,0:0:0:0:
464,192,36364,1,0,0:0:0:0:
480,240,36427,1,0,0:0:0:0:
448,256,36489,1,0,0:0:0:0:
176,232,36552,5,0,0:0:0:0:
136,240,36614,1,0,0:0:0:0:
96,256,36677,1,0,0:0:0:0:
64,272,36739,1,0,0:0:0:0:
40,320,36802,1,0,0:0:0:0:
64,344,36864,1,0,0:0:0:0:
352,152,36927,5,0,0:0:0:0:
400,136,36989,1,0,0:0:0:0:
440,96,37052,1,0,0:0:0:0:
168,160,37114,1,0,0:0:0:0:
120,144,37177,1,0,0:0:0:0:
80,104,37239,1,0,0:0:0:0:
352,200,37302,5,0,0:0:0:0:
400,216,37364,1,0,0:0:0:0:
440,248,37427,1,0,0:0:0:0:
456,296,37489,1,0,0:0:0:0:
440,344,37552,1,0,0:0:0:0:
400,376,37614,1,0,0:0:0:0:
184,320,37677,5,0,0:0:0:0:
296,272,37864,1,0,0:0:0:0:
200,200,38052,2,0,L|288:200,1,85,8|0,0:0|0:0,0:0:0:0:
128,160,38427,2,0,P|72:168|16:176,2,85,0|0|8,0:0|0:0|0:0,0:0:0:0:
400,160,38989,5,0,0:0:0:0:
256,160,39177,1,0,0:0:0:0:
400,160,39364,2,0,L|472:232,1,85
128,160,39739,2,0,L|64:216,1,85
256,232,40114,2,0,L|184:304,1,85
368,304,40489,1,0,0:0:0:0:
112,304,40677,1,0,0:0:0:0:
376,192,40864,2,0,P|424:176|472:152,1,85,0|8,0:0|0:0,0:0:0:0:
104,176,41239,2,0,P|152:192|200:192,1,85
344,176,41614,5,0,0:0:0:0:
184,208,41802,1,8,0:0:0:0:
368,264,41989,2,0,P|416:224|440:168,1,85
144,176,42364,2,0,P|112:120|64:104,1,85,0|8,0:0|0:0,0:0:0:0:
248,104,42739,5,0,0:0:0:0:
376,96,42927,2,0,P|432:128|432:168,1,85
152,192,43302,6,0,P|128:232|128:248,1,42.5,8|0,0:0|0:0,0:0:0:0:
360,192,43489,2,0,P|392:224|392:256,1,42.5,8|0,0:0|0:0,0:0:0:0:
144,224,43677,6,0,P|80:200|32:184,1,85
296,144,44052,1,8,0:0:0:0:
144,144,44239,1,0,0:0:0:0:
432,152,44427,2,0,P|432:216|400:256,1,85
144,224,44802,2,0,L|32:256,1,85
320,312,45177,6,0,L|224:288,2,85,0|0|8,0:0|0:0|0:0,0:0:0:0:
160,320,45739,1,0,0:0:0:0:
408,248,45927,2,0,L|488:192,1,85
352,152,46302,2,0,P|312:120|256:80,1,85,8|0,0:0|0:0,0:0:0:0:
184,96,46677,5,0,0:0:0:0:
336,96,46864,1,0,0:0:0:0:
184,96,47052,5,0,0:0:0:0:
336,96,47239,1,0,0:0:0:0:
112,96,47427,6,0,L|32:136,1,85
400,96,47802,2,0,L|504:144,1,85
128,128,48177,6,0,L|72:128,1,42.5
416,128,48364,2,0,L|352:128,1,42.5
128,200,48552,2,0,L|176:256,1,42.5
416,200,48739,2,0,L|368:248,1,42.5
128,120,48927,2,0,L|64:120,1,42.5
416,128,49114,2,0,L|352:128,1,42.5
128,120,49302,5,0,0:0:0:0:
85,120,49364,1,0,0:0:0:0:
72,152,49427,1,0,0:0:0:0:
88,184,49489,1,0,0:0:0:0:
128,184,49552,1,0,0:0:0:0:
168,184,49614,1,0,0:0:0:0:
352,280,49677,1,0,0:0:0:0:
192,48,55677,6,0,L|192:120,31,42.5
376,80,58677,5,0,0:0:0:0:
400,120,58770,1,0,0:0:0:0:
408,160,58864,1,0,0:0:0:0:
400,192,58958,1,0,0:0:0:0:
120,152,59052,5,0,0:0:0:0:
104,184,59145,1,0,0:0:0:0:
104,224,59239,1,0,0:0:0:0:
120,264,59333,1,0,0:0:0:0:
368,232,59427,5,0,0:0:0:0:
392,192,59520,1,0,0:0:0:0:
400,152,59614,1,0,0:0:0:0:
392,112,59708,1,0,0:0:0:0:
152,72,59802,5,0,0:0:0:0:
120,112,59895,1,0,0:0:0:0:
104,160,59989,1,0,0:0:0:0:
128,200,60083,1,0,0:0:0:0:
280,288,60177,6,0,L|280:352,1,46.7500014266968
440,224,60364,2,0,L|440:160,1,46.7500014266968
176,130,60552,2,0,L|176:82,1,46.7500014266968
416,80,60739,2,0,L|352:112,1,46.7500014266968
160,128,60927,5,0,0:0:0:0:
128,144,60989,1,0,0:0:0:0:
104,176,61052,1,0,0:0:0:0:
360,184,61114,1,0,0:0:0:0:
408,208,61177,1,0,0:0:0:0:
376,248,61239,1,0,0:0:0:0:
184,320,61302,5,0,0:0:0:0:
168,280,61364,1,0,0:0:0:0:
176,248,61427,1,0,0:0:0:0:
200,200,61489,1,0,0:0:0:0:
160,160,61552,1,0,0:0:0:0:
112,128,61614,1,0,0:0:0:0:
352,104,61677,5,0,0:0:0:0:
416,120,61770,1,0,0:0:0:0:
456,144,61864,1,0,0:0:0:0:
480,184,61958,1,0,0:0:0:0:
480,240,62052,1,8,0:0:0:0:
440,280,62145,1,0,0:0:0:0:
384,288,62239,1,0,0:0:0:0:
336,256,62333,1,0,0:0:0:0:
360,208,62427,5,0,0:0:0:0:
312,176,62520,1,0,0:0:0:0:
280,232,62614,1,0,0:0:0:0:
336,256,62708,1,0,0:0:0:0:
424,160,62802,5,8,0:0:0:0:
384,112,62895,1,0,0:0:0:0:
328,80,62989,1,0,0:0:0:0:
264,96,63083,1,0,0:0:0:0:
216,136,63177,1,0,0:0:0:0:
192,192,63270,1,0,0:0:0:0:
144,216,63364,1,0,0:0:0:0:
96,192,63458,1,0,0:0:0:0:
112,136,63552,5,8,0:0:0:0:
168,136,63645,1,0,0:0:0:0:
224,160,63739,1,0,0:0:0:0:
264,208,63833,1,0,0:0:0:0:
256,272,63927,1,0,0:0:0:0:
216,320,64020,1,0,0:0:0:0:
160,352,64114,1,0,0:0:0:0:
96,344,64208,1,0,0:0:0:0:
56,296,64302,5,8,0:0:0:0:
96,248,64395,1,0,0:0:0:0:
144,288,64489,1,0,0:0:0:0:
192,336,64583,1,0,0:0:0:0:
256,328,64677,1,0,0:0:0:0:
304,280,64770,1,0,0:0:0:0:
336,232,64864,1,0,0:0:0:0:
288,192,64958,1,0,0:0:0:0:
224,176,65052,5,8,0:0:0:0:
176,144,65145,1,0,0:0:0:0:
160,80,65239,1,0,0:0:0:0:
200,32,65333,1,0,0:0:0:0:
264,16,65427,1,0,0:0:0:0:
320,32,65520,1,0,0:0:0:0:
360,80,65614,1,0,0:0:0:0:
352,144,65708,1,0,0:0:0:0:
296,176,65802,5,8,0:0:0:0:
232,152,65895,1,0,0:0:0:0:
256,88,65989,1,0,0:0:0:0:
312,80,66083,1,0,0:0:0:0:
376,96,66177,1,0,0:0:0:0:
424,136,66270,1,0,0:0:0:0:
440,200,66364,1,0,0:0:0:0:
408,248,66458,1,0,0:0:0:0:
352,248,66552,5,8,0:0:0:0:
320,200,66645,1,0,0:0:0:0:
280,168,66739,1,0,0:0:0:0:
232,152,66833,1,0,0:0:0:0:
168,160,66927,1,0,0:0:0:0:
136,208,67020,1,0,0:0:0:0:
168,256,67114,1,0,0:0:0:0:
224,280,67208,1,0,0:0:0:0:
432,224,67302,6,0,L|464:168,1,46.7500014266968,8|0,0:0|0:0,0:0:0:0:
128,208,67489,2,0,L|96:136,1,46.7500014266968,8|0,0:0|0:0,0:0:0:0:
344,80,67677,2,0,L|280:72,1,46.7500014266968,8|0,0:0|0:0,0:0:0:0:
232,80,67864,5,0,0:0:0:0:
176,88,67958,1,0,0:0:0:0:
136,120,68052,1,8,0:0:0:0:
160,168,68145,1,0,0:0:0:0:
216,184,68239,1,0,0:0:0:0:
272,200,68333,1,0,0:0:0:0:
304,240,68427,5,0,0:0:0:0:
272,288,68520,1,0,0:0:0:0:
216,304,68614,1,0,0:0:0:0:
160,296,68708,1,0,0:0:0:0:
112,256,68802,5,8,0:0:0:0:
72,208,68895,1,0,0:0:0:0:
80,152,68989,1,0,0:0:0:0:
112,112,69083,1,0,0:0:0:0:
168,128,69177,1,0,0:0:0:0:
176,184,69270,1,0,0:0:0:0:
136,224,69364,1,0,0:0:0:0:
80,200,69458,1,0,0:0:0:0:
80,200,69552,5,8,0:0:0:0:
136,224,69645,1,0,0:0:0:0:
176,184,69739,1,0,0:0:0:0:
216,144,69833,1,0,0:0:0:0:
264,104,69927,1,0,0:0:0:0:
312,88,70020,1,0,0:0:0:0:
376,96,70114,1,0,0:0:0:0:
424,136,70208,1,0,0:0:0:0:
456,184,70302,5,8,0:0:0:0:
432,232,70395,1,0,0:0:0:0:
384,256,70489,1,0,0:0:0:0:
344,224,70583,1,0,0:0:0:0:
168,200,70677,6,0,L|168:128,15,46.7500014266968
240,80,72177,2,0,L|240:144,3,46.7500014266968
320,80,72552,2,0,L|320:144,3,46.7500014266968
208,80,72927,2,0,L|208:160,3,46.7500014266968
400,152,73302,5,0,0:0:0:0:
424,176,73364,1,0,0:0:0:0:
408,192,73427,1,0,0:0:0:0:
432,208,73489,1,0,0:0:0:0:
416,240,73552,1,0,0:0:0:0:
152,272,73677,5,0,0:0:0:0:
224,208,73864,2,0,L|288:208,1,46.7500014266968
96,120,74052,2,0,L|168:120,1,46.7500014266968
400,48,74239,2,0,L|448:48,1,46.7500014266968
280,128,74427,6,0,L|352:160,1,46.7500014266968
128,144,74614,2,0,L|40:160,1,46.7500014266968
352,200,74802,2,0,L|424:232,1,46.7500014266968
96,280,74989,2,0,L|160:280,1,46.7500014266968
328,288,75177,1,0,0:0:0:0:
448,128,75364,6,0,L|400:144,1,46.7500014266968
88,200,75551,2,0,L|168:224,1,46.7500014266968
336,208,75739,2,0,L|392:256,1,46.7500014266968
176,80,75926,2,0,L|200:144,1,46.7500014266968
88,176,76114,2,0,L|32:224,1,46.7500014266968
272,176,76301,2,0,L|232:224,1,46.7500014266968
448,176,76489,2,0,L|496:216,1,46.7500014266968
472,264,76677,1,0,0:0:0:0:
368,288,76864,6,0,L|288:304,1,46.7500014266968
120,224,77052,2,0,L|168:256,1,46.7500014266968
336,208,77239,2,0,L|392:256,1,46.7500014266968
160,112,77427,2,0,L|104:144,1,46.7500014266968
432,112,77614,2,0,L|464:160,1,46.7500014266968
256,112,77802,2,0,L|232:168,1,46.7500014266968
64,120,77989,2,0,L|40:200,2,46.7500014266968
232,128,78364,6,0,L|280:160,1,46.7500014266968
456,128,78552,2,0,L|408:168,1,46.7500014266968
240,128,78739,2,0,L|272:168,1,46.7500014266968
88,184,78927,2,0,L|128:232,1,46.7500014266968
320,296,79114,2,0,L|400:320,1,46.7500014266968
176,256,79302,2,0,L|120:208,1,46.7500014266968
392,232,79489,2,0,L|456:256,2,46.7500014266968
208,168,79864,6,0,L|160:136,1,46.7500014266968
344,168,80052,2,0,L|408:128,1,46.7500014266968
168,168,80239,2,0,L|120:128,1,46.7500014266968
336,168,80427,2,0,L|392:120,1,46.7500014266968
168,264,80614,2,0,L|224:216,1,46.7500014266968
408,264,80802,2,0,L|344:208,1,46.7500014266968
192,104,80989,2,0,L|144:64,1,46.7500014266968
144,24,81177,1,0,0:0:0:0:
320,40,81364,6,0,L|360:96,1,46.7500014266968
192,40,81552,2,0,L|168:96,1,46.7500014266968
376,112,81739,2,0,L|344:184,1,46.7500014266968
176,112,81927,2,0,L|208:176,1,46.7500014266968
352,224,82114,2,0,L|416:248,1,46.7500014266968
168,232,82302,2,0,L|184:296,1,46.7500014266968
384,176,82489,2,0,L|392:112,1,46.7500014266968
368,88,82677,1,0,0:0:0:0:
200,80,82864,6,0,L|152:128,1,46.7500014266968
384,80,83052,2,0,L|440:136,1,46.7500014266968
248,152,83239,2,0,L|232:208,1,46.7500014266968
80,224,83427,2,0,L|56:296,1,46.7500014266968
384,216,83614,2,0,L|440:264,1,46.7500014266968
184,216,83802,2,0,L|128:280,1,46.7500014266968
384,216,83989,2,0,L|440:264,1,46.7500014266968
184,216,84177,2,0,L|128:280,1,46.7500014266968
64,216,84364,6,0,L|8:272,1,46.7500014266968
368,96,84552,2,0,L|320:144,1,46.7500014266968
168,96,84739,2,0,L|232:160,1,46.7500014266968
368,184,84927,2,0,L|408:128,1,46.7500014266968
120,184,85114,2,0,L|160:128,1,46.7500014266968
336,88,85302,6,0,L|360:112,6,23.3750007133484
208,88,85677,6,0,L|184:144,1,55.2499974708558
376,168,85864,2,0,L|408:224,1,55.2499974708558
208,176,86052,2,0,L|176:248,1,55.2499974708558
64,176,86239,2,0,L|24:264,1,55.2499974708558
304,184,86427,2,0,L|368:248,1,55.2499974708558
160,104,86614,2,0,L|200:160,1,55.2499974708558
376,112,86802,2,0,L|320:168,1,55.2499974708558
136,152,86989,2,0,L|104:104,2,55.2499974708558
280,144,87364,6,0,L|344:208,1,55.2499974708558
160,200,87552,2,0,L|240:256,1,55.2499974708558
472,192,87739,2,0,L|408:248,1,55.2499974708558
224,120,87927,2,0,L|152:168,1,55.2499974708558
368,184,88114,2,0,L|296:224,1,55.2499974708558
152,216,88302,2,0,L|96:184,1,55.2499974708558
336,224,88489,2,0,L|400:192,1,55.2499974708558
392,152,88677,1,0,0:0:0:0:
296,152,88864,6,0,L|264:216,1,55.2499974708558
128,96,89052,2,0,L|88:160,1,55.2499974708558
272,96,89239,2,0,L|304:160,1,55.2499974708558
192,192,89427,2,0,L|168:248,1,55.2499974708558
376,192,89614,2,0,L|392:248,1,55.2499974708558
232,256,89802,2,0,L|288:240,1,55.2499974708558
88,328,89989,2,0,L|168:304,1,55.2499974708558
344,248,90177,1,0,0:0:0:0:
400,168,90364,6,0,L|352:112,1,55.2499974708558
200,168,90552,2,0,L|160:128,1,55.2499974708558
336,168,90739,2,0,L|368:104,1,55.2499974708558
144,264,90927,2,0,L|176:200,1,55.2499974708558
376,264,91114,2,0,L|320:208,1,55.2499974708558
168,144,91302,2,0,L|104:104,1,55.2499974708558
352,88,91489,2,0,L|288:64,1,55.2499974708558
240,64,91677,5,0,0:0:0:0:
208,64,91770,1,0,0:0:0:0:
176,72,91864,1,0,0:0:0:0:
152,80,91958,1,0,0:0:0:0:
128,88,92052,1,0,0:0:0:0:
96,104,92145,1,0,0:0:0:0:
72,120,92239,1,0,0:0:0:0:
56,144,92333,1,0,0:0:0:0:
48,168,92427,5,0,0:0:0:0:
48,200,92520,1,0,0:0:0:0:
56,240,92614,1,0,0:0:0:0:
72,264,92708,1,0,0:0:0:0:
88,288,92802,1,0,0:0:0:0:
104,304,92895,1,0,0:0:0:0:
128,320,92989,1,0,0:0:0:0:
152,328,93083,1,0,0:0:0:0:
352,336,93177,5,0,0:0:0:0:
376,328,93270,1,0,0:0:0:0:
400,320,93364,1,0,0:0:0:0:
424,304,93458,1,0,0:0:0:0:
448,280,93552,1,0,0:0:0:0:
456,256,93645,1,0,0:0:0:0:
472,224,93739,1,0,0:0:0:0:
480,192,93833,1,0,0:0:0:0:
480,160,93927,5,0,0:0:0:0:
472,136,94020,1,0,0:0:0:0:
464,104,94114,1,0,0:0:0:0:
448,80,94208,1,0,0:0:0:0:
424,64,94302,1,0,0:0:0:0:
400,48,94395,1,0,0:0:0:0:
376,40,94489,1,0,0:0:0:0:
352,32,94583,1,0,0:0:0:0:
168,88,94677,6,0,L|96:128,1,55.2499974708558
344,88,94864,2,0,L|408:112,1,55.2499974708558
168,88,95052,6,0,L|96:128,1,55.2499974708558
344,88,95239,2,0,L|408:112,1,55.2499974708558
168,88,95427,6,0,L|96:128,1,55.2499974708558
344,88,95614,2,0,L|408:112,1,55.2499974708558
168,88,95802,6,0,L|96:128,1,55.2499974708558
344,88,95989,2,0,L|408:112,1,55.2499974708558
416,120,96177,1,0,0:0:0:0:
448,136,96239,1,0,0:0:0:0:
480,160,96302,1,0,0:0:0:0:
448,176,96364,1,0,0:0:0:0:
416,192,96427,1,0,0:0:0:0:
376,208,96489,1,0,0:0:0:0:
344,224,96552,5,0,0:0:0:0:
376,256,96614,1,0,0:0:0:0:
424,280,96677,1,0,0:0:0:0:
376,304,96739,1,0,0:0:0:0:
328,320,96802,1,0,0:0:0:0:
280,336,96864,1,0,0:0:0:0:
128,288,96927,5,0,0:0:0:0:
96,256,96989,1,0,0:0:0:0:
80,224,97052,1,0,0:0:0:0:
296,224,97114,1,0,0:0:0:0:
328,200,97177,1,0,0:0:0:0:
352,160,97239,1,0,0:0:0:0:
184,168,97302,5,0,0:0:0:0:
128,144,97364,1,0,0:0:0:0:
152,120,97427,1,0,0:0:0:0:
176,88,97489,1,0,0:0:0:0:
136,56,97552,1,0,0:0:0:0:
80,40,97614,1,0,0:0:0:0:
344,24,97677,1,0,0:0:0:0:
224,56,107427,6,0,P|152:112|152:176,1,136
312,160,108177,2,0,B|472:224|472:224|88:272|88:272|352:336,1,816
112,120,110802,1,0,0:0:0:0:
272,120,110989,1,0,0:0:0:0:
440,128,111177,2,0,P|368:200|320:232,2,136
176,128,112114,2,0,L|96:128,2,68
384,288,112677,6,0,P|456:136|272:80,1,408
112,88,113989,1,0,0:0:0:0:
368,88,114177,2,0,P|416:128|360:168,1,136
240,176,114739,1,0,0:0:0:0:
96,168,114927,2,0,L|176:168,2,68
240,176,115489,2,0,L|320:176,1,68
424,176,115864,6,0,L|376:216,2,34
288,168,116239,1,0,0:0:0:0:
168,168,116427,1,0,0:0:0:0:
288,168,116802,2,0,L|368:168,1,68
96,168,117177,2,0,P|88:256|200:328,1,204
304,328,117927,1,0,0:0:0:0:
216,240,118114,6,0,L|160:240,2,34
80,240,118489,1,0,0:0:0:0:
424,240,118677,2,0,P|440:200|272:120,1,272
136,272,120177,5,0,0:0:0:0:
136,240,120270,1,0,0:0:0:0:
136,200,120364,1,0,0:0:0:0:
392,264,120552,1,0,0:0:0:0:
392,232,120645,1,0,0:0:0:0:
392,200,120739,1,0,0:0:0:0:
136,168,120927,5,0,0:0:0:0:
120,128,121020,1,0,0:0:0:0:
112,96,121114,1,0,0:0:0:0:
392,168,121302,1,0,0:0:0:0:
408,136,121395,1,0,0:0:0:0:
416,104,121489,1,0,0:0:0:0:
168,56,121677,5,0,0:0:0:0:
112,88,121770,1,0,0:0:0:0:
136,136,121864,1,0,0:0:0:0:
384,144,122052,1,0,0:0:0:0:
432,176,122145,1,0,0:0:0:0:
408,224,122239,1,0,0:0:0:0:
144,304,122427,5,0,0:0:0:0:
104,264,122520,1,0,0:0:0:0:
128,216,122614,1,0,0:0:0:0:
400,216,122802,1,0,0:0:0:0:
440,168,122895,1,0,0:0:0:0:
400,128,122989,1,0,0:0:0:0:
136,128,123177,5,0,0:0:0:0:
96,160,123270,1,0,0:0:0:0:
136,184,123364,1,0,0:0:0:0:
392,184,123552,1,0,0:0:0:0:
432,160,123645,1,0,0:0:0:0:
392,120,123739,1,0,0:0:0:0:
136,104,123927,5,0,0:0:0:0:
96,160,124020,1,0,0:0:0:0:
80,224,124114,1,0,0:0:0:0:
392,104,124302,1,0,0:0:0:0:
424,160,124395,1,0,0:0:0:0:
440,224,124489,1,0,0:0:0:0:
136,264,124677,5,0,0:0:0:0:
112,224,124770,1,0,0:0:0:0:
96,184,124864,1,0,0:0:0:0:
400,264,125052,1,0,0:0:0:0:
416,224,125145,1,0,0:0:0:0:
432,184,125239,1,0,0:0:0:0:
128,136,125427,5,0,0:0:0:0:
80,184,125520,1,0,0:0:0:0:
128,224,125614,1,0,0:0:0:0:
400,224,125802,1,0,0:0:0:0:
448,184,125895,1,0,0:0:0:0:
400,136,125989,1,0,0:0:0:0:
272,128,126177,5,0,0:0:0:0:
96,128,126364,1,0,0:0:0:0:
184,200,126552,1,0,0:0:0:0:
360,208,126739,1,0,0:0:0:0:
272,296,126927,5,0,0:0:0:0:
112,288,127114,2,0,L|64:288,2,34
216,200,127489,1,0,0:0:0:0:
336,200,127677,5,0,0:0:0:0:
464,200,127864,2,0,L|512:200,2,34
336,200,128239,1,0,0:0:0:0:
208,200,128427,1,0,0:0:0:0:
336,200,128614,5,0,0:0:0:0:
88,200,128802,2,0,P|64:152|104:136,1,85
336,112,129177,5,0,0:0:0:0:
384,120,129270,1,0,0:0:0:0:
424,144,129364,1,0,0:0:0:0:
440,192,129458,1,0,0:0:0:0:
392,224,129552,5,0,0:0:0:0:
336,240,129645,1,0,0:0:0:0:
280,256,129739,1,0,0:0:0:0:
224,272,129833,1,0,0:0:0:0:
280,280,129927,1,0,0:0:0:0:
336,288,130020,1,0,0:0:0:0:
392,280,130114,1,0,0:0:0:0:
432,240,130208,1,0,0:0:0:0:
392,224,130302,5,0,0:0:0:0:
328,208,130395,1,0,0:0:0:0:
272,192,130489,1,0,0:0:0:0:
232,152,130583,1,0,0:0:0:0:
392,48,130677,5,0,0:0:0:0:
432,80,130739,1,0,0:0:0:0:
408,112,130802,1,0,0:0:0:0:
368,136,130864,1,0,0:0:0:0:
328,152,130927,1,0,0:0:0:0:
288,160,130989,1,0,0:0:0:0:
112,168,131052,5,0,0:0:0:0:
64,184,131114,1,0,0:0:0:0:
48,224,131177,1,0,0:0:0:0:
80,256,131239,1,0,0:0:0:0:
104,280,131302,1,0,0:0:0:0:
144,296,131364,1,0,0:0:0:0:
352,280,131427,5,0,0:0:0:0:
384,264,131489,1,0,0:0:0:0:
424,240,131552,1,0,0:0:0:0:
432,200,131614,1,0,0:0:0:0:
408,176,131677,1,0,0:0:0:0:
368,160,131739,1,0,0:0:0:0:
160,176,131802,5,0,0:0:0:0:
112,144,131864,1,0,0:0:0:0:
120,104,131927,1,0,0:0:0:0:
168,80,131989,1,0,0:0:0:0:
200,64,132052,1,0,0:0:0:0:
232,40,132114,1,0,0:0:0:0:
96,40,132177,1,0,0:0:0:0:
168,192,133677,5,0,0:0:0:0:
168,192,134052,1,0,0:0:0:0:
168,192,134427,1,0,0:0:0:0:
168,192,134802,1,0,0:0:0:0:
384,192,135177,5,0,0:0:0:0:
104,96,135364,2,0,P|96:144|40:192,1,118.999996368408,2|8,0:0|0:0,0:0:0:0:
208,192,135739,1,0,0:0:0:0:
464,248,135927,2,0,L|352:200,2,118.999996368408,0|2|8,0:0|0:0|0:0,0:0:0:0:
96,256,136489,2,0,P|160:232|184:160,1,118.999996368408
440,168,136864,6,0,P|384:96|328:88,1,118.999996368408,2|8,0:0|0:0,0:0:0:0:
112,88,137239,2,0,P|160:160|200:160,2,118.999996368408,0|0|2,0:0|0:0|0:0,0:0:0:0:
240,88,137802,1,8,0:0:0:0:
112,88,137989,1,0,0:0:0:0:
384,88,138177,6,0,P|456:144|496:160,1,118.999996368408,0|2,0:0|0:0,0:0:0:0:
216,160,138552,2,0,P|264:224|344:256,1,118.999996368408,8|0,0:0|0:0,0:0:0:0:
48,248,138927,2,0,P|80:184|128:144,1,118.999996368408,0|2,0:0|0:0,0:0:0:0:
400,240,139302,2,0,P|344:160|320:152,1,118.999996368408,8|0,0:0|0:0,0:0:0:0:
64,96,139677,2,0,P|104:152|160:192,1,118.999996368408,0|2,0:0|0:0,0:0:0:0:
400,192,140052,6,0,P|464:240|496:288,2,118.999996368408,8|0|0,0:0|0:0|0:0,0:0:0:0:
152,176,140614,1,2,0:0:0:0:
352,176,140802,1,8,0:0:0:0:
152,176,140989,2,0,P|88:224|16:192,1,118.999996368408,0|8,0:0|0:0,0:0:0:0:
344,136,141364,2,0,P|392:120|472:176,1,118.999996368408,2|8,0:0|0:0,0:0:0:0:
192,192,141739,6,0,P|128:160|120:104,1,118.999996368408
384,56,142114,5,2,0:0:0:0:
440,96,142208,1,0,0:0:0:0:
480,144,142302,2,0,P|424:208|448:240,1,118.999996368408,8|0,0:0|0:0,0:0:0:0:
184,224,142677,1,0,0:0:0:0:
336,152,142864,5,2,0:0:0:0:
296,120,142958,1,0,0:0:0:0:
344,96,143052,1,8,0:0:0:0:
64,80,143239,2,0,P|48:128|24:224,1,118.999996368408
344,184,143614,5,2,0:0:0:0:
72,216,143802,2,0,P|152:280|208:288,1,118.999996368408,8|0,0:0|0:0,0:0:0:0:
480,208,144177,2,0,P|440:152|360:152,1,118.999996368408,0|2,0:0|0:0,0:0:0:0:
80,152,144552,1,8,0:0:0:0:
344,144,144739,6,0,P|408:176|440:240,1,118.999996368408
168,288,145114,1,2,0:0:0:0:
240,232,145208,1,0,0:0:0:0:
88,224,145302,2,0,P|32:168|56:104,1,118.999996368408,8|0,0:0|0:0,0:0:0:0:
352,112,145677,6,0,P|456:176|480:224,1,178.499994552612
176,112,146052,2,0,P|88:168|48:248,1,178.499994552612,8|0,0:0|0:0,0:0:0:0:
352,112,146427,6,0,P|456:176|480:224,1,178.499994552612,8|0,0:0|0:0,0:0:0:0:
200,248,146802,1,0,0:0:0:0:
168,232,146864,1,0,0:0:0:0:
192,208,146927,1,0,0:0:0:0:
152,192,146989,1,0,0:0:0:0:
192,168,147052,1,0,0:0:0:0:
384,88,147177,5,0,0:0:0:0:
424,104,147270,1,0,0:0:0:0:
464,136,147364,1,2,0:0:0:0:
480,184,147458,1,0,0:0:0:0:
448,216,147552,1,8,0:0:0:0:
392,240,147645,1,0,0:0:0:0:
368,280,147739,1,0,0:0:0:0:
416,304,147833,1,0,0:0:0:0:
240,304,147927,5,0,0:0:0:0:
184,288,148020,1,0,0:0:0:0:
144,256,148114,1,2,0:0:0:0:
192,248,148208,1,0,0:0:0:0:
248,224,148302,1,8,0:0:0:0:
200,184,148395,1,0,0:0:0:0:
152,152,148489,1,0,0:0:0:0:
200,120,148583,1,0,0:0:0:0:
352,112,148677,5,0,0:0:0:0:
392,128,148770,1,0,0:0:0:0:
432,160,148864,1,2,0:0:0:0:
440,216,148958,1,0,0:0:0:0:
392,192,149052,1,8,0:0:0:0:
336,184,149145,1,0,0:0:0:0:
280,192,149239,1,0,0:0:0:0:
232,224,149333,1,0,0:0:0:0:
240,272,149427,5,0,0:0:0:0:
272,312,149520,1,0,0:0:0:0:
320,328,149614,1,2,0:0:0:0:
360,288,149708,1,0,0:0:0:0:
368,240,149802,1,8,0:0:0:0:
152,256,149895,2,0,L|128:208,1,42.5
456,240,150083,2,0,L|400:192,1,42.5
128,192,150270,5,0,0:0:0:0:
80,168,150364,1,2,0:0:0:0:
64,128,150458,1,0,0:0:0:0:
96,80,150552,1,8,0:0:0:0:
144,64,150645,1,0,0:0:0:0:
192,64,150739,1,0,0:0:0:0:
240,88,150833,1,0,0:0:0:0:
176,120,150927,5,0,0:0:0:0:
144,144,151020,1,0,0:0:0:0:
176,168,151114,1,2,0:0:0:0:
400,200,151208,2,0,L|344:248,1,42.5,0|8,0:0|0:0,0:0:0:0:
80,240,151395,6,0,L|120:272,1,42.5
344,352,151583,2,0,L|392:304,1,42.5
336,288,151770,1,0,0:0:0:0:
288,256,151864,1,0,0:0:0:0:
248,232,151958,1,0,0:0:0:0:
240,176,152052,5,8,0:0:0:0:
272,136,152145,1,0,0:0:0:0:
328,112,152239,1,0,0:0:0:0:
384,136,152333,1,0,0:0:0:0:
416,192,152427,1,0,0:0:0:0:
368,240,152520,1,0,0:0:0:0:
312,256,152614,1,2,0:0:0:0:
248,240,152708,1,0,0:0:0:0:
80,152,152802,6,0,L|40:136,1,42.5,8|0,0:0|0:0,0:0:0:0:
400,128,152989,2,0,L|432:168,1,42.5,8|0,0:0|0:0,0:0:0:0:
176,216,153177,2,0,P|176:224|192:256,1,42.5,8|0,0:0|0:0,0:0:0:0:
232,296,153364,1,2,0:0:0:0:
288,320,153458,1,0,0:0:0:0:
336,296,153552,1,8,0:0:0:0:
368,256,153645,1,0,0:0:0:0:
344,208,153739,1,0,0:0:0:0:
304,184,153833,1,0,0:0:0:0:
96,192,153927,5,0,0:0:0:0:
72,136,154020,1,0,0:0:0:0:
376,48,154114,5,2,0:0:0:0:
424,72,154208,1,0,0:0:0:0:
344,112,154302,1,8,0:0:0:0:
400,128,154395,1,0,0:0:0:0:
448,168,154489,1,0,0:0:0:0:
424,224,154583,1,0,0:0:0:0:
128,264,154677,5,0,0:0:0:0:
72,240,154771,1,0,0:0:0:0:
32,192,154865,1,2,0:0:0:0:
72,144,154959,1,0,0:0:0:0:
248,192,155052,5,8,0:0:0:0:
192,160,155145,1,0,0:0:0:0:
168,104,155239,1,0,0:0:0:0:
200,56,155333,1,0,0:0:0:0:
408,88,155427,5,0,0:0:0:0:
464,128,155520,1,0,0:0:0:0:
488,192,155614,1,2,0:0:0:0:
448,240,155708,1,0,0:0:0:0:
240,256,155802,5,8,0:0:0:0:
192,208,155895,1,0,0:0:0:0:
248,176,155989,1,0,0:0:0:0:
296,120,156083,1,0,0:0:0:0:
256,64,156177,5,0,0:0:0:0:
200,48,156270,1,0,0:0:0:0:
144,64,156364,1,2,0:0:0:0:
96,96,156458,1,0,0:0:0:0:
72,144,156552,1,8,0:0:0:0:
88,200,156645,1,0,0:0:0:0:
136,240,156739,1,0,0:0:0:0:
336,256,156833,5,0,0:0:0:0:
376,224,156927,1,0,0:0:0:0:
320,184,157020,1,0,0:0:0:0:
376,152,157114,1,2,0:0:0:0:
392,96,157208,1,0,0:0:0:0:
344,56,157302,2,0,L|304:32,1,42.5,8|0,0:0|0:0,0:0:0:0:
72,192,157489,2,0,L|8:192,1,42.5,2|0,0:0|0:0,0:0:0:0:
392,112,157677,6,0,L|424:272,1,127.5,8|0,0:0|0:0,0:0:0:0:
128,104,158052,2,0,L|104:256,1,127.5,8|0,0:0|0:0,0:0:0:0:
320,240,158427,5,0,0:0:0:0:
384,216,158520,1,0,0:0:0:0:
432,184,158614,1,0,0:0:0:0:
464,128,158708,1,0,0:0:0:0:
208,64,158802,5,0,0:0:0:0:
160,112,158864,1,0,0:0:0:0:
208,152,158927,1,0,0:0:0:0:
240,200,158989,1,0,0:0:0:0:
200,240,159052,1,0,0:0:0:0:
408,240,159114,1,0,0:0:0:0:
456,168,159177,6,0,P|424:120|296:120,1,170,0|8,0:0|0:0,0:0:0:0:
128,112,159739,2,0,P|72:176|72:208,1,85
200,232,160114,1,0,0:0:0:0:
256,232,160208,1,0,0:0:0:0:
200,232,160302,1,8,0:0:0:0:
464,232,160489,1,0,0:0:0:0:
176,224,160677,2,0,P|128:216|48:112,2,170,0|8|0,0:0|0:0|0:0,0:0:0:0:
264,224,161614,5,0,0:0:0:0:
400,224,161802,1,8,0:0:0:0:
152,224,161989,1,0,0:0:0:0:
256,224,162177,2,0,L|440:152,1,170,0|8,0:0|0:0,0:0:0:0:
344,80,162739,5,0,0:0:0:0:
56,152,162927,2,0,L|152:152,2,85
192,152,163489,1,0,0:0:0:0:
141,152,163583,1,0,0:0:0:0:
360,256,163677,2,0,P|432:208|488:144,2,170,0|8|0,0:0|0:0|0:0,0:0:0:0:
224,256,164614,5,0,0:0:0:0:
352,256,164802,2,0,L|440:256,1,85,8|8,0:0|0:0,0:0:0:0:
144,256,165177,2,0,P|104:232|40:128,1,170,8|8,0:0|0:0,0:0:0:0:
288,64,165739,1,0,0:0:0:0:
392,104,165927,2,0,L|384:168,1,42.5
192,96,166114,2,0,L|208:160,1,42.5
432,184,166302,6,0,L|376:224,1,42.5,8|0,0:0|0:0,0:0:0:0:
160,192,166489,2,0,L|112:184,1,42.5
352,96,166677,2,0,L|392:128,1,42.5
112,152,166864,2,0,L|40:152,2,42.5,0|0|8,0:0|0:0|0:0,0:0:0:0:
400,160,167239,1,0,0:0:0:0:
72,160,167427,2,0,P|96:208|136:224,2,85,0|0|8,0:0|0:0|0:0,0:0:0:0:
192,160,167989,5,0,0:0:0:0:
456,160,168177,2,0,B|416:224|416:224|328:272,1,170,0|8,0:0|0:0,0:0:0:0:
168,256,168739,1,0,0:0:0:0:
304,256,168927,1,0,0:0:0:0:
192,256,169114,2,0,L|160:208,1,42.5
408,152,169302,2,0,L|352:104,1,42.5,8|0,0:0|0:0,0:0:0:0:
80,104,169489,2,0,L|40:56,1,42.5
312,72,169677,2,0,P|408:144|472:240,1,229.499992996216,8|0,0:0|0:0,0:0:0:0:
416,216,170052,2,0,P|203:167|139:183,1,229.499992996216,8|0,0:0|0:0,0:0:0:0:
144,208,170427,2,0,P|280:216|400:344,1,305.999990661621,8|0,0:0|0:0,0:0:0:0:
192,288,170927,5,0,0:0:0:0:
144,272,170989,1,0,0:0:0:0:
112,232,171052,1,0,0:0:0:0:
128,184,171114,1,0,0:0:0:0:
368,104,171177,6,0,L|448:160,2,85,0|0|8,0:0|0:0|0:0,0:0:0:0:
152,96,171739,2,0,P|112:112|64:168,1,85
456,152,172114,2,0,L|408:184,2,42.5,0|0|8,0:0|0:0|0:0,0:0:0:0:
336,152,172489,1,0,0:0:0:0:
64,160,172677,2,0,P|136:224|208:280,1,170,0|8,0:0|0:0,0:0:0:0:
376,208,173239,6,0,L|440:120,1,85
64,184,173614,2,0,L|152:200,2,85,0|8|0,0:0|0:0|0:0,0:0:0:0:
328,112,174177,2,0,P|416:144|472:208,1,170,0|8,0:0|0:0,0:0:0:0:
200,232,174739,2,0,P|144:256|112:296,1,85
464,160,175114,5,0,0:0:0:0:
408,120,175208,1,0,0:0:0:0:
352,80,175302,1,8,0:0:0:0:
64,80,175489,2,0,L|24:192,1,85
176,192,175864,5,0,0:0:0:0:
240,192,176052,1,8,0:0:0:0:
64,192,176239,1,0,0:0:0:0:
384,192,176427,2,0,P|424:240|480:296,1,127.5
272,280,176802,1,8,0:0:0:0:
104,280,176989,1,0,0:0:0:0:
352,200,177177,5,0,0:0:0:0:
400,200,177270,1,0,0:0:0:0:
440,200,177364,1,0,0:0:0:0:
416,152,177458,1,0,0:0:0:0:
184,64,177552,5,0,0:0:0:0:
128,64,177646,1,0,0:0:0:0:
80,64,177740,1,0,0:0:0:0:
104,112,177833,1,0,0:0:0:0:
400,272,177927,5,0,0:0:0:0:
456,272,178020,1,0,0:0:0:0:
104,272,178114,1,0,0:0:0:0:
48,272,178208,1,0,0:0:0:0:
384,184,178302,5,0,0:0:0:0:
424,184,178395,1,0,0:0:0:0:
472,184,178489,1,0,0:0:0:0:
448,136,178583,1,0,0:0:0:0:
184,192,178677,5,0,0:0:0:0:
232,192,178770,1,0,0:0:0:0:
280,192,178864,1,0,0:0:0:0:
256,136,178958,1,0,0:0:0:0:
80,88,179052,5,0,0:0:0:0:
32,120,179145,1,0,0:0:0:0:
72,160,179239,1,0,0:0:0:0:
120,200,179333,1,0,0:0:0:0:
400,272,179427,5,0,0:0:0:0:
456,272,179520,1,0,0:0:0:0:
104,272,179614,1,0,0:0:0:0:
48,272,179708,1,0,0:0:0:0:
328,272,179802,5,0,0:0:0:0:
376,240,179895,1,0,0:0:0:0:
392,184,179989,1,0,0:0:0:0:
360,128,180083,1,0,0:0:0:0:
80,296,180177,6,0,L|56:224,1,42.5
256,304,180364,2,0,L|280:240,1,42.5
440,312,180552,2,0,L|472:256,1,42.5
232,192,180739,2,0,L|192:128,1,42.5
408,192,180927,6,0,L|432:152,1,42.5
128,192,181114,2,0,L|80:128,1,42.5
408,192,181302,2,0,L|432:152,1,42.5
128,192,181489,2,0,L|80:128,1,42.5
360,296,181677,6,0,L|360:24,1,254.999992218018
152,304,182052,2,0,L|152:40,1,254.999992218018
360,296,182427,6,0,L|360:24,1,254.999992218018
144,224,182802,5,0,0:0:0:0:
192,192,182895,1,0,0:0:0:0:
160,144,182989,1,0,0:0:0:0:
120,128,183083,1,0,0:0:0:0:
80,136,183177,1,0,0:0:0:0:
464,208,183364,2,0,L|488:160,2,42.5
144,152,183739,2,0,P|96:176|72:200,1,85
368,160,184114,2,0,L|432:160,2,42.5
120,160,184489,2,0,P|96:200|112:256,1,85
410,160,184864,2,0,P|434:232|418:272,1,85
120,160,185239,2,0,P|96:200|112:256,1,85
400,160,185614,6,0,L|464:160,1,42.5
288,224,185802,1,0,0:0:0:0:
272,280,185895,1,0,0:0:0:0:
216,312,185989,1,0,0:0:0:0:
80,264,186177,5,0,0:0:0:0:
328,168,186364,2,0,L|384:168,2,42.5
208,120,186739,2,0,L|152:120,2,42.5
370,168,187114,2,0,L|434:168,2,42.5
104,168,187489,2,0,P|88:232|56:256,1,85
352,144,187864,2,0,L|440:144,1,85
168,144,188239,6,0,L|72:144,1,85
368,144,188614,2,0,P|432:168|464:200,1,85
416,200,188865,1,0,0:0:0:0:
368,224,188927,1,0,0:0:0:0:
320,264,188990,1,0,0:0:0:0:
272,296,189052,1,0,0:0:0:0:
320,320,189114,1,0,0:0:0:0:
360,344,189177,1,0,0:0:0:0:
72,192,189364,6,0,L|56:152,2,42.5
368,168,189739,2,0,P|408:144|472:112,1,85
104,120,190114,5,0,0:0:0:0:
64,152,190208,1,0,0:0:0:0:
112,176,190302,1,0,0:0:0:0:
160,200,190395,1,0,0:0:0:0:
112,224,190489,1,0,0:0:0:0:
368,192,190677,5,0,0:0:0:0:
376,192,190708,1,0,0:0:0:0:
128,176,190864,1,0,0:0:0:0:
120,176,190895,1,0,0:0:0:0:
368,128,191052,1,0,0:0:0:0:
376,128,191083,1,0,0:0:0:0:
144,112,191239,1,0,0:0:0:0:
136,112,191270,1,0,0:0:0:0:
408,128,191427,6,0,P|448:184|408:256,1,141.666666666667
176,248,191802,5,0,0:0:0:0:
152,232,191848,1,0,0:0:0:0:
168,208,191895,1,0,0:0:0:0:
144,200,191942,1,0,0:0:0:0:
168,176,191989,1,0,0:0:0:0:
72,144,192177,5,0,0:0:0:0:
352,128,192364,1,0,0:0:0:0:
408,128,192458,1,0,0:0:0:0:
464,128,192552,1,0,0:0:0:0:
128,192,192739,1,0,0:0:0:0:
376,192,192927,2,0,P|432:160|440:112,1,85
304,136,193302,5,0,0:0:0:0:
352,136,193395,1,0,0:0:0:0:
104,120,193489,1,0,0:0:0:0:
72,152,193583,1,0,0:0:0:0:
368,160,193677,2,0,P|432:160|496:192,1,127.5
176,160,194052,2,0,P|104:152|24:192,1,127.5
368,160,194427,2,0,P|432:160|496:192,1,127.5
136,144,194802,5,0,0:0:0:0:
88,176,194864,1,0,0:0:0:0:
80,224,194927,1,0,0:0:0:0:
112,256,194989,1,0,0:0:0:0:
264,256,195177,5,0,0:0:0:0:
144,192,195364,2,0,L|64:144,2,50.9999984436036
440,184,195739,2,0,P|400:136|336:128,1,101.999996887207
96,152,196114,2,0,L|160:120,2,50.9999984436036
448,128,196489,6,0,L|328:192,1,101.999996887207
80,128,196864,2,0,L|200:192,1,101.999996887207
448,128,197239,6,0,L|328:192,1,101.999996887207
80,128,197614,2,0,L|200:192,1,101.999996887207
448,184,197989,5,0,0:0:0:0:
320,184,198177,1,0,0:0:0:0:
448,104,198364,1,0,0:0:0:0:
384,104,198458,1,0,0:0:0:0:
320,104,198552,1,0,0:0:0:0:
72,104,198739,5,0,0:0:0:0:
136,104,198833,1,0,0:0:0:0:
200,104,198927,1,0,0:0:0:0:
72,184,199114,6,0,L|144:256,1,101.999996887207
416,176,199489,2,0,L|496:280,1,101.999996887207
328,256,199864,2,0,L|448:328,1,101.999996887207
120,160,200239,2,0,L|8:232,1,101.999996887207
288,272,200614,2,0,L|216:176,2,101.999996887207
168,240,201177,5,0,0:0:0:0:
128,200,201270,1,0,0:0:0:0:
168,152,201364,1,0,0:0:0:0:
432,120,201552,1,0,0:0:0:0:
472,80,201645,1,0,0:0:0:0:
432,40,201739,1,0,0:0:0:0:
104,64,201927,6,0,P|64:120|32:168,1,101.999996887207
344,192,202302,2,0,L|400:128,2,50.9999984436036
216,232,202677,1,0,0:0:0:0:
392,224,202864,1,0,0:0:0:0:
136,232,203052,1,0,0:0:0:0:
392,224,203239,1,0,0:0:0:0:
136,232,203427,1,0,0:0:0:0:
392,72,203614,5,0,0:0:0:0:
448,88,203708,1,0,0:0:0:0:
488,128,203802,1,0,0:0:0:0:
464,184,203895,1,0,0:0:0:0:
424,208,203989,1,0,0:0:0:0:
384,232,204083,1,0,0:0:0:0:
424,264,204177,1,0,0:0:0:0:
112,128,204364,5,0,0:0:0:0:
96,168,204458,1,0,0:0:0:0:
112,200,204552,1,0,0:0:0:0:
392,136,204739,5,0,0:0:0:0:
56,152,204927,2,0,L|136:256,2,101.999996887207
408,184,205489,1,0,0:0:0:0:
448,184,205583,1,0,0:0:0:0:
176,208,205677,2,0,B|64:104|200:112|368:96|368:96|480:264|480:264|168:304,1,815.999975097657
