osu file format v14

[General]
AudioFilename: audio.mp3
AudioLeadIn: 0
PreviewTime: 15598
Countdown: 0
SampleSet: None
StackLeniency: 0.7
Mode: 3
LetterboxInBreaks: 0
SpecialStyle: 0
WidescreenStoryboard: 1

[Editor]
DistanceSpacing: 0.8
BeatDivisor: 4
GridSize: 8
TimelineZoom: 2.199999

[Metadata]
Title:Atomic Universe (2008 mix)
TitleUnicode:Atomic Universe (2008 mix)
Artist:CODE-49
ArtistUnicode:CODE-49
Creator:fanzhenxiang
Version:Normal
Source:
Tags:
BeatmapID:1877146
BeatmapSetID:898603

[Difficulty]
HPDrainRate:7.2
CircleSize:4
OverallDifficulty:8
ApproachRate:5
SliderMultiplier:1.4
SliderTickRate:1

[Events]
//Background and Video events
0,0,"Atomic Universe .jpg",0,0
//Break Periods
//Storyboard Layer 0 (Background)
//Storyboard Layer 1 (Fail)
//Storyboard Layer 2 (Pass)
//Storyboard Layer 3 (Foreground)
//Storyboard Sound Samples

[TimingPoints]
69,352.941176470588,4,1,0,30,1,0
15996,-166.666666666667,4,1,0,30,0,0
16216,-52.6315789473684,4,1,0,30,0,0
16260,-166.666666666667,4,1,0,30,0,0
16481,-52.6315789473684,4,1,0,30,0,0
16525,-166.666666666667,4,1,0,30,0,0
16745,-52.6315789473684,4,1,0,30,0,0
16789,-166.666666666667,4,1,0,30,0,0
16833,-52.6315789473684,4,1,0,30,0,0
16878,-166.666666666667,4,1,0,30,0,0
17054,-52.6315789473684,4,1,0,30,0,0
17098,-166.666666666667,4,1,0,30,0,0
17231,-52.6315789473684,4,1,0,30,0,0
17275,-100,4,1,0,30,0,0
21642,-166.666666666667,4,1,0,30,0,0
21775,-52.6315789473684,4,1,0,30,0,0
21819,-166.666666666667,4,1,0,30,0,0
21907,-52.6315789473684,4,1,0,30,0,0
21951,-166.666666666667,4,1,0,30,0,0
22172,-52.6315789473684,4,1,0,30,0,0
22216,-166.666666666667,4,1,0,30,0,0
22348,-52.6315789473684,4,1,0,30,0,0
22392,-166.666666666667,4,1,0,30,0,0
22436,-52.6315789473684,4,1,0,30,0,0
22481,-166.666666666667,4,1,0,30,0,0
22657,-52.6315789473684,4,1,0,30,0,0
22701,-166.666666666667,4,1,0,30,0,0
22833,-52.6315789473684,4,1,0,30,0,0
22878,-100,4,1,0,30,0,0
27245,-166.666666666667,4,1,0,30,0,0
27466,-52.6315789473684,4,1,0,30,0,0
27510,-166.666666666667,4,1,0,30,0,0
27554,-52.6315789473684,4,1,0,30,0,0
27598,-166.666666666667,4,1,0,30,0,0
27819,-52.6315789473684,4,1,0,30,0,0
27863,-166.666666666667,4,1,0,30,0,0
28083,-52.6315789473684,4,1,0,30,0,0
28128,-166.666666666667,4,1,0,30,0,0
28172,-52.6315789473684,4,1,0,30,0,0
28216,-166.666666666667,4,1,0,30,0,0
28348,-52.6315789473684,4,1,0,30,0,0
28392,-166.666666666667,4,1,0,30,0,0
28525,-52.6315789473684,4,1,0,30,0,0
28569,-100,4,1,0,30,0,0
32892,-166.666666666667,4,1,0,30,0,0
33113,-52.6315789473684,4,1,0,30,0,0
33157,-166.666666666667,4,1,0,30,0,0
33201,-52.6315789473684,4,1,0,30,0,0
33245,-166.666666666667,4,1,0,30,0,0
33466,-52.6315789473684,4,1,0,30,0,0
33510,-166.666666666667,4,1,0,30,0,0
33775,-52.6315789473684,4,1,0,30,0,0
33819,-166.666666666667,4,1,0,30,0,0
33863,-52.6315789473684,4,1,0,30,0,0
33907,-166.666666666667,4,1,0,30,0,0
34039,-52.6315789473684,4,1,0,30,0,0
34083,-166.666666666667,4,1,0,30,0,0
34216,-52.6315789473684,4,1,0,30,0,0
34260,-100,4,1,0,30,0,0
38583,-166.666666666667,4,1,0,30,0,0
38760,-52.6315789473684,4,1,0,30,0,0
38804,-166.666666666667,4,1,0,30,0,0
38848,-52.6315789473684,4,1,0,30,0,0
38892,-166.666666666667,4,1,0,30,0,0
39113,-52.6315789473684,4,1,0,30,0,0
39157,-166.666666666667,4,1,0,30,0,0
39201,-52.6315789473684,4,1,0,30,0,0
39245,-166.666666666667,4,1,0,30,0,0
39466,-52.6315789473684,4,1,0,30,0,0
39510,-166.666666666667,4,1,0,30,0,0
39642,-52.6315789473684,4,1,0,30,0,0
39686,-166.666666666667,4,1,0,30,0,0
39819,-52.6315789473684,4,1,0,30,0,0
39863,-100,4,1,0,30,0,0
78069,-52.6315789473684,4,1,0,30,0,0
78113,-166.666666666667,4,1,0,30,0,0
78333,-52.6315789473684,4,1,0,30,0,0
78378,-166.666666666667,4,1,0,30,0,0
78598,-52.6315789473684,4,1,0,30,0,0
78642,-100,4,1,0,30,0,0
79480,-100,4,1,0,30,0,0
117642,-200,4,1,0,30,0,0
117775,-50,4,1,0,30,0,0
117819,-200,4,1,0,30,0,0
117907,-50,4,1,0,30,0,0
117951,-200,4,1,0,30,0,0
118172,-50,4,1,0,30,0,0
118216,-200,4,1,0,30,0,0
118348,-50,4,1,0,30,0,0
118392,-200,4,1,0,30,0,0
118436,-50,4,1,0,30,0,0
118481,-200,4,1,0,30,0,0
118657,-50,4,1,0,30,0,0
118701,-200,4,1,0,30,0,0
118833,-50,4,1,0,30,0,0
118878,-100,4,1,0,30,0,0
123245,-200,4,1,0,30,0,0
123466,-50,4,1,0,30,0,0
123510,-200,4,1,0,30,0,0
123554,-50,4,1,0,30,0,0
123598,-200,4,1,0,30,0,0
123819,-50,4,1,0,30,0,0
123863,-200,4,1,0,30,0,0
124083,-50,4,1,0,30,0,0
124128,-200,4,1,0,30,0,0
124172,-50,4,1,0,30,0,0
124216,-200,4,1,0,30,0,0
124348,-50,4,1,0,30,0,0
124392,-200,4,1,0,30,0,0
124525,-50,4,1,0,30,0,0
124569,-100,4,1,0,30,0,0

[HitObjects]
192,192,421,5,0,0:0:0:0:
448,192,421,1,0,0:0:0:0:
320,192,554,1,0,0:0:0:0:
64,192,730,1,0,0:0:0:0:
320,192,818,1,0,0:0:0:0:
448,192,907,1,0,0:0:0:0:
192,192,995,1,0,0:0:0:0:
320,192,1083,1,0,0:0:0:0:
64,192,1171,1,0,0:0:0:0:
448,192,1260,1,0,0:0:0:0:
192,192,1436,1,0,0:0:0:0:
448,192,1613,1,0,0:0:0:0:
64,192,1701,1,0,0:0:0:0:
320,192,1789,1,0,0:0:0:0:
192,192,1966,1,0,0:0:0:0:
320,192,2142,1,0,0:0:0:0:
64,192,2230,1,0,0:0:0:0:
448,192,2318,1,0,0:0:0:0:
192,192,2407,1,0,0:0:0:0:
320,192,2495,1,0,0:0:0:0:
192,192,2583,1,0,0:0:0:0:
64,192,2671,1,0,0:0:0:0:
448,192,2848,1,0,0:0:0:0:
320,192,2936,1,0,0:0:0:0:
64,192,3024,1,0,0:0:0:0:
192,192,3113,1,0,0:0:0:0:
320,192,3201,1,0,0:0:0:0:
448,192,3377,1,0,0:0:0:0:
320,192,3554,1,0,0:0:0:0:
192,192,3642,1,0,0:0:0:0:
64,192,3730,1,0,0:0:0:0:
448,192,3818,1,0,0:0:0:0:
192,192,3907,1,0,0:0:0:0:
320,192,3995,1,0,0:0:0:0:
64,192,4083,1,0,0:0:0:0:
448,192,4260,1,0,0:0:0:0:
320,192,4436,1,0,0:0:0:0:
192,192,4524,1,0,0:0:0:0:
64,192,4657,1,0,0:0:0:0:
448,192,4789,1,0,0:0:0:0:
192,192,5010,1,0,0:0:0:0:
320,192,5098,1,0,0:0:0:0:
448,192,5186,1,0,0:0:0:0:
64,192,5274,1,0,0:0:0:0:
192,192,5363,1,0,0:0:0:0:
320,192,5495,1,0,0:0:0:0:
320,192,5716,1,0,0:0:0:0:
192,192,5716,1,0,0:0:0:0:
448,192,5804,1,0,0:0:0:0:
320,192,5892,1,0,0:0:0:0:
64,192,5892,1,0,0:0:0:0:
192,192,5980,1,0,0:0:0:0:
64,192,6068,1,0,0:0:0:0:
320,192,6068,1,0,0:0:0:0:
448,192,6245,1,0,0:0:0:0:
64,192,6421,1,0,0:0:0:0:
320,192,6421,1,0,0:0:0:0:
448,192,6510,1,0,0:0:0:0:
192,192,6598,1,0,0:0:0:0:
64,192,6686,1,0,0:0:0:0:
192,192,6774,1,0,0:0:0:0:
448,192,6774,1,0,0:0:0:0:
320,192,6863,1,0,0:0:0:0:
64,192,6951,1,0,0:0:0:0:
192,192,7127,1,0,0:0:0:0:
448,192,7127,1,0,0:0:0:0:
320,192,7304,1,0,0:0:0:0:
448,192,7392,1,0,0:0:0:0:
192,192,7480,1,0,0:0:0:0:
64,192,7480,1,0,0:0:0:0:
320,192,7657,1,0,0:0:0:0:
192,192,7833,1,0,0:0:0:0:
448,192,7833,1,0,0:0:0:0:
64,192,7921,1,0,0:0:0:0:
192,192,8010,1,0,0:0:0:0:
320,192,8098,1,0,0:0:0:0:
192,192,8186,1,0,0:0:0:0:
448,192,8186,1,0,0:0:0:0:
320,192,8274,1,0,0:0:0:0:
64,192,8363,1,0,0:0:0:0:
320,192,8539,1,0,0:0:0:0:
448,192,8539,1,0,0:0:0:0:
192,192,8627,1,0,0:0:0:0:
320,192,8716,1,0,0:0:0:0:
448,192,8804,1,0,0:0:0:0:
320,192,8892,1,0,0:0:0:0:
64,192,8892,1,0,0:0:0:0:
192,192,9068,1,0,0:0:0:0:
192,192,9245,1,0,0:0:0:0:
448,192,9245,1,0,0:0:0:0:
64,192,9333,1,0,0:0:0:0:
320,192,9421,1,0,0:0:0:0:
192,192,9510,1,0,0:0:0:0:
448,192,9598,1,0,0:0:0:0:
320,192,9598,1,0,0:0:0:0:
192,192,9686,1,0,0:0:0:0:
64,192,9774,1,0,0:0:0:0:
192,192,9951,1,0,0:0:0:0:
448,192,9951,1,0,0:0:0:0:
64,192,10127,1,0,0:0:0:0:
448,192,10127,1,0,0:0:0:0:
192,192,10216,1,0,0:0:0:0:
64,192,10304,1,0,0:0:0:0:
320,192,10304,1,0,0:0:0:0:
192,192,10480,1,0,0:0:0:0:
192,192,10657,1,0,0:0:0:0:
448,192,10657,1,0,0:0:0:0:
320,192,10745,1,0,0:0:0:0:
64,192,10833,1,0,0:0:0:0:
448,192,10921,1,0,0:0:0:0:
192,192,11010,1,0,0:0:0:0:
64,192,11010,1,0,0:0:0:0:
320,192,11098,1,0,0:0:0:0:
192,192,11186,1,0,0:0:0:0:
64,192,11363,1,0,0:0:0:0:
320,192,11363,1,0,0:0:0:0:
448,192,11451,1,0,0:0:0:0:
192,192,11539,1,0,0:0:0:0:
448,192,11627,1,0,0:0:0:0:
64,192,11716,1,0,0:0:0:0:
320,192,11716,1,0,0:0:0:0:
192,192,11892,1,0,0:0:0:0:
320,192,12068,1,0,0:0:0:0:
448,192,12068,1,0,0:0:0:0:
64,192,12157,1,0,0:0:0:0:
192,192,12245,1,0,0:0:0:0:
320,192,12333,1,0,0:0:0:0:
64,192,12421,1,0,0:0:0:0:
192,192,12421,1,0,0:0:0:0:
320,192,12510,1,0,0:0:0:0:
448,192,12598,1,0,0:0:0:0:
64,192,12774,1,0,0:0:0:0:
448,192,12774,1,0,0:0:0:0:
320,192,12951,1,0,0:0:0:0:
192,192,13039,1,0,0:0:0:0:
64,192,13127,1,0,0:0:0:0:
448,192,13127,1,0,0:0:0:0:
448,192,13304,1,0,0:0:0:0:
64,192,13480,1,0,0:0:0:0:
320,192,13480,1,0,0:0:0:0:
448,192,13568,1,0,0:0:0:0:
64,192,13657,1,0,0:0:0:0:
192,192,13745,1,0,0:0:0:0:
320,192,13833,1,0,0:0:0:0:
448,192,13833,1,0,0:0:0:0:
192,192,13921,1,0,0:0:0:0:
64,192,14010,1,0,0:0:0:0:
320,192,14186,1,0,0:0:0:0:
192,192,14186,1,0,0:0:0:0:
448,192,14274,1,0,0:0:0:0:
64,192,14363,1,0,0:0:0:0:
192,192,14451,1,0,0:0:0:0:
320,192,14539,1,0,0:0:0:0:
448,192,14539,1,0,0:0:0:0:
192,192,14716,1,0,0:0:0:0:
320,192,14892,1,0,0:0:0:0:
64,192,14892,1,0,0:0:0:0:
192,192,14980,1,0,0:0:0:0:
448,192,15068,1,0,0:0:0:0:
320,192,15157,1,0,0:0:0:0:
448,192,15245,1,0,0:0:0:0:
192,192,15245,1,0,0:0:0:0:
320,192,15333,1,0,0:0:0:0:
192,192,15421,1,0,0:0:0:0:
448,192,15598,1,0,0:0:0:0:
64,192,15598,1,0,0:0:0:0:
192,192,15774,1,0,0:0:0:0:
320,192,15863,1,0,0:0:0:0:
64,192,15951,1,0,0:0:0:0:
448,192,15951,1,0,0:0:0:0:
64,192,16216,1,0,0:0:0:0:
320,192,16216,1,0,0:0:0:0:
192,192,16480,1,0,0:0:0:0:
448,192,16480,1,0,0:0:0:0:
192,192,16745,1,0,0:0:0:0:
448,192,16745,1,0,0:0:0:0:
192,192,16833,1,0,0:0:0:0:
448,192,16833,1,0,0:0:0:0:
64,192,17054,1,0,0:0:0:0:
320,192,17054,1,0,0:0:0:0:
64,192,17230,1,0,0:0:0:0:
320,192,17230,1,0,0:0:0:0:
448,192,17363,128,0,18686:0:0:0:0:
64,192,17363,128,0,18686:0:0:0:0:
192,192,17363,1,0,0:0:0:0:
320,192,17539,1,0,0:0:0:0:
192,192,17716,1,0,0:0:0:0:
320,192,17892,1,0,0:0:0:0:
192,192,18068,1,0,0:0:0:0:
320,192,18245,1,0,0:0:0:0:
192,192,18421,1,0,0:0:0:0:
320,192,18598,1,0,0:0:0:0:
64,192,18774,1,0,0:0:0:0:
192,192,18774,1,0,0:0:0:0:
320,192,18863,1,0,0:0:0:0:
448,192,18951,1,0,0:0:0:0:
320,192,19039,1,0,0:0:0:0:
192,192,19127,1,0,0:0:0:0:
64,192,19127,1,0,0:0:0:0:
320,192,19216,1,0,0:0:0:0:
192,192,19304,1,0,0:0:0:0:
64,192,19392,1,0,0:0:0:0:
320,192,19480,1,0,0:0:0:0:
192,192,19480,1,0,0:0:0:0:
448,192,19568,1,0,0:0:0:0:
320,192,19657,1,0,0:0:0:0:
192,192,19745,1,0,0:0:0:0:
64,192,19833,1,0,0:0:0:0:
448,192,19833,1,0,0:0:0:0:
192,192,19921,1,0,0:0:0:0:
320,192,20010,1,0,0:0:0:0:
448,192,20098,1,0,0:0:0:0:
192,192,20186,128,0,21510:0:0:0:0:
320,192,20186,128,0,21510:0:0:0:0:
64,192,20186,1,0,0:0:0:0:
448,192,20363,1,0,0:0:0:0:
64,192,20539,1,0,0:0:0:0:
448,192,20716,1,0,0:0:0:0:
64,192,20892,1,0,0:0:0:0:
448,192,21068,1,0,0:0:0:0:
64,192,21245,1,0,0:0:0:0:
448,192,21421,1,0,0:0:0:0:
448,192,21598,1,0,0:0:0:0:
320,192,21774,1,0,0:0:0:0:
192,192,21774,1,0,0:0:0:0:
448,192,21907,1,0,0:0:0:0:
64,192,21907,1,0,0:0:0:0:
320,192,22171,1,0,0:0:0:0:
64,192,22171,1,0,0:0:0:0:
192,192,22348,1,0,0:0:0:0:
448,192,22348,1,0,0:0:0:0:
320,192,22436,1,0,0:0:0:0:
64,192,22436,1,0,0:0:0:0:
320,192,22657,1,0,0:0:0:0:
64,192,22657,1,0,0:0:0:0:
320,192,22833,1,0,0:0:0:0:
64,192,22833,1,0,0:0:0:0:
64,192,23010,128,0,24333:0:0:0:0:
320,192,23010,128,0,24333:0:0:0:0:
192,192,23010,1,0,0:0:0:0:
448,192,23186,1,0,0:0:0:0:
192,192,23363,1,0,0:0:0:0:
448,192,23539,1,0,0:0:0:0:
192,192,23716,1,0,0:0:0:0:
448,192,23892,1,0,0:0:0:0:
192,192,24068,1,0,0:0:0:0:
448,192,24245,1,0,0:0:0:0:
64,192,24421,1,0,0:0:0:0:
448,192,24421,1,0,0:0:0:0:
320,192,24510,1,0,0:0:0:0:
192,192,24598,1,0,0:0:0:0:
64,192,24686,1,0,0:0:0:0:
192,192,24774,1,0,0:0:0:0:
448,192,24774,1,0,0:0:0:0:
64,192,24863,1,0,0:0:0:0:
192,192,24951,1,0,0:0:0:0:
320,192,25039,1,0,0:0:0:0:
64,192,25127,1,0,0:0:0:0:
448,192,25127,1,0,0:0:0:0:
320,192,25216,1,0,0:0:0:0:
448,192,25304,1,0,0:0:0:0:
320,192,25392,1,0,0:0:0:0:
192,192,25480,1,0,0:0:0:0:
64,192,25480,1,0,0:0:0:0:
320,192,25568,1,0,0:0:0:0:
448,192,25657,1,0,0:0:0:0:
64,192,25745,1,0,0:0:0:0:
192,192,25833,128,0,27157:0:0:0:0:
448,192,25833,128,0,27157:0:0:0:0:
320,192,25833,1,0,0:0:0:0:
64,192,26010,1,0,0:0:0:0:
320,192,26186,1,0,0:0:0:0:
64,192,26363,1,0,0:0:0:0:
320,192,26539,1,0,0:0:0:0:
64,192,26716,1,0,0:0:0:0:
320,192,26892,1,0,0:0:0:0:
64,192,27068,1,0,0:0:0:0:
192,192,27466,1,0,0:0:0:0:
448,192,27466,1,0,0:0:0:0:
192,192,27554,1,0,0:0:0:0:
448,192,27554,1,0,0:0:0:0:
64,192,27818,1,0,0:0:0:0:
320,192,27818,1,0,0:0:0:0:
64,192,28083,1,0,0:0:0:0:
320,192,28083,1,0,0:0:0:0:
64,192,28171,1,0,0:0:0:0:
320,192,28171,1,0,0:0:0:0:
192,192,28348,1,0,0:0:0:0:
448,192,28348,1,0,0:0:0:0:
192,192,28524,1,0,0:0:0:0:
448,192,28524,1,0,0:0:0:0:
64,192,28657,128,0,29980:0:0:0:0:
448,192,28657,128,0,29980:0:0:0:0:
320,192,28657,1,0,0:0:0:0:
192,192,28833,1,0,0:0:0:0:
320,192,29010,1,0,0:0:0:0:
192,192,29186,1,0,0:0:0:0:
320,192,29363,1,0,0:0:0:0:
192,192,29539,1,0,0:0:0:0:
320,192,29716,1,0,0:0:0:0:
192,192,29892,1,0,0:0:0:0:
448,192,30068,1,0,0:0:0:0:
320,192,30068,1,0,0:0:0:0:
192,192,30157,1,0,0:0:0:0:
64,192,30245,1,0,0:0:0:0:
192,192,30333,1,0,0:0:0:0:
320,192,30421,1,0,0:0:0:0:
448,192,30421,1,0,0:0:0:0:
192,192,30510,1,0,0:0:0:0:
320,192,30598,1,0,0:0:0:0:
448,192,30686,1,0,0:0:0:0:
192,192,30774,1,0,0:0:0:0:
320,192,30774,1,0,0:0:0:0:
64,192,30863,1,0,0:0:0:0:
192,192,30951,1,0,0:0:0:0:
320,192,31039,1,0,0:0:0:0:
448,192,31127,1,0,0:0:0:0:
64,192,31127,1,0,0:0:0:0:
320,192,31216,1,0,0:0:0:0:
192,192,31304,1,0,0:0:0:0:
64,192,31392,1,0,0:0:0:0:
320,192,31480,128,0,32804:0:0:0:0:
192,192,31480,128,0,32804:0:0:0:0:
448,192,31480,1,0,0:0:0:0:
64,192,31657,1,0,0:0:0:0:
448,192,31833,1,0,0:0:0:0:
64,192,32010,1,0,0:0:0:0:
448,192,32186,1,0,0:0:0:0:
64,192,32363,1,0,0:0:0:0:
448,192,32539,1,0,0:0:0:0:
64,192,32716,1,0,0:0:0:0:
64,192,32892,1,0,0:0:0:0:
192,192,33068,1,0,0:0:0:0:
320,192,33068,1,0,0:0:0:0:
64,192,33201,1,0,0:0:0:0:
448,192,33201,1,0,0:0:0:0:
192,192,33466,1,0,0:0:0:0:
448,192,33466,1,0,0:0:0:0:
320,192,33642,1,0,0:0:0:0:
64,192,33642,1,0,0:0:0:0:
192,192,33730,1,0,0:0:0:0:
448,192,33730,1,0,0:0:0:0:
192,192,33951,1,0,0:0:0:0:
448,192,33951,1,0,0:0:0:0:
192,192,34127,1,0,0:0:0:0:
448,192,34127,1,0,0:0:0:0:
448,192,34304,128,0,35627:0:0:0:0:
192,192,34304,128,0,35627:0:0:0:0:
320,192,34304,1,0,0:0:0:0:
64,192,34480,1,0,0:0:0:0:
320,192,34657,1,0,0:0:0:0:
64,192,34833,1,0,0:0:0:0:
320,192,35010,1,0,0:0:0:0:
64,192,35186,1,0,0:0:0:0:
320,192,35363,1,0,0:0:0:0:
64,192,35539,1,0,0:0:0:0:
448,192,35716,1,0,0:0:0:0:
64,192,35716,1,0,0:0:0:0:
192,192,35804,1,0,0:0:0:0:
320,192,35892,1,0,0:0:0:0:
448,192,35980,1,0,0:0:0:0:
320,192,36068,1,0,0:0:0:0:
64,192,36068,1,0,0:0:0:0:
448,192,36157,1,0,0:0:0:0:
320,192,36245,1,0,0:0:0:0:
192,192,36333,1,0,0:0:0:0:
448,192,36421,1,0,0:0:0:0:
64,192,36421,1,0,0:0:0:0:
192,192,36510,1,0,0:0:0:0:
64,192,36598,1,0,0:0:0:0:
192,192,36686,1,0,0:0:0:0:
320,192,36774,1,0,0:0:0:0:
448,192,36774,1,0,0:0:0:0:
192,192,36863,1,0,0:0:0:0:
64,192,36951,1,0,0:0:0:0:
448,192,37039,1,0,0:0:0:0:
320,192,37127,128,0,38451:0:0:0:0:
64,192,37127,128,0,38451:0:0:0:0:
192,192,37127,1,0,0:0:0:0:
448,192,37304,1,0,0:0:0:0:
192,192,37480,1,0,0:0:0:0:
448,192,37657,1,0,0:0:0:0:
192,192,37833,1,0,0:0:0:0:
448,192,38010,1,0,0:0:0:0:
192,192,38186,1,0,0:0:0:0:
448,192,38363,1,0,0:0:0:0:
320,192,38760,1,0,0:0:0:0:
64,192,38760,1,0,0:0:0:0:
320,192,38848,1,0,0:0:0:0:
64,192,38848,1,0,0:0:0:0:
448,192,39113,1,0,0:0:0:0:
192,192,39113,1,0,0:0:0:0:
448,192,39377,1,0,0:0:0:0:
192,192,39377,1,0,0:0:0:0:
448,192,39466,1,0,0:0:0:0:
192,192,39466,1,0,0:0:0:0:
320,192,39642,1,0,0:0:0:0:
64,192,39642,1,0,0:0:0:0:
320,192,39818,1,0,0:0:0:0:
64,192,39818,1,0,0:0:0:0:
448,192,40039,128,0,41363:0:0:0:0:
64,192,40039,128,0,41363:0:0:0:0:
192,192,40039,1,0,0:0:0:0:
320,192,40039,1,0,0:0:0:0:
320,192,40304,1,0,0:0:0:0:
192,192,40304,1,0,0:0:0:0:
320,192,40657,1,0,0:0:0:0:
192,192,40657,1,0,0:0:0:0:
192,192,41010,1,0,0:0:0:0:
320,192,41010,1,0,0:0:0:0:
192,192,41363,1,0,0:0:0:0:
320,192,41363,1,0,0:0:0:0:
64,192,41451,1,0,0:0:0:0:
192,192,41539,1,0,0:0:0:0:
320,192,41627,1,0,0:0:0:0:
448,192,41716,1,0,0:0:0:0:
320,192,41804,1,0,0:0:0:0:
192,192,41892,1,0,0:0:0:0:
64,192,41980,1,0,0:0:0:0:
448,192,42068,1,0,0:0:0:0:
320,192,42157,1,0,0:0:0:0:
192,192,42245,1,0,0:0:0:0:
192,192,42333,1,0,0:0:0:0:
64,192,42421,1,0,0:0:0:0:
192,192,42510,1,0,0:0:0:0:
320,192,42598,1,0,0:0:0:0:
320,192,42686,1,0,0:0:0:0:
192,192,42774,1,0,0:0:0:0:
64,192,42818,128,0,44098:0:0:0:0:
448,192,42818,128,0,44098:0:0:0:0:
192,192,42951,1,0,0:0:0:0:
320,192,43127,1,0,0:0:0:0:
320,192,43304,1,0,0:0:0:0:
192,192,43392,1,0,0:0:0:0:
320,192,43657,1,0,0:0:0:0:
192,192,43833,1,0,0:0:0:0:
320,192,44010,1,0,0:0:0:0:
192,192,44098,1,0,0:0:0:0:
448,192,44186,128,0,45377:0:0:0:0:
64,192,44407,1,0,0:0:0:0:
192,192,44407,1,0,0:0:0:0:
320,192,44407,1,0,0:0:0:0:
64,192,44495,1,0,0:0:0:0:
192,192,44495,1,0,0:0:0:0:
320,192,44495,1,0,0:0:0:0:
64,192,44760,1,0,0:0:0:0:
192,192,44760,1,0,0:0:0:0:
320,192,44760,1,0,0:0:0:0:
64,192,45024,1,0,0:0:0:0:
192,192,45024,1,0,0:0:0:0:
320,192,45024,1,0,0:0:0:0:
64,192,45113,1,0,0:0:0:0:
192,192,45113,1,0,0:0:0:0:
320,192,45113,1,0,0:0:0:0:
64,192,45245,1,0,0:0:0:0:
192,192,45245,1,0,0:0:0:0:
320,192,45245,1,0,0:0:0:0:
64,192,45377,1,0,0:0:0:0:
192,192,45377,1,0,0:0:0:0:
320,192,45377,1,0,0:0:0:0:
64,192,45510,128,0,48421:0:0:0:0:
448,192,45510,128,0,48421:0:0:0:0:
320,192,48421,1,0,0:0:0:0:
192,192,48421,1,0,0:0:0:0:
448,192,48510,1,0,0:0:0:0:
320,192,48598,1,0,0:0:0:0:
192,192,48686,1,0,0:0:0:0:
448,192,48774,1,0,0:0:0:0:
192,192,48863,1,0,0:0:0:0:
64,192,48951,1,0,0:0:0:0:
192,192,49039,1,0,0:0:0:0:
448,192,49127,1,0,0:0:0:0:
64,192,49216,1,0,0:0:0:0:
320,192,49304,1,0,0:0:0:0:
64,192,49392,1,0,0:0:0:0:
448,192,49480,1,0,0:0:0:0:
320,192,49568,1,0,0:0:0:0:
64,192,49657,1,0,0:0:0:0:
192,192,49745,1,0,0:0:0:0:
64,192,49833,1,0,0:0:0:0:
448,192,49833,1,0,0:0:0:0:
192,192,49921,1,0,0:0:0:0:
320,192,50010,1,0,0:0:0:0:
192,192,50098,1,0,0:0:0:0:
448,192,50186,1,0,0:0:0:0:
192,192,50274,1,0,0:0:0:0:
64,192,50363,1,0,0:0:0:0:
192,192,50451,1,0,0:0:0:0:
448,192,50539,1,0,0:0:0:0:
64,192,50539,1,0,0:0:0:0:
320,192,50627,1,0,0:0:0:0:
448,192,50716,1,0,0:0:0:0:
64,192,50804,1,0,0:0:0:0:
192,192,50892,1,0,0:0:0:0:
320,192,50980,1,0,0:0:0:0:
448,192,51068,1,0,0:0:0:0:
320,192,51157,1,0,0:0:0:0:
192,192,51245,1,0,0:0:0:0:
64,192,51245,1,0,0:0:0:0:
320,192,51333,1,0,0:0:0:0:
448,192,51421,1,0,0:0:0:0:
320,192,51510,1,0,0:0:0:0:
192,192,51598,1,0,0:0:0:0:
64,192,51686,1,0,0:0:0:0:
448,192,51774,1,0,0:0:0:0:
320,192,51863,1,0,0:0:0:0:
192,192,51951,1,0,0:0:0:0:
320,192,52039,1,0,0:0:0:0:
448,192,52127,1,0,0:0:0:0:
320,192,52216,1,0,0:0:0:0:
448,192,52304,1,0,0:0:0:0:
64,192,52392,1,0,0:0:0:0:
192,192,52480,1,0,0:0:0:0:
320,192,52568,1,0,0:0:0:0:
448,192,52657,1,0,0:0:0:0:
64,192,52657,1,0,0:0:0:0:
192,192,52745,1,0,0:0:0:0:
320,192,52833,1,0,0:0:0:0:
192,192,52921,1,0,0:0:0:0:
64,192,53010,1,0,0:0:0:0:
192,192,53098,1,0,0:0:0:0:
320,192,53186,1,0,0:0:0:0:
448,192,53274,1,0,0:0:0:0:
320,192,53363,1,0,0:0:0:0:
192,192,53363,1,0,0:0:0:0:
64,192,53451,1,0,0:0:0:0:
448,192,53539,1,0,0:0:0:0:
192,192,53627,1,0,0:0:0:0:
320,192,53716,1,0,0:0:0:0:
64,192,53804,1,0,0:0:0:0:
192,192,53892,1,0,0:0:0:0:
448,192,53980,1,0,0:0:0:0:
320,192,54068,1,0,0:0:0:0:
64,192,54068,1,0,0:0:0:0:
192,192,54068,1,0,0:0:0:0:
448,192,54157,1,0,0:0:0:0:
320,192,54245,1,0,0:0:0:0:
192,192,54333,1,0,0:0:0:0:
320,192,54421,1,0,0:0:0:0:
64,192,54510,1,0,0:0:0:0:
192,192,54598,1,0,0:0:0:0:
448,192,54686,1,0,0:0:0:0:
320,192,54774,1,0,0:0:0:0:
192,192,54863,1,0,0:0:0:0:
64,192,54951,1,0,0:0:0:0:
192,192,55039,1,0,0:0:0:0:
64,192,55127,1,0,0:0:0:0:
320,192,55216,1,0,0:0:0:0:
448,192,55304,1,0,0:0:0:0:
192,192,55392,1,0,0:0:0:0:
64,192,55480,1,0,0:0:0:0:
320,192,55480,1,0,0:0:0:0:
192,192,55568,1,0,0:0:0:0:
320,192,55657,1,0,0:0:0:0:
64,192,55745,1,0,0:0:0:0:
192,192,55833,1,0,0:0:0:0:
448,192,55921,1,0,0:0:0:0:
320,192,56010,1,0,0:0:0:0:
192,192,56098,1,0,0:0:0:0:
448,192,56186,1,0,0:0:0:0:
320,192,56186,1,0,0:0:0:0:
192,192,56274,1,0,0:0:0:0:
64,192,56363,1,0,0:0:0:0:
192,192,56451,1,0,0:0:0:0:
320,192,56539,1,0,0:0:0:0:
64,192,56627,1,0,0:0:0:0:
192,192,56716,1,0,0:0:0:0:
448,192,56804,1,0,0:0:0:0:
320,192,56892,1,0,0:0:0:0:
192,192,56980,1,0,0:0:0:0:
64,192,56980,1,0,0:0:0:0:
320,192,57068,1,0,0:0:0:0:
448,192,57157,1,0,0:0:0:0:
320,192,57245,1,0,0:0:0:0:
192,192,57333,1,0,0:0:0:0:
64,192,57421,1,0,0:0:0:0:
448,192,57510,1,0,0:0:0:0:
320,192,57598,1,0,0:0:0:0:
192,192,57686,1,0,0:0:0:0:
320,192,57774,1,0,0:0:0:0:
448,192,57863,1,0,0:0:0:0:
64,192,57951,1,0,0:0:0:0:
320,192,58039,1,0,0:0:0:0:
192,192,58127,1,0,0:0:0:0:
320,192,58216,1,0,0:0:0:0:
448,192,58304,1,0,0:0:0:0:
64,192,58304,1,0,0:0:0:0:
320,192,58392,1,0,0:0:0:0:
192,192,58480,1,0,0:0:0:0:
64,192,58568,1,0,0:0:0:0:
448,192,58657,1,0,0:0:0:0:
320,192,58745,1,0,0:0:0:0:
64,192,58833,1,0,0:0:0:0:
192,192,58921,1,0,0:0:0:0:
64,192,59010,1,0,0:0:0:0:
448,192,59010,1,0,0:0:0:0:
192,192,59098,1,0,0:0:0:0:
320,192,59186,1,0,0:0:0:0:
192,192,59274,1,0,0:0:0:0:
64,192,59363,1,0,0:0:0:0:
448,192,59451,1,0,0:0:0:0:
320,192,59539,1,0,0:0:0:0:
192,192,59627,1,0,0:0:0:0:
320,192,59716,1,0,0:0:0:0:
64,192,59716,1,0,0:0:0:0:
448,192,59804,1,0,0:0:0:0:
320,192,59892,1,0,0:0:0:0:
192,192,59980,1,0,0:0:0:0:
64,192,60068,1,0,0:0:0:0:
192,192,60157,1,0,0:0:0:0:
320,192,60245,1,0,0:0:0:0:
192,192,60333,1,0,0:0:0:0:
320,192,60421,1,0,0:0:0:0:
448,192,60510,1,0,0:0:0:0:
320,192,60598,1,0,0:0:0:0:
192,192,60686,1,0,0:0:0:0:
64,192,60774,1,0,0:0:0:0:
320,192,60863,1,0,0:0:0:0:
192,192,60951,1,0,0:0:0:0:
448,192,61039,1,0,0:0:0:0:
192,192,61127,1,0,0:0:0:0:
320,192,61127,1,0,0:0:0:0:
448,192,61216,1,0,0:0:0:0:
64,192,61304,1,0,0:0:0:0:
192,192,61392,1,0,0:0:0:0:
448,192,61480,1,0,0:0:0:0:
320,192,61568,1,0,0:0:0:0:
192,192,61657,1,0,0:0:0:0:
64,192,61745,1,0,0:0:0:0:
448,192,61833,1,0,0:0:0:0:
192,192,61833,1,0,0:0:0:0:
64,192,61921,1,0,0:0:0:0:
320,192,62010,1,0,0:0:0:0:
448,192,62098,1,0,0:0:0:0:
320,192,62186,1,0,0:0:0:0:
192,192,62274,1,0,0:0:0:0:
64,192,62363,1,0,0:0:0:0:
192,192,62451,1,0,0:0:0:0:
320,192,62539,1,0,0:0:0:0:
448,192,62539,1,0,0:0:0:0:
192,192,62627,1,0,0:0:0:0:
64,192,62716,1,0,0:0:0:0:
192,192,62804,1,0,0:0:0:0:
320,192,62892,1,0,0:0:0:0:
192,192,62980,1,0,0:0:0:0:
320,192,63068,1,0,0:0:0:0:
448,192,63157,1,0,0:0:0:0:
320,192,63245,1,0,0:0:0:0:
192,192,63333,1,0,0:0:0:0:
64,192,63421,1,0,0:0:0:0:
448,192,63510,1,0,0:0:0:0:
320,192,63598,1,0,0:0:0:0:
192,192,63686,1,0,0:0:0:0:
64,192,63774,1,0,0:0:0:0:
320,192,63863,1,0,0:0:0:0:
64,192,63951,1,0,0:0:0:0:
448,192,63951,1,0,0:0:0:0:
192,192,64039,1,0,0:0:0:0:
320,192,64127,1,0,0:0:0:0:
192,192,64216,1,0,0:0:0:0:
448,192,64304,1,0,0:0:0:0:
64,192,64392,1,0,0:0:0:0:
320,192,64480,1,0,0:0:0:0:
192,192,64568,1,0,0:0:0:0:
448,192,64657,1,0,0:0:0:0:
64,192,64657,1,0,0:0:0:0:
192,192,64745,1,0,0:0:0:0:
320,192,64833,1,0,0:0:0:0:
448,192,64921,1,0,0:0:0:0:
64,192,65010,1,0,0:0:0:0:
448,192,65098,1,0,0:0:0:0:
192,192,65186,1,0,0:0:0:0:
320,192,65274,1,0,0:0:0:0:
448,192,65363,1,0,0:0:0:0:
64,192,65363,1,0,0:0:0:0:
320,192,65451,1,0,0:0:0:0:
192,192,65539,1,0,0:0:0:0:
64,192,65627,1,0,0:0:0:0:
192,192,65716,1,0,0:0:0:0:
320,192,65804,1,0,0:0:0:0:
192,192,65892,1,0,0:0:0:0:
320,192,65980,1,0,0:0:0:0:
64,192,66068,1,0,0:0:0:0:
192,192,66157,1,0,0:0:0:0:
320,192,66245,1,0,0:0:0:0:
192,192,66333,1,0,0:0:0:0:
64,192,66421,1,0,0:0:0:0:
320,192,66510,1,0,0:0:0:0:
192,192,66598,1,0,0:0:0:0:
64,192,66686,1,0,0:0:0:0:
320,192,66774,1,0,0:0:0:0:
192,192,66774,1,0,0:0:0:0:
448,192,66863,1,0,0:0:0:0:
64,192,66863,1,0,0:0:0:0:
192,192,66951,1,0,0:0:0:0:
320,192,66951,1,0,0:0:0:0:
64,192,67039,1,0,0:0:0:0:
192,192,67127,1,0,0:0:0:0:
320,192,67216,1,0,0:0:0:0:
192,192,67304,1,0,0:0:0:0:
320,192,67392,1,0,0:0:0:0:
448,192,67480,1,0,0:0:0:0:
320,192,67568,1,0,0:0:0:0:
448,192,67657,1,0,0:0:0:0:
320,192,67745,1,0,0:0:0:0:
192,192,67833,1,0,0:0:0:0:
64,192,67921,1,0,0:0:0:0:
192,192,68010,1,0,0:0:0:0:
320,192,68098,1,0,0:0:0:0:
192,192,68186,1,0,0:0:0:0:
448,192,68186,1,0,0:0:0:0:
64,192,68274,1,0,0:0:0:0:
320,192,68274,1,0,0:0:0:0:
448,192,68363,1,0,0:0:0:0:
192,192,68363,1,0,0:0:0:0:
320,192,68451,1,0,0:0:0:0:
192,192,68539,1,0,0:0:0:0:
320,192,68627,1,0,0:0:0:0:
448,192,68716,1,0,0:0:0:0:
64,192,68716,1,0,0:0:0:0:
192,192,68804,1,0,0:0:0:0:
320,192,68892,1,0,0:0:0:0:
448,192,68980,1,0,0:0:0:0:
64,192,69068,1,0,0:0:0:0:
192,192,69157,1,0,0:0:0:0:
320,192,69245,1,0,0:0:0:0:
192,192,69333,1,0,0:0:0:0:
448,192,69421,1,0,0:0:0:0:
320,192,69510,1,0,0:0:0:0:
64,192,69598,1,0,0:0:0:0:
192,192,69598,1,0,0:0:0:0:
320,192,69686,1,0,0:0:0:0:
448,192,69686,1,0,0:0:0:0:
64,192,69774,1,0,0:0:0:0:
192,192,69774,1,0,0:0:0:0:
320,192,69863,1,0,0:0:0:0:
448,192,69951,1,0,0:0:0:0:
320,192,70039,1,0,0:0:0:0:
192,192,70127,1,0,0:0:0:0:
320,192,70216,1,0,0:0:0:0:
192,192,70304,1,0,0:0:0:0:
448,192,70304,1,0,0:0:0:0:
64,192,70392,1,0,0:0:0:0:
192,192,70480,1,0,0:0:0:0:
320,192,70568,1,0,0:0:0:0:
448,192,70657,1,0,0:0:0:0:
320,192,70745,1,0,0:0:0:0:
64,192,70833,1,0,0:0:0:0:
192,192,70921,1,0,0:0:0:0:
448,192,71010,1,0,0:0:0:0:
64,192,71010,1,0,0:0:0:0:
320,192,71098,1,0,0:0:0:0:
192,192,71098,1,0,0:0:0:0:
448,192,71186,1,0,0:0:0:0:
64,192,71186,1,0,0:0:0:0:
320,192,71274,1,0,0:0:0:0:
64,192,71363,1,0,0:0:0:0:
448,192,71451,1,0,0:0:0:0:
192,192,71539,1,0,0:0:0:0:
320,192,71627,1,0,0:0:0:0:
448,192,71716,1,0,0:0:0:0:
64,192,71804,1,0,0:0:0:0:
192,192,71892,1,0,0:0:0:0:
320,192,71980,1,0,0:0:0:0:
192,192,72068,1,0,0:0:0:0:
64,192,72157,1,0,0:0:0:0:
192,192,72245,1,0,0:0:0:0:
320,192,72333,1,0,0:0:0:0:
448,192,72421,1,0,0:0:0:0:
64,192,72421,1,0,0:0:0:0:
320,192,72510,1,0,0:0:0:0:
192,192,72510,1,0,0:0:0:0:
64,192,72598,1,0,0:0:0:0:
448,192,72598,1,0,0:0:0:0:
320,192,72686,1,0,0:0:0:0:
448,192,72774,1,0,0:0:0:0:
64,192,72863,1,0,0:0:0:0:
192,192,72951,1,0,0:0:0:0:
448,192,73039,1,0,0:0:0:0:
320,192,73127,1,0,0:0:0:0:
192,192,73216,1,0,0:0:0:0:
320,192,73304,1,0,0:0:0:0:
192,192,73392,1,0,0:0:0:0:
64,192,73480,1,0,0:0:0:0:
320,192,73568,1,0,0:0:0:0:
192,192,73657,1,0,0:0:0:0:
320,192,73745,1,0,0:0:0:0:
192,192,73833,1,0,0:0:0:0:
448,192,73833,1,0,0:0:0:0:
320,192,73921,1,0,0:0:0:0:
64,192,73921,1,0,0:0:0:0:
192,192,74010,1,0,0:0:0:0:
448,192,74010,1,0,0:0:0:0:
320,192,74098,1,0,0:0:0:0:
192,192,74186,1,0,0:0:0:0:
320,192,74274,1,0,0:0:0:0:
448,192,74363,1,0,0:0:0:0:
64,192,74451,1,0,0:0:0:0:
192,192,74539,1,0,0:0:0:0:
320,192,74627,1,0,0:0:0:0:
64,192,74716,1,0,0:0:0:0:
192,192,74804,1,0,0:0:0:0:
320,192,74892,1,0,0:0:0:0:
64,192,74980,1,0,0:0:0:0:
192,192,75068,1,0,0:0:0:0:
320,192,75157,1,0,0:0:0:0:
448,192,75245,1,0,0:0:0:0:
192,192,75245,1,0,0:0:0:0:
320,192,75333,1,0,0:0:0:0:
64,192,75333,1,0,0:0:0:0:
192,192,75421,1,0,0:0:0:0:
448,192,75421,1,0,0:0:0:0:
320,192,75510,1,0,0:0:0:0:
448,192,75598,1,0,0:0:0:0:
192,192,75686,1,0,0:0:0:0:
64,192,75774,1,0,0:0:0:0:
192,192,75863,1,0,0:0:0:0:
320,192,75951,1,0,0:0:0:0:
448,192,75951,1,0,0:0:0:0:
192,192,76039,1,0,0:0:0:0:
64,192,76039,1,0,0:0:0:0:
448,192,76127,1,0,0:0:0:0:
320,192,76127,1,0,0:0:0:0:
192,192,76216,1,0,0:0:0:0:
64,192,76216,1,0,0:0:0:0:
320,192,76304,1,0,0:0:0:0:
448,192,76304,1,0,0:0:0:0:
192,192,76392,1,0,0:0:0:0:
64,192,76392,1,0,0:0:0:0:
320,192,76480,1,0,0:0:0:0:
448,192,76480,1,0,0:0:0:0:
192,192,76568,1,0,0:0:0:0:
64,192,76568,1,0,0:0:0:0:
448,192,76657,128,0,77980:0:0:0:0:
320,192,76657,128,0,77980:0:0:0:0:
64,192,78068,1,0,0:0:0:0:
192,192,78068,1,0,0:0:0:0:
320,192,78333,1,0,0:0:0:0:
448,192,78333,1,0,0:0:0:0:
64,192,78598,1,0,0:0:0:0:
320,192,78598,1,0,0:0:0:0:
192,192,78774,1,0,0:0:0:0:
320,192,78818,1,0,0:0:0:0:
448,192,78863,1,0,0:0:0:0:
64,192,78951,1,0,0:0:0:0:
320,192,79039,1,0,0:0:0:0:
192,192,79127,1,0,0:0:0:0:
64,192,79304,1,0,0:0:0:0:
320,192,79304,1,0,0:0:0:0:
448,192,79480,1,0,0:0:0:0:
192,192,79480,1,0,0:0:0:0:
320,192,79568,1,0,0:0:0:0:
64,192,79568,1,0,0:0:0:0:
192,192,79657,1,0,0:0:0:0:
448,192,79657,1,0,0:0:0:0:
320,192,79745,1,0,0:0:0:0:
64,192,79833,1,0,0:0:0:0:
448,192,79833,1,0,0:0:0:0:
192,192,79921,1,0,0:0:0:0:
320,192,80010,1,0,0:0:0:0:
448,192,80098,1,0,0:0:0:0:
192,192,80186,1,0,0:0:0:0:
64,192,80186,1,0,0:0:0:0:
320,192,80274,1,0,0:0:0:0:
192,192,80363,1,0,0:0:0:0:
320,192,80451,1,0,0:0:0:0:
448,192,80539,1,0,0:0:0:0:
64,192,80539,1,0,0:0:0:0:
320,192,80627,1,0,0:0:0:0:
448,192,80716,1,0,0:0:0:0:
64,192,80804,1,0,0:0:0:0:
448,192,80892,1,0,0:0:0:0:
192,192,80892,1,0,0:0:0:0:
64,192,80980,1,0,0:0:0:0:
320,192,80980,1,0,0:0:0:0:
448,192,81068,1,0,0:0:0:0:
192,192,81068,1,0,0:0:0:0:
320,192,81157,1,0,0:0:0:0:
448,192,81245,1,0,0:0:0:0:
64,192,81245,1,0,0:0:0:0:
192,192,81333,1,0,0:0:0:0:
320,192,81421,1,0,0:0:0:0:
448,192,81510,1,0,0:0:0:0:
320,192,81598,1,0,0:0:0:0:
64,192,81598,1,0,0:0:0:0:
448,192,81686,1,0,0:0:0:0:
192,192,81774,1,0,0:0:0:0:
320,192,81863,1,0,0:0:0:0:
64,192,81951,1,0,0:0:0:0:
448,192,81951,1,0,0:0:0:0:
320,192,82039,1,0,0:0:0:0:
64,192,82127,1,0,0:0:0:0:
192,192,82216,1,0,0:0:0:0:
320,192,82304,1,0,0:0:0:0:
448,192,82304,1,0,0:0:0:0:
192,192,82392,1,0,0:0:0:0:
64,192,82392,1,0,0:0:0:0:
320,192,82480,1,0,0:0:0:0:
448,192,82480,1,0,0:0:0:0:
192,192,82568,1,0,0:0:0:0:
320,192,82657,1,0,0:0:0:0:
64,192,82657,1,0,0:0:0:0:
192,192,82745,1,0,0:0:0:0:
320,192,82833,1,0,0:0:0:0:
192,192,82921,1,0,0:0:0:0:
64,192,83010,1,0,0:0:0:0:
448,192,83010,1,0,0:0:0:0:
320,192,83098,1,0,0:0:0:0:
192,192,83186,1,0,0:0:0:0:
64,192,83274,1,0,0:0:0:0:
192,192,83363,1,0,0:0:0:0:
448,192,83363,1,0,0:0:0:0:
64,192,83451,1,0,0:0:0:0:
320,192,83539,1,0,0:0:0:0:
192,192,83627,1,0,0:0:0:0:
320,192,83716,1,0,0:0:0:0:
64,192,83716,1,0,0:0:0:0:
192,192,83804,1,0,0:0:0:0:
448,192,83804,1,0,0:0:0:0:
320,192,83892,1,0,0:0:0:0:
64,192,83892,1,0,0:0:0:0:
448,192,83980,1,0,0:0:0:0:
64,192,84068,1,0,0:0:0:0:
320,192,84068,1,0,0:0:0:0:
448,192,84157,1,0,0:0:0:0:
320,192,84245,1,0,0:0:0:0:
192,192,84333,1,0,0:0:0:0:
64,192,84421,1,0,0:0:0:0:
448,192,84421,1,0,0:0:0:0:
192,192,84510,1,0,0:0:0:0:
320,192,84598,1,0,0:0:0:0:
448,192,84686,1,0,0:0:0:0:
320,192,84774,1,0,0:0:0:0:
64,192,84774,1,0,0:0:0:0:
448,192,84863,1,0,0:0:0:0:
320,192,84951,1,0,0:0:0:0:
192,192,85039,1,0,0:0:0:0:
320,192,85127,1,0,0:0:0:0:
448,192,85127,1,0,0:0:0:0:
64,192,85216,1,0,0:0:0:0:
192,192,85216,1,0,0:0:0:0:
448,192,85304,1,0,0:0:0:0:
320,192,85304,1,0,0:0:0:0:
192,192,85392,1,0,0:0:0:0:
64,192,85480,1,0,0:0:0:0:
320,192,85480,1,0,0:0:0:0:
192,192,85568,1,0,0:0:0:0:
448,192,85657,1,0,0:0:0:0:
320,192,85745,1,0,0:0:0:0:
64,192,85833,1,0,0:0:0:0:
448,192,85833,1,0,0:0:0:0:
320,192,85921,1,0,0:0:0:0:
192,192,86010,1,0,0:0:0:0:
64,192,86098,1,0,0:0:0:0:
192,192,86186,1,0,0:0:0:0:
448,192,86186,1,0,0:0:0:0:
64,192,86274,1,0,0:0:0:0:
192,192,86363,1,0,0:0:0:0:
320,192,86451,1,0,0:0:0:0:
448,192,86539,1,0,0:0:0:0:
64,192,86539,1,0,0:0:0:0:
192,192,86627,1,0,0:0:0:0:
320,192,86627,1,0,0:0:0:0:
64,192,86716,1,0,0:0:0:0:
448,192,86716,1,0,0:0:0:0:
192,192,86804,1,0,0:0:0:0:
448,192,86892,1,0,0:0:0:0:
64,192,86892,1,0,0:0:0:0:
320,192,86980,1,0,0:0:0:0:
192,192,87068,1,0,0:0:0:0:
64,192,87157,1,0,0:0:0:0:
192,192,87245,1,0,0:0:0:0:
448,192,87245,1,0,0:0:0:0:
320,192,87333,1,0,0:0:0:0:
192,192,87421,1,0,0:0:0:0:
320,192,87510,1,0,0:0:0:0:
192,192,87598,1,0,0:0:0:0:
448,192,87598,1,0,0:0:0:0:
64,192,87686,1,0,0:0:0:0:
192,192,87774,1,0,0:0:0:0:
448,192,87863,1,0,0:0:0:0:
64,192,87863,1,0,0:0:0:0:
192,192,87951,1,0,0:0:0:0:
320,192,87951,1,0,0:0:0:0:
448,192,88039,1,0,0:0:0:0:
192,192,88039,1,0,0:0:0:0:
64,192,88127,1,0,0:0:0:0:
320,192,88127,1,0,0:0:0:0:
448,192,88216,1,0,0:0:0:0:
64,192,88304,1,0,0:0:0:0:
320,192,88304,1,0,0:0:0:0:
448,192,88392,1,0,0:0:0:0:
320,192,88480,1,0,0:0:0:0:
192,192,88480,1,0,0:0:0:0:
64,192,88568,1,0,0:0:0:0:
320,192,88657,1,0,0:0:0:0:
448,192,88657,1,0,0:0:0:0:
64,192,88745,1,0,0:0:0:0:
192,192,88833,1,0,0:0:0:0:
320,192,88921,1,0,0:0:0:0:
448,192,89010,1,0,0:0:0:0:
192,192,89010,1,0,0:0:0:0:
320,192,89098,1,0,0:0:0:0:
192,192,89186,1,0,0:0:0:0:
64,192,89274,1,0,0:0:0:0:
192,192,89363,1,0,0:0:0:0:
320,192,89363,1,0,0:0:0:0:
320,192,89451,1,0,0:0:0:0:
64,192,89451,1,0,0:0:0:0:
192,192,89539,1,0,0:0:0:0:
448,192,89539,1,0,0:0:0:0:
64,192,89627,1,0,0:0:0:0:
192,192,89716,1,0,0:0:0:0:
320,192,89716,1,0,0:0:0:0:
448,192,89804,1,0,0:0:0:0:
64,192,89892,1,0,0:0:0:0:
192,192,89980,1,0,0:0:0:0:
448,192,90068,1,0,0:0:0:0:
320,192,90068,1,0,0:0:0:0:
64,192,90157,1,0,0:0:0:0:
192,192,90245,1,0,0:0:0:0:
320,192,90333,1,0,0:0:0:0:
448,192,90421,1,0,0:0:0:0:
320,192,90466,1,0,0:0:0:0:
192,192,90510,1,0,0:0:0:0:
448,192,90598,1,0,0:0:0:0:
192,192,90686,1,0,0:0:0:0:
64,192,90774,1,0,0:0:0:0:
320,192,90774,1,0,0:0:0:0:
192,192,90863,1,0,0:0:0:0:
448,192,90863,1,0,0:0:0:0:
320,192,90951,1,0,0:0:0:0:
64,192,90951,1,0,0:0:0:0:
192,192,91039,1,0,0:0:0:0:
448,192,91127,1,0,0:0:0:0:
64,192,91127,1,0,0:0:0:0:
320,192,91216,1,0,0:0:0:0:
192,192,91304,1,0,0:0:0:0:
64,192,91392,1,0,0:0:0:0:
320,192,91480,1,0,0:0:0:0:
448,192,91480,1,0,0:0:0:0:
192,192,91568,1,0,0:0:0:0:
320,192,91657,1,0,0:0:0:0:
192,192,91745,1,0,0:0:0:0:
64,192,91833,1,0,0:0:0:0:
448,192,91833,1,0,0:0:0:0:
192,192,91921,1,0,0:0:0:0:
64,192,92010,1,0,0:0:0:0:
448,192,92098,1,0,0:0:0:0:
64,192,92186,1,0,0:0:0:0:
320,192,92186,1,0,0:0:0:0:
448,192,92274,1,0,0:0:0:0:
192,192,92274,1,0,0:0:0:0:
64,192,92363,1,0,0:0:0:0:
320,192,92363,1,0,0:0:0:0:
192,192,92451,1,0,0:0:0:0:
64,192,92539,1,0,0:0:0:0:
448,192,92539,1,0,0:0:0:0:
320,192,92627,1,0,0:0:0:0:
192,192,92716,1,0,0:0:0:0:
64,192,92804,1,0,0:0:0:0:
192,192,92892,1,0,0:0:0:0:
448,192,92892,1,0,0:0:0:0:
64,192,92980,1,0,0:0:0:0:
320,192,93068,1,0,0:0:0:0:
192,192,93157,1,0,0:0:0:0:
448,192,93245,1,0,0:0:0:0:
64,192,93245,1,0,0:0:0:0:
192,192,93333,1,0,0:0:0:0:
448,192,93421,1,0,0:0:0:0:
320,192,93510,1,0,0:0:0:0:
192,192,93598,1,0,0:0:0:0:
64,192,93598,1,0,0:0:0:0:
320,192,93686,1,0,0:0:0:0:
448,192,93686,1,0,0:0:0:0:
192,192,93774,1,0,0:0:0:0:
64,192,93774,1,0,0:0:0:0:
320,192,93863,1,0,0:0:0:0:
192,192,93951,1,0,0:0:0:0:
448,192,93951,1,0,0:0:0:0:
320,192,94039,1,0,0:0:0:0:
192,192,94127,1,0,0:0:0:0:
320,192,94216,1,0,0:0:0:0:
448,192,94304,1,0,0:0:0:0:
64,192,94304,1,0,0:0:0:0:
192,192,94392,1,0,0:0:0:0:
320,192,94480,1,0,0:0:0:0:
448,192,94568,1,0,0:0:0:0:
320,192,94657,1,0,0:0:0:0:
64,192,94657,1,0,0:0:0:0:
448,192,94745,1,0,0:0:0:0:
192,192,94833,1,0,0:0:0:0:
320,192,94921,1,0,0:0:0:0:
192,192,95010,1,0,0:0:0:0:
448,192,95010,1,0,0:0:0:0:
320,192,95098,1,0,0:0:0:0:
64,192,95098,1,0,0:0:0:0:
192,192,95186,1,0,0:0:0:0:
448,192,95186,1,0,0:0:0:0:
64,192,95274,1,0,0:0:0:0:
448,192,95363,1,0,0:0:0:0:
192,192,95363,1,0,0:0:0:0:
64,192,95451,1,0,0:0:0:0:
192,192,95539,1,0,0:0:0:0:
320,192,95627,1,0,0:0:0:0:
448,192,95716,1,0,0:0:0:0:
64,192,95716,1,0,0:0:0:0:
320,192,95804,1,0,0:0:0:0:
192,192,95892,1,0,0:0:0:0:
64,192,95980,1,0,0:0:0:0:
192,192,96068,1,0,0:0:0:0:
448,192,96068,1,0,0:0:0:0:
64,192,96157,1,0,0:0:0:0:
192,192,96245,1,0,0:0:0:0:
320,192,96333,1,0,0:0:0:0:
192,192,96421,1,0,0:0:0:0:
64,192,96421,1,0,0:0:0:0:
448,192,96510,1,0,0:0:0:0:
320,192,96510,1,0,0:0:0:0:
64,192,96598,1,0,0:0:0:0:
192,192,96598,1,0,0:0:0:0:
320,192,96686,1,0,0:0:0:0:
448,192,96774,1,0,0:0:0:0:
192,192,96774,1,0,0:0:0:0:
320,192,96863,1,0,0:0:0:0:
64,192,96951,1,0,0:0:0:0:
192,192,97039,1,0,0:0:0:0:
448,192,97127,1,0,0:0:0:0:
64,192,97127,1,0,0:0:0:0:
192,192,97216,1,0,0:0:0:0:
320,192,97304,1,0,0:0:0:0:
448,192,97392,1,0,0:0:0:0:
320,192,97480,1,0,0:0:0:0:
64,192,97480,1,0,0:0:0:0:
448,192,97568,1,0,0:0:0:0:
320,192,97657,1,0,0:0:0:0:
192,192,97745,1,0,0:0:0:0:
64,192,97833,1,0,0:0:0:0:
448,192,97833,1,0,0:0:0:0:
320,192,97921,1,0,0:0:0:0:
192,192,97921,1,0,0:0:0:0:
448,192,98010,1,0,0:0:0:0:
64,192,98010,1,0,0:0:0:0:
320,192,98098,1,0,0:0:0:0:
64,192,98186,1,0,0:0:0:0:
448,192,98186,1,0,0:0:0:0:
192,192,98274,1,0,0:0:0:0:
320,192,98363,1,0,0:0:0:0:
448,192,98451,1,0,0:0:0:0:
320,192,98539,1,0,0:0:0:0:
64,192,98539,1,0,0:0:0:0:
192,192,98627,1,0,0:0:0:0:
320,192,98716,1,0,0:0:0:0:
192,192,98804,1,0,0:0:0:0:
320,192,98892,1,0,0:0:0:0:
64,192,98892,1,0,0:0:0:0:
448,192,98980,1,0,0:0:0:0:
320,192,99068,1,0,0:0:0:0:
64,192,99157,1,0,0:0:0:0:
448,192,99157,1,0,0:0:0:0:
320,192,99245,1,0,0:0:0:0:
192,192,99245,1,0,0:0:0:0:
64,192,99333,1,0,0:0:0:0:
320,192,99333,1,0,0:0:0:0:
448,192,99421,1,0,0:0:0:0:
192,192,99421,1,0,0:0:0:0:
64,192,99510,1,0,0:0:0:0:
448,192,99598,1,0,0:0:0:0:
192,192,99598,1,0,0:0:0:0:
64,192,99686,1,0,0:0:0:0:
192,192,99774,1,0,0:0:0:0:
320,192,99774,1,0,0:0:0:0:
448,192,99863,1,0,0:0:0:0:
192,192,99951,1,0,0:0:0:0:
64,192,99951,1,0,0:0:0:0:
448,192,100039,1,0,0:0:0:0:
320,192,100127,1,0,0:0:0:0:
192,192,100216,1,0,0:0:0:0:
64,192,100304,1,0,0:0:0:0:
320,192,100304,1,0,0:0:0:0:
192,192,100392,1,0,0:0:0:0:
320,192,100480,1,0,0:0:0:0:
448,192,100568,1,0,0:0:0:0:
320,192,100657,1,0,0:0:0:0:
192,192,100657,1,0,0:0:0:0:
192,192,100745,1,0,0:0:0:0:
448,192,100745,1,0,0:0:0:0:
320,192,100833,1,0,0:0:0:0:
64,192,100833,1,0,0:0:0:0:
448,192,100921,1,0,0:0:0:0:
320,192,101010,1,0,0:0:0:0:
192,192,101010,1,0,0:0:0:0:
64,192,101098,1,0,0:0:0:0:
448,192,101186,1,0,0:0:0:0:
320,192,101274,1,0,0:0:0:0:
64,192,101363,1,0,0:0:0:0:
192,192,101363,1,0,0:0:0:0:
448,192,101451,1,0,0:0:0:0:
320,192,101539,1,0,0:0:0:0:
192,192,101627,1,0,0:0:0:0:
64,192,101716,1,0,0:0:0:0:
192,192,101760,1,0,0:0:0:0:
320,192,101804,1,0,0:0:0:0:
448,192,101892,1,0,0:0:0:0:
320,192,101980,1,0,0:0:0:0:
64,192,102068,1,0,0:0:0:0:
192,192,102068,1,0,0:0:0:0:
448,192,102157,1,0,0:0:0:0:
320,192,102245,1,0,0:0:0:0:
192,192,102333,1,0,0:0:0:0:
448,192,102421,1,0,0:0:0:0:
64,192,102421,1,0,0:0:0:0:
192,192,102510,1,0,0:0:0:0:
64,192,102598,1,0,0:0:0:0:
192,192,102686,1,0,0:0:0:0:
448,192,102774,1,0,0:0:0:0:
320,192,102774,1,0,0:0:0:0:
64,192,102863,1,0,0:0:0:0:
320,192,102951,1,0,0:0:0:0:
64,192,103039,1,0,0:0:0:0:
448,192,103127,1,0,0:0:0:0:
192,192,103127,1,0,0:0:0:0:
320,192,103216,1,0,0:0:0:0:
64,192,103304,1,0,0:0:0:0:
192,192,103392,1,0,0:0:0:0:
64,192,103480,1,0,0:0:0:0:
448,192,103480,1,0,0:0:0:0:
192,192,103568,1,0,0:0:0:0:
320,192,103657,1,0,0:0:0:0:
192,192,103745,1,0,0:0:0:0:
448,192,103833,1,0,0:0:0:0:
64,192,103833,1,0,0:0:0:0:
192,192,103921,1,0,0:0:0:0:
64,192,104010,1,0,0:0:0:0:
192,192,104098,1,0,0:0:0:0:
448,192,104186,1,0,0:0:0:0:
64,192,104186,1,0,0:0:0:0:
320,192,104274,1,0,0:0:0:0:
448,192,104363,1,0,0:0:0:0:
64,192,104451,1,0,0:0:0:0:
192,192,104539,1,0,0:0:0:0:
448,192,104539,1,0,0:0:0:0:
320,192,104627,1,0,0:0:0:0:
448,192,104716,1,0,0:0:0:0:
320,192,104804,1,0,0:0:0:0:
192,192,104892,1,0,0:0:0:0:
64,192,104892,1,0,0:0:0:0:
320,192,104980,1,0,0:0:0:0:
448,192,105068,1,0,0:0:0:0:
320,192,105157,1,0,0:0:0:0:
192,192,105245,1,0,0:0:0:0:
448,192,105245,1,0,0:0:0:0:
64,192,105333,1,0,0:0:0:0:
448,192,105421,1,0,0:0:0:0:
320,192,105510,1,0,0:0:0:0:
192,192,105598,1,0,0:0:0:0:
64,192,105598,1,0,0:0:0:0:
320,192,105686,1,0,0:0:0:0:
448,192,105774,1,0,0:0:0:0:
320,192,105863,1,0,0:0:0:0:
448,192,105951,1,0,0:0:0:0:
192,192,105951,1,0,0:0:0:0:
64,192,106039,1,0,0:0:0:0:
192,192,106127,1,0,0:0:0:0:
320,192,106216,1,0,0:0:0:0:
448,192,106304,1,0,0:0:0:0:
64,192,106304,1,0,0:0:0:0:
192,192,106392,1,0,0:0:0:0:
320,192,106480,1,0,0:0:0:0:
192,192,106568,1,0,0:0:0:0:
64,192,106657,1,0,0:0:0:0:
448,192,106657,1,0,0:0:0:0:
192,192,106745,1,0,0:0:0:0:
320,192,106833,1,0,0:0:0:0:
448,192,106921,1,0,0:0:0:0:
320,192,107010,1,0,0:0:0:0:
192,192,107010,1,0,0:0:0:0:
64,192,107098,1,0,0:0:0:0:
448,192,107186,1,0,0:0:0:0:
192,192,107274,1,0,0:0:0:0:
320,192,107363,1,0,0:0:0:0:
448,192,107363,1,0,0:0:0:0:
64,192,107451,1,0,0:0:0:0:
192,192,107539,1,0,0:0:0:0:
448,192,107627,1,0,0:0:0:0:
320,192,107716,1,0,0:0:0:0:
64,192,107716,1,0,0:0:0:0:
448,192,107804,1,0,0:0:0:0:
320,192,107892,1,0,0:0:0:0:
192,192,107980,1,0,0:0:0:0:
64,192,108068,1,0,0:0:0:0:
448,192,108068,1,0,0:0:0:0:
192,192,108157,1,0,0:0:0:0:
320,192,108245,1,0,0:0:0:0:
192,192,108333,1,0,0:0:0:0:
320,192,108421,1,0,0:0:0:0:
64,192,108421,1,0,0:0:0:0:
448,192,108510,1,0,0:0:0:0:
320,192,108598,1,0,0:0:0:0:
192,192,108686,1,0,0:0:0:0:
64,192,108774,1,0,0:0:0:0:
448,192,108774,1,0,0:0:0:0:
320,192,108863,1,0,0:0:0:0:
192,192,108951,1,0,0:0:0:0:
448,192,109039,1,0,0:0:0:0:
192,192,109127,1,0,0:0:0:0:
320,192,109127,1,0,0:0:0:0:
448,192,109216,1,0,0:0:0:0:
64,192,109304,1,0,0:0:0:0:
192,192,109392,1,0,0:0:0:0:
448,192,109480,1,0,0:0:0:0:
64,192,109480,1,0,0:0:0:0:
320,192,109568,1,0,0:0:0:0:
192,192,109657,1,0,0:0:0:0:
64,192,109745,1,0,0:0:0:0:
448,192,109833,1,0,0:0:0:0:
192,192,109833,1,0,0:0:0:0:
64,192,109921,1,0,0:0:0:0:
320,192,110010,1,0,0:0:0:0:
448,192,110098,1,0,0:0:0:0:
320,192,110186,1,0,0:0:0:0:
64,192,110186,1,0,0:0:0:0:
192,192,110274,1,0,0:0:0:0:
64,192,110363,1,0,0:0:0:0:
192,192,110451,1,0,0:0:0:0:
320,192,110539,1,0,0:0:0:0:
448,192,110539,1,0,0:0:0:0:
192,192,110627,1,0,0:0:0:0:
64,192,110716,1,0,0:0:0:0:
192,192,110804,1,0,0:0:0:0:
320,192,110892,1,0,0:0:0:0:
448,192,110892,1,0,0:0:0:0:
192,192,110980,1,0,0:0:0:0:
320,192,111068,1,0,0:0:0:0:
448,192,111157,1,0,0:0:0:0:
320,192,111245,1,0,0:0:0:0:
64,192,111245,1,0,0:0:0:0:
192,192,111333,1,0,0:0:0:0:
64,192,111421,1,0,0:0:0:0:
448,192,111510,1,0,0:0:0:0:
320,192,111598,1,0,0:0:0:0:
64,192,111598,1,0,0:0:0:0:
192,192,111686,1,0,0:0:0:0:
64,192,111774,1,0,0:0:0:0:
320,192,111863,1,0,0:0:0:0:
64,192,111951,1,0,0:0:0:0:
448,192,111951,1,0,0:0:0:0:
192,192,112039,1,0,0:0:0:0:
320,192,112127,1,0,0:0:0:0:
192,192,112216,1,0,0:0:0:0:
448,192,112304,1,0,0:0:0:0:
320,192,112304,1,0,0:0:0:0:
64,192,112392,1,0,0:0:0:0:
320,192,112480,1,0,0:0:0:0:
192,192,112568,1,0,0:0:0:0:
448,192,112657,1,0,0:0:0:0:
64,192,112657,1,0,0:0:0:0:
192,192,112745,1,0,0:0:0:0:
320,192,112833,1,0,0:0:0:0:
448,192,112921,1,0,0:0:0:0:
64,192,113010,1,0,0:0:0:0:
448,192,113098,1,0,0:0:0:0:
192,192,113186,1,0,0:0:0:0:
320,192,113274,1,0,0:0:0:0:
64,192,113363,128,0,114686:0:0:0:0:
448,192,113363,128,0,114686:0:0:0:0:
320,192,113363,1,0,0:0:0:0:
192,192,113539,1,0,0:0:0:0:
320,192,113716,1,0,0:0:0:0:
192,192,113892,1,0,0:0:0:0:
320,192,114068,1,0,0:0:0:0:
192,192,114245,1,0,0:0:0:0:
320,192,114421,1,0,0:0:0:0:
192,192,114598,1,0,0:0:0:0:
448,192,114774,1,0,0:0:0:0:
320,192,114774,1,0,0:0:0:0:
192,192,114863,1,0,0:0:0:0:
64,192,114951,1,0,0:0:0:0:
192,192,115039,1,0,0:0:0:0:
320,192,115127,1,0,0:0:0:0:
448,192,115127,1,0,0:0:0:0:
192,192,115216,1,0,0:0:0:0:
320,192,115304,1,0,0:0:0:0:
448,192,115392,1,0,0:0:0:0:
192,192,115480,1,0,0:0:0:0:
320,192,115480,1,0,0:0:0:0:
64,192,115568,1,0,0:0:0:0:
192,192,115657,1,0,0:0:0:0:
320,192,115745,1,0,0:0:0:0:
448,192,115833,1,0,0:0:0:0:
64,192,115833,1,0,0:0:0:0:
320,192,115921,1,0,0:0:0:0:
192,192,116010,1,0,0:0:0:0:
64,192,116098,1,0,0:0:0:0:
320,192,116186,128,0,117510:0:0:0:0:
192,192,116186,128,0,117510:0:0:0:0:
448,192,116186,1,0,0:0:0:0:
64,192,116363,1,0,0:0:0:0:
448,192,116539,1,0,0:0:0:0:
64,192,116716,1,0,0:0:0:0:
448,192,116892,1,0,0:0:0:0:
64,192,117068,1,0,0:0:0:0:
448,192,117245,1,0,0:0:0:0:
64,192,117421,1,0,0:0:0:0:
64,192,117598,1,0,0:0:0:0:
192,192,117774,1,0,0:0:0:0:
320,192,117774,1,0,0:0:0:0:
64,192,117907,1,0,0:0:0:0:
448,192,117907,1,0,0:0:0:0:
192,192,118171,1,0,0:0:0:0:
448,192,118171,1,0,0:0:0:0:
320,192,118348,1,0,0:0:0:0:
64,192,118348,1,0,0:0:0:0:
192,192,118436,1,0,0:0:0:0:
448,192,118436,1,0,0:0:0:0:
192,192,118657,1,0,0:0:0:0:
448,192,118657,1,0,0:0:0:0:
192,192,118833,1,0,0:0:0:0:
448,192,118833,1,0,0:0:0:0:
448,192,119010,128,0,120333:0:0:0:0:
192,192,119010,128,0,120333:0:0:0:0:
320,192,119010,1,0,0:0:0:0:
64,192,119186,1,0,0:0:0:0:
320,192,119363,1,0,0:0:0:0:
64,192,119539,1,0,0:0:0:0:
320,192,119716,1,0,0:0:0:0:
64,192,119892,1,0,0:0:0:0:
320,192,120068,1,0,0:0:0:0:
64,192,120245,1,0,0:0:0:0:
448,192,120421,1,0,0:0:0:0:
64,192,120421,1,0,0:0:0:0:
192,192,120510,1,0,0:0:0:0:
320,192,120598,1,0,0:0:0:0:
448,192,120686,1,0,0:0:0:0:
320,192,120774,1,0,0:0:0:0:
64,192,120774,1,0,0:0:0:0:
448,192,120863,1,0,0:0:0:0:
320,192,120951,1,0,0:0:0:0:
192,192,121039,1,0,0:0:0:0:
448,192,121127,1,0,0:0:0:0:
64,192,121127,1,0,0:0:0:0:
192,192,121216,1,0,0:0:0:0:
64,192,121304,1,0,0:0:0:0:
192,192,121392,1,0,0:0:0:0:
320,192,121480,1,0,0:0:0:0:
448,192,121480,1,0,0:0:0:0:
192,192,121568,1,0,0:0:0:0:
64,192,121657,1,0,0:0:0:0:
448,192,121745,1,0,0:0:0:0:
320,192,121833,128,0,123157:0:0:0:0:
64,192,121833,128,0,123157:0:0:0:0:
192,192,121833,1,0,0:0:0:0:
448,192,122010,1,0,0:0:0:0:
192,192,122186,1,0,0:0:0:0:
448,192,122363,1,0,0:0:0:0:
192,192,122539,1,0,0:0:0:0:
448,192,122716,1,0,0:0:0:0:
192,192,122892,1,0,0:0:0:0:
448,192,123068,1,0,0:0:0:0:
320,192,123466,1,0,0:0:0:0:
64,192,123466,1,0,0:0:0:0:
320,192,123554,1,0,0:0:0:0:
64,192,123554,1,0,0:0:0:0:
448,192,123818,1,0,0:0:0:0:
192,192,123818,1,0,0:0:0:0:
448,192,124083,1,0,0:0:0:0:
192,192,124083,1,0,0:0:0:0:
448,192,124171,1,0,0:0:0:0:
192,192,124171,1,0,0:0:0:0:
320,192,124348,1,0,0:0:0:0:
64,192,124348,1,0,0:0:0:0:
320,192,124524,1,0,0:0:0:0:
64,192,124524,1,0,0:0:0:0:
64,192,124657,128,0,126421:0:0:0:0:
448,192,124657,128,0,126421:0:0:0:0:
