osu file format v14

[General]
AudioFilename: audio.mp3
AudioLeadIn: 0
PreviewTime: 84551
Countdown: 0
SampleSet: Soft
StackLeniency: 0.4
Mode: 0
LetterboxInBreaks: 0
WidescreenStoryboard: 1

[Editor]
Bookmarks: 5386,13533,37236,60940,72792,81681,84644,105384,117236,140940,152792,161681,164644,185384,189088,200199,209088,212051,222421,223903,232792,256495,259458,271345,280233,283162,290199
DistanceSpacing: 2.2
BeatDivisor: 8
GridSize: 32
TimelineZoom: 2.2

[Metadata]
Title:Ai o Komete Hanataba o
TitleUnicode:愛をこめて花束を
Artist:COCOA DOMYOJI
ArtistUnicode:道明寺ここあ
Creator:Nakano-
Version:Bouquet Filled with Love
Source:エジソンの母
Tags:RIOT MUSIC Blitz Wing vtuber Superfly cover Edison no Haha Edison's Mother japanese rock j-rock pop j-pop projectgreat
BeatmapID:4031939
BeatmapSetID:1948229

[Difficulty]
HPDrainRate:5
CircleSize:4
OverallDifficulty:7.5
ApproachRate:9
SliderMultiplier:2.8
SliderTickRate:1

[Events]
//Background and Video events
0,0,"bg.png",0,0
Video,0,"video.mp4"
//Break Periods
2,108547,116637
2,188548,199600
//Storyboard Layer 0 (Background)
//Storyboard Layer 1 (Fail)
//Storyboard Layer 2 (Pass)
//Storyboard Layer 3 (Foreground)
//Storyboard Layer 4 (Overlay)
//Storyboard Sound Samples

[TimingPoints]
201,740.740740740741,4,2,1,30,1,0
201,-142.857142857143,4,2,1,30,0,0
2469,697.674418604651,4,2,1,30,1,0
3166,736.196319018405,4,2,1,30,1,0
4638,750,4,2,1,30,1,0
4638,-142.857142857143,4,2,1,30,0,0
5386,740.740740740741,4,2,1,40,1,0
6126,740.740740740741,4,2,1,50,1,0
6126,-100,4,2,1,50,0,0
13533,740.740740740741,4,2,1,50,1,0
13533,-111.111111111111,4,2,1,50,0,0
60940,-142.857142857143,4,2,1,30,0,0
72051,-142.857142857143,4,2,1,60,0,0
72792,-111.111111111111,4,2,1,50,0,0
81681,-111.111111111111,4,2,1,60,0,0
84644,-90.9090909090908,4,2,1,70,0,1
105384,-90.9090909090908,4,2,1,70,0,0
117237,-111.111111111111,4,2,1,50,0,0
140940,-142.857142857143,4,2,1,30,0,0
152051,-142.857142857143,4,2,1,60,0,0
152792,-111.111111111111,4,2,1,50,0,0
161681,-111.111111111111,4,2,1,60,0,0
162699,-111.111111111111,4,2,1,5,0,0
162792,-111.111111111111,4,2,1,60,0,0
164644,-90.9090909090908,4,2,1,70,0,1
185384,-90.9090909090908,4,2,1,70,0,0
200200,-100,4,2,1,60,0,0
209088,-90.9090909090908,4,2,1,70,0,0
212051,-125,4,2,1,40,0,0
222422,-125,4,2,1,50,0,0
223903,-90.9090909090909,4,2,1,70,0,1
232051,-90.9090909090909,4,2,1,70,0,0
232792,-83.3333333333333,4,2,1,80,0,1
254458,-83.3333333333333,4,2,2,80,0,1
254644,-83.3333333333333,4,2,1,80,0,1
256495,-125,4,2,1,80,0,0
257977,-125,4,2,1,50,0,0
259459,-100,4,2,1,60,0,0
283255,-100,4,2,1,55,0,0
283903,-100,4,2,1,50,0,0
284644,-100,4,2,1,45,0,0
285385,-100,4,2,1,40,0,0
286126,-100,4,2,1,35,0,0
286866,-100,4,2,1,30,0,0
287607,-100,4,2,1,25,0,0
288348,-100,4,2,1,20,0,0
289088,-100,4,2,1,15,0,0
289829,-100,4,2,1,10,0,0
290200,-100,4,2,1,5,0,0

[Colours]
Combo1 : 205,86,197
Combo2 : 17,136,255
Combo3 : 147,74,74

[HitObjects]
98,33,201,6,0,B|159:38|159:38|186:28|186:28|250:34,2,146.999995513916,2|2|2,0:0|0:0|0:0,0:0:0:0:
98,33,2469,5,2,0:0:0:0:
35,108,2643,1,2,0:0:0:0:
131,205,2817,2,0,P|138:170|133:135,1,70,2|2,0:0|0:0,0:0:0:0:
242,33,3166,6,0,B|352:-5|326:69|454:24,1,210,2|2,0:0|0:0,0:0:0:0:
446,26,4086,1,2,0:0:0:0:
509,90,4270,1,2,0:0:0:0:
446,156,4454,1,2,0:0:0:0:
508,232,4638,2,0,P|443:259|371:214,1,146.999995513916,2|0,0:0|0:0,0:0:0:0:
300,124,5386,6,0,B|214:122|214:122|178:131|178:131|71:128,1,210,2|0,0:0|0:0,0:0:0:0:
0,247,6126,5,6,0:0:0:0:
0,247,6681,1,8,0:1:0:0:
99,355,6866,1,8,0:0:0:0:
99,355,7237,6,0,B|134:369|175:354|195:321|194:287|194:287|193:247|221:215|259:206|291:219,1,280,6|8,0:0|0:1,0:0:0:0:
385,382,8348,2,0,P|372:349|377:315,1,70,8|2,0:0|0:0,0:0:0:0:
512,243,8718,1,8,0:3:0:0:
452,341,8903,1,8,0:3:0:0:
292,219,9088,6,0,B|250:207|250:207|150:225,1,140,6|8,0:0|0:0,0:0:0:0:
55,159,9644,1,6,0:0:0:0:
55,159,10014,1,10,0:0:0:0:
134,84,10200,2,0,P|139:49|135:14,2,70,6|2|2,0:0|0:0|0:0,0:0:0:0:
256,192,10940,5,8,0:0:0:0:
284,161,11311,5,8,0:0:0:0:
324,151,11681,5,8,0:0:0:0:
363,164,12051,6,0,L|452:162,1,70,8|0,0:0|0:0,0:0:0:0:
512,93,12422,1,8,0:3:0:0:
379,15,12607,1,8,0:3:0:0:
327,241,12792,1,12,0:0:0:0:
180,170,13533,6,0,L|174:242,1,62.9999980773926,6|0,0:0|0:0,0:0:0:0:
86,382,13903,2,0,L|80:310,1,62.9999980773926,2|0,0:0|0:0,0:0:0:0:
71,204,14274,1,10,0:0:0:0:
71,204,14644,1,2,0:0:0:0:
165,339,14829,1,0,0:0:0:0:
10,260,15014,2,0,P|-6:194|25:133,1,125.999996154785,8|8,0:1|0:1,0:0:0:0:
170,54,15755,6,0,L|164:140,1,62.9999980773926,10|0,0:0|0:0,0:0:0:0:
278,260,16126,2,0,L|272:174,1,62.9999980773926,2|0,0:0|0:0,0:0:0:0:
266,90,16496,1,8,0:1:0:0:
266,90,16866,1,2,0:0:0:0:
164,192,17051,1,0,0:0:0:0:
278,260,17237,2,0,B|330:254|330:254|355:263|355:263|407:259,1,125.999996154785,10|2,0:0|0:0,0:0:0:0:
481,191,17792,1,8,0:0:0:0:
371,62,17977,6,0,P|349:121|365:181,1,125.999996154785,8|8,0:1|0:1,0:0:0:0:
272,378,18718,2,0,P|293:308|271:251,1,125.999996154785,8|2,0:0|0:0,0:0:0:0:
170,158,19274,1,0,0:0:0:0:
170,158,19366,1,0,0:0:0:0:
170,158,19459,2,0,L|174:222,1,62.9999980773926,8|0,0:1|0:0,0:0:0:0:
76,362,19829,6,0,L|80:298,1,62.9999980773926,2|0,0:0|0:0,0:0:0:0:
87,196,20200,1,8,0:0:0:0:
87,196,20570,1,2,0:0:0:0:
184,311,20755,1,2,0:0:0:0:
278,176,20940,6,0,B|327:172|327:172|355:178|355:178|407:173,1,125.999996154785,8|8,0:1|0:1,0:0:0:0:
486,115,21496,1,0,0:0:0:0:
356,21,21681,2,0,P|353:52|357:83,1,62.9999980773926,10|0,0:0|0:0,0:0:0:0:
278,238,22051,2,0,P|282:207|278:176,1,62.9999980773926,2|0,0:0|0:0,0:0:0:0:
186,80,22422,6,0,L|105:87,1,62.9999980773926,8|0,0:1|0:0,0:0:0:0:
2,202,22792,2,0,L|83:209,1,62.9999980773926,2|0,0:0|0:0,0:0:0:0:
21,28,23163,2,0,P|14:64|18:99,1,62.9999980773926,10|0,0:0|0:0,0:0:0:0:
64,207,23533,1,2,0:0:0:0:
186,80,23718,1,0,0:0:0:0:
186,80,23811,1,0,0:0:0:0:
186,80,23903,6,0,L|267:87,2,62.9999980773926,8|8|0,0:1|0:0|0:1,0:0:0:0:
64,206,24644,2,0,P|45:266|64:325,1,125.999996154785,12|0,0:0|0:0,0:0:0:0:
127,384,25200,1,0,0:0:0:0:
251,269,25385,6,0,L|337:263,1,62.9999980773926,8|0,0:1|0:0,0:0:0:0:
451,377,25756,2,0,L|365:371,1,62.9999980773926,2|0,0:0|0:0,0:0:0:0:
287,366,26126,1,10,0:0:0:0:
287,366,26496,1,2,0:0:0:0:
393,261,26681,1,8,0:0:0:0:
248,144,26866,2,0,B|252:193|252:193|246:221|246:221|251:273,1,125.999996154785,8|8,0:1|0:1,0:0:0:0:
112,363,27607,6,0,P|56:367|11:293,1,125.999996154785,10|2,0:0|0:0,0:0:0:0:
72,119,28348,2,0,L|158:125,1,62.9999980773926,8|0,0:1|0:0,0:0:0:0:
248,215,28718,2,0,L|162:221,1,62.9999980773926,2|0,0:0|0:0,0:0:0:0:
83,295,29088,1,10,0:0:0:0:
83,295,29459,1,2,0:0:0:0:
223,374,29644,1,10,0:0:0:0:
223,374,29737,1,8,0:0:0:0:
223,374,29829,6,0,B|296:347|282:397|362:367,1,125.999996154785,8|8,0:1|0:1,0:0:0:0:
512,231,30570,2,0,P|452:213|393:231,1,125.999996154785,8|2,0:0|0:0,0:0:0:0:
317,300,31126,1,0,0:0:0:0:
223,179,31311,6,0,L|304:172,1,62.9999980773926,8|0,0:1|0:0,0:0:0:0:
407,57,31681,2,0,L|326:50,1,62.9999980773926,2|0,0:0|0:0,0:0:0:0:
393,230,32052,2,0,P|400:194|396:159,1,62.9999980773926,10|0,0:0|0:0,0:0:0:0:
344,51,32422,1,2,0:0:0:0:
223,179,32607,1,8,0:0:0:0:
223,179,32700,1,8,0:0:0:0:
223,179,32792,6,0,B|174:183|174:183|146:177|146:177|94:182,1,125.999996154785,8|8,0:1|0:1,0:0:0:0:
0,51,33533,2,0,P|39:21|117:29,1,125.999996154785,10|2,0:0|0:0,0:0:0:0:
180,106,34088,1,2,0:0:0:0:
98,181,34274,2,0,B|96:214|96:214|100:254,2,62.9999980773926,8|0|2,0:1|0:0|0:0,0:0:0:0:
180,106,35014,6,0,L|261:113,1,62.9999980773926,8|0,0:0|0:0,0:0:0:0:
337,163,35385,1,8,0:0:0:0:
428,107,35570,1,8,0:3:0:0:
375,14,35755,1,8,0:1:0:0:
337,163,36126,6,0,L|343:297,1,125.999996154785,4|0,0:0|0:0,0:0:0:0:
283,373,36681,1,8,0:0:0:0:
283,373,36866,2,0,P|249:359|205:363,1,62.9999980773926,8|0,0:3|0:0,0:0:0:0:
95,384,37237,6,0,L|99:320,1,62.9999980773926,6|0,0:0|0:0,0:0:0:0:
0,182,37607,2,0,L|4:246,1,62.9999980773926,2|0,0:0|0:0,0:0:0:0:
12,346,37978,1,10,0:0:0:0:
12,346,38348,1,2,0:0:0:0:
106,242,38533,1,0,0:0:0:0:
223,358,38718,2,0,B|270:353|270:353|298:359|298:359|347:355,1,125.999996154785,8|8,0:1|0:1,0:0:0:0:
498,253,39459,6,0,L|427:246,1,62.9999980773926,10|0,0:0|0:0,0:0:0:0:
312,127,39829,2,0,L|383:120,1,62.9999980773926,2|0,0:0|0:0,0:0:0:0:
328,233,40200,1,8,0:1:0:0:
328,233,40570,1,2,0:0:0:0:
230,192,40755,1,0,0:0:0:0:
189,331,40940,2,0,B|116:304|130:354|50:324,1,125.999996154785,10|2,0:0|0:0,0:0:0:0:
0,263,41496,1,8,0:0:0:0:
95,180,41681,6,0,P|99:148|95:117,1,62.9999980773926,8|0,0:1|0:0,0:0:0:0:
0,9,42051,2,0,P|25:27|54:39,1,62.9999980773926,8|0,0:1|0:0,0:0:0:0:
197,13,42422,2,0,P|167:25|142:43,1,62.9999980773926,8|0,0:0|0:0,0:0:0:0:
95,180,42792,1,2,0:0:0:0:
215,256,42977,1,0,0:0:0:0:
215,256,43070,1,0,0:0:0:0:
215,256,43163,2,0,L|279:251,1,62.9999980773926,8|0,0:1|0:0,0:0:0:0:
421,364,43533,6,0,L|357:360,1,62.9999980773926,2|0,0:0|0:0,0:0:0:0:
253,352,43904,1,8,0:0:0:0:
253,352,44274,1,2,0:0:0:0:
360,244,44459,1,2,0:0:0:0:
211,174,44644,6,0,B|162:178|162:178|134:172|134:172|82:177,1,125.999996154785,8|8,0:1|0:1,0:0:0:0:
3,235,45200,1,0,0:0:0:0:
133,329,45385,2,0,P|136:298|132:267,1,62.9999980773926,10|0,0:0|0:0,0:0:0:0:
211,111,45755,2,0,P|207:143|211:174,1,62.9999980773926,2|0,0:0|0:0,0:0:0:0:
289,280,46126,6,0,L|372:273,1,62.9999980773926,8|0,0:1|0:0,0:0:0:0:
493,372,46496,2,0,L|410:365,1,62.9999980773926,2|0,0:0|0:0,0:0:0:0:
494,258,46866,2,0,P|512:198|494:139,1,125.999996154785,10|2,0:0|0:0,0:0:0:0:
442,36,47422,1,0,0:0:0:0:
442,36,47514,1,0,0:0:0:0:
442,36,47607,6,0,L|504:31,2,62.9999980773926,8|8|8,0:1|0:0|0:1,0:0:0:0:
270,0,48348,2,0,B|274:49|274:49|268:77|268:77|272:124,1,125.999996154785,12|8,0:0|0:1,0:0:0:0:
284,220,48903,1,0,0:0:0:0:
197,350,49088,6,0,P|138:329|80:349,1,125.999996154785,8|2,0:1|0:0,0:0:0:0:
0,212,49829,2,0,L|62:217,1,62.9999980773926,10|0,0:0|0:0,0:0:0:0:
163,131,50200,1,2,0:0:0:0:
163,131,50385,1,8,0:0:0:0:
50,13,50570,2,0,P|29:68|45:145,1,125.999996154785,8|8,0:1|0:1,0:0:0:0:
168,220,51311,6,0,B|207:208|207:208|295:220,1,125.999996154785,10|2,0:0|0:0,0:0:0:0:
465,118,52051,2,0,P|433:122|401:118,1,62.9999980773926,8|0,0:1|0:0,0:0:0:0:
293,23,52421,2,0,P|311:48|323:77,1,62.9999980773926,2|0,0:0|0:0,0:0:0:0:
291,219,52792,2,0,P|303:189|321:164,1,62.9999980773926,10|0,0:0|0:0,0:0:0:0:
465,118,53163,1,2,0:0:0:0:
507,260,53348,1,10,0:0:0:0:
507,260,53440,1,8,0:0:0:0:
507,260,53533,6,0,P|518:321|507:383,1,125.999996154785,8|8,0:1|0:1,0:0:0:0:
323,287,54274,2,0,P|311:225|321:163,1,125.999996154785,8|2,0:0|0:0,0:0:0:0:
359,77,54829,1,0,0:0:0:0:
223,13,55014,6,0,L|151:19,1,62.9999980773926,8|0,0:1|0:0,0:0:0:0:
22,123,55384,2,0,L|94:129,1,62.9999980773926,2|0,0:0|0:0,0:0:0:0:
193,139,55755,1,10,0:0:0:0:
193,139,56125,1,2,0:0:0:0:
131,226,56310,1,8,0:0:0:0:
22,123,56496,6,0,P|10:62|22:1,1,125.999996154785,8|8,0:1|0:1,0:0:0:0:
256,80,57237,2,0,P|268:142|256:203,1,125.999996154785,10|2,0:0|0:0,0:0:0:0:
225,287,57792,1,2,0:0:0:0:
376,282,57977,6,0,L|447:279,1,62.9999980773926,8|0,0:1|0:0,0:0:0:0:
512,209,58348,1,2,0:0:0:0:
440,139,58533,1,8,0:1:0:0:
376,282,58718,6,0,L|382:366,1,62.9999980773926,8|0,0:0|0:0,0:0:0:0:
318,211,59088,1,8,0:1:0:0:
250,321,59274,2,0,L|256:405,1,62.9999980773926,0|2,0:0|0:0,0:0:0:0:
192,250,59644,1,8,0:1:0:0:
118,361,59829,2,0,P|78:366|51:360,1,62.9999980773926,8|0,0:0|0:0,0:0:0:0:
0,211,60200,5,10,0:0:0:0:
148,152,60385,1,10,0:0:0:0:
148,152,60477,1,8,0:0:0:0:
148,152,60570,1,8,0:3:0:0:
87,290,60755,1,8,0:3:0:0:
207,366,60940,6,0,B|244:363|244:363|267:368|267:368|307:365,1,97.9999970092774,6|2,0:0|0:0,0:0:0:0:
451,267,61681,2,0,B|414:264|414:264|391:269|391:269|351:266,1,97.9999970092774,8|2,0:1|0:0,0:0:0:0:
255,120,62422,2,0,P|290:91|348:94,1,97.9999970092774,8|2,0:1|0:0,0:0:0:0:
425,130,62977,1,0,0:0:0:0:
425,130,63163,2,0,L|420:190,1,48.9999985046387,8|2,0:1|0:0,0:0:0:0:
333,246,63533,2,0,L|328:186,1,48.9999985046387,2|0,0:0|0:0,0:0:0:0:
255,120,63903,6,0,B|224:128|224:128|145:118,1,97.9999970092774,8|2,0:1|0:0,0:0:0:0:
10,215,64644,2,0,B|41:207|41:207|120:217,1,97.9999970092774,8|2,0:1|0:0,0:0:0:0:
179,275,65200,1,2,0:0:0:0:
179,275,65385,2,0,P|175:307|183:339,1,48.9999985046387,8|0,0:1|0:0,0:0:0:0:
277,259,65755,2,0,P|257:284|248:316,1,48.9999985046387,2|0,0:0|0:0,0:0:0:0:
375,293,66126,2,0,P|345:305|321:328,2,48.9999985046387,8|0|2,0:0|0:0|0:0,0:0:0:0:
501,379,66866,6,0,L|403:376,1,97.9999970092774,8|2,0:1|0:0,0:0:0:0:
277,259,67607,1,8,0:1:0:0:
277,259,67792,2,0,P|268:212|279:164,1,97.9999970092774,2|2,0:0|0:0,0:0:0:0:
350,111,68348,2,0,L|407:114,1,48.9999985046387,8|2,0:1|0:0,0:0:0:0:
326,28,68718,2,0,L|269:31,1,48.9999985046387,2|2,0:0|0:0,0:0:0:0:
214,92,69088,1,8,0:1:0:0:
127,75,69274,1,2,0:0:0:0:
40,59,69459,1,2,0:0:0:0:
40,59,69829,6,0,B|49:97|49:97|40:158,1,97.9999970092774,8|2,0:1|0:0,0:0:0:0:
23,255,70385,1,8,0:1:0:0:
23,255,70570,2,0,P|72:239|126:248,1,97.9999970092774,10|2,0:0|0:0,0:0:0:0:
213,267,71126,1,2,0:0:0:0:
276,165,71311,2,0,L|227:167,1,48.9999985046387,8|0,0:1|0:0,0:0:0:0:
154,82,71681,2,0,L|202:84,1,48.9999985046387,8|0,0:1|0:0,0:0:0:0:
305,24,72051,5,10,0:0:0:0:
402,226,72237,1,2,0:0:0:0:
457,73,72422,1,10,0:0:0:0:
276,165,72607,1,10,0:0:0:0:
451,287,72792,6,0,P|476:231|456:173,1,125.999996154785,6|8,0:0|0:1,0:0:0:0:
281,51,73533,2,0,P|255:110|284:173,1,125.999996154785,10|2,0:0|0:0,0:0:0:0:
394,69,74088,1,10,0:0:0:0:
394,69,74274,2,0,L|475:74,1,62.9999980773926,8|8,0:1|0:0,0:0:0:0:
338,160,74644,2,0,L|257:165,1,62.9999980773926,8|0,0:1|0:0,0:0:0:0:
393,252,75014,2,0,L|474:257,2,62.9999980773926,10|0|0,0:0|0:0|0:0,0:0:0:0:
325,327,75570,1,0,0:0:0:0:
275,163,75755,6,0,B|233:176|233:176|152:160,1,125.999996154785,8|8,0:1|0:1,0:0:0:0:
0,318,76496,2,0,B|42:305|42:305|126:321,1,125.999996154785,10|10,0:0|0:0,0:0:0:0:
296,372,77051,1,8,0:1:0:0:
296,372,77237,2,0,L|291:291,1,62.9999980773926,8|8,0:1|0:0,0:0:0:0:
201,165,77607,2,0,L|196:246,1,62.9999980773926,8|2,0:1|0:0,0:0:0:0:
126,383,77977,2,0,L|121:302,2,62.9999980773926,12|0|0,0:0|0:0|0:0,0:0:0:0:
0,318,78533,1,8,0:0:0:0:
79,165,78718,6,0,P|139:180|200:165,1,125.999996154785,6|8,0:0|0:1,0:0:0:0:
353,1,79459,2,0,P|309:45|292:105,1,125.999996154785,10|2,0:0|0:0,0:0:0:0:
411,196,80014,1,8,0:0:0:0:
411,196,80200,2,0,L|473:192,1,62.9999980773926,8|0,0:1|0:0,0:0:0:0:
381,303,80570,2,0,L|300:298,1,62.9999980773926,8|8,0:1|0:1,0:0:0:0:
211,193,80940,5,14,0:0:0:0:
329,70,81126,2,0,P|335:100|330:131,1,62.9999980773926,2|8,0:0|0:1,0:0:0:0:
329,131,81496,1,8,0:1:0:0:
201,42,81681,5,10,0:0:0:0:
61,221,81866,1,8,0:1:0:0:
75,39,82051,6,0,L|87:117,1,62.9999980773926,8|0,0:0|0:0,0:0:0:0:
193,254,82421,2,0,L|205:176,1,62.9999980773926,8|0,0:3|0:0,0:0:0:0:
256,28,82792,5,10,0:0:0:0:
387,189,82977,1,8,0:3:0:0:
202,191,83163,5,8,0:3:0:0:
371,81,83348,1,8,0:3:0:0:
314,290,83533,5,8,0:3:0:0:
171,105,83718,1,8,0:3:0:0:
112,350,83903,5,6,0:0:0:0:
210,28,84644,6,0,L|217:115,1,77.0000023498536,6|2,0:0|0:0,0:0:0:0:
234,275,85014,1,8,0:1:0:0:
113,184,85200,1,2,0:0:0:0:
300,161,85385,2,0,L|387:154,1,77.0000023498536,10|0,0:0|0:0,0:0:0:0:
491,283,85755,2,0,L|404:276,1,77.0000023498536,2|8,0:0|0:0,0:0:0:0:
254,375,86126,6,0,B|196:370|196:370|154:378|154:378|81:369,1,154.000004699707,8|8,0:1|0:1,0:0:0:0:
4,291,86682,1,2,0:0:0:0:
153,217,86867,2,0,P|159:256|153:294,1,77.0000023498536,10|0,0:0|0:0,0:0:0:0:
5,367,87236,2,0,P|-1:328|5:290,1,77.0000023498536,2|0,0:0|0:0,0:0:0:0:
153,217,87607,6,0,L|240:224,1,77.0000023498536,8|2,0:1|0:0,0:0:0:0:
396,232,87977,1,8,0:1:0:0:
305,132,88163,1,2,0:0:0:0:
279,295,88348,2,0,P|273:332|278:370,1,77.0000023498536,10|0,0:0|0:0,0:0:0:0:
464,272,88718,2,0,P|470:234|464:196,1,77.0000023498536,2|8,0:0|0:0,0:0:0:0:
336,33,89088,6,0,B|278:38|278:38|236:30|236:30|163:39,1,154.000004699707,8|8,0:1|0:1,0:0:0:0:
86,116,89644,1,2,0:0:0:0:
235,191,89829,2,0,P|241:152|235:114,1,77.0000023498536,10|2,0:0|0:0,0:0:0:0:
87,41,90200,2,0,P|81:80|87:118,1,77.0000023498536,2|0,0:0|0:0,0:0:0:0:
147,268,90570,6,0,B|54:251|92:308|0:292,1,154.000004699707,8|2,0:1|0:0,0:0:0:0:
27,207,91126,1,8,0:1:0:0:
117,353,91311,2,0,L|198:345,1,77.0000023498536,8|2,0:0|0:0,0:0:0:0:
327,258,91681,1,2,0:0:0:0:
298,384,91866,1,2,0:0:0:0:
147,268,92051,6,0,P|128:195|147:121,1,154.000004699707,8|8,0:1|0:1,0:0:0:0:
377,29,92792,2,0,P|396:102|377:176,1,154.000004699707,10|2,0:0|0:0,0:0:0:0:
327,258,93348,1,0,0:0:0:0:
224,115,93533,6,0,L|139:120,1,77.0000023498536,8|0,0:1|0:0,0:0:0:0:
15,235,93903,2,0,L|100:240,1,77.0000023498536,2|8,0:0|0:1,0:0:0:0:
23,47,94274,2,0,P|11:88|25:141,1,77.0000023498536,10|0,0:0|0:0,0:0:0:0:
219,317,94644,2,0,P|231:276|217:223,1,77.0000023498536,8|8,0:1|0:0,0:0:0:0:
147,119,95014,5,8,0:1:0:0:
401,184,95200,1,8,0:1:0:0:
287,0,95384,2,0,P|300:48|297:94,1,77.0000023498536,10|8,0:0|0:1,0:0:0:0:
226,242,95755,5,10,0:0:0:0:
153,48,95940,1,8,0:1:0:0:
79,210,96126,1,8,0:3:0:0:
241,147,96311,1,8,0:3:0:0:
327,317,96495,6,0,L|240:310,1,77.0000023498536,6|2,0:0|0:0,0:0:0:0:
100,293,96866,1,2,0:0:0:0:
189,195,97051,1,2,0:0:0:0:
136,358,97237,2,0,P|66:360|30:273,1,154.000004699707,10|2,0:0|0:0,0:0:0:0:
90,192,97792,1,8,0:0:0:0:
251,311,97977,6,0,L|338:304,1,77.0000023498536,8|0,0:1|0:0,0:0:0:0:
503,335,98348,1,8,0:1:0:0:
381,218,98533,1,2,0:0:0:0:
389,384,98718,1,10,0:0:0:0:
510,244,98903,2,0,B|503:192|503:192|511:150|511:150|506:92,1,154.000004699707,2|0,0:0|0:0,0:0:0:0:
323,27,99459,6,0,P|284:21|246:27,1,77.0000023498536,8|8,0:1|0:1,0:0:0:0:
152,122,99829,1,2,0:0:0:0:
118,0,100014,1,8,0:1:0:0:
286,98,100200,2,0,B|325:106|325:106|361:98,1,77.0000023498536,10|0,0:0|0:0,0:0:0:0:
479,214,100570,2,0,B|440:206|440:206|403:213,1,77.0000023498536,8|0,0:1|0:0,0:0:0:0:
215,240,100940,6,0,P|221:279|215:317,1,77.0000023498536,8|8,0:1|0:0,0:0:0:0:
45,250,101311,1,8,0:1:0:0:
157,383,101496,1,8,0:1:0:0:
132,203,101681,1,10,0:0:0:0:
34,343,101866,1,2,0:0:0:0:
215,240,102051,2,0,P|221:201|215:163,1,77.0000023498536,8|8,0:0|0:0,0:0:0:0:
379,11,102422,6,0,P|452:10|489:73,1,154.000004699707,6|2,0:0|0:0,0:0:0:0:
367,168,102977,1,8,0:1:0:0:
367,168,103163,2,0,B|315:161|315:161|273:169|273:169|215:164,1,154.000004699707,10|8,0:0|0:1,0:0:0:0:
133,89,103718,1,8,0:1:0:0:
133,89,103811,1,8,0:1:0:0:
133,89,103903,5,8,0:0:0:0:
31,282,104088,1,8,0:0:0:0:
0,75,104274,5,8,0:1:0:0:
156,228,104459,1,8,0:1:0:0:
193,55,104644,5,8,0:3:0:0:
70,195,104829,1,8,0:3:0:0:
234,166,105014,5,8,0:3:0:0:
97,62,105200,1,8,0:3:0:0:
290,0,105384,5,6,0:0:0:0:
256,192,105477,12,6,108347,0:0:0:0:
449,251,117237,6,0,P|480:255|511:251,1,62.9999980773926,6|0,0:0|0:0,0:0:0:0:
370,314,117607,2,0,P|366:345|370:376,1,62.9999980773926,8|0,0:1|0:0,0:0:0:0:
479,177,117977,1,10,0:0:0:0:
445,344,118163,1,0,0:0:0:0:
351,213,118348,2,0,L|265:220,1,62.9999980773926,8|0,0:1|0:0,0:0:0:0:
166,336,118718,2,0,L|252:343,1,62.9999980773926,8|0,0:1|0:0,0:0:0:0:
163,224,119088,1,8,0:1:0:0:
163,224,119459,6,0,P|148:164|169:92,1,125.999996154785,10|8,0:0|0:1,0:0:0:0:
317,0,120200,2,0,L|310:86,1,62.9999980773926,8|0,0:1|0:0,0:0:0:0:
432,173,120570,1,8,0:1:0:0:
409,45,120755,1,0,0:0:0:0:
294,168,120940,2,0,L|208:161,1,62.9999980773926,10|0,0:0|0:0,0:0:0:0:
73,149,121311,1,8,0:1:0:0:
146,269,121496,1,10,0:0:0:0:
177,104,121681,6,0,P|210:84|257:91,1,62.9999980773926,8|8,0:1|0:0,0:0:0:0:
340,206,122051,2,0,P|306:187|288:143,1,62.9999980773926,8|0,0:1|0:0,0:0:0:0:
347,13,122422,2,0,P|347:51|318:88,1,62.9999980773926,8|0,0:0|0:0,0:0:0:0:
215,11,122792,1,8,0:1:0:0:
164,153,122977,1,8,0:0:0:0:
164,153,123070,1,8,0:0:0:0:
164,153,123163,2,0,L|100:149,1,62.9999980773926,8|0,0:1|0:0,0:0:0:0:
4,286,123533,6,0,L|68:282,1,62.9999980773926,8|0,0:1|0:0,0:0:0:0:
183,277,123903,1,10,0:0:0:0:
183,277,124274,1,8,0:1:0:0:
101,149,124459,1,10,0:0:0:0:
101,149,124551,1,8,0:0:0:0:
101,149,124644,2,0,P|97:118|101:87,2,62.9999980773926,8|8|8,0:1|0:0|0:1,0:0:0:0:
183,277,125385,6,0,B|226:262|226:262|305:277,1,125.999996154785,10|8,0:0|0:1,0:0:0:0:
398,295,125940,1,0,0:0:0:0:
366,179,126126,2,0,P|360:148|365:117,1,62.9999980773926,8|0,0:1|0:0,0:0:0:0:
491,31,126496,2,0,P|466:50|437:62,1,62.9999980773926,8|8,0:1|0:1,0:0:0:0:
297,0,126866,2,0,P|326:11|350:30,1,62.9999980773926,14|0,0:0|0:0,0:0:0:0:
366,179,127237,1,8,0:1:0:0:
271,255,127422,1,8,0:0:0:0:
271,255,127514,1,8,0:0:0:0:
271,255,127607,6,0,L|185:248,1,62.9999980773926,8|8,0:1|0:1,0:0:0:0:
75,141,127977,2,0,L|161:134,1,62.9999980773926,12|0,0:0|0:0,0:0:0:0:
72,253,128347,1,12,0:0:0:0:
72,253,128718,1,8,0:0:0:0:
141,343,128903,1,8,0:0:0:0:
271,255,129088,6,0,L|357:249,1,62.9999980773926,6|0,0:0|0:0,0:0:0:0:
472,362,129459,2,0,L|386:356,1,62.9999980773926,2|0,0:0|0:0,0:0:0:0:
307,352,129829,1,10,0:0:0:0:
307,352,130200,1,2,0:0:0:0:
414,247,130385,1,8,0:0:0:0:
268,130,130570,2,0,B|272:179|272:179|266:207|266:207|271:259,1,125.999996154785,8|2,0:1|0:0,0:0:0:0:
134,367,131311,6,0,P|78:371|33:297,1,125.999996154785,10|2,0:0|0:0,0:0:0:0:
108,128,132051,2,0,L|102:214,1,62.9999980773926,8|0,0:1|0:0,0:0:0:0:
233,299,132422,2,0,L|227:213,1,62.9999980773926,2|0,0:0|0:0,0:0:0:0:
222,134,132792,1,10,0:0:0:0:
222,134,133163,1,2,0:0:0:0:
359,47,133348,1,10,0:0:0:0:
359,47,133440,1,8,0:0:0:0:
359,47,133533,6,0,P|415:43|460:117,1,125.999996154785,8|2,0:1|0:0,0:0:0:0:
376,204,134088,1,0,0:0:0:0:
376,204,134274,2,0,B|327:200|327:200|299:206|299:206|247:201,1,125.999996154785,8|2,0:0|0:0,0:0:0:0:
193,127,134829,1,0,0:0:0:0:
101,209,135014,6,0,P|97:241|101:273,1,62.9999980773926,8|0,0:1|0:0,0:0:0:0:
197,381,135384,2,0,P|172:363|143:351,1,62.9999980773926,2|0,0:0|0:0,0:0:0:0:
0,383,135755,2,0,P|30:371|55:353,1,62.9999980773926,10|0,0:0|0:0,0:0:0:0:
100,271,136126,1,2,0:0:0:0:
14,191,136311,1,8,0:0:0:0:
14,191,136403,1,8,0:0:0:0:
14,191,136496,6,0,P|-3:131|13:72,1,125.999996154785,8|2,0:1|0:0,0:0:0:0:
213,0,137237,2,0,P|230:60|214:119,1,125.999996154785,10|2,0:0|0:0,0:0:0:0:
170,198,137792,1,0,0:0:0:0:
312,250,137977,6,0,L|383:247,1,62.9999980773926,8|0,0:1|0:0,0:0:0:0:
444,173,138348,1,2,0:0:0:0:
370,105,138533,1,8,0:1:0:0:
312,250,138718,6,0,P|308:282|312:314,1,62.9999980773926,8|0,0:0|0:0,0:0:0:0:
229,370,139088,1,8,0:1:0:0:
152,305,139273,1,0,0:0:0:0:
75,371,139459,6,0,P|43:375|11:371,1,62.9999980773926,2|8,0:0|0:1,0:0:0:0:
120,235,139829,2,0,P|152:231|184:235,1,62.9999980773926,2|8,0:0|0:1,0:0:0:0:
311,312,140200,5,10,0:0:0:0:
446,228,140385,1,10,0:0:0:0:
446,228,140477,1,8,0:0:0:0:
446,228,140570,1,8,0:3:0:0:
412,374,140755,1,8,0:3:0:0:
321,224,140940,6,0,P|311:174|326:122,1,97.9999970092774,6|2,0:0|0:0,0:0:0:0:
186,17,141681,2,0,P|196:67|181:119,1,97.9999970092774,8|2,0:1|0:0,0:0:0:0:
39,212,142422,2,0,B|30:264|30:264|39:309,1,97.9999970092774,8|2,0:1|0:0,0:0:0:0:
116,361,142977,1,0,0:0:0:0:
116,361,143163,2,0,L|176:356,1,48.9999985046387,8|2,0:1|0:0,0:0:0:0:
232,269,143533,2,0,L|172:264,1,48.9999985046387,2|0,0:0|0:0,0:0:0:0:
39,212,143903,6,0,P|29:162|44:110,1,97.9999970092774,8|2,0:1|0:0,0:0:0:0:
194,27,144644,1,8,0:1:0:0:
194,27,144829,2,0,L|194:2,2,24.4999992523194,0|0|2,0:0|0:0|0:0,0:0:0:0:
265,88,145200,1,2,0:0:0:0:
265,88,145385,2,0,L|325:83,1,48.9999985046387,8|0,0:1|0:0,0:0:0:0:
246,180,145755,2,0,L|186:175,1,48.9999985046387,2|0,0:0|0:0,0:0:0:0:
281,259,146126,2,0,L|341:254,2,48.9999985046387,8|0|2,0:0|0:0|0:0,0:0:0:0:
148,375,146866,6,0,B|111:372|111:372|88:377|88:377|48:374,1,97.9999970092774,8|2,0:1|0:0,0:0:0:0:
4,209,147607,1,8,0:1:0:0:
4,209,147792,2,0,P|41:179|89:179,1,97.9999970092774,2|2,0:0|0:0,0:0:0:0:
164,228,148348,2,0,L|161:285,1,48.9999985046387,8|2,0:1|0:0,0:0:0:0:
247,204,148718,2,0,L|244:147,1,48.9999985046387,2|2,0:0|0:0,0:0:0:0:
238,67,149088,1,8,0:1:0:0:
325,84,149274,1,2,0:0:0:0:
407,52,149459,1,2,0:0:0:0:
407,52,149829,6,0,P|445:70|459:123,1,97.9999970092774,8|2,0:1|0:0,0:0:0:0:
378,199,150385,1,8,0:1:0:0:
378,199,150570,2,0,B|340:197|340:197|318:203|318:203|278:201,1,97.9999970092774,10|2,0:0|0:0,0:0:0:0:
184,142,151126,1,8,0:1:0:0:
114,230,151311,2,0,P|110:253|113:277,1,48.9999985046387,10|8,0:0|0:1,0:0:0:0:
163,379,151681,1,2,0:0:0:0:
259,321,151866,1,8,0:1:0:0:
463,368,152051,6,0,L|512:364,1,48.9999985046387,10|0,0:0|0:0,0:0:0:0:
434,235,152421,1,10,0:0:0:0:
359,373,152607,1,10,0:0:0:0:
256,192,152792,6,0,B|214:179|214:179|133:195,1,125.999996154785,6|8,0:0|0:1,0:0:0:0:
0,363,153533,2,0,B|42:376|42:376|123:360,1,125.999996154785,10|2,0:0|0:0,0:0:0:0:
15,211,154088,1,10,0:0:0:0:
15,211,154274,2,0,L|20:130,1,62.9999980773926,8|8,0:1|0:0,0:0:0:0:
123,30,154644,2,0,L|128:111,1,62.9999980773926,8|0,0:1|0:0,0:0:0:0:
226,214,155014,2,0,L|231:133,1,62.9999980773926,10|0,0:0|0:0,0:0:0:0:
325,25,155385,1,0,0:0:0:0:
398,94,155570,1,0,0:0:0:0:
230,152,155755,6,0,P|168:138|107:151,1,125.999996154785,8|8,0:1|0:1,0:0:0:0:
7,341,156496,2,0,P|68:354|129:341,1,125.999996154785,10|10,0:0|0:0,0:0:0:0:
257,285,157051,1,8,0:1:0:0:
257,285,157237,2,0,P|287:278|318:284,1,62.9999980773926,8|8,0:1|0:0,0:0:0:0:
432,384,157607,2,0,P|410:360|401:331,1,62.9999980773926,8|2,0:1|0:0,0:0:0:0:
431,183,157977,2,0,P|421:212|400:236,1,62.9999980773926,12|0,0:0|0:0,0:0:0:0:
257,285,158348,1,0,0:0:0:0:
185,215,158533,1,8,0:0:0:0:
67,373,158718,6,0,B|117:370|117:370|143:376|143:376|196:372,1,125.999996154785,6|8,0:0|0:1,0:0:0:0:
310,215,159459,2,0,B|259:217|259:217|233:211|233:211|180:215,1,125.999996154785,10|2,0:0|0:0,0:0:0:0:
103,144,160014,1,8,0:0:0:0:
103,144,160200,2,0,P|98:104|108:68,1,62.9999980773926,8|0,0:1|0:0,0:0:0:0:
229,0,160570,2,0,P|234:40|224:76,1,62.9999980773926,8|8,0:1|0:1,0:0:0:0:
335,196,160940,5,14,0:0:0:0:
435,59,161125,2,0,L|372:62,1,62.9999980773926,2|8,0:0|0:1,0:0:0:0:
372,61,161495,1,8,0:1:0:0:
229,0,161681,5,10,0:0:0:0:
129,203,161866,1,8,0:1:0:0:
38,52,162051,6,0,P|70:61|108:57,1,62.9999980773926,8|0,0:0|0:0,0:0:0:0:
248,202,162421,2,0,P|197:180|152:196,1,94.499997116089,10|0,0:0|0:0,0:0:0:0:
129,203,162792,5,2,0:0:0:0:
54,371,162977,1,8,0:1:0:0:
243,326,163163,5,8,0:3:0:0:
43,241,163348,1,8,0:3:0:0:
259,146,163533,5,8,0:3:0:0:
155,354,163718,1,8,0:3:0:0:
90,118,163903,5,14,0:0:0:0:
90,118,164274,5,8,0:0:0:0:
179,175,164459,1,8,0:0:0:0:
72,289,164644,6,0,P|66:250|72:213,1,77.0000023498536,6|2,0:0|0:0,0:0:0:0:
120,42,165014,1,2,0:0:0:0:
0,122,165200,1,2,0:0:0:0:
179,175,165385,2,0,L|266:168,1,77.0000023498536,10|0,0:0|0:0,0:0:0:0:
148,295,165755,2,0,L|61:288,1,77.0000023498536,2|8,0:0|0:0,0:0:0:0:
239,376,166126,6,0,B|284:363|284:363|404:381,1,154.000004699707,8|8,0:1|0:1,0:0:0:0:
496,278,166682,1,2,0:0:0:0:
347,210,166867,2,0,P|341:249|347:287,1,77.0000023498536,10|0,0:0|0:0,0:0:0:0:
496,354,167236,2,0,P|502:315|496:277,1,77.0000023498536,2|0,0:0|0:0,0:0:0:0:
347,210,167607,6,0,L|270:216,1,77.0000023498536,8|2,0:1|0:0,0:0:0:0:
101,225,167977,1,2,0:0:0:0:
214,335,168163,1,2,0:0:0:0:
193,147,168348,2,0,P|187:108|193:70,1,77.0000023498536,10|0,0:0|0:0,0:0:0:0:
356,0,168719,2,0,P|362:39|356:77,1,77.0000023498536,2|8,0:0|0:0,0:0:0:0:
472,232,169088,6,0,P|504:298|471:365,1,154.000004699707,8|8,0:1|0:1,0:0:0:0:
376,225,169643,1,2,0:0:0:0:
328,375,169828,1,10,0:0:0:0:
276,302,170014,2,0,B|334:297|334:297|376:305|376:305|449:296,1,154.000004699707,2|0,0:0|0:0,0:0:0:0:
512,100,170570,6,0,P|476:41|394:60,1,154.000004699707,8|2,0:1|0:0,0:0:0:0:
332,115,171126,1,8,0:1:0:0:
435,211,171311,2,0,L|512:205,1,77.0000023498536,8|2,0:0|0:0,0:0:0:0:
415,325,171681,1,2,0:0:0:0:
335,242,171866,1,2,0:0:0:0:
202,377,172051,6,0,B|158:362|158:362|52:379,1,154.000004699707,8|8,0:1|0:1,0:0:0:0:
0,138,172792,2,0,B|44:153|44:153|150:136,1,154.000004699707,10|2,0:0|0:0,0:0:0:0:
240,114,173348,1,0,0:0:0:0:
202,301,173533,6,0,P|196:340|202:378,1,77.0000023498536,8|0,0:1|0:0,0:0:0:0:
120,235,173903,2,0,P|81:229|43:235,1,77.0000023498536,2|8,0:0|0:1,0:0:0:0:
274,340,174274,1,10,0:0:0:0:
81,356,174459,1,0,0:0:0:0:
220,199,174644,2,0,L|297:196,1,77.0000023498536,8|8,0:1|0:0,0:0:0:0:
512,64,175014,5,8,0:1:0:0:
407,256,175200,1,8,0:1:0:0:
309,39,175385,1,10,0:0:0:0:
309,39,175755,5,10,0:0:0:0:
189,200,175941,1,8,0:1:0:0:
168,63,176126,1,8,0:3:0:0:
317,184,176310,1,8,0:3:0:0:
512,64,176496,6,0,P|506:101|512:139,1,77.0000023498536,6|2,0:0|0:0,0:0:0:0:
387,223,176866,2,0,P|392:185|386:147,1,77.0000023498536,2|2,0:0|0:0,0:0:0:0:
258,24,177237,2,0,B|210:39|210:39|97:24,1,154.000004699707,10|2,0:0|0:0,0:0:0:0:
31,90,177792,1,8,0:0:0:0:
146,219,177977,6,0,P|184:203|229:207,1,77.0000023498536,8|0,0:1|0:0,0:0:0:0:
411,297,178348,2,0,P|372:297|337:282,1,77.0000023498536,8|2,0:1|0:0,0:0:0:0:
219,204,178718,1,10,0:0:0:0:
391,70,178903,2,0,B|384:122|384:122|392:164|392:164|387:222,1,154.000004699707,2|0,0:0|0:0,0:0:0:0:
236,310,179459,6,0,L|149:303,1,77.0000023498536,8|8,0:1|0:1,0:0:0:0:
2,225,179829,1,2,0:0:0:0:
54,378,180014,1,8,0:1:0:0:
158,213,180200,2,0,P|164:174|158:136,1,77.0000023498536,10|0,0:0|0:0,0:0:0:0:
2,225,180570,2,0,P|-4:264|2:302,1,77.0000023498536,8|8,0:1|0:0,0:0:0:0:
178,377,180940,6,0,B|226:362|226:362|339:377,1,154.000004699707,8|8,0:1|0:1,0:0:0:0:
405,217,181496,1,8,0:1:0:0:
473,379,181681,1,10,0:0:0:0:
317,294,181866,1,2,0:0:0:0:
472,257,182051,2,0,B|479:219|479:219|472:181,1,77.0000023498536,8|8,0:0|0:0,0:0:0:0:
256,65,182422,6,0,B|253:123|253:123|262:164|262:164|256:238,1,154.000004699707,6|2,0:0|0:0,0:0:0:0:
144,321,182977,1,8,0:1:0:0:
144,321,183163,2,0,P|71:322|34:259,1,154.000004699707,10|8,0:0|0:1,0:0:0:0:
97,130,183718,1,8,0:1:0:0:
97,130,183811,1,0,0:0:0:0:
97,130,183903,5,2,0:0:0:0:
225,288,184088,1,8,0:1:0:0:
255,99,184273,5,10,0:0:0:0:
109,255,184458,1,8,0:1:0:0:
357,293,184644,5,10,0:0:0:0:
171,148,184829,1,8,0:0:0:0:
398,128,185014,5,10,0:0:0:0:
218,308,185199,1,8,0:0:0:0:
472,374,185384,5,6,0:0:0:0:
256,192,185477,12,4,188348,0:0:0:0:
455,140,200200,5,8,0:1:0:0:
455,140,200570,1,8,0:1:0:0:
455,140,200940,6,0,B|377:146,1,70,10|2,0:0|0:0,0:0:0:0:
278,56,201310,1,10,0:0:0:0:
157,238,201495,2,0,B|237:245,1,70,8|2,0:1|0:0,0:0:0:0:
385,145,201866,1,10,0:0:0:0:
209,21,202051,2,0,B|203:55|203:55|209:93,1,70,8|2,0:1|0:0,0:0:0:0:
226,244,202421,5,8,0:0:0:0:
385,145,202607,1,0,0:0:0:0:
365,321,202792,1,2,0:0:0:0:
251,162,202977,1,8,0:0:0:0:
173,352,203162,2,0,P|146:340|105:342,1,70,8|0,0:1|0:0,0:0:0:0:
86,351,203440,1,8,0:0:0:0:
86,351,203533,1,8,0:1:0:0:
0,259,203718,1,8,0:3:0:0:
183,164,203903,6,0,B|216:170|216:170|257:163,1,70,8|8,0:3|0:3,0:0:0:0:
364,76,204274,1,8,0:3:0:0:
487,250,204459,2,0,B|452:245|452:245|414:251,1,70,6|2,0:0|0:0,0:0:0:0:
308,291,204829,1,0,0:0:0:0:
434,109,205014,2,0,P|439:74|433:40,1,70,6|2,0:0|0:0,0:0:0:0:
251,163,205384,1,10,0:0:0:0:
325,6,205570,1,8,0:0:0:0:
467,185,205755,2,0,B|394:181,1,70,10|10,0:0|0:0,0:0:0:0:
251,163,206125,6,0,L|257:218,3,35,6|0|0|0,0:0|0:0|0:0|0:0,0:0:0:0:
335,300,206495,2,0,L|343:245,3,35,8|0|0|0,0:1|0:0|0:0|0:0,0:0:0:0:
254,381,206866,1,8,0:0:0:0:
223,366,206958,1,0,0:0:0:0:
188,359,207051,1,0,0:0:0:0:
153,366,207144,1,0,0:0:0:0:
122,384,207236,1,8,0:3:0:0:
32,317,207421,1,0,0:0:0:0:
127,199,207607,6,0,P|132:169|125:128,1,70,8|8,0:1|0:3,0:0:0:0:
91,0,207977,1,0,0:0:0:0:
0,78,208162,1,8,0:1:0:0:
125,130,208347,2,0,B|203:124,1,70,8|8,0:0|0:1,0:0:0:0:
351,164,208718,1,0,0:0:0:0:
256,25,208903,1,8,0:1:0:0:
165,211,209088,6,0,P|158:248|165:286,1,77.0000023498536,6|2,0:0|0:0,0:0:0:0:
351,164,209458,1,10,0:0:0:0:
295,356,209644,1,6,0:0:0:0:
295,356,210014,1,8,0:1:0:0:
230,155,210199,1,6,0:0:0:0:
396,256,210384,1,2,0:0:0:0:
154,317,210570,5,10,0:0:0:0:
319,131,210755,1,2,0:0:0:0:
371,355,210940,1,8,0:3:0:0:
202,120,211125,1,2,0:0:0:0:
104,315,211310,5,2,0:0:0:0:
294,237,211495,1,2,0:0:0:0:
123,165,211681,1,8,0:3:0:0:
198,345,211866,1,8,0:3:0:0:
362,265,212051,6,0,P|368:237|362:210,1,56,6|2,0:0|0:0,0:0:0:0:
314,79,212422,1,2,0:0:0:0:
416,136,212607,1,2,0:0:0:0:
279,184,212792,2,0,B|251:189|251:189|223:184,1,56,10|0,0:0|0:0,0:0:0:0:
139,289,213163,2,0,B|167:284|167:284|195:289,1,56,2|0,0:0|0:0,0:0:0:0:
312,375,213533,6,0,B|352:370|352:370|384:377|384:377|446:371,1,112,2|2,0:0|0:0,0:0:0:0:
489,317,214088,1,0,0:0:0:0:
413,186,214273,1,10,0:0:0:0:
413,186,214458,2,0,P|393:232|339:259,1,112,2|0,0:0|0:0,0:0:0:0:
239,77,215014,6,0,L|242:144,1,56,2|2,0:0|0:0,0:0:0:0:
251,269,215385,1,2,0:0:0:0:
338,182,215570,1,2,0:0:0:0:
186,204,215755,2,0,B|158:209|158:209|130:204,1,56,10|0,0:0|0:0,0:0:0:0:
42,103,216126,2,0,B|70:98|70:98|98:103,1,56,2|0,0:0|0:0,0:0:0:0:
130,204,216496,6,0,B|105:261|149:260|123:312,1,112,2|2,0:0|0:0,0:0:0:0:
44,280,217051,1,2,0:0:0:0:
210,235,217237,1,10,0:0:0:0:
210,235,217422,2,0,B|247:222|247:222|319:235,1,112,2|0,0:0|0:0,0:0:0:0:
459,305,217977,6,0,P|444:251|459:198,1,112,2|2,0:0|0:0,0:0:0:0:
506,122,218533,1,0,0:0:0:0:
432,72,218718,2,0,L|365:75,1,56,10|2,0:0|0:0,0:0:0:0:
311,136,219088,1,2,0:0:0:0:
369,205,219274,1,2,0:0:0:0:
269,303,219459,6,0,B|229:298|229:298|197:305|197:305|135:299,1,112,2|2,0:0|0:0,0:0:0:0:
69,207,220014,1,8,0:3:0:0:
69,207,220107,1,8,0:3:0:0:
69,207,220200,2,0,L|140:201,1,56,10|0,0:0|0:0,0:0:0:0:
226,106,220570,2,0,L|155:100,1,56,10|0,0:0|0:0,0:0:0:0:
269,303,220940,5,2,0:0:0:0:
433,104,221311,5,6,0:0:0:0:
450,361,221681,5,10,0:0:0:0:
256,192,222051,5,2,0:0:0:0:
254,219,222143,1,2,0:0:0:0:
253,247,222236,1,2,0:0:0:0:
251,275,222328,1,2,0:0:0:0:
250,303,222421,5,2,0:0:0:0:
319,85,222607,1,8,0:0:0:0:
432,283,222792,1,6,0:0:0:0:
432,283,223163,5,8,0:0:0:0:
438,54,223348,1,8,0:3:0:0:
256,192,223533,1,2,0:0:0:0:
256,192,223903,6,0,L|178:198,1,77.0000023498536,6|2,0:0|0:0,0:0:0:0:
14,206,224274,1,2,0:0:0:0:
124,305,224459,1,2,0:0:0:0:
93,139,224644,2,0,P|87:104|93:63,1,77.0000023498536,10|0,0:0|0:0,0:0:0:0:
235,0,225014,2,0,P|241:35|235:76,1,77.0000023498536,2|8,0:0|0:0,0:0:0:0:
361,195,225385,6,0,B|416:188|416:188|454:198|454:198|512:191,1,154.000004699707,8|8,0:1|0:1,0:0:0:0:
458,117,225940,1,2,0:0:0:0:
407,270,226126,1,10,0:0:0:0:
314,130,226311,2,0,P|283:190|318:265,1,154.000004699707,2|0,0:0|0:0,0:0:0:0:
154,384,226866,6,0,L|160:306,1,77.0000023498536,2|10,0:0|0:0,0:0:0:0:
172,146,227237,1,2,0:0:0:0:
67,231,227422,1,8,0:1:0:0:
239,268,227607,2,0,L|317:263,1,77.0000023498536,10|0,0:0|0:0,0:0:0:0:
441,379,227977,2,0,L|363:374,1,77.0000023498536,2|8,0:0|0:0,0:0:0:0:
239,268,228348,6,0,P|226:194|276:139,1,154.000004699707,8|8,0:1|0:1,0:0:0:0:
446,169,228903,1,8,0:1:0:0:
299,216,229088,1,10,0:0:0:0:
358,91,229274,1,8,0:1:0:0:
431,254,229459,1,8,0:1:0:0:
299,216,229644,1,0,0:0:0:0:
433,87,229829,6,0,P|410:38|311:34,1,154.000004699707,2|2,0:0|0:0,0:0:0:0:
199,144,230385,1,8,0:1:0:0:
199,144,230570,2,0,L|276:139,1,77.0000023498536,10|8,0:0|0:1,0:0:0:0:
376,287,230940,1,8,0:3:0:0:
349,285,231033,1,8,0:3:0:0:
321,283,231126,1,8,0:3:0:0:
293,281,231218,1,8,0:3:0:0:
265,279,231311,6,0,B|206:274|206:274|177:283|177:283|112:279,1,154.000004699707,6|0,0:0|0:0,0:0:0:0:
112,279,232051,1,8,0:1:0:0:
390,43,232792,6,0,L|385:141,1,83.9999974365235,6|2,0:0|0:0,0:0:0:0:
376,287,233163,1,8,0:1:0:0:
483,203,233348,1,2,0:0:0:0:
279,166,233533,2,0,P|238:156|196:159,1,83.9999974365235,10|0,0:0|0:0,0:0:0:0:
343,358,233903,2,0,P|384:361|425:351,1,83.9999974365235,2|8,0:0|0:0,0:0:0:0:
196,158,234274,6,0,L|206:336,1,167.999994873047,8|2,0:1|0:0,0:0:0:0:
102,275,234829,1,8,0:1:0:0:
300,208,235014,1,10,0:0:0:0:
236,95,235200,2,0,P|172:87|121:167,1,167.999994873047,8|8,0:1|0:1,0:0:0:0:
261,289,235755,6,0,L|359:284,1,83.9999974365235,8|10,0:1|0:0,0:0:0:0:
504,242,236126,1,2,0:0:0:0:
425,369,236311,1,8,0:1:0:0:
370,200,236496,2,0,P|360:159|367:117,1,83.9999974365235,10|0,0:0|0:0,0:0:0:0:
509,22,236866,2,0,P|518:62|511:104,1,83.9999974365235,2|8,0:0|0:0,0:0:0:0:
370,200,237237,6,0,B|315:193|315:193|257:205|257:205|181:197,1,167.999994873047,8|2,0:1|0:0,0:0:0:0:
317,278,237792,1,10,0:0:0:0:
250,121,237977,1,10,0:0:0:0:
196,289,238163,1,8,0:1:0:0:
370,200,238348,1,2,0:0:0:0:
296,48,238533,1,8,0:3:0:0:
296,48,238626,1,8,0:3:0:0:
296,48,238718,6,0,P|216:45|161:126,1,167.999994873047,6|8,0:0|0:1,0:0:0:0:
216,195,239274,1,0,0:0:0:0:
108,263,239459,2,0,L|10:258,1,83.9999974365235,12|2,0:0|0:0,0:0:0:0:
121,384,239829,1,2,0:0:0:0:
207,308,240014,1,2,0:0:0:0:
386,365,240200,6,0,P|467:367|500:288,1,167.999994873047,8|2,0:1|0:0,0:0:0:0:
417,96,240940,2,0,P|336:94|303:173,1,167.999994873047,10|2,0:0|0:0,0:0:0:0:
363,243,241496,1,8,0:1:0:0:
238,298,241681,6,0,P|197:288|141:293,1,83.9999974365235,14|0,0:0|0:0,0:0:0:0:
0,170,242051,2,0,P|41:160|97:165,1,83.9999974365235,2|8,0:0|0:1,0:0:0:0:
10,378,242422,2,0,P|0:337|1:295,1,83.9999974365235,10|0,0:0|0:0,0:0:0:0:
228,90,242792,2,0,P|238:131|233:187,1,83.9999974365235,2|0,0:0|0:0,0:0:0:0:
155,289,243163,5,10,0:0:0:0:
398,228,243348,1,2,0:0:0:0:
163,140,243533,1,2,0:0:0:0:
252,375,243718,1,2,0:0:0:0:
377,108,243903,5,10,0:0:0:0:
127,263,244088,1,8,0:3:0:0:
399,380,244274,1,8,0:3:0:0:
424,346,244366,1,8,0:3:0:0:
433,304,244459,1,8,0:3:0:0:
423,263,244551,1,8,0:3:0:0:
398,228,244644,6,0,L|310:238,1,83.9999974365235,6|2,0:0|0:0,0:0:0:0:
127,263,245014,1,8,0:1:0:0:
206,145,245200,1,2,0:0:0:0:
253,302,245385,2,0,P|261:342|255:383,1,83.9999974365235,14|0,0:0|0:0,0:0:0:0:
61,306,245755,2,0,P|51:265|59:224,1,83.9999974365235,2|0,0:0|0:0,0:0:0:0:
206,145,246126,6,0,B|248:152|248:152|288:145,1,83.9999974365235,8|8,0:1|0:0,0:0:0:0:
466,113,246496,1,8,0:1:0:0:
308,19,246681,1,8,0:1:0:0:
367,202,246866,1,14,0:0:0:0:
465,19,247051,2,0,P|387:-7|308:18,1,167.999994873047,2|0,0:0|0:0,0:0:0:0:
206,145,247607,6,0,B|213:187|213:187|206:227,1,83.9999974365235,8|0,0:1|0:0,0:0:0:0:
161,368,247977,1,8,0:1:0:0:
95,251,248163,1,8,0:1:0:0:
266,308,248348,2,0,P|307:298|348:306,1,83.9999974365235,14|0,0:0|0:0,0:0:0:0:
482,197,248718,2,0,P|441:207|400:199,1,83.9999974365235,2|0,0:0|0:0,0:0:0:0:
206,145,249088,6,0,L|116:149,1,83.9999974365235,8|0,0:1|0:0,0:0:0:0:
83,153,249366,1,8,0:0:0:0:
83,153,249459,1,8,0:1:0:0:
177,27,249644,1,2,0:0:0:0:
262,241,249829,1,10,0:0:0:0:
373,126,250014,1,2,0:0:0:0:
177,27,250200,1,8,0:0:0:0:
141,5,250292,1,8,0:0:0:0:
99,0,250385,1,8,0:0:0:0:
59,14,250477,1,8,0:0:0:0:
27,41,250570,6,0,P|-5:121|23:207,1,167.999994873047,6|2,0:0|0:0,0:0:0:0:
217,323,251311,2,0,P|249:243|221:157,1,167.999994873047,10|2,0:0|0:0,0:0:0:0:
283,84,251866,1,0,0:0:0:0:
430,148,252051,6,0,P|471:158|512:151,1,83.9999974365235,8|0,0:1|0:0,0:0:0:0:
342,215,252422,2,0,P|332:256|339:297,1,83.9999974365235,8|8,0:1|0:1,0:0:0:0:
476,77,252792,1,14,0:0:0:0:
412,260,252977,1,0,0:0:0:0:
337,106,253163,2,0,L|247:115,1,83.9999974365235,2|2,0:0|0:0,0:0:0:0:
109,47,253533,5,8,0:1:0:0:
206,239,253718,1,8,0:1:0:0:
0,185,253903,2,0,P|30:158|78:145,1,83.9999974365235,2|8,0:0|0:1,0:0:0:0:
206,239,254274,1,8,0:0:0:0:
403,167,254459,1,12,0:1:0:0:
258,32,254644,2,0,P|248:75|256:123,1,83.9999974365235,2|8,0:0|0:1,0:0:0:0:
439,257,255014,5,2,0:0:0:0:
208,212,255199,1,8,0:1:0:0:
402,77,255385,1,2,0:0:0:0:
350,306,255570,1,8,0:1:0:0:
179,78,255755,5,10,0:0:0:0:
441,190,255940,1,8,0:0:0:0:
166,267,256125,5,10,0:0:0:0:
314,23,256310,1,10,0:0:0:0:
403,293,256495,5,2,0:0:0:0:
170,384,257977,5,2,0:0:0:0:
284,277,258533,5,8,0:1:0:0:
284,277,258626,1,8,0:1:0:0:
284,277,258718,2,0,B|276:212|276:212|289:169|289:169|280:91,1,168,10|0,0:0|0:0,0:0:0:0:
171,12,259459,6,0,P|115:5|53:66,1,140,6|2,0:0|0:0,0:0:0:0:
0,154,260014,1,8,0:1:0:0:
79,275,260200,1,8,0:0:0:0:
79,275,260570,6,0,B|136:254|136:254|284:277,1,210,6|8,0:0|0:1,0:0:0:0:
402,184,261311,2,0,P|407:149|402:115,1,70,8|0,0:1|0:0,0:0:0:0:
268,0,261681,1,8,0:0:0:0:
330,149,261866,1,2,0:0:0:0:
404,11,262051,1,2,0:0:0:0:
238,80,262236,1,2,0:0:0:0:
402,184,262422,6,0,P|426:247|401:311,1,140,6|2,0:0|0:0,0:0:0:0:
315,384,262977,1,8,0:1:0:0:
217,249,263163,1,8,0:0:0:0:
217,249,263533,1,6,0:0:0:0:
140,330,263718,1,2,0:0:0:0:
312,380,263903,6,0,B|386:375,1,70,2|8,0:0|0:0,0:0:0:0:
512,268,264274,2,0,B|438:263,1,70,8|2,0:1|0:0,0:0:0:0:
323,183,264644,1,8,0:0:0:0:
488,105,264829,1,0,0:0:0:0:
442,263,265014,1,10,0:0:0:0:
345,92,265200,1,10,0:0:0:0:
239,281,265385,6,0,B|185:278|185:278|154:290|154:290|101:287,1,140,6|2,0:0|0:0,0:0:0:0:
22,208,265940,1,8,0:1:0:0:
139,97,266126,1,8,0:0:0:0:
139,97,266496,6,0,P|202:65|267:167,1,210,6|8,0:0|0:0,0:0:0:0:
142,249,267237,2,0,B|68:244,1,70,8|0,0:1|0:0,0:0:0:0:
164,369,267607,1,8,0:0:0:0:
257,307,267792,1,8,0:1:0:0:
391,378,267977,2,0,B|384:342|384:342|391:310,1,70,2|8,0:0|0:1,0:0:0:0:
512,147,268348,6,0,P|495:96|409:108,1,140,2|2,0:0|0:0,0:0:0:0:
322,152,268903,1,0,0:0:0:0:
442,244,269088,2,0,B|512:240,1,70,8|2,0:0|0:0,0:0:0:0:
353,350,269459,1,6,0:0:0:0:
268,277,269644,1,2,0:0:0:0:
322,152,269829,6,0,B|252:148,1,70,10|8,0:0|0:1,0:0:0:0:
85,211,270200,1,2,0:0:0:0:
170,58,270385,1,10,0:0:0:0:
212,248,270570,2,0,P|217:282|211:317,1,70,2|8,0:0|0:3,0:0:0:0:
16,247,270940,2,0,P|10:212|16:178,1,70,8|8,0:0|0:3,0:0:0:0:
170,58,271311,6,0,B|223:54|223:54|255:65|255:65|308:61,1,140,6|2,0:0|0:0,0:0:0:0:
418,0,271866,1,8,0:1:0:0:
496,149,272052,1,8,0:0:0:0:
496,149,272422,6,0,P|517:214|496:279,1,140,6|2,0:0|0:0,0:0:0:0:
340,338,272977,1,8,0:0:0:0:
340,338,273163,2,0,P|309:315|267:304,1,70,8|0,0:1|0:0,0:0:0:0:
98,362,273533,1,8,0:0:0:0:
187,177,273718,1,8,0:1:0:0:
274,384,273903,1,2,0:0:0:0:
87,279,274088,1,2,0:0:0:0:
304,211,274274,6,0,B|357:207|357:207|389:218|389:218|442:214,1,140,6|2,0:0|0:0,0:0:0:0:
512,109,274829,1,8,0:1:0:0:
384,0,275014,1,8,0:0:0:0:
384,0,275385,1,6,0:0:0:0:
289,72,275570,1,2,0:0:0:0:
437,169,275755,6,0,B|442:206|442:206|437:238,1,70,2|8,0:0|0:1,0:0:0:0:
404,384,276126,1,8,0:1:0:0:
512,302,276311,1,0,0:0:0:0:
341,266,276496,2,0,L|262:272,1,70,8|0,0:0|0:0,0:0:0:0:
437,169,276866,2,0,L|506:174,1,70,2|0,0:0|0:0,0:0:0:0:
320,37,277237,6,0,P|254:14|189:36,1,140,6|2,0:0|0:0,0:0:0:0:
81,99,277792,1,8,0:1:0:0:
192,226,277977,1,8,0:0:0:0:
192,226,278348,6,0,B|241:213|241:213|330:226,1,140,6|2,0:0|0:0,0:0:0:0:
448,315,278903,1,8,0:0:0:0:
448,315,279088,2,0,B|443:384,1,70,8|0,0:1|0:0,0:0:0:0:
329,225,279458,1,8,0:0:0:0:
512,169,279644,1,2,0:0:0:0:
448,315,279829,1,2,0:0:0:0:
342,102,280014,1,2,0:0:0:0:
342,102,280107,1,0,0:0:0:0:
342,102,280199,5,6,0:0:0:0:
108,202,280384,1,2,0:0:0:0:
365,276,280570,5,10,0:0:0:0:
236,50,280755,1,6,0:0:0:0:
156,302,280940,5,2,0:0:0:0:
364,191,281125,2,0,L|283:171,1,70,2|6,0:0|0:0,0:0:0:0:
127,92,281496,1,2,0:0:0:0:
305,13,281681,6,0,P|311:49|295:101,1,70,10|2,0:0|0:0,0:0:0:0:
126,160,282051,2,0,P|120:124|136:72,1,70,8|8,0:3|0:3,0:0:0:0:
265,216,282421,5,8,0:3:0:0:
83,293,282607,1,8,0:3:0:0:
126,160,282792,5,8,0:3:0:0:
202,327,282977,1,8,0:3:0:0:
301,119,283163,5,6,0:0:0:0:
256,192,283255,12,0,290200,0:0:0:0:
