osu file format v14

[General]
AudioFilename: CLIMAX of MAXX 360 - PARANOiA Revolution.mp3
AudioLeadIn: 0
PreviewTime: 75128
Countdown: 0
SampleSet: Normal
StackLeniency: 0.7
Mode: 3
LetterboxInBreaks: 0
SpecialStyle: 0
WidescreenStoryboard: 0

[Editor]
DistanceSpacing: 0.8
BeatDivisor: 4
GridSize: 8
TimelineZoom: 1.9

[Metadata]
Title:PARANOiA Revolution
TitleUnicode:PARANOiA Revolution
Artist:CLIMAX of MAXX 360
ArtistUnicode:CLIMAX of MAXX 360
Creator:Tornspirit
Version:Basic
Source:DanceDanceRevolution X3 VS 2ndMIX
Tags:DDR TAG remix Crono NM SEQUENCE UNLIMITED Bemani
BeatmapID:627871
BeatmapSetID:275401

[Difficulty]
HPDrainRate:7
CircleSize:5
OverallDifficulty:7
ApproachRate:5
SliderMultiplier:1.4
SliderTickRate:1

[Events]
//Background and Video events
Video,-844,"Paranoia Revolution.avi"
0,0,"PARANOiA_Revolution-bg_waifu2x_art_scale_tta_1.png",0,0
//Break Periods
//Storyboard Layer 0 (Background)
//Storyboard Layer 1 (Fail)
//Storyboard Layer 2 (Pass)
//Storyboard Layer 3 (Foreground)
//Storyboard Sound Samples

[TimingPoints]
795,333.333333333333,4,1,1,50,1,0
22128,-100,4,1,1,50,0,1
32794,-100,4,1,1,50,0,0
64794,-100,4,1,1,50,0,1
75128,-100,4,1,1,50,0,0
75461,-100,4,1,1,50,0,1
96794,-100,4,1,1,50,0,0

[HitObjects]
51,192,6128,5,4,0:0:0:0:
460,192,6128,1,4,0:0:0:0:
153,192,7461,1,4,0:0:0:0:
358,192,7461,1,4,0:0:0:0:
460,192,8794,1,4,0:0:0:0:
51,192,8794,1,4,0:0:0:0:
153,192,9461,1,4,0:0:0:0:
358,192,9461,1,4,0:0:0:0:
51,192,10128,1,4,0:0:0:0:
460,192,10128,1,4,0:0:0:0:
153,192,10461,1,4,0:0:0:0:
358,192,10461,1,4,0:0:0:0:
256,192,10794,1,4,0:0:0:0:
460,192,10794,1,4,0:0:0:0:
153,192,11128,1,4,0:0:0:0:
358,192,11128,1,4,0:0:0:0:
460,192,11461,128,0,14128:0:0:0:0:
51,192,11461,1,4,0:0:0:0:
256,192,11461,1,12,0:0:0:0:
358,192,11794,1,8,0:0:0:0:
256,192,12128,1,8,0:0:0:0:
51,192,12461,1,8,0:0:0:0:
153,192,12794,1,8,0:0:0:0:
358,192,13128,1,8,0:0:0:0:
51,192,13461,1,8,0:0:0:0:
256,192,13794,1,8,0:0:0:0:
358,192,14128,128,0,16794:0:0:0:0:
153,192,14128,1,8,0:0:0:0:
51,192,14461,1,8,0:0:0:0:
256,192,14794,1,8,0:0:0:0:
153,192,15128,1,8,0:0:0:0:
460,192,15461,1,8,0:0:0:0:
51,192,15794,1,8,0:0:0:0:
256,192,16128,1,8,0:0:0:0:
460,192,16461,1,8,0:0:0:0:
256,192,16794,128,4,19461:0:0:0:0:
51,192,16794,1,12,0:0:0:0:
153,192,17128,1,8,0:0:0:0:
51,192,17461,1,8,0:0:0:0:
153,192,17794,1,8,0:0:0:0:
358,192,18128,1,8,0:0:0:0:
460,192,18461,1,8,0:0:0:0:
358,192,18794,1,8,0:0:0:0:
460,192,19128,1,8,0:0:0:0:
51,192,19378,1,8,0:0:0:0:
358,192,19461,1,8,0:0:0:0:
153,192,19711,1,8,0:0:0:0:
460,192,19794,1,8,0:0:0:0:
51,192,20044,1,8,0:0:0:0:
358,192,20128,1,8,0:0:0:0:
153,192,20378,1,8,0:0:0:0:
460,192,20461,1,8,0:0:0:0:
256,192,20711,1,8,0:0:0:0:
51,192,20794,1,4,0:0:0:0:
153,192,20794,1,4,0:0:0:0:
358,192,21128,1,4,0:0:0:0:
460,192,21128,1,4,0:0:0:0:
51,192,21461,1,4,0:0:0:0:
153,192,21461,1,4,0:0:0:0:
256,192,21794,1,4,0:0:0:0:
460,192,21794,1,4,0:0:0:0:
358,192,22128,1,8,0:0:0:0:
153,192,22294,1,8,0:0:0:0:
358,192,22461,1,8,0:0:0:0:
51,192,22628,1,8,0:0:0:0:
256,192,22794,1,8,0:0:0:0:
51,192,22961,1,8,0:0:0:0:
460,192,23128,1,8,0:0:0:0:
256,192,23294,1,8,0:0:0:0:
460,192,23461,1,8,0:0:0:0:
153,192,23628,1,8,0:0:0:0:
358,192,23794,1,8,0:0:0:0:
153,192,23961,1,8,0:0:0:0:
51,192,24128,1,8,0:0:0:0:
256,192,24294,1,8,0:0:0:0:
460,192,24461,1,8,0:0:0:0:
51,192,24628,1,8,0:0:0:0:
460,192,24794,1,8,0:0:0:0:
358,192,24961,1,8,0:0:0:0:
460,192,25128,1,8,0:0:0:0:
51,192,25294,1,8,0:0:0:0:
153,192,25461,1,8,0:0:0:0:
51,192,25628,1,8,0:0:0:0:
358,192,25794,1,8,0:0:0:0:
256,192,25961,1,8,0:0:0:0:
358,192,26128,1,8,0:0:0:0:
153,192,26294,1,8,0:0:0:0:
256,192,26461,1,8,0:0:0:0:
153,192,26628,1,8,0:0:0:0:
460,192,26794,1,8,0:0:0:0:
256,192,26961,1,8,0:0:0:0:
51,192,27128,1,8,0:0:0:0:
256,192,27294,1,8,0:0:0:0:
460,192,27461,1,8,0:0:0:0:
153,192,27628,1,8,0:0:0:0:
460,192,27794,1,8,0:0:0:0:
51,192,27961,1,8,0:0:0:0:
358,192,28128,1,8,0:0:0:0:
51,192,28294,1,8,0:0:0:0:
153,192,28461,1,8,0:0:0:0:
460,192,28628,1,8,0:0:0:0:
153,192,28794,1,8,0:0:0:0:
358,192,28961,1,8,0:0:0:0:
51,192,29128,1,8,0:0:0:0:
358,192,29294,1,8,0:0:0:0:
51,192,29461,1,8,0:0:0:0:
460,192,29628,1,8,0:0:0:0:
358,192,29794,1,8,0:0:0:0:
153,192,29961,1,8,0:0:0:0:
51,192,30128,1,8,0:0:0:0:
153,192,30294,1,8,0:0:0:0:
256,192,30461,1,8,0:0:0:0:
460,192,30628,1,8,0:0:0:0:
358,192,30794,1,8,0:0:0:0:
256,192,30961,1,8,0:0:0:0:
51,192,31128,1,8,0:0:0:0:
153,192,31294,1,8,0:0:0:0:
460,192,31461,1,4,0:0:0:0:
256,192,31461,1,4,0:0:0:0:
51,192,31794,1,4,0:0:0:0:
153,192,31794,1,4,0:0:0:0:
153,192,32128,1,4,0:0:0:0:
358,192,32128,1,4,0:0:0:0:
51,192,32461,1,4,0:0:0:0:
460,192,32461,1,4,0:0:0:0:
153,192,32794,1,4,0:0:0:0:
460,192,32794,128,0,35461:0:0:0:0:
256,192,32794,1,4,0:0:0:0:
358,192,33128,1,8,0:0:0:0:
153,192,33461,1,8,0:0:0:0:
358,192,33794,1,8,0:0:0:0:
51,192,34128,1,8,0:0:0:0:
256,192,34461,1,8,0:0:0:0:
51,192,34794,1,8,0:0:0:0:
256,192,35128,1,8,0:0:0:0:
358,192,35461,128,0,38128:0:0:0:0:
153,192,35461,1,8,0:0:0:0:
51,192,35794,1,8,0:0:0:0:
153,192,36128,1,8,0:0:0:0:
51,192,36461,1,8,0:0:0:0:
460,192,36794,128,8,37128:2:0:0:0:
51,192,37128,128,8,37461:2:0:0:0:
460,192,37461,128,8,37794:2:0:0:0:
51,192,37794,128,8,38128:2:0:0:0:
256,192,38128,128,0,40794:0:0:0:0:
460,192,38128,1,12,0:0:0:0:
153,192,38128,1,4,0:0:0:0:
358,192,38461,1,8,0:0:0:0:
153,192,38794,1,8,0:0:0:0:
358,192,39128,1,8,0:0:0:0:
51,192,39461,1,4,0:0:0:0:
460,192,39461,1,12,0:0:0:0:
153,192,39794,1,8,0:0:0:0:
358,192,40128,1,8,0:0:0:0:
51,192,40461,1,8,0:0:0:0:
153,192,40794,128,0,43461:0:0:0:0:
460,192,40794,1,4,0:0:0:0:
358,192,40794,1,12,0:0:0:0:
358,192,41128,1,8,0:0:0:0:
51,192,41461,1,4,0:0:0:0:
256,192,41461,1,12,0:0:0:0:
358,192,41794,1,8,0:0:0:0:
256,192,42128,1,4,0:0:0:0:
460,192,42128,1,4,0:0:0:0:
51,192,42461,1,4,0:0:0:0:
358,192,42461,1,4,0:0:0:0:
51,192,42794,1,4,0:0:0:0:
256,192,42794,1,4,0:0:0:0:
358,192,43128,1,4,0:0:0:0:
460,192,43128,1,4,0:0:0:0:
256,192,43461,1,4,0:0:0:0:
460,192,43461,1,0,0:0:0:0:
51,192,44294,1,4,0:0:0:0:
153,192,44294,1,0,0:0:0:0:
460,192,44961,1,4,0:0:0:0:
358,192,44961,1,0,0:0:0:0:
153,192,45294,1,4,0:0:0:0:
51,192,45294,1,0,0:0:0:0:
256,192,48128,1,8,3:0:0:0:
256,192,48461,1,8,3:0:0:0:
460,192,49128,1,2,3:0:0:0:
51,192,49628,1,2,3:0:0:0:
460,192,50128,1,2,3:0:0:0:
358,192,50628,1,4,0:0:0:0:
153,192,50628,1,0,0:0:0:0:
51,192,51461,1,4,0:0:0:0:
460,192,51461,1,4,0:0:0:0:
256,192,51461,1,0,0:0:0:0:
51,192,52128,128,0,52794:0:0:0:0:
153,192,52794,128,0,53461:0:0:0:0:
256,192,53461,128,0,54628:0:0:0:0:
460,192,54128,1,4,0:0:0:0:
51,192,54128,1,4,0:0:0:0:
358,192,54628,128,0,56461:0:0:0:0:
153,192,55461,1,4,0:0:0:0:
256,192,56461,128,0,56794:0:0:0:0:
153,192,56794,128,0,58128:0:0:0:0:
51,192,56794,1,4,0:0:0:0:
51,192,58128,128,0,59461:0:0:0:0:
358,192,58128,1,4,0:0:0:0:
256,192,59461,5,12,0:0:0:0:
460,192,59461,1,4,0:0:0:0:
358,192,59628,1,8,0:0:0:0:
153,192,59794,1,8,0:0:0:0:
256,192,59961,1,8,0:0:0:0:
51,192,60128,1,8,0:0:0:0:
153,192,60294,1,8,0:0:0:0:
256,192,60461,1,8,0:0:0:0:
358,192,60628,1,8,0:0:0:0:
256,192,60794,1,12,0:0:0:0:
460,192,60794,1,4,0:0:0:0:
153,192,60961,1,8,0:0:0:0:
358,192,61128,1,8,0:0:0:0:
256,192,61294,1,8,0:0:0:0:
460,192,61461,1,8,0:0:0:0:
358,192,61628,1,8,0:0:0:0:
256,192,61794,1,8,0:0:0:0:
153,192,61961,1,8,0:0:0:0:
256,192,62128,1,12,0:0:0:0:
51,192,62128,1,4,0:0:0:0:
358,192,62294,1,8,0:0:0:0:
460,192,62461,1,8,0:0:0:0:
358,192,62628,1,8,0:0:0:0:
256,192,62794,1,12,0:0:0:0:
460,192,62794,1,4,0:0:0:0:
153,192,62961,1,8,0:0:0:0:
51,192,63128,1,8,0:0:0:0:
153,192,63294,1,8,0:0:0:0:
51,192,63461,1,4,0:0:0:0:
256,192,63461,1,4,0:0:0:0:
153,192,63794,1,4,0:0:0:0:
460,192,63794,1,4,0:0:0:0:
358,192,64128,1,4,0:0:0:0:
51,192,64128,1,4,0:0:0:0:
51,192,64461,1,4,0:0:0:0:
256,192,64461,1,4,0:0:0:0:
460,192,64794,1,8,0:0:0:0:
153,192,64961,1,8,0:0:0:0:
460,192,65128,1,8,0:0:0:0:
358,192,65294,1,8,0:0:0:0:
51,192,65461,1,8,0:0:0:0:
358,192,65628,1,8,0:0:0:0:
256,192,65961,1,8,0:0:0:0:
460,192,66294,1,8,0:0:0:0:
153,192,66461,1,8,0:0:0:0:
460,192,66628,1,8,0:0:0:0:
51,192,66794,1,8,0:0:0:0:
153,192,66961,1,8,0:0:0:0:
51,192,67128,1,8,0:0:0:0:
256,192,67294,1,8,0:0:0:0:
153,192,67461,1,8,0:0:0:0:
460,192,67628,1,8,0:0:0:0:
153,192,67794,1,8,0:0:0:0:
358,192,67961,1,8,0:0:0:0:
51,192,68128,1,8,0:0:0:0:
358,192,68294,1,8,0:0:0:0:
256,192,68628,1,8,0:0:0:0:
51,192,68961,1,8,0:0:0:0:
358,192,69128,1,8,0:0:0:0:
51,192,69294,1,8,0:0:0:0:
460,192,69461,1,8,0:0:0:0:
358,192,69628,1,8,0:0:0:0:
460,192,69794,1,8,0:0:0:0:
256,192,69961,1,8,0:0:0:0:
460,192,70128,1,12,0:0:0:0:
51,192,70128,1,4,0:0:0:0:
153,192,70294,1,8,0:0:0:0:
460,192,70461,1,8,0:0:0:0:
358,192,70628,1,8,0:0:0:0:
51,192,70794,1,8,0:0:0:0:
358,192,70961,1,8,0:0:0:0:
256,192,71294,1,8,0:0:0:0:
460,192,71628,1,8,0:0:0:0:
153,192,71794,1,8,0:0:0:0:
460,192,71961,1,8,0:0:0:0:
51,192,72128,1,8,0:0:0:0:
153,192,72294,1,8,0:0:0:0:
51,192,72461,1,8,0:0:0:0:
256,192,72628,1,8,0:0:0:0:
153,192,72794,1,8,0:0:0:0:
460,192,72961,5,8,0:0:0:0:
153,192,73128,1,8,0:0:0:0:
358,192,73294,1,8,0:0:0:0:
51,192,73461,1,8,0:0:0:0:
358,192,73628,1,8,0:0:0:0:
256,192,73961,1,8,0:0:0:0:
51,192,74128,1,4,0:0:0:0:
358,192,74128,1,4,0:0:0:0:
153,192,74461,1,4,0:0:0:0:
460,192,74461,1,4,0:0:0:0:
51,192,74794,1,4,0:0:0:0:
460,192,74794,1,4,0:0:0:0:
358,192,75128,1,4,0:0:0:0:
153,192,75128,1,4,0:0:0:0:
358,192,75461,128,4,76461:2:0:0:0:
51,192,75461,1,4,0:0:0:0:
256,192,75461,1,12,0:0:0:0:
460,192,75794,1,8,0:0:0:0:
51,192,76128,1,8,0:0:0:0:
256,192,76461,1,8,0:0:0:0:
153,192,76794,128,4,77794:2:0:0:0:
358,192,76794,1,8,0:0:0:0:
256,192,77128,1,8,0:0:0:0:
358,192,77461,1,8,0:0:0:0:
256,192,77794,1,8,0:0:0:0:
358,192,78128,128,4,79128:2:0:0:0:
153,192,78128,1,8,0:0:0:0:
256,192,78461,1,8,0:0:0:0:
153,192,78794,1,8,0:0:0:0:
256,192,79128,1,8,0:0:0:0:
153,192,79461,128,4,80461:2:0:0:0:
460,192,79461,1,8,0:0:0:0:
256,192,79794,1,8,0:0:0:0:
460,192,80128,1,8,0:0:0:0:
256,192,80461,1,8,0:0:0:0:
460,192,80794,128,4,81794:2:0:0:0:
153,192,80794,1,8,0:0:0:0:
51,192,81128,1,8,0:0:0:0:
153,192,81461,1,8,0:0:0:0:
51,192,81794,1,8,0:0:0:0:
51,192,82128,128,4,83128:2:0:0:0:
256,192,82128,1,8,0:0:0:0:
358,192,82461,1,8,0:0:0:0:
256,192,82794,1,8,0:0:0:0:
358,192,83128,1,8,0:0:0:0:
460,192,83461,128,4,84461:2:0:0:0:
51,192,83461,1,8,0:0:0:0:
358,192,83794,1,8,0:0:0:0:
51,192,84128,1,8,0:0:0:0:
358,192,84461,1,8,0:0:0:0:
51,192,84794,128,4,85794:2:0:0:0:
153,192,84794,1,8,0:0:0:0:
358,192,85128,1,8,0:0:0:0:
460,192,85378,1,8,0:0:0:0:
153,192,85461,1,8,0:0:0:0:
358,192,85794,1,8,0:0:0:0:
51,192,86128,1,4,0:0:0:0:
256,192,86128,1,4,0:0:0:0:
51,192,86294,1,4,0:0:0:0:
256,192,86294,1,4,0:0:0:0:
460,192,86461,1,8,0:0:0:0:
153,192,86794,1,8,0:0:0:0:
460,192,87128,1,8,0:0:0:0:
51,192,87461,1,8,0:0:0:0:
153,192,87794,1,8,0:0:0:0:
460,192,87961,1,4,0:0:0:0:
358,192,87961,1,4,0:0:0:0:
460,192,88461,1,4,0:0:0:0:
358,192,88461,1,4,0:0:0:0:
153,192,88794,1,4,0:0:0:0:
51,192,88794,1,4,0:0:0:0:
51,192,88961,1,4,0:0:0:0:
153,192,88961,1,4,0:0:0:0:
256,192,89128,1,8,0:0:0:0:
460,192,89461,1,8,0:0:0:0:
256,192,89794,1,8,0:0:0:0:
51,192,90128,1,8,0:0:0:0:
256,192,90461,1,8,0:0:0:0:
51,192,90794,1,8,0:0:0:0:
358,192,90961,1,4,0:0:0:0:
460,192,90961,1,4,0:0:0:0:
460,192,91294,1,4,0:0:0:0:
358,192,91461,1,4,0:0:0:0:
51,192,91461,1,4,0:0:0:0:
358,192,91628,1,4,0:0:0:0:
51,192,91628,1,4,0:0:0:0:
256,192,91794,1,8,0:0:0:0:
153,192,92128,1,8,0:0:0:0:
51,192,92461,1,8,0:0:0:0:
153,192,92794,1,8,0:0:0:0:
256,192,93128,1,8,0:0:0:0:
460,192,93294,1,4,0:0:0:0:
358,192,93294,1,4,0:0:0:0:
358,192,93794,1,4,0:0:0:0:
460,192,93794,1,4,0:0:0:0:
51,192,94128,1,4,0:0:0:0:
256,192,94128,1,4,0:0:0:0:
256,192,94294,1,4,0:0:0:0:
51,192,94294,1,4,0:0:0:0:
358,192,94461,1,8,0:0:0:0:
51,192,94628,1,8,0:0:0:0:
153,192,94794,1,12,0:0:0:0:
460,192,94794,1,4,0:0:0:0:
256,192,94961,1,8,0:0:0:0:
460,192,95128,1,8,0:0:0:0:
256,192,95294,1,8,0:0:0:0:
51,192,95461,1,4,0:0:0:0:
358,192,95461,1,4,0:0:0:0:
51,192,95794,1,4,0:0:0:0:
256,192,95794,1,4,0:0:0:0:
153,192,96128,1,4,0:0:0:0:
460,192,96128,1,4,0:0:0:0:
256,192,96461,1,4,0:0:0:0:
460,192,96461,1,4,0:0:0:0:
51,192,96794,1,4,0:0:0:0:
460,192,96794,1,4,0:0:0:0:
358,192,97294,128,4,104794:0:0:0:0:
153,192,97294,1,4,0:0:0:0:
256,192,104794,1,8,0:0:0:0:
153,192,104878,1,8,0:0:0:0:
51,192,104961,1,8,0:0:0:0:
256,192,105128,1,8,0:0:0:0:
358,192,105211,1,8,0:0:0:0:
460,192,105294,1,8,0:0:0:0:
256,192,105461,1,8,0:0:0:0:
153,192,105544,1,8,0:0:0:0:
51,192,105628,1,8,0:0:0:0:
256,192,105794,1,8,0:0:0:0:
358,192,105878,1,8,0:0:0:0:
460,192,105961,1,8,0:0:0:0:
51,192,106128,1,4,0:0:0:0:
153,192,106128,1,4,0:0:0:0:
