osu file format v14

[General]
AudioFilename: audio.mp3
AudioLeadIn: 0
PreviewTime: 32794
Countdown: 0
SampleSet: Normal
StackLeniency: 0.7
Mode: 3
LetterboxInBreaks: 0
SpecialStyle: 0
WidescreenStoryboard: 1

[Editor]
DistanceSpacing: 0.8
BeatDivisor: 4
GridSize: 8
TimelineZoom: 2.5

[Metadata]
Title:PARANOiA Revolution
TitleUnicode:PARANOiA Revolution
Artist:CLIMAX of MAXX 360
ArtistUnicode:CLIMAX of MAXX 360
Creator:DoNotMess
Version:DIFFICULT
Source:DanceDanceRevolution X3 VS 2ndMIX
Tags:
BeatmapID:1704497
BeatmapSetID:804595

[Difficulty]
HPDrainRate:8.5
CircleSize:4
OverallDifficulty:8.5
ApproachRate:5
SliderMultiplier:1.4
SliderTickRate:1

[Events]
//Background and Video events
0,0,"Best BG ever.jpg",0,0
//Break Periods
//Storyboard Layer 0 (Background)
//Storyboard Layer 1 (Fail)
//Storyboard Layer 2 (Pass)
//Storyboard Layer 3 (Foreground)
//Storyboard Sound Samples

[TimingPoints]
795,333.333333333333,4,1,0,60,1,0
22128,-100,4,1,0,60,0,1
32794,-100,4,1,0,60,0,0
64794,-100,4,1,0,60,0,1
75461,-100,4,1,0,60,0,0
86128,-100,4,1,0,60,0,1
97294,-100,4,1,0,60,0,0

[HitObjects]
64,192,795,5,0,0:0:0:0:
192,192,795,1,0,0:0:0:0:
448,192,795,1,0,0:0:0:0:
320,192,1128,1,0,0:0:0:0:
448,192,1128,1,0,0:0:0:0:
192,192,1461,1,0,0:0:0:0:
64,192,1794,1,0,0:0:0:0:
448,192,1794,1,0,0:0:0:0:
320,192,2128,1,0,0:0:0:0:
192,192,2461,1,0,0:0:0:0:
448,192,2461,1,0,0:0:0:0:
64,192,2794,1,0,0:0:0:0:
320,192,3128,1,0,0:0:0:0:
448,192,3128,1,0,0:0:0:0:
64,192,3294,128,0,3378:0:0:0:0:
64,192,3461,128,0,3794:0:0:0:0:
192,192,3461,1,0,0:0:0:0:
448,192,3628,128,0,3794:0:0:0:0:
320,192,3794,128,0,3961:0:0:0:0:
192,192,3961,128,0,4128:0:0:0:0:
448,192,4128,128,0,4794:0:0:0:0:
64,192,4461,128,0,4794:0:0:0:0:
192,192,4461,1,0,0:0:0:0:
320,192,4794,1,0,0:0:0:0:
64,192,4878,1,0,0:0:0:0:
448,192,4961,1,0,0:0:0:0:
192,192,5044,1,0,0:0:0:0:
320,192,5128,1,0,0:0:0:0:
64,192,5211,1,0,0:0:0:0:
448,192,5294,1,0,0:0:0:0:
192,192,5378,1,0,0:0:0:0:
320,192,5461,1,0,0:0:0:0:
64,192,5544,1,0,0:0:0:0:
448,192,5628,1,0,0:0:0:0:
192,192,5711,1,0,0:0:0:0:
320,192,5794,1,0,0:0:0:0:
64,192,5878,1,0,0:0:0:0:
448,192,5961,1,0,0:0:0:0:
192,192,6044,1,0,0:0:0:0:
320,192,6128,1,0,0:0:0:0:
448,192,6128,1,0,0:0:0:0:
64,192,6294,1,0,0:0:0:0:
192,192,6294,1,0,0:0:0:0:
64,192,6544,1,0,0:0:0:0:
192,192,6544,1,0,0:0:0:0:
64,192,6794,1,0,0:0:0:0:
192,192,6794,1,0,0:0:0:0:
64,192,7044,1,0,0:0:0:0:
192,192,7044,1,0,0:0:0:0:
64,192,7294,1,0,0:0:0:0:
192,192,7294,1,0,0:0:0:0:
64,192,7461,1,0,0:0:0:0:
448,192,7461,1,0,0:0:0:0:
320,192,7628,1,0,0:0:0:0:
448,192,7628,1,0,0:0:0:0:
320,192,7878,1,0,0:0:0:0:
448,192,7878,1,0,0:0:0:0:
320,192,8128,1,0,0:0:0:0:
448,192,8128,1,0,0:0:0:0:
320,192,8378,1,0,0:0:0:0:
448,192,8378,1,0,0:0:0:0:
320,192,8628,1,0,0:0:0:0:
448,192,8628,1,0,0:0:0:0:
192,192,8711,1,0,0:0:0:0:
64,192,8794,1,0,0:0:0:0:
448,192,8794,1,0,0:0:0:0:
64,192,8961,1,0,0:0:0:0:
192,192,8961,1,0,0:0:0:0:
64,192,9211,1,0,0:0:0:0:
192,192,9211,1,0,0:0:0:0:
64,192,9461,1,0,0:0:0:0:
448,192,9461,1,0,0:0:0:0:
192,192,9461,1,0,0:0:0:0:
320,192,9711,1,0,0:0:0:0:
448,192,9711,1,0,0:0:0:0:
320,192,9961,1,0,0:0:0:0:
448,192,9961,1,0,0:0:0:0:
64,192,10128,1,0,0:0:0:0:
448,192,10128,1,0,0:0:0:0:
192,192,10211,1,0,0:0:0:0:
320,192,10294,1,0,0:0:0:0:
64,192,10378,1,0,0:0:0:0:
448,192,10461,1,0,0:0:0:0:
192,192,10461,1,0,0:0:0:0:
320,192,10544,1,0,0:0:0:0:
192,192,10628,1,0,0:0:0:0:
64,192,10711,1,0,0:0:0:0:
448,192,10794,1,0,0:0:0:0:
320,192,10794,1,0,0:0:0:0:
192,192,10878,1,0,0:0:0:0:
64,192,10961,1,0,0:0:0:0:
320,192,11044,1,0,0:0:0:0:
64,192,11128,1,0,0:0:0:0:
192,192,11128,1,0,0:0:0:0:
448,192,11211,1,0,0:0:0:0:
320,192,11294,1,0,0:0:0:0:
192,192,11378,1,0,0:0:0:0:
64,192,11461,128,0,11794:0:0:0:0:
448,192,11461,128,0,11794:0:0:0:0:
192,192,11794,1,0,0:0:0:0:
320,192,11794,1,0,0:0:0:0:
64,192,11961,1,0,0:0:0:0:
192,192,12128,1,0,0:0:0:0:
448,192,12128,1,0,0:0:0:0:
320,192,12211,1,0,0:0:0:0:
192,192,12294,1,0,0:0:0:0:
64,192,12461,1,0,0:0:0:0:
448,192,12461,1,0,0:0:0:0:
320,192,12628,1,0,0:0:0:0:
64,192,12794,1,0,0:0:0:0:
192,192,12794,1,0,0:0:0:0:
448,192,12878,1,0,0:0:0:0:
320,192,12961,1,0,0:0:0:0:
192,192,13128,1,0,0:0:0:0:
448,192,13128,1,0,0:0:0:0:
64,192,13294,1,0,0:0:0:0:
320,192,13461,1,0,0:0:0:0:
448,192,13461,1,0,0:0:0:0:
64,192,13628,1,0,0:0:0:0:
64,192,13794,1,0,0:0:0:0:
192,192,13794,1,0,0:0:0:0:
448,192,13961,128,0,14128:0:0:0:0:
192,192,14128,1,0,0:0:0:0:
320,192,14128,1,0,0:0:0:0:
64,192,14294,128,0,14461:0:0:0:0:
320,192,14461,1,0,0:0:0:0:
448,192,14461,1,0,0:0:0:0:
192,192,14544,1,0,0:0:0:0:
448,192,14628,1,0,0:0:0:0:
64,192,14794,1,0,0:0:0:0:
192,192,14794,1,0,0:0:0:0:
320,192,14878,1,0,0:0:0:0:
64,192,14961,1,0,0:0:0:0:
192,192,15128,1,0,0:0:0:0:
448,192,15128,1,0,0:0:0:0:
320,192,15294,1,0,0:0:0:0:
64,192,15461,1,0,0:0:0:0:
448,192,15461,1,0,0:0:0:0:
192,192,15544,1,0,0:0:0:0:
320,192,15628,1,0,0:0:0:0:
192,192,15794,1,0,0:0:0:0:
448,192,15794,1,0,0:0:0:0:
64,192,15961,1,0,0:0:0:0:
320,192,16128,1,0,0:0:0:0:
448,192,16128,1,0,0:0:0:0:
192,192,16294,128,0,16378:0:0:0:0:
64,192,16461,1,0,0:0:0:0:
448,192,16461,1,0,0:0:0:0:
320,192,16628,128,0,16711:0:0:0:0:
64,192,16794,1,0,0:0:0:0:
192,192,16794,1,0,0:0:0:0:
448,192,16794,1,0,0:0:0:0:
320,192,16961,1,0,0:0:0:0:
64,192,17128,1,0,0:0:0:0:
448,192,17128,1,0,0:0:0:0:
192,192,17211,1,0,0:0:0:0:
320,192,17294,1,0,0:0:0:0:
192,192,17461,1,0,0:0:0:0:
64,192,17461,1,0,0:0:0:0:
448,192,17544,1,0,0:0:0:0:
320,192,17628,1,0,0:0:0:0:
64,192,17794,1,0,0:0:0:0:
448,192,17794,1,0,0:0:0:0:
192,192,17961,1,0,0:0:0:0:
320,192,18128,1,0,0:0:0:0:
448,192,18128,1,0,0:0:0:0:
64,192,18211,1,0,0:0:0:0:
192,192,18294,1,0,0:0:0:0:
64,192,18461,1,0,0:0:0:0:
448,192,18461,1,0,0:0:0:0:
320,192,18628,1,0,0:0:0:0:
64,192,18794,1,0,0:0:0:0:
192,192,18794,1,0,0:0:0:0:
448,192,18961,128,0,19128:0:0:0:0:
192,192,19128,1,0,0:0:0:0:
320,192,19128,1,0,0:0:0:0:
64,192,19294,128,0,19461:0:0:0:0:
192,192,19378,1,0,0:0:0:0:
448,192,19461,1,0,0:0:0:0:
320,192,19461,1,0,0:0:0:0:
448,192,19628,128,0,19794:0:0:0:0:
320,192,19711,1,0,0:0:0:0:
192,192,19794,1,0,0:0:0:0:
64,192,19794,1,0,0:0:0:0:
192,192,20044,1,0,0:0:0:0:
320,192,20128,1,0,0:0:0:0:
448,192,20128,1,0,0:0:0:0:
320,192,20378,1,0,0:0:0:0:
64,192,20461,1,0,0:0:0:0:
192,192,20461,1,0,0:0:0:0:
192,192,20711,1,0,0:0:0:0:
320,192,20794,1,0,0:0:0:0:
448,192,20794,1,0,0:0:0:0:
64,192,20878,1,0,0:0:0:0:
320,192,20961,1,0,0:0:0:0:
192,192,21044,1,0,0:0:0:0:
448,192,21128,1,0,0:0:0:0:
64,192,21128,1,0,0:0:0:0:
192,192,21211,1,0,0:0:0:0:
320,192,21294,1,0,0:0:0:0:
64,192,21378,1,0,0:0:0:0:
320,192,21461,1,0,0:0:0:0:
448,192,21461,1,0,0:0:0:0:
192,192,21544,1,0,0:0:0:0:
448,192,21628,1,0,0:0:0:0:
320,192,21711,1,0,0:0:0:0:
64,192,21794,1,0,0:0:0:0:
192,192,21794,1,0,0:0:0:0:
448,192,21878,1,0,0:0:0:0:
192,192,21961,1,0,0:0:0:0:
320,192,22044,1,0,0:0:0:0:
64,192,22128,1,0,0:0:0:0:
448,192,22128,1,0,0:0:0:0:
192,192,22211,1,0,0:0:0:0:
320,192,22294,1,0,0:0:0:0:
192,192,22378,1,0,0:0:0:0:
448,192,22461,1,0,0:0:0:0:
320,192,22461,1,0,0:0:0:0:
64,192,22628,1,0,0:0:0:0:
192,192,22711,1,0,0:0:0:0:
320,192,22794,1,0,0:0:0:0:
192,192,22878,1,0,0:0:0:0:
64,192,22961,1,0,0:0:0:0:
448,192,22961,1,0,0:0:0:0:
192,192,23128,1,0,0:0:0:0:
448,192,23211,1,0,0:0:0:0:
320,192,23294,1,0,0:0:0:0:
192,192,23378,1,0,0:0:0:0:
448,192,23461,1,0,0:0:0:0:
64,192,23461,1,0,0:0:0:0:
320,192,23628,1,0,0:0:0:0:
64,192,23711,1,0,0:0:0:0:
192,192,23794,1,0,0:0:0:0:
320,192,23878,1,0,0:0:0:0:
64,192,23961,1,0,0:0:0:0:
448,192,23961,1,0,0:0:0:0:
320,192,24128,1,0,0:0:0:0:
192,192,24211,1,0,0:0:0:0:
320,192,24294,1,0,0:0:0:0:
192,192,24378,1,0,0:0:0:0:
320,192,24461,1,0,0:0:0:0:
64,192,24461,1,0,0:0:0:0:
448,192,24628,1,0,0:0:0:0:
192,192,24711,1,0,0:0:0:0:
320,192,24794,1,0,0:0:0:0:
64,192,24878,1,0,0:0:0:0:
320,192,24961,1,0,0:0:0:0:
192,192,25044,1,0,0:0:0:0:
448,192,25128,1,0,0:0:0:0:
64,192,25128,1,0,0:0:0:0:
192,192,25294,1,0,0:0:0:0:
448,192,25378,1,0,0:0:0:0:
192,192,25461,1,0,0:0:0:0:
320,192,25544,1,0,0:0:0:0:
64,192,25628,1,0,0:0:0:0:
448,192,25628,1,0,0:0:0:0:
192,192,25794,1,0,0:0:0:0:
448,192,25878,1,0,0:0:0:0:
64,192,25961,1,0,0:0:0:0:
320,192,26044,1,0,0:0:0:0:
192,192,26128,1,0,0:0:0:0:
64,192,26128,1,0,0:0:0:0:
320,192,26294,1,0,0:0:0:0:
64,192,26378,1,0,0:0:0:0:
448,192,26461,1,0,0:0:0:0:
192,192,26544,1,0,0:0:0:0:
320,192,26628,1,0,0:0:0:0:
448,192,26628,1,0,0:0:0:0:
64,192,26794,1,0,0:0:0:0:
448,192,26878,1,0,0:0:0:0:
64,192,26961,1,0,0:0:0:0:
448,192,27044,1,0,0:0:0:0:
64,192,27128,1,0,0:0:0:0:
192,192,27128,1,0,0:0:0:0:
320,192,27294,1,0,0:0:0:0:
448,192,27294,1,0,0:0:0:0:
192,192,27378,1,0,0:0:0:0:
64,192,27461,1,0,0:0:0:0:
448,192,27461,1,0,0:0:0:0:
320,192,27544,1,0,0:0:0:0:
192,192,27628,1,0,0:0:0:0:
320,192,27711,1,0,0:0:0:0:
64,192,27794,1,0,0:0:0:0:
192,192,27794,1,0,0:0:0:0:
448,192,27961,1,0,0:0:0:0:
192,192,28044,1,0,0:0:0:0:
320,192,28128,1,0,0:0:0:0:
192,192,28211,1,0,0:0:0:0:
64,192,28294,1,0,0:0:0:0:
448,192,28294,1,0,0:0:0:0:
320,192,28461,1,0,0:0:0:0:
192,192,28544,1,0,0:0:0:0:
448,192,28628,1,0,0:0:0:0:
192,192,28711,1,0,0:0:0:0:
320,192,28794,1,0,0:0:0:0:
448,192,28794,1,0,0:0:0:0:
192,192,28961,1,0,0:0:0:0:
320,192,29044,1,0,0:0:0:0:
64,192,29128,1,0,0:0:0:0:
320,192,29211,1,0,0:0:0:0:
192,192,29294,1,0,0:0:0:0:
64,192,29294,1,0,0:0:0:0:
448,192,29461,1,0,0:0:0:0:
64,192,29544,1,0,0:0:0:0:
448,192,29628,1,0,0:0:0:0:
64,192,29711,1,0,0:0:0:0:
448,192,29794,1,0,0:0:0:0:
320,192,29794,1,0,0:0:0:0:
192,192,29961,1,0,0:0:0:0:
320,192,30044,1,0,0:0:0:0:
64,192,30128,1,0,0:0:0:0:
192,192,30211,1,0,0:0:0:0:
448,192,30294,1,0,0:0:0:0:
320,192,30378,1,0,0:0:0:0:
64,192,30461,1,0,0:0:0:0:
192,192,30461,1,0,0:0:0:0:
448,192,30628,1,0,0:0:0:0:
320,192,30711,1,0,0:0:0:0:
64,192,30794,1,0,0:0:0:0:
192,192,30878,1,0,0:0:0:0:
448,192,30961,1,0,0:0:0:0:
320,192,30961,1,0,0:0:0:0:
192,192,31128,1,0,0:0:0:0:
448,192,31211,1,0,0:0:0:0:
192,192,31294,1,0,0:0:0:0:
320,192,31378,1,0,0:0:0:0:
64,192,31461,1,0,0:0:0:0:
448,192,31461,1,0,0:0:0:0:
192,192,31544,1,0,0:0:0:0:
320,192,31628,1,0,0:0:0:0:
192,192,31711,1,0,0:0:0:0:
448,192,31794,1,0,0:0:0:0:
64,192,31794,1,0,0:0:0:0:
320,192,31878,1,0,0:0:0:0:
192,192,31961,1,0,0:0:0:0:
320,192,32044,1,0,0:0:0:0:
64,192,32128,1,0,0:0:0:0:
448,192,32128,1,0,0:0:0:0:
192,192,32211,1,0,0:0:0:0:
320,192,32294,1,0,0:0:0:0:
192,192,32378,1,0,0:0:0:0:
448,192,32461,1,0,0:0:0:0:
64,192,32461,1,0,0:0:0:0:
320,192,32544,1,0,0:0:0:0:
192,192,32628,1,0,0:0:0:0:
320,192,32711,1,0,0:0:0:0:
64,192,32794,128,0,33128:0:0:0:0:
448,192,32794,128,0,33128:0:0:0:0:
192,192,33128,1,0,0:0:0:0:
320,192,33128,1,0,0:0:0:0:
64,192,33294,1,0,0:0:0:0:
192,192,33461,1,0,0:0:0:0:
448,192,33461,1,0,0:0:0:0:
320,192,33544,1,0,0:0:0:0:
192,192,33628,1,0,0:0:0:0:
320,192,33794,1,0,0:0:0:0:
448,192,33794,1,0,0:0:0:0:
192,192,33961,1,0,0:0:0:0:
64,192,34128,1,0,0:0:0:0:
320,192,34128,1,0,0:0:0:0:
192,192,34211,1,0,0:0:0:0:
320,192,34294,1,0,0:0:0:0:
64,192,34461,1,0,0:0:0:0:
448,192,34461,1,0,0:0:0:0:
320,192,34628,1,0,0:0:0:0:
64,192,34794,1,0,0:0:0:0:
192,192,34794,1,0,0:0:0:0:
448,192,34961,1,0,0:0:0:0:
320,192,35128,1,0,0:0:0:0:
448,192,35128,1,0,0:0:0:0:
64,192,35294,128,0,35378:0:0:0:0:
64,192,35461,128,0,35794:0:0:0:0:
192,192,35461,1,0,0:0:0:0:
448,192,35628,128,0,35794:0:0:0:0:
320,192,35794,128,0,35961:0:0:0:0:
192,192,35794,1,0,0:0:0:0:
192,192,35961,128,0,36128:0:0:0:0:
448,192,36128,128,0,36794:0:0:0:0:
320,192,36128,1,0,0:0:0:0:
64,192,36461,128,0,36794:0:0:0:0:
192,192,36461,1,0,0:0:0:0:
320,192,36794,1,0,0:0:0:0:
64,192,36878,1,0,0:0:0:0:
448,192,36961,1,0,0:0:0:0:
192,192,37044,1,0,0:0:0:0:
320,192,37128,1,0,0:0:0:0:
64,192,37211,1,0,0:0:0:0:
448,192,37294,1,0,0:0:0:0:
192,192,37378,1,0,0:0:0:0:
320,192,37461,1,0,0:0:0:0:
64,192,37544,1,0,0:0:0:0:
448,192,37628,1,0,0:0:0:0:
192,192,37711,1,0,0:0:0:0:
320,192,37794,1,0,0:0:0:0:
64,192,37878,1,0,0:0:0:0:
448,192,37961,1,0,0:0:0:0:
192,192,38044,1,0,0:0:0:0:
320,192,38128,1,0,0:0:0:0:
448,192,38128,1,0,0:0:0:0:
64,192,38294,1,0,0:0:0:0:
64,192,38461,1,0,0:0:0:0:
192,192,38461,1,0,0:0:0:0:
320,192,38628,1,0,0:0:0:0:
64,192,38794,1,0,0:0:0:0:
448,192,38794,1,0,0:0:0:0:
192,192,38961,1,0,0:0:0:0:
320,192,39128,1,0,0:0:0:0:
448,192,39128,1,0,0:0:0:0:
64,192,39294,1,0,0:0:0:0:
192,192,39378,1,0,0:0:0:0:
320,192,39461,1,0,0:0:0:0:
448,192,39461,1,0,0:0:0:0:
64,192,39628,1,0,0:0:0:0:
64,192,39794,1,0,0:0:0:0:
192,192,39794,1,0,0:0:0:0:
448,192,39961,1,0,0:0:0:0:
64,192,40128,1,0,0:0:0:0:
320,192,40128,1,0,0:0:0:0:
192,192,40294,128,0,40461:0:0:0:0:
64,192,40461,1,0,0:0:0:0:
448,192,40461,1,0,0:0:0:0:
320,192,40628,128,0,40794:0:0:0:0:
192,192,40711,1,0,0:0:0:0:
64,192,40794,1,0,0:0:0:0:
448,192,40794,1,0,0:0:0:0:
448,192,40961,128,0,41128:0:0:0:0:
320,192,40961,1,0,0:0:0:0:
64,192,41128,1,0,0:0:0:0:
192,192,41128,1,0,0:0:0:0:
320,192,41294,1,0,0:0:0:0:
448,192,41294,1,0,0:0:0:0:
64,192,41461,1,0,0:0:0:0:
448,192,41461,1,0,0:0:0:0:
64,192,41628,1,0,0:0:0:0:
192,192,41628,1,0,0:0:0:0:
320,192,41794,1,0,0:0:0:0:
448,192,41794,1,0,0:0:0:0:
64,192,41961,1,0,0:0:0:0:
192,192,41961,1,0,0:0:0:0:
64,192,42128,1,0,0:0:0:0:
448,192,42128,1,0,0:0:0:0:
320,192,42211,1,0,0:0:0:0:
192,192,42294,1,0,0:0:0:0:
64,192,42378,1,0,0:0:0:0:
448,192,42461,1,0,0:0:0:0:
320,192,42461,1,0,0:0:0:0:
192,192,42544,1,0,0:0:0:0:
320,192,42628,1,0,0:0:0:0:
64,192,42711,1,0,0:0:0:0:
448,192,42794,1,0,0:0:0:0:
192,192,42794,1,0,0:0:0:0:
320,192,42878,1,0,0:0:0:0:
192,192,42961,1,0,0:0:0:0:
64,192,43044,1,0,0:0:0:0:
448,192,43128,1,0,0:0:0:0:
320,192,43128,1,0,0:0:0:0:
192,192,43211,1,0,0:0:0:0:
320,192,43294,1,0,0:0:0:0:
64,192,43378,1,0,0:0:0:0:
192,192,43461,1,0,0:0:0:0:
448,192,43461,128,0,45794:0:0:0:0:
320,192,43711,1,0,0:0:0:0:
64,192,43961,1,0,0:0:0:0:
192,192,44128,1,0,0:0:0:0:
320,192,44378,1,0,0:0:0:0:
192,192,44628,1,0,0:0:0:0:
64,192,44794,1,0,0:0:0:0:
320,192,45044,1,0,0:0:0:0:
192,192,45294,1,0,0:0:0:0:
64,192,45461,1,0,0:0:0:0:
320,192,45711,1,0,0:0:0:0:
64,192,45794,128,0,46128:0:0:0:0:
192,192,45961,1,0,0:0:0:0:
448,192,46128,128,0,48128:0:0:0:0:
64,192,46378,1,0,0:0:0:0:
192,192,46628,1,0,0:0:0:0:
320,192,46794,1,0,0:0:0:0:
192,192,47044,1,0,0:0:0:0:
64,192,47294,1,0,0:0:0:0:
320,192,47461,1,0,0:0:0:0:
192,192,47711,1,0,0:0:0:0:
64,192,47961,1,0,0:0:0:0:
320,192,48128,128,0,48461:0:0:0:0:
192,192,48128,1,0,0:0:0:0:
64,192,48378,1,0,0:0:0:0:
192,192,48461,128,0,48794:0:0:0:0:
320,192,48628,1,0,0:0:0:0:
64,192,48794,128,0,49294:0:0:0:0:
448,192,48794,1,0,0:0:0:0:
192,192,49044,1,0,0:0:0:0:
320,192,49294,128,0,49794:0:0:0:0:
448,192,49461,1,0,0:0:0:0:
64,192,49711,1,0,0:0:0:0:
192,192,49794,128,0,54128:0:0:0:0:
320,192,49961,1,0,0:0:0:0:
448,192,50128,1,0,0:0:0:0:
320,192,50378,1,0,0:0:0:0:
64,192,50628,1,0,0:0:0:0:
448,192,50794,1,0,0:0:0:0:
64,192,51044,1,0,0:0:0:0:
448,192,51294,1,0,0:0:0:0:
320,192,51461,1,0,0:0:0:0:
64,192,51711,1,0,0:0:0:0:
320,192,51961,1,0,0:0:0:0:
448,192,52128,128,0,52794:0:0:0:0:
320,192,52378,1,0,0:0:0:0:
64,192,52628,1,0,0:0:0:0:
320,192,52794,128,0,53461:0:0:0:0:
64,192,53044,1,0,0:0:0:0:
448,192,53294,1,0,0:0:0:0:
64,192,53461,128,0,54128:0:0:0:0:
448,192,53711,1,0,0:0:0:0:
320,192,53961,1,0,0:0:0:0:
448,192,54128,1,0,0:0:0:0:
320,192,54128,128,0,54628:0:0:0:0:
192,192,54378,1,0,0:0:0:0:
64,192,54628,128,0,56461:0:0:0:0:
448,192,54794,1,0,0:0:0:0:
320,192,55044,1,0,0:0:0:0:
192,192,55294,1,0,0:0:0:0:
448,192,55461,1,0,0:0:0:0:
192,192,55711,1,0,0:0:0:0:
320,192,55961,1,0,0:0:0:0:
448,192,56128,1,0,0:0:0:0:
320,192,56378,1,0,0:0:0:0:
192,192,56461,128,0,56794:0:0:0:0:
448,192,56628,1,0,0:0:0:0:
320,192,56794,128,0,58128:0:0:0:0:
64,192,57044,1,0,0:0:0:0:
192,192,57294,1,0,0:0:0:0:
448,192,57461,1,0,0:0:0:0:
64,192,57711,1,0,0:0:0:0:
192,192,57961,1,0,0:0:0:0:
448,192,58128,128,0,59461:0:0:0:0:
320,192,58378,1,0,0:0:0:0:
192,192,58628,1,0,0:0:0:0:
64,192,58794,1,0,0:0:0:0:
192,192,59044,1,0,0:0:0:0:
320,192,59294,1,0,0:0:0:0:
64,192,59461,1,0,0:0:0:0:
192,192,59461,1,0,0:0:0:0:
448,192,59628,1,0,0:0:0:0:
320,192,59628,1,0,0:0:0:0:
192,192,59794,1,0,0:0:0:0:
64,192,59794,1,0,0:0:0:0:
320,192,59961,1,0,0:0:0:0:
448,192,59961,1,0,0:0:0:0:
64,192,60128,1,0,0:0:0:0:
448,192,60128,1,0,0:0:0:0:
192,192,60294,1,0,0:0:0:0:
320,192,60294,1,0,0:0:0:0:
64,192,60461,1,0,0:0:0:0:
448,192,60461,1,0,0:0:0:0:
320,192,60628,1,0,0:0:0:0:
192,192,60628,1,0,0:0:0:0:
448,192,60794,1,0,0:0:0:0:
320,192,60794,1,0,0:0:0:0:
192,192,60961,1,0,0:0:0:0:
64,192,60961,1,0,0:0:0:0:
320,192,61128,1,0,0:0:0:0:
448,192,61128,1,0,0:0:0:0:
64,192,61294,1,0,0:0:0:0:
192,192,61294,1,0,0:0:0:0:
448,192,61461,1,0,0:0:0:0:
64,192,61461,1,0,0:0:0:0:
320,192,61628,1,0,0:0:0:0:
192,192,61628,1,0,0:0:0:0:
64,192,61794,1,0,0:0:0:0:
448,192,61794,1,0,0:0:0:0:
192,192,61961,1,0,0:0:0:0:
320,192,61961,1,0,0:0:0:0:
64,192,62128,1,0,0:0:0:0:
448,192,62128,1,0,0:0:0:0:
320,192,62211,1,0,0:0:0:0:
64,192,62294,1,0,0:0:0:0:
320,192,62378,1,0,0:0:0:0:
64,192,62461,1,0,0:0:0:0:
320,192,62544,1,0,0:0:0:0:
64,192,62628,1,0,0:0:0:0:
320,192,62711,1,0,0:0:0:0:
64,192,62794,1,0,0:0:0:0:
448,192,62794,1,0,0:0:0:0:
192,192,62878,1,0,0:0:0:0:
448,192,62961,1,0,0:0:0:0:
192,192,63044,1,0,0:0:0:0:
448,192,63128,1,0,0:0:0:0:
192,192,63211,1,0,0:0:0:0:
448,192,63294,1,0,0:0:0:0:
192,192,63378,1,0,0:0:0:0:
64,192,63461,1,0,0:0:0:0:
448,192,63461,1,0,0:0:0:0:
320,192,63544,1,0,0:0:0:0:
192,192,63628,1,0,0:0:0:0:
448,192,63711,1,0,0:0:0:0:
64,192,63794,1,0,0:0:0:0:
192,192,63794,1,0,0:0:0:0:
320,192,63878,1,0,0:0:0:0:
64,192,63961,1,0,0:0:0:0:
192,192,64044,1,0,0:0:0:0:
448,192,64128,1,0,0:0:0:0:
320,192,64128,1,0,0:0:0:0:
64,192,64211,1,0,0:0:0:0:
320,192,64294,1,0,0:0:0:0:
192,192,64378,1,0,0:0:0:0:
64,192,64461,1,0,0:0:0:0:
448,192,64461,1,0,0:0:0:0:
320,192,64544,1,0,0:0:0:0:
192,192,64628,1,0,0:0:0:0:
64,192,64711,1,0,0:0:0:0:
448,192,64794,1,0,0:0:0:0:
320,192,64794,1,0,0:0:0:0:
192,192,64878,1,0,0:0:0:0:
64,192,64961,1,0,0:0:0:0:
448,192,64961,1,0,0:0:0:0:
320,192,65044,1,0,0:0:0:0:
64,192,65128,1,0,0:0:0:0:
192,192,65128,1,0,0:0:0:0:
448,192,65294,1,0,0:0:0:0:
320,192,65294,1,0,0:0:0:0:
64,192,65378,1,0,0:0:0:0:
192,192,65461,1,0,0:0:0:0:
448,192,65461,1,0,0:0:0:0:
320,192,65544,1,0,0:0:0:0:
64,192,65628,1,0,0:0:0:0:
192,192,65628,1,0,0:0:0:0:
448,192,65711,1,0,0:0:0:0:
320,192,65878,1,0,0:0:0:0:
64,192,65961,1,0,0:0:0:0:
320,192,66044,1,0,0:0:0:0:
64,192,66128,1,0,0:0:0:0:
192,192,66294,1,0,0:0:0:0:
448,192,66294,1,0,0:0:0:0:
320,192,66378,1,0,0:0:0:0:
64,192,66461,1,0,0:0:0:0:
448,192,66461,1,0,0:0:0:0:
192,192,66544,1,0,0:0:0:0:
320,192,66628,1,0,0:0:0:0:
64,192,66628,1,0,0:0:0:0:
320,192,66794,1,0,0:0:0:0:
448,192,66794,1,0,0:0:0:0:
64,192,66878,1,0,0:0:0:0:
192,192,66961,1,0,0:0:0:0:
448,192,66961,1,0,0:0:0:0:
320,192,67044,1,0,0:0:0:0:
192,192,67128,1,0,0:0:0:0:
64,192,67128,1,0,0:0:0:0:
64,192,67294,1,0,0:0:0:0:
320,192,67294,1,0,0:0:0:0:
192,192,67378,1,0,0:0:0:0:
64,192,67461,1,0,0:0:0:0:
448,192,67461,1,0,0:0:0:0:
320,192,67544,1,0,0:0:0:0:
192,192,67628,1,0,0:0:0:0:
448,192,67628,1,0,0:0:0:0:
64,192,67711,1,0,0:0:0:0:
320,192,67794,1,0,0:0:0:0:
448,192,67794,1,0,0:0:0:0:
64,192,67961,1,0,0:0:0:0:
192,192,67961,1,0,0:0:0:0:
448,192,68044,1,0,0:0:0:0:
64,192,68128,1,0,0:0:0:0:
320,192,68128,1,0,0:0:0:0:
192,192,68211,1,0,0:0:0:0:
448,192,68294,1,0,0:0:0:0:
320,192,68294,1,0,0:0:0:0:
64,192,68378,1,0,0:0:0:0:
320,192,68544,1,0,0:0:0:0:
64,192,68628,1,0,0:0:0:0:
320,192,68711,1,0,0:0:0:0:
64,192,68794,1,0,0:0:0:0:
192,192,68961,1,0,0:0:0:0:
320,192,68961,1,0,0:0:0:0:
448,192,69044,1,0,0:0:0:0:
64,192,69128,1,0,0:0:0:0:
192,192,69128,1,0,0:0:0:0:
320,192,69211,1,0,0:0:0:0:
64,192,69294,1,0,0:0:0:0:
448,192,69294,1,0,0:0:0:0:
320,192,69461,1,0,0:0:0:0:
192,192,69461,1,0,0:0:0:0:
64,192,69544,1,0,0:0:0:0:
448,192,69628,1,0,0:0:0:0:
320,192,69628,1,0,0:0:0:0:
192,192,69711,1,0,0:0:0:0:
64,192,69794,1,0,0:0:0:0:
448,192,69794,1,0,0:0:0:0:
448,192,69961,1,0,0:0:0:0:
192,192,69961,1,0,0:0:0:0:
320,192,70044,1,0,0:0:0:0:
448,192,70128,1,0,0:0:0:0:
64,192,70128,1,0,0:0:0:0:
192,192,70211,1,0,0:0:0:0:
64,192,70294,1,0,0:0:0:0:
320,192,70294,1,0,0:0:0:0:
448,192,70378,1,0,0:0:0:0:
192,192,70461,1,0,0:0:0:0:
64,192,70461,1,0,0:0:0:0:
448,192,70628,1,0,0:0:0:0:
320,192,70628,1,0,0:0:0:0:
64,192,70711,1,0,0:0:0:0:
448,192,70794,1,0,0:0:0:0:
192,192,70794,1,0,0:0:0:0:
320,192,70878,1,0,0:0:0:0:
64,192,70961,1,0,0:0:0:0:
192,192,70961,1,0,0:0:0:0:
448,192,71044,1,0,0:0:0:0:
192,192,71211,1,0,0:0:0:0:
448,192,71294,1,0,0:0:0:0:
192,192,71378,1,0,0:0:0:0:
448,192,71461,1,0,0:0:0:0:
192,192,71628,1,0,0:0:0:0:
64,192,71628,1,0,0:0:0:0:
448,192,71711,1,0,0:0:0:0:
64,192,71794,1,0,0:0:0:0:
320,192,71794,1,0,0:0:0:0:
192,192,71878,1,0,0:0:0:0:
320,192,71961,1,0,0:0:0:0:
448,192,71961,1,0,0:0:0:0:
192,192,72128,1,0,0:0:0:0:
448,192,72128,1,0,0:0:0:0:
64,192,72211,1,0,0:0:0:0:
320,192,72294,1,0,0:0:0:0:
448,192,72294,1,0,0:0:0:0:
192,192,72378,1,0,0:0:0:0:
64,192,72461,1,0,0:0:0:0:
448,192,72461,1,0,0:0:0:0:
320,192,72628,1,0,0:0:0:0:
192,192,72628,1,0,0:0:0:0:
448,192,72711,1,0,0:0:0:0:
64,192,72794,1,0,0:0:0:0:
320,192,72794,1,0,0:0:0:0:
192,192,72878,1,0,0:0:0:0:
320,192,72961,1,0,0:0:0:0:
448,192,72961,1,0,0:0:0:0:
64,192,73044,1,0,0:0:0:0:
192,192,73128,1,0,0:0:0:0:
448,192,73128,1,0,0:0:0:0:
320,192,73294,1,0,0:0:0:0:
448,192,73294,1,0,0:0:0:0:
64,192,73378,1,0,0:0:0:0:
192,192,73461,1,0,0:0:0:0:
448,192,73461,1,0,0:0:0:0:
320,192,73544,1,0,0:0:0:0:
64,192,73628,1,0,0:0:0:0:
448,192,73628,1,0,0:0:0:0:
192,192,73711,1,0,0:0:0:0:
448,192,73878,1,0,0:0:0:0:
192,192,73961,1,0,0:0:0:0:
448,192,74044,1,0,0:0:0:0:
192,192,74128,1,0,0:0:0:0:
320,192,74294,1,0,0:0:0:0:
448,192,74294,1,0,0:0:0:0:
64,192,74378,1,0,0:0:0:0:
192,192,74461,1,0,0:0:0:0:
320,192,74461,1,0,0:0:0:0:
448,192,74544,1,0,0:0:0:0:
64,192,74628,1,0,0:0:0:0:
192,192,74628,1,0,0:0:0:0:
320,192,74794,1,0,0:0:0:0:
448,192,74794,1,0,0:0:0:0:
192,192,74878,1,0,0:0:0:0:
64,192,74961,1,0,0:0:0:0:
448,192,74961,1,0,0:0:0:0:
320,192,75044,1,0,0:0:0:0:
64,192,75128,1,0,0:0:0:0:
192,192,75128,1,0,0:0:0:0:
64,192,75461,128,0,76461:0:0:0:0:
320,192,75461,1,0,0:0:0:0:
448,192,75461,1,0,0:0:0:0:
192,192,75628,1,0,0:0:0:0:
448,192,75794,1,0,0:0:0:0:
192,192,75961,1,0,0:0:0:0:
320,192,76044,1,0,0:0:0:0:
448,192,76128,1,0,0:0:0:0:
192,192,76294,1,0,0:0:0:0:
320,192,76461,1,0,0:0:0:0:
448,192,76461,1,0,0:0:0:0:
64,192,76628,1,0,0:0:0:0:
192,192,76794,128,0,77794:0:0:0:0:
448,192,76794,1,0,0:0:0:0:
320,192,76961,1,0,0:0:0:0:
64,192,77128,1,0,0:0:0:0:
448,192,77294,1,0,0:0:0:0:
320,192,77378,1,0,0:0:0:0:
64,192,77461,1,0,0:0:0:0:
448,192,77628,1,0,0:0:0:0:
64,192,77794,1,0,0:0:0:0:
320,192,77794,1,0,0:0:0:0:
192,192,77961,128,0,78128:0:0:0:0:
320,192,78128,128,0,79128:0:0:0:0:
448,192,78128,1,0,0:0:0:0:
64,192,78294,128,0,78461:0:0:0:0:
192,192,78461,1,0,0:0:0:0:
448,192,78628,1,0,0:0:0:0:
64,192,78711,1,0,0:0:0:0:
192,192,78794,1,0,0:0:0:0:
448,192,78961,1,0,0:0:0:0:
64,192,79128,1,0,0:0:0:0:
192,192,79128,1,0,0:0:0:0:
320,192,79294,1,0,0:0:0:0:
448,192,79461,128,0,80461:0:0:0:0:
192,192,79461,1,0,0:0:0:0:
64,192,79628,1,0,0:0:0:0:
320,192,79794,1,0,0:0:0:0:
64,192,79961,1,0,0:0:0:0:
192,192,80044,1,0,0:0:0:0:
320,192,80128,1,0,0:0:0:0:
64,192,80294,128,0,80378:0:0:0:0:
320,192,80461,1,0,0:0:0:0:
192,192,80461,1,0,0:0:0:0:
448,192,80628,128,0,80711:0:0:0:0:
64,192,80794,128,0,81794:0:0:0:0:
192,192,80794,1,0,0:0:0:0:
320,192,80794,1,0,0:0:0:0:
448,192,80961,1,0,0:0:0:0:
192,192,81128,1,0,0:0:0:0:
320,192,81294,1,0,0:0:0:0:
192,192,81378,1,0,0:0:0:0:
448,192,81461,1,0,0:0:0:0:
192,192,81628,1,0,0:0:0:0:
320,192,81794,1,0,0:0:0:0:
448,192,81794,1,0,0:0:0:0:
64,192,81961,1,0,0:0:0:0:
192,192,82128,128,0,83128:0:0:0:0:
448,192,82128,1,0,0:0:0:0:
320,192,82294,1,0,0:0:0:0:
64,192,82461,1,0,0:0:0:0:
448,192,82628,1,0,0:0:0:0:
320,192,82711,1,0,0:0:0:0:
64,192,82794,1,0,0:0:0:0:
320,192,82961,128,0,83128:0:0:0:0:
64,192,83128,1,0,0:0:0:0:
448,192,83128,1,0,0:0:0:0:
192,192,83294,128,0,83461:0:0:0:0:
320,192,83461,128,0,84461:0:0:0:0:
448,192,83461,1,0,0:0:0:0:
64,192,83628,128,0,83794:0:0:0:0:
192,192,83794,1,0,0:0:0:0:
448,192,83961,1,0,0:0:0:0:
64,192,84044,1,0,0:0:0:0:
192,192,84128,1,0,0:0:0:0:
448,192,84294,1,0,0:0:0:0:
64,192,84461,1,0,0:0:0:0:
192,192,84461,1,0,0:0:0:0:
320,192,84628,1,0,0:0:0:0:
448,192,84794,128,0,85794:0:0:0:0:
192,192,84794,1,0,0:0:0:0:
64,192,84961,1,0,0:0:0:0:
320,192,85128,1,0,0:0:0:0:
64,192,85294,1,0,0:0:0:0:
320,192,85378,1,0,0:0:0:0:
192,192,85461,1,0,0:0:0:0:
192,192,85628,1,0,0:0:0:0:
320,192,85794,1,0,0:0:0:0:
192,192,85878,1,0,0:0:0:0:
320,192,85961,1,0,0:0:0:0:
192,192,86044,1,0,0:0:0:0:
320,192,86128,1,0,0:0:0:0:
448,192,86128,1,0,0:0:0:0:
64,192,86128,128,0,86211:0:0:0:0:
64,192,86294,128,0,86461:0:0:0:0:
192,192,86294,1,0,0:0:0:0:
448,192,86461,1,0,0:0:0:0:
320,192,86461,1,0,0:0:0:0:
192,192,86628,1,0,0:0:0:0:
448,192,86711,1,0,0:0:0:0:
64,192,86794,1,0,0:0:0:0:
320,192,86794,1,0,0:0:0:0:
192,192,86878,1,0,0:0:0:0:
448,192,86961,1,0,0:0:0:0:
64,192,87128,1,0,0:0:0:0:
320,192,87128,1,0,0:0:0:0:
192,192,87294,1,0,0:0:0:0:
448,192,87294,1,0,0:0:0:0:
320,192,87378,1,0,0:0:0:0:
64,192,87461,1,0,0:0:0:0:
192,192,87461,1,0,0:0:0:0:
320,192,87628,1,0,0:0:0:0:
64,192,87794,1,0,0:0:0:0:
448,192,87794,1,0,0:0:0:0:
320,192,87961,128,0,88294:0:0:0:0:
64,192,88128,1,0,0:0:0:0:
192,192,88128,1,0,0:0:0:0:
448,192,88294,1,0,0:0:0:0:
320,192,88461,128,0,88628:0:0:0:0:
192,192,88461,1,0,0:0:0:0:
64,192,88628,1,0,0:0:0:0:
448,192,88794,1,0,0:0:0:0:
192,192,88794,128,0,88878:0:0:0:0:
192,192,88961,128,0,89128:0:0:0:0:
64,192,88961,1,0,0:0:0:0:
320,192,89128,1,0,0:0:0:0:
448,192,89128,1,0,0:0:0:0:
64,192,89294,1,0,0:0:0:0:
320,192,89378,1,0,0:0:0:0:
192,192,89461,1,0,0:0:0:0:
448,192,89461,1,0,0:0:0:0:
64,192,89544,1,0,0:0:0:0:
320,192,89628,1,0,0:0:0:0:
64,192,89794,1,0,0:0:0:0:
448,192,89794,1,0,0:0:0:0:
192,192,89961,1,0,0:0:0:0:
448,192,89961,1,0,0:0:0:0:
320,192,90044,1,0,0:0:0:0:
64,192,90128,1,0,0:0:0:0:
192,192,90128,1,0,0:0:0:0:
320,192,90294,1,0,0:0:0:0:
64,192,90461,1,0,0:0:0:0:
320,192,90461,1,0,0:0:0:0:
448,192,90628,1,0,0:0:0:0:
192,192,90711,1,0,0:0:0:0:
320,192,90794,1,0,0:0:0:0:
448,192,90794,1,0,0:0:0:0:
64,192,90878,1,0,0:0:0:0:
192,192,90961,128,0,91128:0:0:0:0:
448,192,91128,1,0,0:0:0:0:
320,192,91128,1,0,0:0:0:0:
320,192,91294,128,0,91461:0:0:0:0:
64,192,91461,1,0,0:0:0:0:
448,192,91461,1,0,0:0:0:0:
320,192,91628,1,0,0:0:0:0:
192,192,91628,1,0,0:0:0:0:
320,192,91794,1,0,0:0:0:0:
448,192,91794,1,0,0:0:0:0:
64,192,91961,1,0,0:0:0:0:
192,192,91961,1,0,0:0:0:0:
320,192,92128,1,0,0:0:0:0:
448,192,92128,1,0,0:0:0:0:
64,192,92294,1,0,0:0:0:0:
320,192,92294,1,0,0:0:0:0:
192,192,92461,1,0,0:0:0:0:
448,192,92461,1,0,0:0:0:0:
64,192,92628,1,0,0:0:0:0:
192,192,92628,1,0,0:0:0:0:
64,192,92794,1,0,0:0:0:0:
448,192,92794,1,0,0:0:0:0:
192,192,92961,1,0,0:0:0:0:
320,192,92961,1,0,0:0:0:0:
64,192,93128,1,0,0:0:0:0:
192,192,93128,1,0,0:0:0:0:
320,192,93294,1,0,0:0:0:0:
448,192,93294,1,0,0:0:0:0:
64,192,93461,1,0,0:0:0:0:
192,192,93461,1,0,0:0:0:0:
192,192,93628,1,0,0:0:0:0:
448,192,93628,1,0,0:0:0:0:
64,192,93794,1,0,0:0:0:0:
320,192,93794,1,0,0:0:0:0:
320,192,93961,1,0,0:0:0:0:
448,192,93961,1,0,0:0:0:0:
64,192,94128,1,0,0:0:0:0:
448,192,94128,1,0,0:0:0:0:
192,192,94211,1,0,0:0:0:0:
448,192,94294,1,0,0:0:0:0:
320,192,94378,1,0,0:0:0:0:
64,192,94461,1,0,0:0:0:0:
448,192,94544,1,0,0:0:0:0:
320,192,94628,1,0,0:0:0:0:
192,192,94711,1,0,0:0:0:0:
64,192,94794,1,0,0:0:0:0:
448,192,94794,1,0,0:0:0:0:
320,192,94878,1,0,0:0:0:0:
64,192,94961,1,0,0:0:0:0:
192,192,95044,1,0,0:0:0:0:
448,192,95128,1,0,0:0:0:0:
64,192,95211,1,0,0:0:0:0:
192,192,95294,1,0,0:0:0:0:
320,192,95378,1,0,0:0:0:0:
64,192,95461,1,0,0:0:0:0:
448,192,95461,1,0,0:0:0:0:
192,192,95544,1,0,0:0:0:0:
320,192,95628,1,0,0:0:0:0:
192,192,95711,1,0,0:0:0:0:
64,192,95794,1,0,0:0:0:0:
448,192,95794,1,0,0:0:0:0:
320,192,95878,1,0,0:0:0:0:
192,192,95961,1,0,0:0:0:0:
320,192,96044,1,0,0:0:0:0:
64,192,96128,1,0,0:0:0:0:
448,192,96128,1,0,0:0:0:0:
192,192,96211,1,0,0:0:0:0:
320,192,96294,1,0,0:0:0:0:
192,192,96378,1,0,0:0:0:0:
64,192,96461,1,0,0:0:0:0:
448,192,96461,1,0,0:0:0:0:
320,192,96544,1,0,0:0:0:0:
192,192,96628,1,0,0:0:0:0:
320,192,96711,1,0,0:0:0:0:
64,192,96794,1,0,0:0:0:0:
448,192,96794,1,0,0:0:0:0:
192,192,97294,128,0,104794:0:0:0:0:
320,192,97294,128,0,104794:0:0:0:0:
64,192,104794,1,0,0:0:0:0:
448,192,104878,1,0,0:0:0:0:
192,192,104961,1,0,0:0:0:0:
448,192,105044,1,0,0:0:0:0:
64,192,105128,1,0,0:0:0:0:
448,192,105211,1,0,0:0:0:0:
192,192,105294,1,0,0:0:0:0:
448,192,105378,1,0,0:0:0:0:
320,192,105461,1,0,0:0:0:0:
64,192,105544,1,0,0:0:0:0:
448,192,105628,1,0,0:0:0:0:
64,192,105711,1,0,0:0:0:0:
320,192,105794,1,0,0:0:0:0:
64,192,105878,1,0,0:0:0:0:
448,192,105961,1,0,0:0:0:0:
64,192,106044,1,0,0:0:0:0:
448,192,106128,1,0,0:0:0:0:
320,192,106128,1,0,0:0:0:0:
