osu file format v14

[General]
AudioFilename: 69.mp3
AudioLeadIn: 0
PreviewTime: 90741
Countdown: 0
SampleSet: Soft
StackLeniency: 0.3
Mode: 0
LetterboxInBreaks: 0
WidescreenStoryboard: 1

[Editor]
Bookmarks: 99511,115921
DistanceSpacing: 3.1
BeatDivisor: 8
GridSize: 8
TimelineZoom: 1.6

[Metadata]
Title:The Distance
TitleUnicode:The Distance
Artist:CLIFF EDGE feat. Nakamura Maiko
ArtistUnicode:CLIFF EDGE feat. 中村舞子
Creator:handsome
Version:Master
Source:
Tags:best of love
BeatmapID:1228840
BeatmapSetID:580375

[Difficulty]
HPDrainRate:5
CircleSize:4
OverallDifficulty:8
ApproachRate:8
SliderMultiplier:1.4
SliderTickRate:1

[Events]
//Background and Video events
0,0,"distance.jpg",0,0
//Break Periods
2,25877,41337
2,174394,188003
//Storyboard Layer 0 (Background)
//Storyboard Layer 1 (Fail)
//Storyboard Layer 2 (Pass)
//Storyboard Layer 3 (Foreground)
//Storyboard Sound Samples

[TimingPoints]
1062,512.820512820513,4,2,3,30,1,0
1062,-166.666666666667,4,2,3,30,0,0
1318,-100,4,2,3,30,0,0
1574,-71.4285714285714,4,2,3,30,0,0
2087,-166.666666666667,4,2,3,30,0,0
2343,-100,4,2,3,30,0,0
2599,-71.4285714285714,4,2,3,30,0,0
3113,-166.666666666667,4,2,3,30,0,0
3369,-100,4,2,3,30,0,0
3625,-71.4285714285714,4,2,3,30,0,0
4138,-166.666666666667,4,2,3,30,0,0
4394,-100,4,2,3,30,0,0
4650,-71.4285714285714,4,2,3,30,0,0
6446,-83.3333333333333,4,2,3,30,0,0
6703,-100,4,2,3,30,0,0
6959,-125,4,2,3,30,0,0
8754,-100,4,2,3,55,0,0
9267,-100,4,2,3,60,0,0
25677,-100,4,2,3,50,0,0
42087,-83.3333333333333,4,2,2,50,0,0
43113,-95.2380952380952,4,2,2,50,0,0
43626,-111.111111111111,4,2,2,50,0,0
44138,-200,4,2,2,50,0,0
46190,-83.3333333333333,4,2,2,50,0,0
51318,-95.2380952380952,4,2,2,50,0,0
51831,-111.111111111111,4,2,2,50,0,0
52344,-200,4,2,2,50,0,0
57728,-83.3333333333333,4,2,2,50,0,0
58497,-166.666666666667,4,2,2,50,0,0
74395,-100,4,2,2,50,0,0
74908,-71.4285714285714,4,2,2,50,0,0
77985,-55.5555555555556,4,2,2,50,0,0
83113,-83.3333333333333,4,2,2,50,0,0
90292,-100,4,2,2,50,0,0
90805,-71.4285714285714,4,2,2,50,0,0
91318,-83.3333333333333,4,2,1,70,0,1
93369,-71.4285714285714,4,2,1,70,0,1
93626,-62.5,4,2,1,70,0,1
93882,-55.5555555555556,4,2,1,70,0,1
94138,-50,4,2,1,70,0,1
94395,-83.3333333333333,4,2,1,70,0,1
95420,-71.4285714285714,4,2,1,70,0,1
95677,-62.5,4,2,1,70,0,1
95933,-55.5555555555556,4,2,1,70,0,1
96189,-50,4,2,1,70,0,1
96446,-55.5555555555556,4,2,1,70,0,1
96703,-62.5,4,2,1,70,0,1
96959,-71.4285714285714,4,2,1,70,0,1
97215,-83.3333333333333,4,2,1,70,0,1
99010,-50,4,2,1,70,0,0
99523,-83.3333333333333,4,2,1,70,0,1
101318,-50,4,2,1,70,0,0
101574,-83.3333333333333,4,2,1,70,0,1
103626,-71.4285714285714,4,2,1,70,0,1
103882,-62.5,4,2,1,70,0,1
104138,-55.5555555555556,4,2,1,70,0,1
104395,-50,4,2,1,70,0,1
104651,-55.5555555555556,4,2,1,70,0,1
104908,-62.5,4,2,1,70,0,1
105164,-71.4285714285714,4,2,1,70,0,1
105420,-83.3333333333333,4,2,1,70,0,1
106959,-71.4285714285714,4,2,1,70,0,1
107215,-62.5,4,2,1,70,0,0
107472,-55.5555555555556,4,2,1,70,0,0
107728,-83.3333333333333,4,2,1,70,0,1
109523,-50,4,2,1,70,0,1
109779,-83.3333333333333,4,2,1,70,0,1
111574,-76.9230769230769,4,2,1,70,0,1
111830,-71.4285714285714,4,2,1,70,0,1
112086,-66.6666666666667,4,2,1,70,0,1
112343,-62.5,4,2,1,70,0,1
112600,-58.8235294117647,4,2,1,70,0,1
112856,-55.5555555555556,4,2,1,70,0,1
113113,-52.6315789473684,4,2,1,70,0,1
113369,-50,4,2,1,70,0,1
113882,-83.3333333333333,4,2,1,70,0,1
115164,-83.3333333333333,4,2,1,70,0,0
115420,-62.5,4,2,1,70,0,0
115677,-50,4,2,1,70,0,0
115933,-83.3333333333333,4,2,1,70,0,1
116446,-62.5,4,2,1,70,0,1
116959,-50,4,2,1,70,0,1
117985,-41.6666666666667,4,2,1,70,0,1
118754,-83.3333333333333,4,2,1,70,0,1
120036,-71.4285714285714,4,2,1,70,0,1
120292,-62.5,4,2,1,70,0,1
120548,-55.5555555555556,4,2,1,70,0,1
120805,-50,4,2,1,70,0,1
121061,-55.5555555555556,4,2,1,70,0,1
121318,-62.5,4,2,1,70,0,1
121574,-71.4285714285714,4,2,1,70,0,1
121830,-83.3333333333333,4,2,1,70,0,1
123369,-71.4285714285714,4,2,1,70,0,1
123625,-62.5,4,2,1,70,0,0
123882,-55.5555555555556,4,2,1,70,0,0
124138,-55.5555555555556,4,2,1,70,0,1
124908,-62.5,4,2,1,70,0,1
125292,-71.4285714285714,4,2,1,70,0,1
125677,-83.3333333333333,4,2,1,70,0,1
126190,-55.5555555555556,4,2,1,70,0,1
126960,-62.5,4,2,1,70,0,1
127344,-71.4285714285714,4,2,1,70,0,1
127728,-83.3333333333333,4,2,1,70,0,1
130805,-62.5,4,2,1,70,0,1
131062,-50,4,2,1,70,0,1
131318,-83.3333333333333,4,2,1,70,0,1
131703,-62.5,4,2,1,70,0,1
132087,-50,4,2,1,70,0,0
132344,-55.5555555555556,4,2,1,70,0,1
133114,-62.5,4,2,1,70,0,1
133497,-71.4285714285714,4,2,1,70,0,1
133882,-83.3333333333333,4,2,1,70,0,1
134395,-55.5555555555556,4,2,1,70,0,1
135165,-62.5,4,2,1,70,0,1
135548,-71.4285714285714,4,2,1,70,0,1
135933,-83.3333333333333,4,2,1,70,0,1
138754,-83.3333333333333,4,2,1,70,0,1
139010,-62.5,4,2,1,70,0,1
139267,-50,4,2,1,70,0,0
139523,-83.3333333333333,4,2,1,70,0,1
139908,-62.5,4,2,1,70,0,1
140292,-50,4,2,1,70,0,1
140549,-83.3333333333333,4,2,1,70,0,0
141574,512.820512820513,4,2,1,60,1,0
141574,-83.3333333333333,4,2,1,60,0,0
141674,-83.3333333333333,4,2,1,60,0,0
157471,-62.5,4,2,1,60,0,0
157984,-83.3333333333333,4,2,1,60,0,0
165163,-166.666666666667,4,2,1,60,0,0
166189,-83.3333333333333,4,2,1,60,0,0
190804,-83.3333333333333,4,2,1,70,0,1
192855,-71.4285714285714,4,2,1,70,0,1
193112,-62.5,4,2,1,70,0,1
193368,-55.5555555555556,4,2,1,70,0,1
193624,-50,4,2,1,70,0,1
193881,-83.3333333333333,4,2,1,70,0,1
194906,-71.4285714285714,4,2,1,70,0,1
195163,-62.5,4,2,1,70,0,1
195419,-55.5555555555556,4,2,1,70,0,1
195675,-50,4,2,1,70,0,1
195932,-55.5555555555556,4,2,1,70,0,1
196189,-62.5,4,2,1,70,0,1
196445,-71.4285714285714,4,2,1,70,0,1
196701,-83.3333333333333,4,2,1,70,0,1
198496,-50,4,2,1,70,0,0
199009,-83.3333333333333,4,2,1,70,0,1
200804,-50,4,2,1,70,0,0
201060,-83.3333333333333,4,2,1,70,0,1
203112,-71.4285714285714,4,2,1,70,0,1
203368,-62.5,4,2,1,70,0,1
203624,-55.5555555555556,4,2,1,70,0,1
203881,-50,4,2,1,70,0,1
204137,-55.5555555555556,4,2,1,70,0,1
204394,-62.5,4,2,1,70,0,1
204650,-71.4285714285714,4,2,1,70,0,1
204906,-83.3333333333333,4,2,1,70,0,1
206445,-71.4285714285714,4,2,1,70,0,1
206701,-62.5,4,2,1,70,0,0
206958,-55.5555555555556,4,2,1,70,0,0
207214,-83.3333333333333,4,2,1,70,0,1
209009,-50,4,2,1,70,0,1
209265,-83.3333333333333,4,2,1,70,0,1
211060,-76.9230769230769,4,2,1,70,0,1
211316,-71.4285714285714,4,2,1,70,0,1
211572,-66.6666666666667,4,2,1,70,0,1
211829,-62.5,4,2,1,70,0,1
212086,-58.8235294117647,4,2,1,70,0,1
212342,-55.5555555555556,4,2,1,70,0,1
212599,-52.6315789473684,4,2,1,70,0,1
212855,-50,4,2,1,70,0,1
213368,-83.3333333333333,4,2,1,70,0,1
214650,-83.3333333333333,4,2,1,70,0,0
214906,-62.5,4,2,1,70,0,0
215163,-50,4,2,1,70,0,0
215419,-83.3333333333333,4,2,1,70,0,1
215932,-62.5,4,2,1,70,0,1
216445,-50,4,2,1,70,0,1
217471,-41.6666666666667,4,2,1,70,0,1
218240,-83.3333333333333,4,2,1,70,0,1
219522,-71.4285714285714,4,2,1,70,0,1
219778,-62.5,4,2,1,70,0,1
220034,-55.5555555555556,4,2,1,70,0,1
220291,-50,4,2,1,70,0,1
220547,-55.5555555555556,4,2,1,70,0,1
220804,-62.5,4,2,1,70,0,1
221060,-71.4285714285714,4,2,1,70,0,1
221316,-83.3333333333333,4,2,1,70,0,1
222855,-71.4285714285714,4,2,1,70,0,1
223111,-62.5,4,2,1,70,0,0
223368,-55.5555555555556,4,2,1,70,0,0
223624,-55.5555555555556,4,2,1,70,0,1
224394,-62.5,4,2,1,70,0,1
224778,-71.4285714285714,4,2,1,70,0,1
225163,-83.3333333333333,4,2,1,70,0,1
225676,-55.5555555555556,4,2,1,70,0,1
226446,-62.5,4,2,1,70,0,1
226830,-71.4285714285714,4,2,1,70,0,1
227214,-83.3333333333333,4,2,1,70,0,1
230291,-62.5,4,2,1,70,0,1
230548,-50,4,2,1,70,0,1
230804,-83.3333333333333,4,2,1,70,0,1
231189,-62.5,4,2,1,70,0,1
231573,-50,4,2,1,70,0,0
231830,-55.5555555555556,4,2,1,70,0,1
232600,-62.5,4,2,1,70,0,1
232983,-71.4285714285714,4,2,1,70,0,1
233368,-83.3333333333333,4,2,1,70,0,1
233881,-55.5555555555556,4,2,1,70,0,1
234651,-62.5,4,2,1,70,0,1
235034,-71.4285714285714,4,2,1,70,0,1
235419,-83.3333333333333,4,2,1,70,0,1
238240,-83.3333333333333,4,2,1,70,0,1
238496,-62.5,4,2,1,70,0,1
238753,-50,4,2,1,70,0,0
239009,-83.3333333333333,4,2,1,70,0,1
239394,-62.5,4,2,1,70,0,1
239779,-50,4,2,1,70,0,1
240036,-200,4,2,1,30,0,0
262599,-133.333333333333,4,2,1,5,0,0

[Colours]
Combo1 : 255,191,254
Combo2 : 176,241,255

[HitObjects]
124,99,549,6,0,P|163:74|204:66,1,70,2|2,0:0|0:0,0:0:0:0:
327,16,1062,6,0,P|330:28|331:42,1,20.9999993591309,2|0,0:0|0:0,0:0:0:0:
411,32,1318,2,0,P|412:53|403:79,1,35,2|0,0:0|0:0,0:0:0:0:
487,96,1574,2,0,P|478:117|460:136,2,48.9999985046387,2|2|2,0:0|0:0|0:0,0:0:0:0:
202,106,2087,6,0,P|208:116|212:130,1,20.9999993591309,2|0,0:0|0:0,0:0:0:0:
288,99,2343,2,0,P|294:119|292:146,1,35,2|0,0:0|0:0,0:0:0:0:
378,141,2600,2,0,P|374:163|362:186,2,48.9999985046387,2|2|2,0:0|0:0|0:0,0:0:0:0:
106,224,3114,6,0,P|114:232|122:244,1,20.9999993591309,2|0,0:0|0:0,0:0:0:0:
187,195,3370,2,0,P|198:212|203:239,1,35,2|0,0:0|0:0,0:0:0:0:
285,212,3626,2,0,P|287:234|281:260,2,48.9999985046387,2|2|2,0:0|0:0|0:0,0:0:0:0:
44,363,4139,6,0,P|54:369|65:378,1,20.9999993591309,2|0,0:0|0:0,0:0:0:0:
115,314,4395,2,0,P|130:328|142:352,1,35,2|0,0:0|0:0,0:0:0:0:
214,305,4651,2,0,P|222:326|223:352,2,48.9999985046387,2|2|2,0:0|0:0|0:0,0:0:0:0:
426,319,5164,5,6,0:0:0:0:
396,225,5420,1,0,0:0:0:0:
322,133,5677,1,0,0:0:0:0:
198,72,5933,1,0,0:0:0:0:
41,83,6190,6,0,P|67:100|85:139,1,48.9999985046387,6|0,0:0|0:0,0:0:0:0:
175,149,6446,2,0,P|181:179|166:219,1,41.9999987182618,0|0,0:0|0:0,0:0:0:0:
249,253,6703,2,0,P|235:273|205:287,1,35,0|0,0:0|0:0,0:0:0:0:
221,368,6959,2,0,P|201:372|174:362,1,28,0|0,0:0|0:0,0:0:0:0:
137,323,7215,5,4,0:1:0:0:
256,192,7344,12,0,8754,0:0:0:0:
94,103,9267,5,4,0:0:0:0:
94,103,9779,2,0,L|100:163,1,35,8|0,0:0|0:0,0:0:0:0:
189,136,10036,2,0,L|179:195,1,35,0|0,0:0|0:0,0:0:0:0:
119,229,10292,5,2,0:0:0:0:
132,305,10420,1,2,0:0:0:0:
190,354,10548,1,2,0:0:0:0:
268,354,10676,1,2,0:0:0:0:
327,305,10804,1,10,0:0:0:0:
327,305,11062,6,0,L|343:354,1,35,0|0,0:0|0:0,0:0:0:0:
370,231,11318,2,0,L|409:265,1,35,4|0,0:0|0:0,0:0:0:0:
369,145,11574,2,0,L|420:155,1,35,0|0,0:0|0:0,0:0:0:0:
325,71,11831,2,0,L|374:54,1,35,8|0,0:0|0:0,0:0:0:0:
249,28,12087,2,0,L|283:-11,1,35,0|0,0:0|0:0,0:0:0:0:
255,114,12344,5,2,0:0:0:0:
242,190,12472,1,2,0:0:0:0:
184,239,12600,1,2,0:0:0:0:
106,239,12728,1,2,0:0:0:0:
47,190,12856,1,10,0:0:0:0:
47,190,13113,6,0,P|25:200|7:221,1,35,0|0,0:0|0:0,0:0:0:0:
76,270,13369,2,0,P|61:289|56:316,1,35,4|0,0:0|0:0,0:0:0:0:
141,324,13626,2,0,P|138:348|147:374,1,35,0|0,0:0|0:0,0:0:0:0:
224,338,13882,2,0,P|234:359|255:377,1,35,8|0,0:0|0:0,0:0:0:0:
304,309,14138,2,0,P|323:323|350:328,1,35,0|0,0:0|0:0,0:0:0:0:
201,229,14395,2,0,P|193:252|197:279,1,35,4|0,0:0|0:0,0:0:0:0:
245,106,14651,2,0,P|220:106|195:118,1,35,0|0,0:0|0:0,0:0:0:0:
375,110,14908,2,0,P|367:87|348:66,1,35,8|0,0:0|0:0,0:0:0:0:
411,235,15164,2,0,P|430:220|443:196,1,35,0|0,0:0|0:0,0:0:0:0:
304,309,15420,5,6,0:0:0:0:
201,229,15677,1,2,0:0:0:0:
245,106,15933,1,10,0:0:0:0:
375,110,16190,1,2,0:0:0:0:
411,235,16446,1,2,0:0:0:0:
411,235,16959,6,0,P|377:217|359:194,1,35,8|0,0:0|0:0,0:0:0:0:
303,267,17215,2,0,P|291:230|295:201,1,35,0|0,0:0|0:0,0:0:0:0:
356,56,17472,5,4,0:0:0:0:
356,56,17985,2,0,L|296:62,1,35,8|0,0:0|0:0,0:0:0:0:
323,151,18242,2,0,L|263:141,1,35,0|0,0:0|0:0,0:0:0:0:
232,72,18498,5,2,0:0:0:0:
159,45,18626,1,2,0:0:0:0:
88,70,18754,1,2,0:0:0:0:
49,138,18882,1,2,0:0:0:0:
62,214,19010,1,10,0:0:0:0:
62,214,19267,6,0,P|77:211|121:212,1,35,0|0,0:0|0:0,0:0:0:0:
195,318,19523,1,4,0:0:0:0:
195,318,20035,6,0,L|201:258,1,35,8|0,0:0|0:0,0:0:0:0:
290,285,20292,2,0,L|280:225,1,35,0|0,0:0|0:0,0:0:0:0:
211,194,20548,5,2,0:0:0:0:
184,121,20676,1,2,0:0:0:0:
209,50,20804,1,2,0:0:0:0:
277,11,20932,1,2,0:0:0:0:
353,24,21060,1,0,0:0:0:0:
353,24,21318,6,0,L|363:71,1,35,0|0,0:0|0:0,0:0:0:0:
432,97,21574,2,0,L|417:142,1,35,4|0,0:0|0:0,0:0:0:0:
463,199,21831,2,0,L|427:231,1,35,0|0,0:0|0:0,0:0:0:0:
438,302,22087,2,0,L|390:311,1,35,8|0,0:0|0:0,0:0:0:0:
364,378,22344,2,0,L|318:363,1,35,0|0,0:0|0:0,0:0:0:0:
323,257,22600,2,0,L|280:278,1,35,4|0,0:0|0:0,0:0:0:0:
208,200,22856,2,0,L|193:245,1,35,0|0,0:0|0:0,0:0:0:0:
87,241,23113,2,0,L|108:283,1,35,8|0,0:0|0:0,0:0:0:0:
30,356,23369,2,0,L|75:370,1,35,0|0,0:0|0:0,0:0:0:0:
144,344,23626,5,4,0:1:0:0:
256,192,23754,12,2,25677,0:0:0:0:
452,202,42087,5,0,1:0:0:0:
452,202,42600,2,0,P|408:196|354:169,1,83.9999974365235,2|0,0:0|0:0,0:0:0:0:
321,278,43113,2,0,P|285:251|252:201,1,73.4999977569581,10|0,0:0|0:0,0:0:0:0:
180,277,43626,2,0,P|166:244|163:196,1,62.9999980773926,2|0,0:0|0:0,0:0:0:0:
225,141,44138,6,0,L|277:135,2,52.5,4|0|0,1:0|1:0|1:0,0:0:0:0:
139,114,45164,1,8,0:0:0:0:
435,333,45933,5,0,0:0:0:0:
435,333,46190,2,0,P|444:288|432:248,1,83.9999974365235,2|0,1:2|0:0,0:0:0:0:
298,291,46703,2,0,P|288:336|301:376,1,83.9999974365235,2|0,0:0|0:0,0:0:0:0:
351,212,47215,5,10,0:0:0:0:
257,209,47471,1,2,0:0:0:0:
171,170,47727,1,2,0:0:0:0:
108,101,47984,1,2,0:0:0:0:
77,12,48241,1,6,0:0:0:0:
459,122,49010,5,0,0:0:0:0:
390,62,49267,2,0,P|340:75|306:97,1,83.9999974365235,10|0,0:0|0:0,0:0:0:0:
214,95,49779,2,0,P|200:144|202:185,1,83.9999974365235,2|0,0:0|0:0,0:0:0:0:
250,349,50292,5,0,1:0:0:0:
283,250,50549,2,0,L|396:233,2,83.9999974365235,2|0|0,0:0|0:0|0:0,0:0:0:0:
200,176,51318,2,0,L|290:139,1,73.4999977569581,10|0,0:0|0:0,0:0:0:0:
119,136,51831,2,0,L|182:87,1,62.9999980773926,2|0,0:0|0:0,0:0:0:0:
35,167,52344,6,0,P|30:186|34:226,2,52.5,4|0|0,1:0|1:0|1:0,0:0:0:0:
122,233,53369,1,8,0:0:0:0:
397,36,54138,5,0,0:0:0:0:
310,55,54395,2,0,P|283:103|281:130,1,70,4|0,1:2|0:0,0:0:0:0:
406,175,55164,6,0,P|377:127|355:112,1,70,4|0,1:2|0:0,0:0:0:0:
195,133,55933,5,0,0:0:0:0:
254,198,56190,2,0,P|309:197|333:185,1,70,4|0,1:0|0:0,0:0:0:0:
67,166,57087,6,0,P|91:198|99:219,1,52.5,2|8,0:3|0:0,0:0:0:0:
48,283,57728,2,0,L|37:379,2,83.9999974365235,2|2|2,0:0|0:0|0:0,0:0:0:0:
67,166,58497,5,4,1:0:0:0:
66,166,59010,2,0,P|103:145|144:143,2,83.9999974365235,2|2|2,0:0|0:0|0:0,0:0:0:0:
282,332,60549,6,0,L|276:262,2,62.9999980773926,4|0|0,1:0|0:0|0:0,0:0:0:0:
366,338,61574,2,0,L|358:251,2,83.9999974365235,10|2|2,0:0|0:0|0:0,0:0:0:0:
482,229,62856,5,0,0:0:0:0:
482,229,63113,2,0,P|458:202|450:183,1,41.9999987182618,2|0,0:0|0:0,0:0:0:0:
375,168,63626,2,0,P|377:131|384:112,1,41.9999987182618,10|0,0:0|0:0,0:0:0:0:
341,48,64138,2,0,P|368:24|387:15,1,41.9999987182618,2|0,0:0|0:0,0:0:0:0:
272,132,64651,6,0,L|203:122,2,62.9999980773926,4|0|2,1:0|0:0|0:0,0:0:0:0:
161,46,65677,5,2,0:0:0:0:
74,61,65933,1,2,0:0:0:0:
13,124,66189,1,2,0:0:0:0:
0,211,66446,1,2,0:0:0:0:
40,289,66702,1,6,0:0:0:0:
249,217,67215,6,0,B|160:252|174:189|85:218,1,167.999994873047,2|0,0:0|0:0,0:0:0:0:
319,34,68754,6,0,L|310:96,2,62.9999980773926,4|0|0,1:0|0:0|0:0,0:0:0:0:
234,14,69779,2,0,L|224:109,2,83.9999974365235,10|2|2,0:0|0:0|0:0,0:0:0:0:
73,130,71062,5,0,0:0:0:0:
73,130,71318,2,0,L|78:187,1,41.9999987182618,2|0,0:0|0:0,0:0:0:0:
176,161,71831,2,0,L|166:217,1,41.9999987182618,10|0,0:0|0:0,0:0:0:0:
267,217,72344,2,0,L|242:268,1,41.9999987182618,2|0,0:0|0:0,0:0:0:0:
206,326,72856,6,0,P|161:310|114:310,2,83.9999974365235,4|0|2,1:0|0:0|0:0,0:0:0:0:
269,384,74138,1,2,0:0:0:0:
337,323,74395,5,0,0:0:0:0:
337,323,74523,2,0,L|375:329,1,35,0|0,0:0|0:0,0:0:0:0:
447,280,74779,5,0,0:0:0:0:
447,280,74908,2,0,P|444:256|404:204,1,48.9999985046387,6|0,1:2|0:0,0:0:0:0:
461,144,75164,2,0,P|441:129|376:120,1,48.9999985046387,0|2,0:0|0:0,0:0:0:0:
372,50,75420,1,8,0:0:0:0:
26,253,75933,6,0,L|96:257,1,48.9999985046387,0|2,0:0|0:0,0:0:0:0:
147,299,76190,2,0,L|217:303,1,48.9999985046387,0|0,1:0|0:0,0:0:0:0:
265,347,76446,1,10,0:0:0:0:
269,177,76703,5,2,0:0:0:0:
269,177,76831,1,0,0:0:0:0:
269,177,76959,2,0,P|268:150|277:121,2,48.9999985046387,6|0|0,1:2|0:0|0:0,0:0:0:0:
365,95,77344,2,0,P|388:107|409:129,1,48.9999985046387,2|8,0:0|0:0,0:0:0:0:
388,219,77600,2,0,P|365:233|335:240,1,48.9999985046387,0|2,0:0|0:0,0:0:0:0:
371,311,77856,5,0,0:0:0:0:
371,311,77985,2,0,P|402:300|450:259,1,62.9999980773926,0|2,0:0|0:0,0:0:0:0:
453,63,78241,2,0,P|427:41|368:20,1,62.9999980773926,0|2,1:0|0:0,0:0:0:0:
197,116,78497,2,0,P|191:148|202:210,1,62.9999980773926,10|0,0:0|0:0,0:0:0:0:
31,320,78754,5,2,0:0:0:0:
31,320,78882,1,0,0:0:0:0:
31,320,79010,2,0,L|42:256,1,62.9999980773926,6|0,1:2|0:0,0:0:0:0:
151,358,79267,2,0,L|145:293,1,62.9999980773926,0|2,0:0|0:0,0:0:0:0:
276,363,79523,2,0,L|253:302,1,62.9999980773926,8|0,0:0|0:0,0:0:0:0:
454,260,79779,5,2,0:0:0:0:
454,260,79907,1,0,0:0:0:0:
454,260,80036,2,0,L|432:200,1,62.9999980773926,0|2,0:0|0:0,0:0:0:0:
329,255,80292,2,0,L|323:192,1,62.9999980773926,0|0,1:0|0:0,0:0:0:0:
209,217,80548,2,0,L|219:154,1,62.9999980773926,10|0,0:0|0:0,0:0:0:0:
420,32,80805,5,2,0:0:0:0:
420,32,80933,1,0,0:0:0:0:
420,32,81062,2,0,P|400:80|308:99,1,125.999996154785,6|0,1:2|0:0,0:0:0:0:
279,43,81446,2,0,L|208:33,1,62.9999980773926,2|8,0:0|0:0,0:0:0:0:
279,43,82087,6,0,L|208:33,1,62.9999980773926,2|0,0:0|0:0,0:0:0:0:
264,128,82344,2,0,L|193:118,1,62.9999980773926,6|0,1:2|0:0,0:0:0:0:
10,188,82600,6,0,L|81:178,1,62.9999980773926,10|0,0:0|0:0,0:0:0:0:
25,273,82857,2,0,L|96:263,1,62.9999980773926,2|0,0:0|0:0,0:0:0:0:
403,384,83113,5,6,1:2:0:0:
464,337,83241,1,0,0:0:0:0:
474,261,83369,1,0,0:0:0:0:
429,199,83497,1,2,0:0:0:0:
353,187,83625,1,8,0:0:0:0:
302,244,83754,1,0,0:0:0:0:
225,244,83882,1,2,0:0:0:0:
174,187,84010,1,0,0:0:0:0:
182,111,84138,5,0,0:0:0:0:
182,111,84267,1,2,0:0:0:0:
327,51,84523,5,0,0:0:0:0:
327,51,84651,1,10,0:0:0:0:
13,279,85164,5,6,1:2:0:0:
60,340,85292,1,0,0:0:0:0:
135,358,85420,1,0,0:0:0:0:
205,325,85549,1,2,0:0:0:0:
239,256,85676,1,8,0:0:0:0:
270,187,85805,1,0,0:0:0:0:
336,151,85933,1,2,0:0:0:0:
411,164,86061,1,0,0:0:0:0:
462,219,86190,6,0,L|456:294,1,41.9999987182618,0|2,0:0|0:0,0:0:0:0:
377,244,86446,2,0,L|370:318,1,41.9999987182618,0|2,1:0|0:0,0:0:0:0:
278,379,86703,5,10,0:0:0:0:
265,274,86831,1,0,0:0:0:0:
252,170,86959,1,2,0:0:0:0:
240,66,87087,1,0,0:0:0:0:
163,128,87215,5,6,1:2:0:0:
463,81,87728,6,0,L|363:66,1,83.9999974365235,8|0,0:0|0:0,0:0:0:0:
309,111,88113,1,0,0:0:0:0:
240,66,88241,6,0,L|251:12,1,41.9999987182618,4|0,0:2|0:0,0:0:0:0:
159,54,88497,2,0,L|170:0,1,41.9999987182618,0|0,1:0|0:0,0:0:0:0:
73,51,88754,6,0,P|55:109|75:143,1,83.9999974365235,8|0,0:0|0:0,0:0:0:0:
16,198,89138,1,0,0:0:0:0:
81,252,89267,6,0,L|141:239,1,41.9999987182618,4|0,1:0|0:0,0:0:0:0:
74,336,89523,2,0,L|134:323,1,41.9999987182618,0|0,0:0|0:0,0:0:0:0:
278,352,89779,5,0,0:0:0:0:
221,298,89907,1,0,0:0:0:0:
206,222,90035,1,4,0:1:0:0:
236,151,90163,1,0,0:0:0:0:
301,109,90292,6,0,P|317:128|329:153,1,35,2|0,0:0|0:0,0:0:0:0:
409,122,90549,2,0,P|413:147|411:174,1,35,2|0,0:0|0:0,0:0:0:0:
313,27,90805,6,0,P|336:33|356:47,1,48.9999985046387,2|0,1:0|0:0,0:0:0:0:
460,56,91062,2,0,P|477:73|487:95,1,48.9999985046387,2|0,1:0|0:0,0:0:0:0:
422,319,91318,5,4,1:0:0:0:
422,319,91831,2,0,P|417:299|406:281,1,41.9999987182618,8|0,0:0|0:0,0:0:0:0:
248,345,92087,2,0,P|253:366|263:384,1,41.9999987182618,0|0,1:0|0:0,0:0:0:0:
335,333,92344,5,6,0:0:0:0:
300,265,92472,1,2,1:2:0:0:
298,172,92600,1,2,0:0:0:0:
355,79,92728,1,2,0:0:0:0:
471,32,92856,1,10,0:0:0:0:
471,32,93113,6,0,L|458:81,1,41.9999987182618,0|0,1:0|0:0,0:0:0:0:
380,4,93369,2,0,L|380:54,1,48.9999985046387,0|0,1:0|0:0,0:0:0:0:
267,20,93626,2,0,L|281:73,1,56,0|0,0:0|0:0,0:0:0:0:
166,109,93882,2,0,L|205:175,1,62.9999980773926,8|0,0:0|0:0,0:0:0:0:
134,261,94138,2,0,L|189:316,1,70,0|0,1:0|0:0,0:0:0:0:
466,168,94395,5,6,0:0:0:0:
408,218,94523,1,2,1:2:0:0:
319,244,94651,1,2,0:0:0:0:
214,213,94779,1,2,0:0:0:0:
139,113,94907,1,10,0:0:0:0:
139,113,95164,6,0,P|129:94|124:74,1,41.9999987182618,0|0,1:0|0:0,0:0:0:0:
218,78,95420,2,0,P|214:54|216:29,1,48.9999985046387,0|0,1:0|0:0,0:0:0:0:
322,79,95677,2,0,P|327:51|337:25,1,56,0|0,0:0|0:0,0:0:0:0:
425,151,95933,2,0,P|440:123|463:102,1,62.9999980773926,8|0,0:0|0:0,0:0:0:0:
471,285,96190,2,0,P|497:263|529:248,1,70,0|0,1:0|0:0,0:0:0:0:
328,215,96446,2,0,P|334:184|346:154,1,62.9999980773926,0|0,0:0|1:0,0:0:0:0:
184,222,96703,2,0,P|177:194|178:167,1,56,0|0,0:0|0:0,0:0:0:0:
86,295,96959,2,0,P|73:275|65:251,1,48.9999985046387,8|0,0:0|1:0,0:0:0:0:
38,384,97215,2,0,P|21:371|9:355,1,41.9999987182618,0|0,1:0|0:0,0:0:0:0:
235,19,97472,5,6,1:2:0:0:
202,92,97600,1,2,0:0:0:0:
225,173,97728,1,2,0:0:0:0:
304,221,97856,1,2,0:0:0:0:
402,192,97985,5,10,0:0:0:0:
321,121,98113,1,2,0:0:0:0:
205,106,98241,1,2,1:2:0:0:
96,169,98369,1,2,0:0:0:0:
47,294,98497,5,6,0:0:0:0:
0,159,98626,1,2,1:2:0:0:
205,106,98754,5,6,0:0:0:0:
184,200,98882,1,2,0:0:0:0:
55,87,99010,6,0,P|56:42|79:7,1,70,2|0,1:0|0:0,0:0:0:0:
285,41,99267,2,0,P|320:13|361:8,1,70,2|0,1:0|0:0,0:0:0:0:
420,237,99523,5,4,1:0:0:0:
420,238,100036,2,0,P|399:237|378:232,1,41.9999987182618,8|0,0:0|0:0,0:0:0:0:
400,64,100292,2,0,P|420:64|441:69,1,41.9999987182618,0|0,1:0|0:0,0:0:0:0:
411,151,100549,5,6,0:0:0:0:
336,134,100677,1,2,1:2:0:0:
245,156,100805,1,2,0:0:0:0:
170,235,100933,1,2,0:0:0:0:
155,359,101061,1,10,0:0:0:0:
155,359,101318,6,0,P|127:323|122:282,1,70,0|0,1:0|0:0,0:0:0:0:
290,239,101574,1,4,1:0:0:0:
290,239,102088,6,0,P|296:219|298:199,1,41.9999987182618,8|0,0:0|0:0,0:0:0:0:
132,169,102344,2,0,P|126:189|125:210,1,41.9999987182618,0|0,1:0|0:0,0:0:0:0:
211,204,102601,5,6,0:0:0:0:
218,129,102729,1,2,1:2:0:0:
267,48,102857,1,2,0:0:0:0:
365,1,102985,1,2,0:0:0:0:
488,26,103113,1,10,0:0:0:0:
488,26,103369,6,0,L|442:14,1,41.9999987182618,0|0,1:0|0:0,0:0:0:0:
474,155,103626,2,0,L|431:125,1,48.9999985046387,0|0,1:0|0:0,0:0:0:0:
391,293,103882,2,0,L|358:247,1,56,0|0,0:0|0:0,0:0:0:0:
221,377,104138,2,0,L|203:315,1,62.9999980773926,8|0,0:0|0:0,0:0:0:0:
7,342,104395,2,0,L|13:272,1,70,0|0,1:0|0:0,0:0:0:0:
129,298,104651,2,0,L|111:236,1,62.9999980773926,0|0,0:0|1:0,0:0:0:0:
217,223,104908,2,0,L|184:177,1,56,0|0,0:0|0:0,0:0:0:0:
259,130,105164,2,0,L|216:100,1,48.9999985046387,8|0,0:0|1:0,0:0:0:0:
263,34,105420,2,0,L|217:22,1,41.9999987182618,0|0,1:0|0:0,0:0:0:0:
0,164,105677,5,6,1:2:0:0:
73,131,105805,1,2,0:0:0:0:
155,155,105933,1,2,0:0:0:0:
202,233,106061,1,2,0:0:0:0:
282,295,106190,1,10,0:0:0:0:
389,275,106318,1,2,0:0:0:0:
441,169,106446,1,2,1:2:0:0:
376,60,106574,1,2,0:0:0:0:
241,68,106703,6,0,P|254:83|263:102,1,41.9999987182618,6|0,1:2|1:0,0:0:0:0:
331,148,106959,2,0,P|329:174|320:200,1,48.9999985046387,6|0,0:0|0:0,0:0:0:0:
311,301,107215,2,0,P|292:319|266:332,1,56,2|0,1:0|0:0,0:0:0:0:
160,384,107472,2,0,P|128:381|98:371,1,62.9999980773926,2|0,1:0|0:0,0:0:0:0:
6,155,107728,5,4,1:0:0:0:
6,155,108241,2,0,P|12:135|23:117,1,41.9999987182618,8|0,0:0|0:0,0:0:0:0:
180,182,108497,2,0,P|174:202|165:221,1,41.9999987182618,0|0,1:0|0:0,0:0:0:0:
93,170,108754,5,6,0:0:0:0:
117,96,108882,1,2,1:2:0:0:
181,28,109010,1,2,0:0:0:0:
286,3,109138,1,2,0:0:0:0:
402,51,109266,1,10,0:0:0:0:
402,51,109523,6,0,P|397:95|371:128,1,70,0|0,1:0|0:0,0:0:0:0:
64,242,109779,1,4,1:0:0:0:
64,242,110292,6,0,P|84:238|103:232,1,41.9999987182618,8|0,0:0|0:0,0:0:0:0:
60,68,110548,2,0,P|39:71|19:78,1,41.9999987182618,0|0,1:0|0:0,0:0:0:0:
61,155,110805,5,6,0:0:0:0:
133,129,110933,1,2,1:2:0:0:
226,139,111061,1,2,0:0:0:0:
310,208,111189,1,2,0:0:0:0:
340,330,111318,6,0,P|314:335|275:327,1,41.9999987182618,8|0,0:0|0:0,0:0:0:0:
241,379,111574,2,0,P|218:364|196:330,1,45.4999979171754,0|0,1:0|0:0,0:0:0:0:
128,363,111831,2,0,P|121:336|130:297,1,48.9999985046387,0|0,1:0|0:0,0:0:0:0:
53,259,112087,2,0,P|66:236|100:214,1,52.5000020027161,0|0,0:0|0:0,0:0:0:0:
63,120,112344,2,0,P|88:114|127:122,1,56,8|0,0:0|0:0,0:0:0:0:
176,21,112600,2,0,P|197:34|219:68,1,59.5000011348725,0|0,1:0|0:0,0:0:0:0:
343,25,112856,2,0,P|347:50|339:90,1,62.9999980773926,0|0,0:0|1:0,0:0:0:0:
456,177,113113,2,0,P|441:198|407:220,1,66.4999982242585,0|0,0:0|0:0,0:0:0:0:
340,330,113369,5,12,0:0:0:0:
340,330,113882,5,4,1:0:0:0:
267,363,114010,1,2,0:0:0:0:
186,340,114138,1,2,0:0:0:0:
138,261,114266,1,2,0:0:0:0:
167,163,114395,1,10,0:0:0:0:
244,240,114523,1,2,0:0:0:0:
361,247,114651,1,2,1:2:0:0:
456,164,114779,1,2,0:0:0:0:
455,28,114908,1,2,1:2:0:0:
455,28,115164,6,0,P|410:29|385:39,1,41.9999987182618,0|0,0:0|0:0,0:0:0:0:
299,0,115420,2,0,P|273:36|267:65,1,56,8|0,0:0|0:0,0:0:0:0:
160,94,115677,2,0,P|160:142|194:202,1,70,0|0,1:0|0:0,0:0:0:0:
459,344,115933,6,0,L|466:280,1,41.9999987182618,4|0,1:2|0:0,0:0:0:0:
426,231,116190,2,0,L|433:167,1,41.9999987182618,0|0,0:0|0:0,0:0:0:0:
359,351,116446,6,0,L|366:287,1,56,12|0,0:0|0:0,0:0:0:0:
320,168,116703,2,0,L|327:104,1,56,0|0,1:0|0:0,0:0:0:0:
244,360,116959,6,0,L|252:286,1,70,4|0,0:0|1:0,0:0:0:0:
215,105,117215,2,0,L|223:29,1,70,0|0,0:0|0:0,0:0:0:0:
110,370,117472,5,8,0:0:0:0:
110,370,117985,6,0,L|119:284,1,83.9999974365235,4|0,1:0|0:0,0:0:0:0:
89,30,118241,1,4,1:0:0:0:
356,135,118754,6,0,L|351:115,10,20.9999993591309,4|0|0|0|0|0|0|0|0|0|0,1:0|0:0|0:0|0:0|0:0|0:0|0:0|0:0|0:0|0:0|0:0,0:0:0:0:
315,40,119523,1,8,0:0:0:0:
315,40,119779,6,0,P|297:51|283:67,1,41.9999987182618,0|0,1:0|0:0,0:0:0:0:
226,14,120036,2,0,P|211:33|202:56,1,48.9999985046387,0|0,1:0|0:0,0:0:0:0:
110,46,120292,2,0,P|102:72|101:100,1,56,0|0,0:0|0:0,0:0:0:0:
8,145,120549,2,0,P|9:176|20:205,1,62.9999980773926,8|0,0:0|0:0,0:0:0:0:
0,312,120805,2,0,P|14:343|36:370,1,70,0|0,1:0|0:0,0:0:0:0:
141,180,121062,2,0,P|137:211|142:242,1,62.9999980773926,0|0,0:0|1:0,0:0:0:0:
292,147,121318,2,0,P|275:169|265:195,1,56,0|0,0:0|0:0,0:0:0:0:
412,191,121574,2,0,P|389:200|370:216,1,48.9999985046387,8|0,0:0|1:0,0:0:0:0:
481,271,121831,2,0,P|460:271|440:278,1,41.9999987182618,0|0,1:0|0:0,0:0:0:0:
164,379,122087,5,6,1:2:0:0:
113,322,122215,1,2,0:0:0:0:
85,241,122344,1,2,0:0:0:0:
93,149,122472,1,2,0:0:0:0:
145,63,122600,1,10,0:0:0:0:
239,8,122728,1,2,0:0:0:0:
356,11,122856,1,2,1:2:0:0:
460,82,122985,1,2,0:0:0:0:
507,207,123113,6,0,P|478:207|432:221,1,41.9999987182618,6|0,0:0|1:0,0:0:0:0:
404,152,123369,2,0,P|379:166|346:201,1,48.9999985046387,6|0,0:0|0:0,0:0:0:0:
267,169,123626,2,0,P|253:193|242:240,1,56,2|0,1:0|0:0,0:0:0:0:
142,284,123882,2,0,P|142:311|156:358,1,62.9999980773926,2|0,1:0|0:0,0:0:0:0:
378,299,124138,5,4,1:0:0:0:
378,299,124395,5,0,0:0:0:0:
467,191,124523,1,0,0:0:0:0:
451,52,124651,2,0,P|431:22|391:-5,1,62.9999980773926,12|0,0:0|0:0,0:0:0:0:
372,190,124908,5,0,1:0:0:0:
356,98,125036,2,0,P|325:82|275:78,1,56,4|0,0:0|0:0,0:0:0:0:
282,164,125292,6,0,P|251:172|224:192,1,48.9999985046387,4|0,1:2|0:0,0:0:0:0:
238,264,125549,5,0,0:0:0:0:
238,264,125677,2,0,P|230:293|233:327,1,41.9999987182618,12|0,0:0|0:0,0:0:0:0:
277,362,125933,5,4,1:0:0:0:
277,362,126446,5,0,0:0:0:0:
140,379,126574,1,0,0:0:0:0:
62,265,126703,2,0,L|76:177,1,62.9999980773926,12|0,0:0|0:0,0:0:0:0:
200,310,126959,5,0,1:0:0:0:
170,227,127087,2,0,L|203:167,1,56,4|0,0:0|0:0,0:0:0:0:
280,205,127344,6,0,L|331:160,1,48.9999985046387,4|0,1:2|0:0,0:0:0:0:
388,209,127600,5,0,0:0:0:0:
388,209,127728,2,0,L|451:185,1,41.9999987182618,12|0,0:0|0:0,0:0:0:0:
489,236,127985,5,4,1:0:0:0:
489,236,128369,5,2,0:0:0:0:
447,170,128497,1,2,0:0:0:0:
368,122,128625,1,2,0:0:0:0:
259,124,128754,2,0,P|249:146|245:187,1,41.9999987182618,10|0,0:0|0:0,0:0:0:0:
283,235,129010,1,0,1:0:0:0:
283,235,129395,5,2,0:0:0:0:
241,301,129523,1,2,0:0:0:0:
162,349,129651,1,2,0:0:0:0:
53,347,129780,2,0,P|43:325|39:284,1,41.9999987182618,10|0,0:0|0:0,0:0:0:0:
77,236,130036,1,0,1:0:0:0:
77,236,130549,6,0,L|155:227,1,41.9999987182618,2|0,0:0|0:0,0:0:0:0:
116,143,130805,2,0,L|193:154,1,56,10|0,0:0|0:0,0:0:0:0:
209,51,131062,2,0,L|281:82,1,70,2|0,1:2|0:0,0:0:0:0:
223,329,131318,5,4,0:0:0:0:
298,359,131446,2,0,L|376:350,1,41.9999987182618,0|0,0:0|1:0,0:0:0:0:
238,193,131703,5,4,0:0:0:0:
337,266,131831,2,0,L|414:277,1,56,0|0,0:0|1:0,0:0:0:0:
351,41,132087,5,4,0:0:0:0:
430,174,132215,2,0,L|502:205,1,70,0|0,0:0|1:0,0:0:0:0:
80,220,132600,5,0,0:0:0:0:
198,177,132728,1,0,0:0:0:0:
199,51,132856,2,0,P|177:27|151:10,1,62.9999980773926,12|0,0:0|0:0,0:0:0:0:
285,169,133113,5,0,1:0:0:0:
306,69,133241,2,0,P|303:40|282:-14,1,56,4|0,0:0|0:0,0:0:0:0:
379,127,133497,6,0,P|396:86|398:54,1,48.9999985046387,4|0,1:2|0:0,0:0:0:0:
404,210,133754,5,0,0:0:0:0:
404,210,133882,2,0,P|422:201|452:175,1,41.9999987182618,12|0,0:0|0:0,0:0:0:0:
365,281,134138,5,4,1:0:0:0:
365,281,134651,5,0,0:0:0:0:
247,235,134779,1,0,0:0:0:0:
156,320,134908,2,0,L|139:412,1,62.9999980773926,12|0,0:0|0:0,0:0:0:0:
203,156,135164,5,0,1:0:0:0:
104,216,135292,2,0,L|43:287,1,56,4|0,0:0|0:0,0:0:0:0:
106,120,135549,6,0,L|17:151,1,48.9999985046387,4|0,1:2|0:0,0:0:0:0:
162,51,135805,5,0,0:0:0:0:
162,51,135933,2,0,L|84:36,1,41.9999987182618,12|0,0:0|0:0,0:0:0:0:
223,0,136190,5,4,1:0:0:0:
223,0,136574,5,2,0:0:0:0:
297,23,136702,1,2,0:0:0:0:
364,87,136830,1,2,0:0:0:0:
390,193,136959,2,0,L|321:212,1,41.9999987182618,6|0,0:0|0:0,0:0:0:0:
204,151,137215,1,0,1:0:0:0:
204,151,137600,5,2,0:0:0:0:
130,174,137728,1,2,0:0:0:0:
63,238,137856,1,2,0:0:0:0:
37,344,137985,2,0,L|106:363,1,41.9999987182618,6|0,0:0|0:0,0:0:0:0:
223,302,138241,1,0,1:0:0:0:
223,302,138754,6,0,P|235:329|245:368,1,41.9999987182618,2|0,0:0|0:0,0:0:0:0:
328,231,139010,2,0,P|333:260|332:300,1,56,10|0,0:0|0:0,0:0:0:0:
475,234,139267,2,0,P|472:263|461:302,1,70,2|0,1:2|0:0,0:0:0:0:
136,129,139523,5,4,0:0:0:0:
201,160,139651,2,0,P|213:187|223:226,1,41.9999987182618,0|0,0:0|0:0,0:0:0:0:
236,27,139908,5,4,0:0:0:0:
306,89,140036,2,0,P|311:118|310:158,1,56,0|0,0:0|0:0,0:0:0:0:
373,0,140292,5,4,0:0:0:0:
453,92,140420,2,0,P|450:121|439:160,1,70,0|0,0:0|0:0,0:0:0:0:
463,125,141574,6,0,P|480:146|494:180,2,41.9999987182618,4|0|0,0:0|0:0|0:0,0:0:0:0:
412,200,141958,2,0,P|416:226|411:263,1,41.9999987182618,0|0,1:0|0:0,0:0:0:0:
328,235,142215,2,0,P|318:260|250:311,1,83.9999974365235,4|0,0:0|0:0,0:0:0:0:
111,307,142599,5,0,1:0:0:0:
90,229,142727,1,0,1:0:0:0:
167,209,142856,1,0,1:0:0:0:
188,286,142984,1,4,1:2:0:0:
82,45,143368,5,0,1:0:0:0:
82,45,143625,2,0,P|70:79|71:113,1,41.9999987182618,4|0,0:0|0:0,0:0:0:0:
183,58,143881,2,0,P|155:81|139:111,1,41.9999987182618,4|0,0:0|0:0,0:0:0:0:
263,119,144138,2,0,P|227:125|198:143,1,41.9999987182618,4|0,0:0|0:0,0:0:0:0:
302,211,144394,2,0,P|268:199|233:199,1,41.9999987182618,4|0,0:0|0:0,0:0:0:0:
393,245,144650,5,0,1:0:0:0:
464,118,144779,1,0,1:0:0:0:
365,144,144907,1,0,1:0:0:0:
490,215,145035,1,4,1:0:0:0:
191,331,145420,5,2,0:0:0:0:
191,331,145548,1,2,0:0:0:0:
191,331,145676,1,2,0:0:0:0:
119,278,145847,2,0,P|122:237|138:199,1,69.9999978637696,0|0,0:0|0:0,0:0:0:0:
215,178,146189,2,0,P|220:203|219:232,1,41.9999987182618,0|0,1:0|0:0,0:0:0:0:
83,137,146445,2,0,P|106:126|134:120,1,41.9999987182618,0|0,1:0|0:0,0:0:0:0:
427,113,146702,5,0,1:0:0:0:
332,18,146830,1,0,1:0:0:0:
298,148,146958,1,0,1:0:0:0:
352,93,147086,1,4,1:0:0:0:
192,72,147343,1,0,1:2:0:0:
352,93,147599,5,2,0:0:0:0:
352,93,147727,2,0,L|350:135,1,41.9999987182618,4|0,0:0|0:0,0:0:0:0:
432,128,147984,2,0,L|430:170,1,41.9999987182618,4|0,0:0|0:0,0:0:0:0:
344,216,148240,6,0,L|365:217,1,20.9999993591309,2|0,0:3|0:0,0:0:0:0:
343,226,148368,2,0,L|364:227,1,20.9999993591309,2|0,0:3|0:0,0:0:0:0:
342,236,148497,2,0,L|363:237,1,20.9999993591309,2|0,0:3|0:0,0:0:0:0:
341,246,148625,2,0,L|362:247,1,20.9999993591309,2|0,0:3|0:0,0:0:0:0:
292,308,148753,5,0,1:0:0:0:
218,315,148881,1,0,1:0:0:0:
145,322,149009,1,0,1:0:0:0:
72,329,149137,1,0,1:0:0:0:
0,336,149266,1,4,1:0:0:0:
0,336,149650,5,2,0:0:0:0:
0,336,149779,2,0,L|6:294,2,41.9999987182618,0|0|0,1:0|0:0|0:0,0:0:0:0:
94,297,150163,2,0,L|89:255,1,41.9999987182618,4|0,0:0|0:0,0:0:0:0:
174,234,150420,2,0,L|133:131,1,83.9999974365235,4|0,0:0|0:0,0:0:0:0:
204,92,150804,5,0,1:0:0:0:
151,27,150932,1,0,1:0:0:0:
71,11,151060,1,0,1:0:0:0:
2,54,151189,1,4,1:0:0:0:
2,54,151445,5,0,1:0:0:0:
71,11,151573,1,0,1:0:0:0:
151,27,151701,1,0,1:0:0:0:
204,92,151829,1,0,1:0:0:0:
270,41,151963,6,0,P|314:33|377:65,1,83.9999974365235,0|0,0:0|0:0,0:0:0:0:
405,110,152343,2,0,P|417:96|433:55,1,41.9999987182618,0|0,1:0|0:0,0:0:0:0:
510,83,152599,2,0,P|510:64|498:33,1,41.9999987182618,0|0,1:0|0:0,0:0:0:0:
351,174,152856,5,0,1:0:0:0:
331,247,152984,1,0,1:0:0:0:
404,266,153112,1,0,1:0:0:0:
424,193,153240,1,4,1:0:0:0:
181,359,153625,6,0,L|186:374,8,10.4999996795654,0|0|0|0|0|0|0|0|0,0:0|0:0|0:0|0:0|0:0|0:0|0:0|0:0|0:0,0:0:0:0:
99,345,154009,1,0,1:0:0:0:
149,280,154137,1,0,1:0:0:0:
139,199,154265,1,0,1:0:0:0:
75,148,154393,1,4,1:2:0:0:
75,148,154650,6,0,L|140:158,1,41.9999987182618,4|0,0:0|0:0,0:0:0:0:
213,233,154907,1,0,1:0:0:0:
213,233,155035,1,0,1:0:0:0:
330,134,155292,1,0,1:0:0:0:
330,134,155420,1,0,1:0:0:0:
505,227,155676,6,0,L|397:210,1,83.9999974365235,0|0,1:0|0:0,0:0:0:0:
330,134,156061,1,2,1:0:0:0:
330,134,156189,1,2,1:0:0:0:
213,233,156446,1,2,0:3:0:0:
196,313,156574,1,2,0:3:0:0:
276,330,156702,1,2,0:3:0:0:
293,250,156830,1,2,0:3:0:0:
213,233,156958,5,0,1:0:0:0:
158,174,157086,1,0,1:0:0:0:
157,94,157214,1,0,1:0:0:0:
210,34,157342,1,0,1:0:0:0:
290,25,157471,2,0,P|321:53|338:96,1,56,4|0,0:0|0:0,0:0:0:0:
474,101,157727,2,0,P|484:136|480:183,1,56,4|0,0:0|0:0,0:0:0:0:
392,332,157984,5,4,1:0:0:0:
7,298,158368,5,0,0:0:0:0:
72,334,158496,1,0,0:0:0:0:
146,328,158624,1,0,0:0:0:0:
205,283,158752,1,0,0:0:0:0:
230,213,158880,1,0,0:0:0:0:
213,141,159009,1,4,0:0:0:0:
0,123,159394,6,0,L|121:131,1,83.9999974365235,0|0,1:0|0:0,0:0:0:0:
123,48,159779,2,0,L|173:75,1,41.9999987182618,2|0,0:0|0:0,0:0:0:0:
237,22,160035,2,0,L|264:59,1,41.9999987182618,2|0,0:0|0:0,0:0:0:0:
238,365,160548,5,0,0:0:0:0:
260,289,160676,1,0,0:0:0:0:
282,213,160804,2,0,P|276:190|286:136,1,41.9999987182618,4|0,0:0|0:0,0:0:0:0:
394,211,161061,2,0,P|373:198|342:153,1,41.9999987182618,4|0,0:0|0:0,0:0:0:0:
468,129,161317,1,0,0:0:0:0:
468,129,161445,2,0,P|445:135|391:125,1,41.9999987182618,4|0,0:0|0:0,0:0:0:0:
123,67,161958,6,0,P|173:40|231:40,1,83.9999974365235,4|0,0:1|0:0,0:0:0:0:
184,207,162343,5,2,0:0:0:0:
191,166,162471,1,2,0:0:0:0:
198,125,162599,1,4,0:1:0:0:
380,207,162856,5,2,0:0:0:0:
387,248,162984,1,2,0:0:0:0:
281,288,163112,5,2,0:0:0:0:
288,247,163240,1,2,0:0:0:0:
184,207,163368,5,2,0:0:0:0:
191,248,163496,1,2,0:0:0:0:
93,271,163625,5,4,0:1:0:0:
286,75,163881,5,2,0:0:0:0:
252,99,164009,1,2,0:0:0:0:
314,154,164138,6,0,P|345:171|381:232,1,83.9999974365235,4|0,0:1|0:0,0:0:0:0:
288,247,164522,2,0,P|297:280|280:349,1,83.9999974365235,4|0,0:1|0:0,0:0:0:0:
203,294,164907,2,0,P|186:325|164:343,1,41.9999987182618,4|0,0:1|0:0,0:0:0:0:
101,293,165163,6,0,L|53:301,3,41.9999987182618,2|2|2|2,0:0|0:0|0:0|0:0,0:0:0:0:
139,219,166061,1,0,0:0:0:0:
79,160,166189,6,0,P|71:142|66:97,1,41.9999987182618,0|0,1:0|0:0,0:0:0:0:
144,57,166445,2,0,P|151:38|179:3,1,41.9999987182618,0|0,1:0|0:0,0:0:0:0:
356,64,166702,5,0,0:0:0:0:
356,64,166830,2,0,P|336:56|292:51,1,41.9999987182618,4|0,0:0|0:0,0:0:0:0:
252,129,167086,1,0,0:0:0:0:
252,129,167215,2,0,P|233:136|198:164,1,41.9999987182618,4|0,0:0|0:0,0:0:0:0:
225,247,167471,1,0,0:0:0:0:
225,247,167599,2,0,P|216:265|211:309,1,41.9999987182618,4|0,0:0|0:0,0:0:0:0:
445,304,168112,5,2,0:0:0:0:
405,314,168240,1,2,0:0:0:0:
358,241,168368,5,2,0:0:0:0:
323,219,168496,1,2,0:0:0:0:
341,134,168625,5,2,0:0:0:0:
332,94,168753,1,4,0:1:0:0:
423,24,168881,5,2,0:0:0:0:
414,64,169009,1,4,0:1:0:0:
500,134,169138,5,2,0:0:0:0:
491,94,169266,1,4,0:1:0:0:
491,94,169779,6,0,L|405:109,1,83.9999974365235,4|0,0:1|0:0,0:0:0:0:
185,341,170291,6,0,P|164:324|148:290,1,41.9999987182618,0|0,1:0|0:0,0:0:0:0:
186,151,170548,2,0,P|190:124|211:93,1,41.9999987182618,0|0,1:0|0:0,0:0:0:0:
482,177,170804,6,0,L|396:192,1,83.9999974365235,4|0,0:1|0:0,0:0:0:0:
137,230,171316,6,0,P|116:213|100:179,1,41.9999987182618,0|0,1:0|0:0,0:0:0:0:
138,40,171573,2,0,P|142:13|163:-17,1,41.9999987182618,0|0,1:0|0:0,0:0:0:0:
295,44,171830,5,2,0:0:0:0:
336,33,171958,1,2,0:0:0:0:
237,121,172086,5,2,0:0:0:0:
196,110,172214,1,2,0:0:0:0:
293,194,172343,5,4,0:1:0:0:
295,44,172856,5,2,0:0:0:0:
295,44,172984,1,2,0:0:0:0:
237,121,173112,5,2,0:0:0:0:
237,121,173240,1,2,0:0:0:0:
293,194,173368,5,6,0:0:0:0:
256,192,188753,12,0,190291,0:0:0:0:
50,243,190804,5,4,1:0:0:0:
50,243,191317,2,0,P|81:243|115:222,1,41.9999987182618,8|0,0:0|0:0,0:0:0:0:
76,65,191574,2,0,P|45:65|11:86,1,41.9999987182618,0|0,1:0|0:0,0:0:0:0:
63,154,191830,5,6,0:0:0:0:
134,129,191958,1,2,1:2:0:0:
222,153,192086,1,2,0:0:0:0:
280,245,192215,1,2,0:0:0:0:
242,364,192343,1,10,0:0:0:0:
242,364,192599,6,0,L|249:305,1,41.9999987182618,0|0,1:0|0:0,0:0:0:0:
333,331,192856,2,0,L|319:273,1,48.9999985046387,0|0,1:0|0:0,0:0:0:0:
414,257,193112,2,0,L|381:207,1,56,0|0,0:0|0:0,0:0:0:0:
475,150,193368,2,0,L|424:112,1,62.9999980773926,8|0,0:0|0:0,0:0:0:0:
511,20,193625,2,0,L|424:-5,1,70,0|0,1:0|0:0,0:0:0:0:
284,159,193881,5,6,0:0:0:0:
226,112,194009,1,2,1:2:0:0:
136,104,194137,1,2,0:0:0:0:
50,171,194266,1,2,0:0:0:0:
45,296,194394,1,10,0:0:0:0:
45,296,194650,6,0,P|56:278|71:263,1,41.9999987182618,0|0,1:0|0:0,0:0:0:0:
129,362,194907,2,0,P|133:338|143:315,1,48.9999985046387,0|0,1:0|0:0,0:0:0:0:
251,371,195163,2,0,P|245:343|246:315,1,56,0|0,0:0|0:0,0:0:0:0:
382,318,195420,2,0,P|364:291|354:261,1,62.9999980773926,8|0,0:0|0:0,0:0:0:0:
491,224,195676,2,0,P|463:202|441:175,1,70,0|0,1:0|0:0,0:0:0:0:
278,241,195932,2,0,P|265:212|260:181,1,62.9999980773926,0|0,0:0|1:0,0:0:0:0:
124,193,196189,2,0,P|128:165|139:139,1,56,0|0,0:0|0:0,0:0:0:0:
41,122,196445,2,0,P|52:100|67:80,1,48.9999985046387,8|0,0:0|1:0,0:0:0:0:
0,24,196702,2,0,P|19:8|40:-2,1,41.9999987182618,0|0,1:0|0:0,0:0:0:0:
250,56,196958,5,6,1:2:0:0:
312,104,197086,1,2,0:0:0:0:
325,188,197215,1,2,0:0:0:0:
270,261,197343,1,2,0:0:0:0:
170,265,197471,5,10,0:0:0:0:
235,177,197599,1,2,0:0:0:0:
350,152,197727,1,2,1:2:0:0:
461,214,197856,1,2,0:0:0:0:
495,344,197984,5,6,0:0:0:0:
356,377,198112,1,2,1:2:0:0:
304,240,198240,5,6,0:0:0:0:
387,264,198368,1,2,0:0:0:0:
263,334,198497,6,0,P|218:333|183:310,1,70,2|0,1:0|0:0,0:0:0:0:
135,179,198754,2,0,P|107:144|102:103,1,70,2|0,1:0|0:0,0:0:0:0:
285,24,199009,5,4,1:0:0:0:
285,24,199522,2,0,P|285:55|306:89,1,41.9999987182618,8|0,0:0|0:0,0:0:0:0:
463,50,199779,2,0,P|463:19|442:-15,1,41.9999987182618,0|0,1:0|0:0,0:0:0:0:
374,37,200035,5,6,0:0:0:0:
399,108,200163,1,2,1:2:0:0:
375,196,200291,1,2,0:0:0:0:
283,254,200420,1,2,0:0:0:0:
164,216,200548,1,10,0:0:0:0:
164,216,200804,6,0,P|201:192|262:182,1,70,0|0,1:0|0:0,0:0:0:0:
398,226,201061,1,4,1:0:0:0:
398,226,201574,6,0,P|389:196|360:168,1,41.9999987182618,8|0,0:0|0:0,0:0:0:0:
219,246,201831,2,0,P|227:275|256:303,1,41.9999987182618,0|0,1:0|0:0,0:0:0:0:
308,236,202087,5,6,0:0:0:0:
266,174,202215,1,2,1:2:0:0:
266,83,202343,1,2,0:0:0:0:
340,3,202472,1,2,0:0:0:0:
465,9,202600,1,10,0:0:0:0:
465,9,202856,6,0,L|500:33,1,41.9999987182618,0|0,1:0|0:0,0:0:0:0:
400,62,203112,2,0,L|428:102,1,48.9999985046387,0|0,1:0|0:0,0:0:0:0:
300,96,203369,2,0,L|314:150,1,56,0|0,0:0|0:0,0:0:0:0:
182,93,203625,2,0,L|176:155,1,62.9999980773926,8|0,0:0|0:0,0:0:0:0:
45,44,203882,2,0,L|16:108,1,70,0|0,1:0|0:0,0:0:0:0:
118,203,204138,2,0,L|108:266,1,62.9999980773926,0|0,0:0|1:0,0:0:0:0:
225,297,204395,2,0,L|231:353,1,56,0|0,0:0|0:0,0:0:0:0:
337,334,204650,2,0,L|354:380,1,48.9999985046387,8|0,0:0|1:0,0:0:0:0:
438,348,204907,2,0,L|463:383,1,41.9999987182618,0|0,1:0|0:0,0:0:0:0:
493,175,205163,5,6,1:2:0:0:
417,150,205291,1,2,0:0:0:0:
335,172,205420,1,2,0:0:0:0:
278,244,205548,1,2,0:0:0:0:
232,333,205676,1,10,0:0:0:0:
128,367,205804,1,2,0:0:0:0:
26,307,205932,1,2,1:2:0:0:
10,181,206061,1,2,0:0:0:0:
111,93,206189,6,0,P|117:111|129:129,1,41.9999987182618,6|0,1:2|1:0,0:0:0:0:
135,210,206445,2,0,P|158:221|185:226,1,48.9999985046387,6|0,0:0|0:0,0:0:0:0:
277,270,206701,2,0,P|302:262|326:246,1,56,2|0,1:0|0:0,0:0:0:0:
425,180,206958,2,0,P|438:150|444:119,1,62.9999980773926,2|0,1:0|0:0,0:0:0:0:
316,17,207215,5,4,1:0:0:0:
316,17,207728,2,0,P|285:17|251:38,1,41.9999987182618,8|0,0:0|0:0,0:0:0:0:
290,195,207985,2,0,P|321:195|355:174,1,41.9999987182618,0|0,1:0|0:0,0:0:0:0:
303,106,208240,5,6,0:0:0:0:
227,100,208368,1,2,1:2:0:0:
149,146,208496,1,2,0:0:0:0:
116,250,208625,1,2,0:0:0:0:
184,355,208753,1,10,0:0:0:0:
184,355,209009,6,0,P|187:318|169:264,1,70,0|0,1:0|0:0,0:0:0:0:
19,374,209266,1,4,1:0:0:0:
19,374,209779,6,0,P|48:383|87:374,1,41.9999987182618,8|0,0:0|0:0,0:0:0:0:
99,212,210036,2,0,P|69:202|30:211,1,41.9999987182618,0|0,1:0|0:0,0:0:0:0:
59,293,210291,5,6,0:0:0:0:
130,322,210419,1,2,1:2:0:0:
218,302,210547,1,2,0:0:0:0:
281,214,210676,1,2,0:0:0:0:
249,93,210804,6,0,P|231:82|214:61,1,41.9999987182618,8|0,0:0|0:0,0:0:0:0:
315,49,211061,2,0,P|310:28|312:3,1,45.4999979171754,0|0,1:0|0:0,0:0:0:0:
404,58,211317,2,0,P|416:38|437:20,1,48.9999985046387,0|0,1:0|0:0,0:0:0:0:
460,144,211574,2,0,P|482:138|511:141,1,52.5000020027161,0|0,0:0|0:0,0:0:0:0:
436,255,211830,2,0,P|458:268|477:293,1,56,8|0,0:0|0:0,0:0:0:0:
331,308,212086,2,0,P|337:336|333:371,1,59.5000011348725,0|0,1:0|0:0,0:0:0:0:
207,275,212343,2,0,P|191:299|164:321,1,62.9999980773926,0|0,0:0|1:0,0:0:0:0:
135,159,212599,2,0,P|98:167|52:162,1,66.4999982242585,0|0,0:0|0:0,0:0:0:0:
180,18,212856,5,12,0:0:0:0:
180,18,213368,5,4,1:0:0:0:
210,90,213497,1,2,0:0:0:0:
277,139,213625,1,2,0:0:0:0:
368,147,213753,1,2,0:0:0:0:
455,97,213881,1,10,0:0:0:0:
480,203,214009,1,2,0:0:0:0:
433,311,214138,1,2,1:2:0:0:
322,370,214266,1,2,0:0:0:0:
192,334,214394,1,2,1:2:0:0:
192,334,214650,6,0,P|170:294|166:267,1,41.9999987182618,0|0,0:0|0:0,0:0:0:0:
89,212,214906,2,0,P|107:171|129:151,1,56,8|0,0:0|0:0,0:0:0:0:
101,45,215163,2,0,P|142:21|211:20,1,70,0|0,1:0|0:0,0:0:0:0:
486,0,215420,6,0,L|415:8,1,41.9999987182618,4|0,1:2|0:0,0:0:0:0:
368,37,215676,2,0,L|297:45,1,41.9999987182618,0|0,0:0|0:0,0:0:0:0:
482,88,215932,6,0,L|411:96,1,56,12|0,0:0|0:0,0:0:0:0:
325,155,216189,2,0,L|254:163,1,56,0|0,1:0|0:0,0:0:0:0:
476,193,216445,6,0,L|399:202,1,70,4|0,0:0|1:0,0:0:0:0:
286,277,216702,2,0,L|209:286,1,70,0|0,0:0|0:0,0:0:0:0:
462,321,216958,5,8,0:0:0:0:
462,321,217471,6,0,L|377:331,1,83.9999974365235,4|0,1:0|0:0,0:0:0:0:
123,384,217727,1,4,1:0:0:0:
159,99,218240,6,0,L|173:71,10,20.9999993591309,4|0|0|0|0|0|0|0|0|0|0,1:0|0:0|0:0|0:0|0:0|0:0|0:0|0:0|0:0|0:0|0:0,0:0:0:0:
41,93,219009,1,8,0:0:0:0:
41,93,219266,6,0,L|96:73,1,41.9999987182618,0|0,1:0|0:0,0:0:0:0:
76,195,219522,2,0,L|124:161,1,48.9999985046387,0|0,1:0|0:0,0:0:0:0:
171,291,219779,2,0,L|209:246,1,56,0|0,0:0|0:0,0:0:0:0:
297,359,220035,2,0,L|329:290,1,62.9999980773926,8|0,0:0|0:0,0:0:0:0:
499,383,220291,2,0,L|512:306,1,70,0|0,1:0|0:0,0:0:0:0:
400,290,220548,2,0,L|438:224,1,62.9999980773926,0|0,0:0|1:0,0:0:0:0:
339,191,220804,2,0,L|397:142,1,56,0|0,0:0|0:0,0:0:0:0:
320,94,221061,2,0,L|385:70,1,48.9999985046387,8|0,0:0|1:0,0:0:0:0:
329,5,221317,2,0,L|385:5,1,41.9999987182618,0|0,1:0|0:0,0:0:0:0:
511,125,221574,5,6,1:2:0:0:
458,60,221702,1,2,0:0:0:0:
383,21,221830,1,2,0:0:0:0:
290,29,221958,1,2,0:0:0:0:
207,86,222086,1,10,0:0:0:0:
163,186,222215,1,2,0:0:0:0:
196,307,222343,1,2,1:2:0:0:
307,383,222471,1,2,0:0:0:0:
446,357,222599,6,0,P|431:345|418:327,1,41.9999987182618,6|0,0:0|1:0,0:0:0:0:
325,303,222855,2,0,P|320:277|322:250,1,48.9999985046387,6|0,0:0|0:0,0:0:0:0:
265,148,223111,2,0,P|279:125|300:106,1,56,2|0,1:0|0:0,0:0:0:0:
361,3,223368,2,0,P|393:-2|424:0,1,62.9999980773926,2|0,1:0|0:0,0:0:0:0:
429,247,223625,5,4,1:0:0:0:
429,247,223881,5,0,0:0:0:0:
505,140,224009,1,0,0:0:0:0:
435,27,224138,2,0,L|352:8,1,62.9999980773926,12|0,0:0|0:0,0:0:0:0:
415,156,224394,5,0,1:0:0:0:
322,99,224522,2,0,L|237:102,1,56,4|0,0:0|0:0,0:0:0:0:
255,192,224779,6,0,L|174:217,1,48.9999985046387,4|0,1:2|0:0,0:0:0:0:
221,285,225035,5,0,0:0:0:0:
221,285,225163,2,0,L|176:329,1,41.9999987182618,12|0,0:0|0:0,0:0:0:0:
218,384,225420,5,4,1:0:0:0:
218,384,225933,5,0,0:0:0:0:
347,382,226061,1,0,0:0:0:0:
409,272,226189,2,0,P|412:241|386:164,1,62.9999980773926,12|0,0:0|0:0,0:0:0:0:
282,314,226445,5,0,1:0:0:0:
311,193,226574,2,0,P|306:168|270:114,1,56,4|0,0:0|0:0,0:0:0:0:
210,150,226830,6,0,P|199:127|151:84,1,48.9999985046387,4|0,1:2|0:0,0:0:0:0:
109,111,227086,5,0,0:0:0:0:
109,111,227215,2,0,P|95:94|45:69,1,41.9999987182618,12|0,0:0|0:0,0:0:0:0:
7,106,227471,5,4,1:0:0:0:
7,106,227856,5,2,0:0:0:0:
64,53,227984,1,2,0:0:0:0:
153,28,228112,1,2,0:0:0:0:
258,57,228241,2,0,P|261:80|255:121,1,41.9999987182618,10|0,0:0|0:0,0:0:0:0:
200,285,228497,1,0,1:0:0:0:
200,285,228881,5,2,0:0:0:0:
257,338,229009,1,2,0:0:0:0:
346,363,229137,1,2,0:0:0:0:
451,334,229266,2,0,P|454:310|448:269,1,41.9999987182618,10|0,0:0|0:0,0:0:0:0:
393,106,229522,1,0,1:0:0:0:
393,106,230035,6,0,P|389:62|377:31,1,41.9999987182618,2|0,0:0|0:0,0:0:0:0:
297,91,230291,2,0,P|280:56|246:26,1,56,10|0,0:0|0:0,0:0:0:0:
178,120,230548,2,0,P|140:95|99:85,1,70,2|0,1:2|0:0,0:0:0:0:
403,345,230804,5,4,0:0:0:0:
447,268,230932,2,0,P|454:224|450:191,1,41.9999987182618,0|0,0:0|1:0,0:0:0:0:
299,339,231189,5,4,0:0:0:0:
329,225,231317,2,0,P|321:186|296:149,1,56,0|0,0:0|1:0,0:0:0:0:
153,384,231574,5,4,0:0:0:0:
192,247,231702,2,0,P|161:213|124:192,1,70,0|0,0:0|1:0,0:0:0:0:
449,48,232086,5,0,0:0:0:0:
433,173,232215,1,0,0:0:0:0:
417,297,232343,2,0,L|447:383,1,62.9999980773926,12|0,0:0|0:0,0:0:0:0:
283,163,232599,5,0,1:0:0:0:
293,285,232727,2,0,L|344:360,1,56,4|0,0:0|0:0,0:0:0:0:
177,290,232984,6,0,L|245:349,1,48.9999985046387,4|0,1:2|0:0,0:0:0:0:
78,311,233240,5,0,0:0:0:0:
78,311,233368,2,0,L|141:341,1,41.9999987182618,12|0,0:0|0:0,0:0:0:0:
0,338,233625,5,4,1:0:0:0:
0,338,234138,5,0,0:0:0:0:
31,216,234266,1,0,0:0:0:0:
61,94,234394,2,0,P|19:84|-51:106,1,62.9999980773926,12|0,0:0|0:0,0:0:0:0:
193,270,234650,5,0,1:0:0:0:
166,154,234779,2,0,P|131:154|83:185,1,56,4|0,0:0|0:0,0:0:0:0:
285,173,235035,6,0,P|252:182|213:225,1,48.9999985046387,4|0,1:2|0:0,0:0:0:0:
394,175,235291,5,0,0:0:0:0:
394,175,235420,2,0,P|370:189|348:232,1,41.9999987182618,12|0,0:0|0:0,0:0:0:0:
474,158,235676,5,4,1:0:0:0:
474,158,236061,5,2,0:0:0:0:
438,87,236189,1,2,0:0:0:0:
364,31,236317,1,2,0:0:0:0:
256,22,236446,2,0,P|243:42|235:83,1,41.9999987182618,6|0,0:0|0:0,0:0:0:0:
220,223,236702,1,0,1:0:0:0:
220,223,237086,5,2,0:0:0:0:
256,152,237214,1,2,0:0:0:0:
330,96,237342,1,2,0:0:0:0:
438,87,237471,2,0,P|450:107|458:148,1,41.9999987182618,6|0,0:0|0:0,0:0:0:0:
474,288,237727,1,0,1:0:0:0:
474,288,238240,6,0,L|458:358,1,41.9999987182618,2|0,0:0|0:0,0:0:0:0:
351,308,238497,2,0,L|312:368,1,56,10|0,0:0|0:0,0:0:0:0:
189,322,238753,2,0,L|131:365,1,70,2|0,1:2|0:0,0:0:0:0:
392,100,239009,5,4,0:0:0:0:
421,188,239138,2,0,L|405:258,1,41.9999987182618,0|0,0:0|0:0,0:0:0:0:
271,64,239394,5,4,0:0:0:0:
298,208,239522,2,0,L|259:268,1,56,0|0,0:0|0:0,0:0:0:0:
127,18,239779,5,4,0:0:0:0:
136,222,239907,2,0,L|78:265,1,70,0|0,0:0|0:0,0:0:0:0:
392,90,240804,5,2,0:0:0:0:
392,90,241317,1,2,0:0:0:0:
181,323,242086,6,0,L|140:318,2,35,0|0|0,0:0|0:0|0:0,0:0:0:0:
270,333,242856,5,2,0:0:0:0:
270,333,243368,1,2,0:0:0:0:
486,153,244138,6,0,P|492:180|495:194,2,35,0|0|0,0:0|0:0|0:0,0:0:0:0:
432,243,244907,5,2,0:0:0:0:
432,243,245420,1,2,0:0:0:0:
129,59,246189,6,0,L|164:50,2,35,0|0|0,0:0|0:0|0:0,0:0:0:0:
59,107,246958,5,2,0:0:0:0:
49,184,247215,1,2,0:0:0:0:
75,258,247471,1,2,0:0:0:0:
130,313,247727,1,2,0:0:0:0:
203,339,247984,1,2,0:0:0:0:
464,253,248240,6,0,P|422:248|388:253,1,70,0|0,0:0|0:0,0:0:0:0:
336,309,249009,5,2,0:0:0:0:
336,309,249522,1,2,0:0:0:0:
120,155,250291,6,0,L|134:226,1,70,0|0,0:0|0:0,0:0:0:0:
91,289,251061,5,2,0:0:0:0:
91,289,251574,1,2,0:0:0:0:
342,43,252343,6,0,P|352:78|377:105,1,70,0|0,0:0|0:0,0:0:0:0:
428,39,253112,5,2,0:0:0:0:
428,39,253625,1,2,0:0:0:0:
342,363,254394,6,0,L|271:357,1,70
184,349,255163,5,2,0:0:0:0:
130,279,255420,1,2,0:0:0:0:
130,167,255676,1,2,0:0:0:0:
212,65,255932,1,2,0:0:0:0:
376,33,256189,1,2,0:0:0:0:
