osu file format v14

[General]
AudioFilename: - First Desire.mp3
AudioLeadIn: 0
PreviewTime: 64402
Countdown: 1
SampleSet: Soft
StackLeniency: 0.7
Mode: 0
LetterboxInBreaks: 0
WidescreenStoryboard: 0

[Editor]
DistanceSpacing: 1.1
BeatDivisor: 4
GridSize: 4
TimelineZoom: 1.2

[Metadata]
Title:First Desire (short ver.)
TitleUnicode:First Desire (short ver.)
Artist:CLIFF EDGE feat. Nakamura Maiko
ArtistUnicode:CLIFF EDGE feat. 中村舞子
Creator:Vatness
Version:Normal
Source:
Tags:CURE
BeatmapID:766787
BeatmapSetID:347356

[Difficulty]
HPDrainRate:4
CircleSize:3
OverallDifficulty:4
ApproachRate:4.5
SliderMultiplier:0.500000005960464
SliderTickRate:2

[Events]
//Background and Video events
0,0,"bg.jpg",0,0
//Break Periods
//Storyboard Layer 0 (Background)
//Storyboard Layer 1 (Fail)
//Storyboard Layer 2 (Pass)
//Storyboard Layer 3 (Foreground)
//Storyboard Sound Samples

[TimingPoints]
69,333.333333333333,4,2,0,100,1,0
483.666666666667,-100,4,2,0,100,0,0
10050,-100,4,1,0,100,0,0
21217,-100,4,2,0,100,0,0
64402,-100,4,2,0,100,0,1
90402,-100,4,2,0,100,0,0

[HitObjects]
104,252,401,6,0,P|136:116|192:96,1,200
256,192,2235,12,0,3068,0:0:0:0:
364,232,3735,6,0,P|408:120|400:104,1,150
256,72,5068,2,0,L|204:108,1,50
256,184,5735,2,0,L|344:256,1,99.9999999999999
260,304,7068,2,0,P|184:308|104:200,1,200
104,88,9068,5,0,0:0:0:0:
256,88,9735,1,0,0:0:0:0:
328,68,10401,2,0,P|400:200|364:288,1,250.000002980232
260,292,12401,1,0,0:0:0:0:
120,244,13068,2,0,L|120:132,1,99.9999999999999
256,76,14401,1,0,0:0:0:0:
256,188,15068,1,0,0:0:0:0:
256,300,15735,1,0,0:0:0:0:
364,300,16401,1,0,0:0:0:0:
368,188,17068,6,0,L|368:72,1,99.9999999999999
272,48,18401,2,0,L|208:48,1,50
228,136,19068,2,0,L|164:136,1,50
180,224,19735,2,0,L|116:224,1,50
180,320,20402,2,0,L|256:320,1,74.9999999999999
280,320,21401,5,0,0:0:0:0:
280,184,21735,2,0,L|392:184,1,99.9999999999999
368,76,23068,2,0,L|256:76,1,99.9999999999999
176,80,24401,2,0,P|64:144|84:184,1,200
128,256,26402,2,0,L|236:256,1,99.9999999999999
284,256,27401,5,0,0:0:0:0:
288,148,27735,1,0,0:0:0:0:
168,144,28402,2,0,L|168:244,1,99.9999999999999
256,292,29735,2,0,P|376:248|304:124,1,300
208,100,32401,5,0,0:0:0:0:
208,224,33068,1,0,0:0:0:0:
328,224,33735,2,0,L|328:108,1,99.9999999999999
164,84,35068,6,0,L|164:152,1,50
228,132,35735,2,0,L|228:196,1,50
296,172,36401,2,0,L|296:240,1,50
356,208,37068,2,0,L|356:280,1,50
356,312,37735,6,0,P|188:312|112:204,1,300
136,108,40401,1,0,0:0:0:0:
248,108,41068,1,0,0:0:0:0:
360,112,41735,1,0,0:0:0:0:
360,220,42401,1,0,0:0:0:0:
252,216,43068,2,0,L|208:216,1,25
144,212,43735,6,0,P|176:304|284:312,1,200
332,228,45735,2,0,P|360:176|344:144,2,99.9999999999999
224,232,47735,1,0,0:0:0:0:
224,120,48401,1,0,0:0:0:0:
284,120,48735,6,0,L|352:120,1,50
420,120,49401,2,0,L|420:180,1,50
256,192,50068,2,0,L|256:248,1,50
348,192,50735,2,0,L|348:244,1,50
444,192,51401,2,0,L|444:248,1,50
436,328,52068,2,0,L|368:308,1,50
264,288,52735,6,0,P|140:328|104:324,1,150
72,240,54068,1,0,0:0:0:0:
108,148,54401,1,0,0:0:0:0:
184,88,54735,1,0,0:0:0:0:
276,104,55068,1,0,0:0:0:0:
336,180,55401,1,0,0:0:0:0:
260,248,55735,6,0,L|144:248,1,99.9999999999999
124,204,56735,2,0,L|124:140,1,50
216,204,57401,2,0,L|216:140,1,50
308,204,58068,2,0,L|308:164,1,25
312,96,58401,2,0,L|376:96,1,50
440,92,59235,6,0,L|440:172,1,74.9999999999999
440,296,60068,2,0,L|408:296,1,25
324,296,60568,2,0,L|240:296,1,74.9999999999999
160,244,61402,2,0,L|160:208,1,25
164,120,62068,6,0,L|228:120,1,50
356,116,62735,2,0,L|356:184,1,50
360,280,63401,2,0,L|292:280,1,50
200,288,63901,5,0,0:0:0:0:
200,260,64068,1,0,0:0:0:0:
200,232,64235,1,0,0:0:0:0:
200,204,64401,2,0,P|208:144|220:116,1,87.4999999999999
288,56,65735,2,0,P|364:60|368:80,1,99.9999999999999
396,172,67068,5,0,0:0:0:0:
392,284,67735,1,0,0:0:0:0:
280,284,68401,1,0,0:0:0:0:
280,172,69068,1,0,0:0:0:0:
176,180,69735,6,0,P|92:180|88:172,1,99.9999999999999
64,132,70735,1,0,0:0:0:0:
88,84,71068,2,0,P|124:56|176:64,1,99.9999999999999
256,192,72401,12,0,74401,0:0:0:0:
256,192,75068,5,0,0:0:0:0:
368,188,75735,1,0,0:0:0:0:
256,192,76401,1,0,0:0:0:0:
148,196,77068,2,0,B|144:144|256:40|372:144|372:208,1,300
256,188,79735,6,0,L|256:248,1,50
352,192,81068,2,0,L|424:192,1,50
256,188,82401,2,0,L|256:124,1,50
256,84,83068,2,0,L|360:84,1,99.9999999999999
256,324,84568,6,0,B|80:240|56:100|156:36|256:116|256:116|344:32|448:72|448:224|252:328,1,874.999999999999
256,192,91068,1,0,0:0:0:0:
256,80,91735,1,0,0:0:0:0:
256,192,92401,1,0,0:0:0:0:
256,304,93068,1,0,0:0:0:0:
256,304,93735,6,0,P|140:272|88:196,1,200
256,192,95735,12,0,98068,0:0:0:0:
204,188,98401,6,0,L|204:128,1,50
304,192,99068,2,0,L|304:260,1,50
108,192,99735,2,0,L|108:140,1,50
396,192,100401,2,0,L|396:252,1,50
396,284,101069,1,0,0:0:0:0:
256,192,101235,12,0,105068,0:0:0:0:
