osu file format v14

[General]
AudioFilename: audio.mp3
AudioLeadIn: 0
PreviewTime: -1
Countdown: 1
SampleSet: Soft
StackLeniency: 0.2
Mode: 0
LetterboxInBreaks: 0
WidescreenStoryboard: 0

[Editor]
Bookmarks: 120324
DistanceSpacing: 1.6
BeatDivisor: 4
GridSize: 8
TimelineZoom: 2

[Metadata]
Title:Sayonara I Love You feat. jyA-Me
TitleUnicode:サヨナラ I Love You feat. jyA-Me
Artist:CLIFF EDGE
ArtistUnicode:CLIFF EDGE
Creator:Artemis99
Version:Extra
Source:
Tags:
BeatmapID:1685537
BeatmapSetID:802986

[Difficulty]
HPDrainRate:6
CircleSize:4.2
OverallDifficulty:9
ApproachRate:9.4
SliderMultiplier:2
SliderTickRate:1

[Events]
//Background and Video events
0,0,"cropped-1920-1080-918361.jpg",0,0
//Break Periods
//Storyboard Layer 0 (Background)
//Storyboard Layer 1 (Fail)
//Storyboard Layer 2 (Pass)
//Storyboard Layer 3 (Foreground)
//Storyboard Sound Samples

[TimingPoints]
1143,545.454545454546,4,2,0,30,1,0
9870,-90.9090909090909,4,2,0,30,0,0
27324,-125,4,2,0,30,0,0
35779,-166.666666666667,4,2,0,30,0,0
36052,-117.647058823529,4,2,0,30,0,0
52415,-153.846153846153,4,2,0,30,0,0
52961,-153.846153846153,4,2,0,5,0,0
53097,-153.846153846153,4,2,0,30,0,0
53506,-111.111111111111,4,2,0,30,0,0
68779,-100,4,2,0,30,0,0
70006,-100,4,2,0,25,0,0
70143,-100,4,2,0,20,0,0
70279,-100,4,2,0,15,0,0
70688,-90.9090909090909,4,2,0,35,0,0
70961,-83.3333333333333,4,2,0,46,0,0
88415,-68.9655172413793,4,2,0,30,0,0
90324,-68.9655172413793,4,2,0,10,0,0
90461,-68.9655172413793,4,2,0,30,0,0
91688,-64.5161290322581,4,2,0,30,0,1
109143,-60.6060606060606,4,2,0,30,0,1
113233,-54.054054054054,4,2,0,30,0,1
113506,-60.6060606060606,4,2,0,30,0,1
115688,-57.1428571428571,4,2,0,30,0,1
117870,-60.6060606060606,4,2,0,30,0,1
121961,-54.054054054054,4,2,0,30,0,1
122233,-60.6060606060606,4,2,0,30,0,1
124415,-64.5161290322581,4,2,0,30,0,1
125506,-60.6060606060606,4,2,0,30,0,1
126597,-74.0740740740741,4,2,0,30,0,0
133143,-54.054054054054,4,2,0,30,0,0
134233,-68.9655172413793,4,2,0,30,0,0
135052,-60.6060606060606,4,2,0,30,0,0
135324,-66.6666666666667,4,2,0,30,0,0
142961,-76.9230769230769,4,2,0,30,0,0
144052,-66.6666666666667,4,2,0,30,0,0
148143,-71.4285714285714,4,2,0,30,0,0
152779,-66.6666666666667,4,2,0,30,0,0
161506,-60.6060606060606,4,2,0,30,0,0
163688,-64.5161290322581,4,2,0,30,0,0
164779,-60.6060606060606,4,2,0,30,0,0
172415,-60.6060606060606,4,2,0,30,0,0

[HitObjects]
493,265,1143,6,0,P|445:279|396:271,1,100,0|0,0:3|0:3,0:3:0:0:
302,193,1688,2,0,P|253:185|206:200,1,100,0|0,0:3|0:3,0:3:0:0:
71,309,2233,2,0,P|58:262|56:212,1,100
86,97,2779,1,0,0:0:0:0:
283,81,3324,6,0,P|235:94|185:96,1,100
70,66,3870,1,0,0:0:0:0:
333,6,4415,2,0,P|372:92|312:166,1,200
244,226,5506,6,0,P|298:256|359:245,1,100
312,166,6052,1,0,0:0:0:0:
226,137,6324,1,0,0:0:0:0:
158,197,6597,2,0,P|159:258|199:306,1,100
244,226,7143,1,0,0:0:0:0:
500,344,7688,6,0,P|451:352|402:348,1,100
244,226,8233,2,0,P|293:234|342:230,1,100
500,107,8779,1,0,0:0:0:0:
256,192,8915,12,0,9597,0:0:0:0:
184,35,9870,6,0,P|129:39|83:67,1,110.000003356934
30,143,10279,1,0,0:0:0:0:
52,151,10415,2,0,P|80:197|84:251,1,110.000003356934
17,368,10961,6,0,P|63:339|117:335,1,110.000003356934
211,375,11370,1,0,0:0:0:0:
233,382,11506,2,0,P|287:378|334:350,1,110.000003356934
226,221,12052,6,0,P|210:267|257:282,1,110.000003356934
334,224,12461,1,0,0:0:0:0:
342,200,12597,6,0,P|388:172|443:168,1,110.000003356934
457,325,13143,6,0,P|390:307|437:257,1,165.000005035401
443,168,13688,2,0,P|438:113|410:67,1,110.000003356934
330,12,14097,1,0,0:0:0:0:
321,41,14233,6,0,P|275:69|220:74,1,110.000003356934
138,31,14643,2,0,P|78:34|123:104,1,165.000005035401
204,152,15324,6,0,P|232:198|236:252,1,110.000003356934
126,314,15733,1,0,0:0:0:0:
135,285,15870,6,0,P|181:256|235:252,1,110.000003356934,0|0,2:0|2:0,2:0:0:0:
390,314,16415,6,0,P|343:342|289:346,1,110.000003356934,0|0,2:0|2:0,2:0:0:0:
308,232,16961,2,0,P|354:204|408:200,1,110.000003356934,0|0,2:0|2:0,2:0:0:0:
457,277,17370,1,0,0:0:0:0:
478,257,17506,2,0,P|486:153|392:111,1,220.000006713867
308,232,18324,1,0,0:0:0:0:
274,55,18597,6,0,P|221:40|168:50,1,110.000003356934
88,114,19006,2,0,P|141:170|97:232,1,165.000005035401
21,320,19688,6,0,P|70:343|124:343,1,110.000003356934
210,275,20097,1,0,0:0:0:0:
230,257,20233,2,0,P|285:256|334:280,1,110.000003356934
423,355,20779,6,0,P|447:306|447:252,1,110.000003356934
362,187,21188,2,0,P|346:128|418:169,1,165.000005035401
495,91,21870,6,0,P|462:47|412:24,1,110.000003356934
297,69,22279,1,0,0:0:0:0:
268,73,22415,2,0,P|218:50|185:6,1,110.000003356934
36,26,22961,6,0,P|85:48|118:92,1,110.000003356934
103,184,23370,2,0,P|135:227|185:250,1,110.000003356934
275,224,23779,1,0,0:0:0:0:
341,141,24052,6,0,P|297:173|274:223,1,110.000003356934
422,243,24461,2,0,P|368:277|385:216,1,165.000005035401
504,125,25143,6,0,P|497:70|465:26,1,110.000003356934
350,17,25552,1,0,0:0:0:0:
327,37,25688,2,0,P|300:46|273:48,1,55.0000016784668
159,18,25961,2,0,P|132:20|106:29,1,55.0000016784668
7,102,26233,6,0,P|28:167|79:120,1,165.000005035401
161,125,26779,2,0,P|154:178|122:222,1,110.000003356934
14,283,27324,6,0,P|9:322|12:362,1,80
121,378,27870,2,0,P|126:338|123:298,1,80
218,192,28415,2,0,P|178:186|138:189,1,80
123,298,28961,2,0,P|162:303|202:300,1,80
326,207,29506,6,0,P|331:167|328:127,1,80
220,112,30052,2,0,P|214:151|217:191,1,80
310,315,30597,2,0,P|349:320|389:317,1,80
405,209,31143,2,0,P|365:203|325:206,1,80
202,300,31688,5,0,0:0:0:0:
62,206,31961,1,0,0:0:0:0:
62,206,32097,1,0,0:0:0:0:
61,205,32233,2,0,P|57:165|64:126,1,80
120,34,32779,2,0,P|159:40|199:36,1,80
255,128,33188,1,0,0:0:0:0:
255,128,33324,2,0,P|261:168|258:208,1,80
208,323,33870,6,0,P|247:326|287:320,1,80
381,231,34279,1,0,0:0:0:0:
381,231,34415,2,0,P|420:224|460:228,1,80
504,323,34824,2,0,P|509:337|511:351,2,20
483,139,35779,6,0,L|479:99,1,29.9999990844727
376,242,36052,6,0,L|280:250,1,85.0000016212464
113,178,36597,2,0,L|208:169,1,85.0000016212464
291,249,37006,1,0,0:0:0:0:
283,164,37143,6,0,L|279:121,1,42.5000008106232
205,255,37415,2,0,L|208:297,1,42.5000008106232
291,249,37688,1,0,0:0:0:0:
197,170,37824,1,0,0:0:0:0:
119,261,37961,2,0,L|122:303,1,42.5000008106232
41,352,38233,6,0,L|33:267,1,85.0000016212464
26,183,38643,1,0,0:0:0:0:
119,261,38779,2,0,L|203:253,1,85.0000016212464
110,174,39188,1,0,0:0:0:0:
110,174,39324,2,0,L|102:89,1,85.0000016212464
17,96,39733,1,0,0:0:0:0:
93,3,39870,2,0,L|136:0,1,42.5000008106232
187,82,40143,2,0,L|229:78,1,42.5000008106232
356,66,40415,6,0,B|362:136|362:136|330:174,1,85.0000016212464
272,317,40961,2,0,B|265:247|265:247|297:209,1,85.0000016212464
356,309,41370,1,0,0:0:0:0:
402,223,41506,2,0,L|463:217,1,42.5000008106232,0|0,0:3|0:3,0:3:0:0:
505,296,41779,1,0,0:0:0:0:
275,235,42052,2,0,L|270:179,1,42.5000008106232
356,66,42324,2,0,L|360:121,1,42.5000008106232
240,32,42597,6,0,B|214:18|214:18|142:24,1,85.0000016212464
31,34,43006,1,0,0:0:0:0:
104,139,43143,2,0,L|111:226,1,85.0000016212464
288,293,43688,2,0,L|200:300,1,85.0000016212464
118,307,44097,1,0,0:0:0:0:
195,215,44233,2,0,L|258:209,1,42.5000008106232
288,293,44506,1,0,0:0:0:0:
314,119,44779,6,0,L|227:126,1,85.0000016212464
52,52,45324,2,0,L|137:46,1,85.0000016212464
221,39,45733,1,0,0:0:0:0:
313,118,45870,2,0,B|318:174|318:174|304:200,1,85.0000016212464
166,322,46415,2,0,L|269:312,1,85.0000016212464
377,302,46824,1,0,0:0:0:0:
303,199,46961,6,0,L|219:207,1,85.0000016212464
250,314,47370,1,0,0:0:0:0:
134,214,47506,1,0,0:0:0:0:
377,302,47779,1,0,0:0:0:0:
389,26,48052,2,0,B|395:97|395:97|381:123|381:123|387:191,1,170.000003242493
219,207,48870,1,0,0:0:0:0:
292,131,49074,1,0,0:0:0:0:
292,131,49143,6,0,L|284:46,1,85.0000016212464
137,0,49688,2,0,L|144:84,1,85.0000016212464
151,168,50097,1,0,0:0:0:0:
16,95,50233,2,0,L|8:10,1,85.0000016212464
144,84,50643,1,0,0:0:0:0:
151,168,50779,2,0,L|158:252,1,85.0000016212464
23,179,51188,1,0,0:0:0:0:
165,336,51324,6,0,L|250:329,1,85.0000016212464
377,317,51733,1,0,0:0:0:0:
304,212,51870,1,0,0:0:0:0:
400,25,52143,1,0,0:0:0:0:
485,18,52279,1,0,0:0:0:0:
449,96,52415,2,0,B|458:199|458:199|432:177,1,129.999994049073
330,104,53097,1,0,0:0:0:0:
245,111,53233,1,0,0:0:0:0:
209,189,53370,1,0,0:0:0:0:
110,47,53506,6,0,L|6:56,1,89.9999972534181
117,136,53915,1,0,0:0:0:0:
33,231,54052,2,0,L|41:321,1,89.9999972534181
140,368,54461,1,0,0:0:0:0:
229,360,54597,1,0,0:0:0:0:
266,278,54733,2,0,L|311:275,1,44.999998626709,0|0,0:3|0:3,0:3:0:0:
407,356,55006,1,0,0:0:0:0:
399,266,55143,2,0,L|392:177,1,89.9999972534181,0|0,0:3|0:3,0:3:0:0:
384,87,55552,1,0,0:0:0:0:
481,168,55688,6,0,L|489:258,1,89.9999972534181,0|0,0:3|0:3,0:3:0:0:
302,184,56097,1,0,0:0:0:0:
407,356,56233,2,0,L|399:266,1,89.9999972534181,0|0,0:3|0:3,0:3:0:0:
384,87,56779,1,0,0:0:0:0:
302,184,56915,1,0,0:0:0:0:
294,94,57052,1,0,0:0:0:0:
391,176,57188,1,0,0:0:0:0:
213,192,57324,2,0,B|147:197|147:197|117:224,1,89.9999972534181
48,311,57733,1,0,0:0:0:0:
48,311,57802,1,0,0:0:0:0:
48,311,57870,5,0,0:0:0:0:
40,221,58006,1,0,0:0:0:0:
129,213,58143,1,0,0:0:0:0:
137,303,58279,1,0,0:0:0:0:
21,204,58415,2,0,L|13:114,1,89.9999972534181
5,24,58824,1,0,0:0:0:0:
102,106,58961,2,0,L|146:102,1,44.999998626709
228,5,59233,2,0,L|272:1,1,44.999998626709
414,79,59506,2,0,L|324:86,1,89.9999972534181,0|0,0:3|0:3,0:3:0:0:
421,168,59915,1,0,0:0:0:0:
331,175,60052,6,0,L|241:182,1,89.9999972534181,0|0,0:3|0:3,0:3:0:0:
159,279,60461,2,0,L|256:271,1,89.9999972534181,0|0,0:3|0:3,0:3:0:0:
331,175,60870,1,0,0:0:0:0:
151,190,61143,2,0,L|61:197,1,89.9999972534181,0|0,0:3|0:3,0:3:0:0:
21,45,61688,2,0,L|65:41,1,44.999998626709
176,110,61961,2,0,L|220:106,1,44.999998626709
331,175,62233,6,0,L|420:167,1,89.9999972534181
322,85,62643,1,0,0:0:0:0:
241,183,62779,2,0,L|249:272,1,89.9999972534181
257,361,63188,1,0,0:0:0:0:
338,263,63324,2,0,L|409:256,1,44.999998626709
346,352,63597,1,0,0:0:0:0:
248,272,63733,2,0,L|159:280,1,89.9999972534181
61,198,64143,2,0,L|105:193,1,44.999998626709
231,91,64415,6,0,L|142:99,1,89.9999972534181
6,111,64824,1,0,0:0:0:0:
133,10,64961,2,0,L|222:2,1,89.9999972534181,0|0,2:0|2:0,2:0:0:0:
141,99,65370,1,0,0:0:0:0:
320,82,65506,6,0,L|409:74,1,89.9999972534181
506,154,65915,1,0,0:0:0:0:
425,250,66052,1,0,0:0:0:0:
425,250,66324,2,0,L|428:289,2,29.9999990844727
326,171,66597,6,0,L|281:175,1,44.999998626709
160,299,66870,2,0,L|204:295,1,44.999998626709
62,217,67143,2,0,L|72:336,1,89.9999972534181
152,209,67552,1,0,0:0:0:0:
53,127,67688,6,0,L|9:131,1,44.999998626709
152,209,67961,1,0,0:0:0:0:
62,217,68097,1,0,0:0:0:0:
142,118,68233,2,0,L|135:29,1,89.9999972534181
53,127,68643,1,0,0:0:0:0:
232,110,68779,6,0,L|331:101,1,100
438,191,69188,1,0,0:0:0:0:
348,300,69324,2,0,L|248:308,1,100
339,200,69733,1,0,0:0:0:0:
448,291,69870,2,0,L|454:362,3,50
41,165,70688,6,0,L|113:171,1,55.0000016784668
248,308,70961,6,0,L|128:297,1,119.999996337891
258,188,71370,1,0,0:0:0:0:
51,45,71506,2,0,L|39:172,1,119.999996337891
29,283,71915,1,0,0:0:0:0:
149,176,72052,5,0,0:0:0:0:
258,188,72188,1,0,0:0:0:0:
214,88,72324,1,0,0:0:0:0:
193,276,72461,1,0,0:0:0:0:
366,200,72597,2,0,L|486:211,1,119.999996337891
419,324,73006,1,0,0:0:0:0:
501,31,73143,6,0,L|493:118,1,59.9999981689454
366,200,73415,2,0,L|358:287,1,59.9999981689454
333,47,73688,1,0,0:0:0:0:
198,216,73824,2,0,L|190:303,1,59.9999981689454
366,200,74097,1,0,0:0:0:0:
208,96,74233,6,0,L|148:90,1,59.9999981689454
198,216,74506,1,0,0:0:0:0:
333,47,74643,1,0,0:0:0:0:
28,79,74779,2,0,L|17:199,1,119.999996337891
6,318,75188,1,0,0:0:0:0:
228,193,75324,6,0,P|287:186|341:209,1,119.999996337891
269,300,75733,1,0,0:0:0:0:
114,175,75870,2,0,P|137:120|184:84,1,119.999996337891
341,209,76279,1,0,0:0:0:0:
155,282,76415,6,0,P|95:288|41:265,1,119.999996337891
184,84,76824,1,0,0:0:0:0:
262,241,76961,2,0,P|268:300|245:354,1,119.999996337891
155,282,77370,1,0,0:0:0:0:
326,119,77506,6,0,P|355:115|385:115,1,59.9999981689454
155,282,77779,2,0,P|125:285|95:285,1,59.9999981689454
66,86,78052,2,0,P|126:74|186:84,1,119.999996337891
155,282,78461,1,0,0:0:0:0:
326,119,78597,2,0,P|334:59|323:1,1,119.999996337891
253,209,79006,2,0,P|307:232|367:226,1,119.999996337891
499,91,79415,2,0,L|492:170,1,59.9999981689454
477,329,79688,6,0,B|443:307|443:307|363:314,1,119.999996337891
183,329,80233,2,0,L|55:340,1,119.999996337891
172,209,80643,1,0,0:0:0:0:
302,318,80779,5,0,0:0:0:0:
183,329,80915,1,0,0:0:0:0:
291,198,81052,1,0,0:0:0:0:
248,383,81188,1,0,0:0:0:0:
226,144,81324,2,0,L|214:16,1,119.999996337891
344,132,81733,1,0,0:0:0:0:
108,156,81870,6,0,L|48:161,1,59.9999981689454
155,29,82143,2,0,L|214:23,1,59.9999981689454
344,132,82415,1,0,0:0:0:0:
226,144,82552,1,0,0:0:0:0:
392,23,82688,1,0,0:0:0:0:
296,241,82824,1,0,0:0:0:0:
461,119,82961,6,0,L|467:60,1,59.9999981689454
226,144,83233,2,0,L|220:203,1,59.9999981689454
392,23,83506,2,0,L|272:12,1,119.999996337891
152,1,83915,1,0,0:0:0:0:
396,181,84052,6,0,P|412:238|398:295,1,119.999996337891
73,241,84597,2,0,P|59:298|75:355,1,119.999996337891
175,295,85006,1,0,0:0:0:0:
127,139,85143,6,0,P|69:125|12:141,1,119.999996337891
398,295,85688,2,0,P|411:237|395:180,1,119.999996337891
296,241,86097,1,0,0:0:0:0:
334,80,86233,6,0,P|391:64|449:78,1,119.999996337891
398,295,86643,1,0,0:0:0:0:
234,141,86779,2,0,P|217:83|231:26,1,119.999996337891
334,80,87188,1,0,0:0:0:0:
296,241,87324,6,0,P|238:257|181:243,1,119.999996337891
81,92,87733,1,0,0:0:0:0:
25,296,87870,2,0,P|19:334|27:376,1,59.9999981689454
181,243,88143,2,0,P|187:281|179:323,1,59.9999981689454
413,259,88415,2,0,B|406:229|380:217|380:217|347:242|295:240,1,145.000004425049
192,141,88824,2,0,B|199:111|225:99|225:99|258:124|310:123,1,145.000004425049
365,18,89233,2,0,P|331:7|295:6,1,72.5000022125245
413,259,89506,1,0,0:0:0:0:
256,192,89574,12,0,90324,0:0:0:0:
379,49,90461,5,0,0:0:0:0:
197,122,90597,2,0,P|163:130|116:131,1,72.5000022125245
6,26,90870,2,0,P|40:18|87:17,1,72.5000022125245
197,122,91143,1,0,0:0:0:0:
187,230,91279,1,0,0:0:0:0:
178,338,91415,2,0,P|144:346|97:347,1,72.5000022125245
197,122,91688,6,0,P|273:109|348:123,1,155.000001182556
391,343,92097,1,0,0:0:0:0:
452,174,92233,2,0,P|463:137|460:99,1,77.5000005912781
348,123,92506,1,0,0:0:0:0:
505,0,92643,1,0,0:0:0:0:
258,50,92779,6,0,P|233:121|257:194,1,155.000001182556
348,123,93188,1,0,0:0:0:0:
328,284,93324,2,0,P|255:308|184:283,1,155.000001182556
145,88,93733,1,0,0:0:0:0:
75,245,93870,6,0,P|68:283|75:321,1,77.5000005912781
327,360,94143,2,0,P|334:322|327:283,1,77.5000005912781
145,88,94415,2,0,P|79:72|81:139,1,155.000001182556
184,283,94824,1,0,0:0:0:0:
263,52,94961,6,0,P|335:28|407:53,1,155.000001182556
334,143,95370,1,0,0:0:0:0:
446,161,95506,2,0,P|453:200|446:238,1,77.5000005912781
250,359,95779,2,0,P|287:366|326:359,1,77.5000005912781
80,138,96052,6,0,P|54:209|78:282,1,155.000001182556
169,210,96461,1,0,0:0:0:0:
250,359,96597,2,0,P|287:366|326:359,1,77.5000005912781
446,161,96870,1,0,0:0:0:0:
437,313,97006,1,0,0:0:0:0:
259,52,97143,6,0,P|332:28|404:54,1,155.000001182556
332,143,97552,1,0,0:0:0:0:
157,102,97688,2,0,P|146:65|148:27,1,77.5000005912781
259,52,97961,1,0,0:0:0:0:
150,215,98097,1,0,0:0:0:0:
26,75,98233,6,0,P|14:38|16:0,1,77.5000005912781
252,165,98506,2,0,P|263:201|261:240,1,77.5000005912781
48,384,98779,2,0,P|24:311|49:239,1,155.000001182556
139,311,99188,1,0,0:0:0:0:
259,52,99324,6,0,P|295:40|334:42,1,77.5000005912781
491,280,99597,1,0,0:0:0:0:
493,12,99733,6,0,P|456:0|417:2,1,77.5000005912781
261,240,100006,1,0,0:0:0:0:
441,113,100143,2,0,P|442:152|431:189,1,77.5000005912781
189,329,100415,6,0,P|261:354|334:331,1,155.000001182556
261,240,100824,1,0,0:0:0:0:
441,113,100961,2,0,P|442:152|431:189,1,77.5000005912781
259,52,101233,1,0,0:0:0:0:
346,215,101370,1,0,0:0:0:0:
144,91,101506,6,0,P|72:66|-1:89,1,155.000001182556
72,180,101915,1,0,0:0:0:0:
0,269,102052,2,0,P|72:294|145:271,1,155.000001182556
259,52,102461,1,0,0:0:0:0:
346,215,102597,6,0,P|351:258|281:224,1,155.000001182556
322,0,103006,1,0,0:0:0:0:
416,174,103143,2,0,P|432:210|436:248,1,77.5000005912781
300,384,103415,1,0,0:0:0:0:
512,331,103552,1,0,0:0:0:0:
133,231,103688,6,0,P|206:209|278:234,1,155.000001182556
206,323,104097,1,0,0:0:0:0:
23,260,104233,2,0,P|19:221|29:184,1,77.5000005912781
157,72,104506,2,0,P|118:75|81:65,1,77.5000005912781
249,0,104779,6,0,P|271:72|246:144,1,155.000001182556
157,72,105188,1,0,0:0:0:0:
355,18,105324,2,0,P|360:96|339:170,1,155.000001182556
133,231,105733,1,0,0:0:0:0:
338,313,105870,6,0,P|391:320|467:313,1,103.333334121704
355,18,106279,1,0,0:0:0:0:
133,231,106415,2,0,P|128:268|133:330,1,77.5000005912781
258,227,106688,1,0,0:0:0:0:
67,124,106824,1,0,0:0:0:0:
466,64,106961,6,0,P|488:136|463:208,1,155.000001182556
220,136,107506,2,0,P|296:124|373:134,1,155.000001182556
301,326,107915,1,0,0:0:0:0:
129,211,108052,6,0,P|104:139|127:66,1,155.000001182556
220,136,108461,1,0,0:0:0:0:
0,142,108597,1,0,0:0:0:0:
127,66,108733,1,0,0:0:0:0:
19,258,108870,2,0,P|12:297|19:335,1,77.5000005912781
349,320,109143,6,0,P|279:360|199:345,1,165.000001573563,0|0,0:3|0:3,0:3:0:0:
259,247,109552,1,0,0:3:0:0:
422,230,109688,2,0,P|462:300|447:380,1,165.000001573563
349,320,110097,1,0,0:0:0:0:
333,157,110233,6,0,P|403:116|482:131,1,165.000001573563
422,230,110643,1,0,0:0:0:0:
260,246,110779,2,0,P|219:175|234:96,1,165.000001573563
333,157,111189,1,0,0:0:0:0:
282,19,111324,6,0,P|243:6|203:11,1,82.5000007867813
211,322,111597,2,0,P|249:335|290:329,1,82.5000007867813
138,233,111870,2,0,P|97:303|112:382,1,165.000001573563
211,322,112279,1,0,0:0:0:0:
77,104,112415,6,0,P|20:143|82:174,1,165.000001573563
234,96,112824,1,0,0:0:0:0:
342,222,112961,2,0,P|380:235|421:229,1,82.5000007867813
396,52,113233,2,0,L|388:145,1,92.4999996471405
234,96,113506,6,0,L|216:290,1,165.000001573563
342,222,113915,1,0,0:0:0:0:
219,69,114052,2,0,B|147:62|147:62|121:76|121:76|58:70,1,165.000001573563
219,260,114461,1,0,0:0:0:0:
396,52,114597,6,0,L|488:60,1,82.5000007867813
342,222,114870,1,0,0:0:0:0:
219,69,115006,1,0,0:0:0:0:
458,177,115143,2,0,L|449:269,1,82.5000007867813
276,346,115415,1,0,0:0:0:0:
440,361,115552,1,0,0:0:0:0:
219,260,115688,6,0,B|156:238|91:248|91:248|143:205,1,175.00000166893
396,52,116233,2,0,B|363:57|332:46|332:46|313:76,1,87.500000834465
219,260,116506,1,0,0:0:0:0:
101,74,116643,1,0,0:0:0:0:
328,227,116779,6,0,P|333:271|321:312,1,87.500000834465
204,19,117052,1,0,0:0:0:0:
71,258,117188,6,0,P|66:302|78:343,1,87.500000834465
195,50,117461,1,0,0:0:0:0:
321,311,117597,2,0,P|362:323|405:317,1,87.500000834465
512,88,117870,6,0,P|516:128|504:167,1,82.5000007867813
405,316,118143,1,0,0:0:0:0:
275,131,118415,2,0,P|349:98|427:121,1,165.000001573563
357,212,118824,1,0,0:0:0:0:
195,213,118961,6,0,P|161:139|184:61,1,165.000001573563
275,131,119370,1,0,0:0:0:0:
277,293,119506,2,0,P|203:326|125:303,1,165.000001573563
195,213,119915,1,0,0:0:0:0:
17,168,120052,6,0,P|5:128|9:88,1,82.5000007867813
277,293,120324,2,0,P|288:332|284:372,1,82.5000007867813
195,213,120597,2,0,P|268:179|346:202,1,165.000001573563
277,293,121006,1,0,0:0:0:0:
425,119,121143,6,0,P|459:193|436:271,1,165.000001573563
346,202,121552,1,0,0:0:0:0:
378,43,121688,2,0,P|416:29|457:34,1,82.5000007867813
195,213,121961,2,0,L|91:222,1,92.4999996471405
0,76,122233,5,0,0:0:0:0:
218,228,122370,2,0,L|226:320,1,82.5000007867813
95,138,122643,1,0,0:0:0:0:
109,303,122779,1,0,0:0:0:0:
204,63,122915,1,0,0:0:0:0:
305,275,123052,2,0,L|313:367,1,82.5000007867813
502,168,123324,6,0,L|409:176,1,82.5000007867813
286,55,123597,2,0,L|193:63,1,82.5000007867813
305,275,123870,2,0,B|293:147|293:147|273:189,1,165.000001573563
170,380,124279,1,0,0:0:0:0:
332,251,124415,6,0,B|384:253|423:223|423:223|453:234|465:260,1,155.000001182556
177,264,124961,2,0,B|125:262|86:292|86:292|56:281|43:254,1,155.000001182556
242,123,125506,2,0,P|245:54|184:84,1,165.000001573563
177,264,125915,1,0,0:0:0:0:
332,251,126052,5,0,0:0:0:0:
242,123,126188,1,0,0:0:0:0:
257,309,126324,1,0,0:0:0:0:
407,193,126461,1,0,0:0:0:0:
97,219,126597,6,0,B|-6:228|-6:228|37:272,1,135.000000514984,0|0,0:3|0:3,0:3:0:0:
108,353,127006,1,0,0:0:0:0:
122,203,127143,2,0,L|115:123,1,67.5000002574921,0|0,0:3|0:3,0:3:0:0:
177,62,127415,1,0,0:0:0:0:
42,74,127552,1,0,0:0:0:0:
242,123,127688,6,0,L|321:116,1,67.5000002574921,0|0,0:3|0:3,0:3:0:0:
370,43,127960,1,0,0:0:0:0:
382,178,128097,1,0,0:0:0:0:
458,104,128233,2,0,L|452:36,1,67.5000002574921,0|0,0:3|0:3,0:3:0:0:
309,117,128506,1,0,0:0:0:0:
382,178,128643,1,0,0:0:0:0:
364,270,128779,6,0,L|297:276,1,67.5000002574921
93,335,129052,2,0,L|160:329,1,67.5000002574921
46,87,129324,1,0,0:0:0:0:
16,183,129461,1,0,0:0:0:0:
84,256,129597,1,0,0:0:0:0:
182,234,129733,1,0,0:0:0:0:
211,138,129870,6,0,L|206:71,1,67.5000002574921
16,183,130143,1,0,0:0:0:0:
182,234,130279,1,0,0:0:0:0:
46,87,130415,2,0,L|40:19,1,67.5000002574921
211,138,130688,1,0,0:0:0:0:
84,256,130824,1,0,0:0:0:0:
279,211,130961,6,0,L|346:205,1,67.5000002574921
500,285,131233,1,0,0:0:0:0:
353,377,131370,1,0,0:0:0:0:
474,125,131506,2,0,L|479:192,1,67.5000002574921
427,331,131779,1,0,0:0:0:0:
500,285,131915,1,0,0:0:0:0:
346,205,132052,6,0,L|279:211,1,67.5000002574921
144,222,132324,1,0,0:0:0:0:
221,332,132461,1,0,0:0:0:0:
11,233,132597,2,0,L|5:165,1,67.5000002574921
72,48,132870,5,0,0:0:0:0:
172,39,133006,1,0,0:0:0:0:
273,30,133143,6,0,B|288:28|288:28|297:35|297:35|299:51|299:51|291:60|291:60|275:61|275:61|267:54|267:54|265:38|265:38|273:30,1,92.4999996471405
329,250,133415,6,0,B|322:264|322:264|311:268|311:268|297:261|297:261|293:250|293:250|299:236|299:236|310:232|310:232|325:239|325:239|329:250,1,92.4999996471405
110,188,133688,6,0,B|100:174|100:174|102:163|102:163|115:154|115:154|127:156|127:156|136:169|136:169|134:180|134:180|121:189|121:189|110:188,1,92.4999996471405
273,30,133961,1,0,0:0:0:0:
329,250,134097,1,0,0:0:0:0:
110,188,134233,6,0,L|6:197,1,72.5000022125245
201,281,134506,1,0,0:3:0:0:
237,155,134643,1,0,0:0:0:0:
329,250,134779,2,0,L|432:240,1,72.5000022125245
512,132,135052,2,0,L|408:141,1,82.5000007867813
180,358,135324,5,0,0:0:0:0:
286,346,135461,1,0,0:0:0:0:
160,172,135598,1,0,0:0:0:0:
329,250,135733,1,0,0:0:0:0:
117,271,135870,2,0,L|37:277,1,75.0000028610231
203,73,136143,2,0,L|282:66,1,75.0000028610231
512,132,136415,6,0,B|448:137|448:137|433:154|433:154|370:160,1,150.000005722046
474,36,136824,1,0,0:0:0:0:
486,225,136961,2,0,B|496:344|496:344|453:308,1,150.000005722046
384,256,137370,1,0,0:0:0:0:
367,367,137506,5,0,0:0:0:0:
472,324,137643,1,0,0:0:0:0:
279,299,137779,1,0,0:0:0:0:
367,367,137915,1,0,0:0:0:0:
296,188,138052,2,0,L|216:194,1,75.0000028610231
279,299,138324,1,0,0:0:0:0:
313,77,138461,1,0,0:0:0:0:
104,159,138597,6,0,L|24:165,1,75.0000028610231
204,305,138870,2,0,L|283:298,1,75.0000028610231
313,77,139143,2,0,B|377:71|377:71|392:53|392:53|454:48,1,150.000005722046
295,187,139552,1,0,0:0:0:0:
494,255,139688,6,0,L|487:180,1,75.0000028610231
278,298,139961,2,0,L|284:372,1,75.0000028610231
482,279,140233,1,0,0:0:0:0:
290,274,140370,1,0,0:0:0:0:
383,372,140506,1,0,0:0:0:0:
388,180,140643,1,0,0:0:0:0:
196,175,140779,5,0,0:0:0:0:
383,372,140915,1,0,0:0:0:0:
191,367,141052,1,0,0:0:0:0:
388,180,141188,1,0,0:0:0:0:
97,268,141324,2,0,L|9:275,1,75.0000028610231
196,175,141597,2,0,L|270:168,1,75.0000028610231
191,367,141870,5,0,0:0:0:0:
97,268,142006,1,0,0:0:0:0:
196,175,142143,1,0,0:0:0:0:
290,274,142279,1,0,0:0:0:0:
100,172,142415,2,0,L|93:97,1,75.0000028610231
196,175,142688,1,0,0:0:0:0:
4,169,142824,1,0,0:0:0:0:
184,45,142961,6,0,B|287:35|287:35|265:61,1,129.999994049073
282,185,143370,2,0,B|178:194|178:194|200:168,1,129.999994049073
374,84,143779,2,0,L|380:155,1,64.9999970245363,0|0,0:3|0:3,0:3:0:0:
512,242,144052,2,0,L|437:248,1,75.0000028610231
294,355,144324,2,0,L|397:345,1,75.0000028610231
189,273,144597,2,0,B|133:277|133:277|99:264|99:264|41:269,1,150.000005722046
82,381,145006,1,0,0:0:0:0:
208,252,145143,6,0,L|201:177,1,75.0000028610231
73,50,145415,2,0,L|79:124,1,75.0000028610231
235,42,145688,2,0,B|346:32|346:32|316:58,1,150.000005722046
201,177,146097,1,0,0:0:0:0:
459,144,146233,6,0,L|452:69,1,75.0000028610231
344,356,146506,2,0,L|337:281,1,75.0000028610231
318,57,146779,1,0,0:0:0:0:
201,177,146915,2,0,L|207:251,1,75.0000028610231
459,144,147188,1,0,0:0:0:0:
199,58,147324,6,0,L|103:66,1,75.0000028610231
201,177,147597,1,0,0:0:0:0:
318,57,147733,1,0,0:0:0:0:
74,2,147870,2,0,L|-21:10,1,75.0000028610231
22,288,148143,6,0,P|56:291|90:282,1,69.9999978637696
200,177,148415,6,0,P|265:151|332:166,1,139.999995727539
265,294,148824,1,0,0:0:0:0:
265,294,148961,2,0,P|268:234|286:293,1,139.999995727539
297,384,149370,1,0,0:0:0:0:
432,225,149506,6,0,P|446:157|421:93,1,139.999995727539
332,166,149915,1,0,0:0:0:0:
127,86,150052,6,0,P|191:61|259:76,1,139.999995727539
200,176,150461,1,0,0:0:0:0:
46,124,150597,2,0,P|37:91|42:56,1,69.9999978637696
200,176,150870,2,0,P|208:209|203:244,1,69.9999978637696
144,344,151143,2,0,P|211:359|276:334,1,139.999995727539
423,156,151552,1,0,0:0:0:0:
481,255,151688,6,0,P|414:270|349:245,1,139.999995727539
423,156,152097,1,0,0:0:0:0:
365,57,152233,2,0,P|432:42|497:67,1,139.999995727539
291,146,152779,6,0,B|234:150|234:150|208:137|208:137|145:142,1,150.000005722046
8,16,153324,2,0,B|18:135|18:135|51:98,1,150.000005722046,0|0,0:3|0:3,0:3:0:0:
139,10,153733,1,0,0:0:0:0:
145,142,153869,5,0,0:0:0:0:
8,16,154006,1,0,0:0:0:0:
208,73,154143,1,0,0:0:0:0:
13,147,154279,1,0,0:0:0:0:
213,204,154415,2,0,L|222:307,1,75.0000028610231
113,362,154688,1,0,0:0:0:0:
225,352,154824,1,0,0:0:0:0:
337,342,154961,6,0,L|411:335,1,75.0000028610231
103,250,155233,2,0,L|28:256,1,75.0000028610231
145,142,155506,1,0,0:0:0:0:
113,362,155643,1,0,0:0:0:0:
230,248,155779,1,0,0:0:0:0:
28,256,155915,1,0,0:0:0:0:
337,342,156052,6,0,L|411:335,1,75.0000028610231
395,137,156324,1,0,0:0:0:0:
502,227,156461,1,0,0:0:0:0:
270,140,156597,2,0,L|263:65,1,75.0000028610231
395,137,156870,1,0,0:0:0:0:
270,140,157006,1,0,0:0:0:0:
145,142,157143,6,0,P|136:177|149:221,1,75.0000028610231
255,310,157415,1,0,0:0:0:0:
68,99,157688,2,0,P|50:172|65:249,1,150.000005722046
237,332,158097,1,0,0:0:0:0:
270,140,158233,6,0,P|306:131|342:140,1,75.0000028610231
273,288,158506,1,0,0:0:0:0:
238,58,158779,2,0,P|311:45|384:63,1,150.000005722046
219,354,159324,1,0,0:0:0:0:
256,192,159461,12,0,160824,0:0:0:0:
72,48,160961,5,0,0:0:0:0:
85,197,161097,1,0,0:0:0:0:
98,346,161233,2,0,P|135:351|172:345,1,75.0000028610231
403,111,161506,2,0,B|364:118|316:110|316:110|356:128|374:159,1,165.000001573563
247,267,161915,2,0,B|286:260|334:268|334:268|294:250|276:219,1,165.000001573563
233,64,162324,2,0,P|255:39|316:20,1,82.5000007867813
512,152,162597,1,0,0:0:0:0:
256,192,162733,12,0,163415,0:0:0:0:
433,42,163552,5,0,0:0:0:0:
312,139,163688,2,0,P|275:148|236:148,1,77.5000005912781
98,84,163961,2,0,P|59:84|22:94,1,77.5000005912781
257,380,164233,1,0,0:0:0:0:
246,264,164369,1,0,0:0:0:0:
236,148,164506,2,0,P|197:148|159:157,1,77.5000005912781
350,311,164779,6,0,P|419:301|378:245,1,165.000001573563
75,360,165324,2,0,P|37:369|-1:369,1,77.5000005912781
117,258,165597,1,0,0:0:0:0:
184,345,165733,1,0,0:0:0:0:
158,156,165870,6,0,P|78:156|20:211,1,165.000001573563
184,345,166279,1,0,0:0:0:0:
259,197,166415,2,0,P|259:116|204:58,1,165.000001573563
158,156,166824,1,0,0:0:0:0:
359,238,166961,6,0,P|400:245|441:239,1,82.5000007867813
512,33,167233,2,0,P|471:25|430:31,1,82.5000007867813
158,156,167506,2,0,P|139:234|176:307,1,165.000001573563
252,221,167915,1,0,0:0:0:0:
223,62,168052,6,0,P|144:43|71:80,1,165.000001573563
158,156,168461,1,0,0:0:0:0:
332,104,168597,2,0,P|339:63|333:22,1,82.5000007867813
158,156,168870,1,0,0:0:0:0:
426,169,169006,1,0,0:0:0:0:
252,220,169143,6,0,P|227:286|297:282,1,165.000001573563
435,142,169552,1,0,0:0:0:0:
486,330,169688,2,0,P|447:342|406:335,1,82.5000007867813
332,104,169961,1,0,0:0:0:0:
461,236,170097,1,0,0:0:0:0:
152,148,170233,6,0,P|111:141|73:154,1,82.5000007867813
87,366,170506,1,0,0:0:0:0:
0,201,170643,1,0,0:0:0:0:
160,318,170779,2,0,P|200:324|239:312,1,82.5000007867813
225,101,171052,1,0,0:0:0:0:
312,265,171188,1,0,0:0:0:0:
147,60,171324,6,0,P|173:29|210:13,1,82.5000007867813
302,141,171597,2,0,P|275:172|238:188,1,82.5000007867813
365,29,171870,2,0,P|432:15|412:81,1,165.000001573563
210,13,172279,1,0,0:0:0:0:
488,170,172415,6,0,P|499:209|492:249,1,82.5000007867813
410,383,172688,1,0,0:0:0:0:
24,170,172824,2,0,P|12:209|19:249,1,82.5000007867813
102,383,173097,1,0,0:0:0:0:
101,123,173233,2,0,P|73:93|34:79,1,82.5000007867813
115,238,173506,6,0,P|187:200|215:124,1,165.000001573563
101,123,173915,1,0,0:0:0:0:
216,9,174052,2,0,P|292:37|330:109,1,165.000001573563
115,238,174461,1,0,0:0:0:0:
415,152,174597,6,0,P|461:201|394:215,1,165.000001573563
215,124,175006,1,0,0:0:0:0:
432,13,175143,2,0,P|472:4|512:10,1,82.5000007867813
394,215,175415,1,0,0:0:0:0:
317,30,175552,1,0,0:0:0:0:
357,325,175688,6,0,P|397:331|438:323,1,82.5000007867813
394,215,175961,1,0,0:0:0:0:
304,384,176097,1,0,0:0:0:0:
121,223,176233,6,0,P|161:215|202:221,1,82.5000007867813
272,384,176506,1,0,0:0:0:0:
362,215,176642,1,0,0:0:0:0:
102,311,176779,2,0,P|40:262|41:182,1,165.000001573563
202,221,177188,1,0,0:0:0:0:
80,82,177324,2,0,P|71:41|77:1,1,82.5000007867813
