osu file format v14

[General]
AudioFilename: CLIFF EDGE feat. Nakamura Maiko - Endless Tears.mp3
AudioLeadIn: 0
PreviewTime: 196417
Countdown: 0
SampleSet: Soft
StackLeniency: 0.7
Mode: 3
LetterboxInBreaks: 0
SpecialStyle: 0
WidescreenStoryboard: 0

[Editor]
DistanceSpacing: 2
BeatDivisor: 1
GridSize: 8
TimelineZoom: 1.1

[Metadata]
Title:Endless Tears feat. Nakamura Maiko
TitleUnicode:Endless Tears feat. 中村舞子
Artist:CLIFF EDGE
ArtistUnicode:クリフエッジ
Creator:hannanos
Version:Medium
Source:
Tags:Sweet Grande 2 mixed by DJ GEORGIA the best You're the only one of love あなたの声が聞こえる
BeatmapID:891849
BeatmapSetID:406628

[Difficulty]
HPDrainRate:7
CircleSize:9
OverallDifficulty:7
ApproachRate:5
SliderMultiplier:1.4
SliderTickRate:1

[Events]
//Background and Video events
0,0,"endless tears BG.png",0,0
//Break Periods
//Storyboard Layer 0 (Background)
//Storyboard Layer 1 (Fail)
//Storyboard Layer 2 (Pass)
//Storyboard Layer 3 (Foreground)
//Storyboard Sound Samples

[TimingPoints]
663,606.060606060606,4,2,1,40,1,0
28541,606.060606060606,4,2,1,40,1,0
93995,-100,4,2,1,40,0,1
112177,-100,4,2,1,40,0,0
113389,-100,4,2,1,40,0,1
132783,-100,4,2,1,40,0,0
194601,606.060606060606,4,2,1,40,1,0
197025,-100,4,2,1,40,0,1
215207,-100,4,2,1,40,0,0
216419,-100,4,2,1,40,0,1
235813,-100,4,2,1,40,0,0

[HitObjects]
142,192,663,5,2,2:0:0:0:
312,192,663,1,0,0:0:0:0:
312,192,1117,1,0,0:0:0:0:
426,192,1572,1,0,0:0:0:0:
28,192,1875,1,2,2:0:0:0:
483,192,1875,1,0,0:0:0:0:
426,192,2329,1,0,0:0:0:0:
312,192,2784,1,0,0:0:0:0:
85,192,3087,1,2,2:0:0:0:
199,192,3087,1,0,0:0:0:0:
199,192,3541,1,0,0:0:0:0:
312,192,3996,1,0,0:0:0:0:
199,192,4299,1,2,2:0:0:0:
426,192,4299,1,0,0:0:0:0:
142,192,5511,1,2,2:0:0:0:
312,192,5511,1,0,0:0:0:0:
312,192,5966,1,0,0:0:0:0:
426,192,6420,1,0,0:0:0:0:
28,192,6723,1,2,2:0:0:0:
312,192,6723,1,0,0:0:0:0:
199,192,7178,1,0,0:0:0:0:
199,192,7481,1,0,0:0:0:0:
312,192,7632,1,0,0:0:0:0:
85,192,7935,1,2,2:0:0:0:
483,192,7935,1,0,0:0:0:0:
369,192,8390,1,0,0:0:0:0:
199,192,8693,1,0,0:0:0:0:
312,192,8844,1,0,0:0:0:0:
256,192,8996,1,0,0:0:0:0:
142,192,9147,1,0,0:0:0:0:
28,192,9147,1,2,2:0:0:0:
312,192,9905,1,0,0:0:0:0:
369,192,10056,1,0,0:0:0:0:
426,192,10208,1,0,0:0:0:0:
142,192,10359,1,0,0:0:0:0:
85,192,10359,1,2,2:0:0:0:
199,192,10511,1,0,0:0:0:0:
256,192,10663,1,0,0:0:0:0:
312,192,10814,1,0,0:0:0:0:
483,192,10966,1,2,2:0:0:0:
312,192,11269,1,0,0:0:0:0:
369,192,11420,1,0,0:0:0:0:
142,192,11572,1,0,0:0:0:0:
28,192,11572,1,2,2:0:0:0:
199,192,11723,1,0,0:0:0:0:
256,192,11875,1,0,0:0:0:0:
312,192,12026,1,0,0:0:0:0:
426,192,12178,1,2,2:0:0:0:
369,192,12481,1,0,0:0:0:0:
256,192,12784,1,0,0:0:0:0:
28,192,12784,1,2,2:0:0:0:
85,192,13087,1,0,0:0:0:0:
142,192,13238,1,0,0:0:0:0:
426,192,13390,1,2,2:0:0:0:
256,192,13541,1,0,0:0:0:0:
369,192,13844,128,0,14602:0:0:0:0:
142,192,13996,1,2,2:0:0:0:
483,192,14602,1,2,2:0:0:0:
85,192,14753,1,0,0:0:0:0:
142,192,14905,1,0,0:0:0:0:
199,192,15056,1,0,0:0:0:0:
426,192,15208,1,0,0:0:0:0:
85,192,15208,1,2,2:0:0:0:
369,192,15359,1,0,0:0:0:0:
312,192,15511,1,0,0:0:0:0:
256,192,15662,1,0,0:0:0:0:
483,192,15814,1,2,2:0:0:0:
142,192,15966,1,0,0:0:0:0:
199,192,16269,1,0,0:0:0:0:
369,192,16420,1,0,0:0:0:0:
28,192,16420,1,2,2:0:0:0:
312,192,16572,1,0,0:0:0:0:
256,192,16723,1,0,0:0:0:0:
199,192,16875,1,0,0:0:0:0:
426,192,17026,1,2,2:0:0:0:
369,192,17329,1,0,0:0:0:0:
85,192,17632,1,2,2:0:0:0:
369,192,17632,1,0,0:0:0:0:
142,192,17935,1,0,0:0:0:0:
312,192,18087,1,0,0:0:0:0:
426,192,18238,1,2,2:0:0:0:
199,192,18390,1,0,0:0:0:0:
85,192,18693,128,0,19450:0:0:0:0:
256,192,18844,1,2,2:0:0:0:
483,192,19450,1,2,2:0:0:0:
312,192,19602,1,0,0:0:0:0:
369,192,19753,1,0,0:0:0:0:
426,192,19905,1,0,0:0:0:0:
142,192,20056,1,0,0:0:0:0:
85,192,20056,1,2,2:0:0:0:
199,192,20208,1,0,0:0:0:0:
256,192,20511,1,0,0:0:0:0:
483,192,20662,1,2,2:0:0:0:
312,192,20814,1,0,0:0:0:0:
369,192,20966,1,0,0:0:0:0:
426,192,21117,1,0,0:0:0:0:
142,192,21269,1,0,0:0:0:0:
28,192,21269,1,2,2:0:0:0:
199,192,21420,1,0,0:0:0:0:
256,192,21572,1,0,0:0:0:0:
312,192,21723,1,0,0:0:0:0:
483,192,21875,1,2,2:0:0:0:
369,192,22178,1,0,0:0:0:0:
369,192,22481,1,0,0:0:0:0:
85,192,22481,1,2,2:0:0:0:
312,192,22935,1,0,0:0:0:0:
426,192,23087,1,2,2:0:0:0:
256,192,23390,1,0,0:0:0:0:
199,192,23693,1,0,0:0:0:0:
142,192,23693,1,2,2:0:0:0:
483,192,24299,1,2,2:0:0:0:
369,192,24299,1,0,0:0:0:0:
199,192,24602,1,0,0:0:0:0:
85,192,24905,1,2,2:0:0:0:
199,192,24905,1,0,0:0:0:0:
483,192,25511,1,2,2:0:0:0:
312,192,25511,1,0,0:0:0:0:
142,192,25814,1,0,0:0:0:0:
142,192,26117,1,0,0:0:0:0:
28,192,26117,1,2,2:0:0:0:
426,192,26723,1,2,2:0:0:0:
312,192,27026,1,0,0:0:0:0:
85,192,27329,1,2,2:0:0:0:
256,192,27329,1,0,0:0:0:0:
199,192,27784,1,0,0:0:0:0:
426,192,27935,1,2,2:0:0:0:
256,192,28238,1,0,0:0:0:0:
142,192,28541,1,2,2:0:0:0:
312,192,28541,128,0,30359:0:0:0:0:
199,192,30359,128,8,30965:3:0:0:0:
312,192,30965,1,0,0:0:0:0:
28,192,30965,1,8,3:0:0:0:
312,192,31419,1,0,0:0:0:0:
28,192,31419,1,8,3:0:0:0:
199,192,31571,1,8,2:0:0:0:
426,192,31874,1,0,0:0:0:0:
85,192,31874,1,8,3:0:0:0:
483,192,32177,1,0,0:0:0:0:
85,192,32480,1,8,3:0:0:0:
426,192,32631,1,0,0:0:0:0:
199,192,32783,1,8,2:0:0:0:
369,192,33086,1,0,0:0:0:0:
28,192,33086,1,8,3:0:0:0:
85,192,33237,1,8,3:0:0:0:
312,192,33389,1,0,0:0:0:0:
142,192,33389,1,8,3:0:0:0:
312,192,33844,1,0,0:0:0:0:
142,192,33844,1,8,3:0:0:0:
256,192,33995,1,8,2:0:0:0:
369,192,34298,1,0,0:0:0:0:
28,192,34298,1,8,3:0:0:0:
426,192,34601,1,0,0:0:0:0:
85,192,34601,1,8,3:0:0:0:
256,192,35207,1,8,2:0:0:0:
142,192,35510,1,8,3:0:0:0:
28,192,35813,1,8,3:0:0:0:
369,192,35813,1,0,0:0:0:0:
369,192,36268,1,0,0:0:0:0:
28,192,36268,1,8,3:0:0:0:
199,192,36419,1,8,2:0:0:0:
483,192,36722,1,0,0:0:0:0:
85,192,36722,1,8,3:0:0:0:
369,192,37025,1,0,0:0:0:0:
85,192,37328,1,8,3:0:0:0:
256,192,37480,1,0,0:0:0:0:
199,192,37631,1,8,2:0:0:0:
369,192,37934,1,0,0:0:0:0:
28,192,37934,1,8,3:0:0:0:
85,192,38086,1,8,3:0:0:0:
483,192,38237,1,0,0:0:0:0:
142,192,38237,1,8,3:0:0:0:
369,192,38692,1,0,0:0:0:0:
142,192,38692,1,8,3:0:0:0:
312,192,38844,1,8,2:0:0:0:
256,192,39147,1,0,0:0:0:0:
28,192,39147,1,8,3:0:0:0:
256,192,39450,1,0,0:0:0:0:
85,192,39450,1,8,3:0:0:0:
199,192,40056,1,8,2:0:0:0:
369,192,40359,1,0,0:0:0:0:
142,192,40359,1,8,3:0:0:0:
426,192,40662,1,0,0:0:0:0:
28,192,40662,1,8,3:0:0:0:
256,192,40965,1,0,0:0:0:0:
28,192,41116,1,8,3:0:0:0:
312,192,41116,1,0,0:0:0:0:
199,192,41268,1,8,2:0:0:0:
142,192,41571,1,8,3:0:0:0:
426,192,41571,1,0,0:0:0:0:
312,192,41874,1,0,0:0:0:0:
85,192,42177,1,8,3:0:0:0:
256,192,42328,1,0,0:0:0:0:
199,192,42480,1,8,2:0:0:0:
312,192,42783,1,0,0:0:0:0:
28,192,42783,1,8,3:0:0:0:
85,192,42934,1,8,3:0:0:0:
142,192,43086,1,8,3:0:0:0:
483,192,43086,1,0,0:0:0:0:
426,192,43541,1,0,0:0:0:0:
142,192,43541,1,8,3:0:0:0:
199,192,43692,1,8,2:0:0:0:
369,192,43995,1,0,0:0:0:0:
85,192,43995,1,8,3:0:0:0:
369,192,44298,1,0,0:0:0:0:
28,192,44298,1,8,3:0:0:0:
199,192,44904,1,8,2:0:0:0:
483,192,44904,1,0,0:0:0:0:
142,192,45207,1,8,3:0:0:0:
312,192,45207,1,0,0:0:0:0:
28,192,45510,1,8,3:0:0:0:
312,192,45510,1,0,0:0:0:0:
28,192,45965,1,8,3:0:0:0:
426,192,46116,1,0,0:0:0:0:
199,192,46116,1,8,2:0:0:0:
256,192,46419,1,0,0:0:0:0:
85,192,46419,1,8,3:0:0:0:
256,192,46722,1,0,0:0:0:0:
142,192,47025,1,8,3:0:0:0:
256,192,47328,1,8,2:0:0:0:
199,192,47631,1,8,3:0:0:0:
483,192,47631,1,0,0:0:0:0:
142,192,47783,1,8,3:0:0:0:
85,192,47934,1,8,3:0:0:0:
426,192,47934,1,0,0:0:0:0:
369,192,48389,1,0,0:0:0:0:
85,192,48389,1,8,3:0:0:0:
199,192,48541,1,8,2:0:0:0:
256,192,48844,1,0,0:0:0:0:
85,192,48844,1,8,3:0:0:0:
142,192,49147,1,8,3:0:0:0:
312,192,49147,128,0,50056:0:0:0:0:
28,192,50359,1,4,3:0:0:0:
426,192,50359,1,0,0:0:0:0:
85,192,50662,1,0,0:0:0:0:
199,192,50813,1,0,0:0:0:0:
312,192,50965,1,0,0:0:0:0:
426,192,51116,1,0,0:0:0:0:
142,192,51268,1,0,0:0:0:0:
483,192,51419,1,0,0:0:0:0:
369,192,51571,1,0,0:0:0:0:
312,192,51722,1,0,0:0:0:0:
199,192,51874,1,0,0:0:0:0:
142,192,52025,1,0,0:0:0:0:
312,192,52177,1,0,0:0:0:0:
256,192,52328,1,0,0:0:0:0:
142,192,52480,1,0,0:0:0:0:
28,192,52631,1,0,0:0:0:0:
85,192,52783,1,0,0:0:0:0:
199,192,53086,1,0,0:0:0:0:
312,192,53237,1,0,0:0:0:0:
85,192,53389,1,0,0:0:0:0:
369,192,53541,1,0,0:0:0:0:
142,192,53692,1,0,0:0:0:0:
426,192,53844,1,0,0:0:0:0:
483,192,53995,1,0,0:0:0:0:
199,192,53995,1,0,0:0:0:0:
256,192,54601,1,8,3:0:0:0:
256,192,54904,1,8,3:0:0:0:
369,192,55207,1,0,0:0:0:0:
85,192,55207,1,8,3:0:0:0:
199,192,55510,1,0,0:0:0:0:
369,192,55662,1,0,0:0:0:0:
85,192,55662,1,8,3:0:0:0:
483,192,55965,1,0,0:0:0:0:
142,192,56116,1,8,3:0:0:0:
369,192,56268,1,0,0:0:0:0:
256,192,56722,1,0,0:0:0:0:
142,192,56722,1,8,3:0:0:0:
28,192,57025,1,8,2:0:0:0:
312,192,57025,1,0,0:0:0:0:
199,192,57328,1,0,0:0:0:0:
312,192,57631,1,0,0:0:0:0:
85,192,57631,1,8,3:0:0:0:
199,192,57934,1,0,0:0:0:0:
312,192,58086,1,0,0:0:0:0:
85,192,58086,1,8,3:0:0:0:
369,192,58389,1,0,0:0:0:0:
142,192,58541,1,8,3:0:0:0:
426,192,58692,1,0,0:0:0:0:
142,192,59147,1,8,3:0:0:0:
28,192,59450,1,8,2:0:0:0:
426,192,59753,1,0,0:0:0:0:
483,192,60056,1,0,0:0:0:0:
85,192,60056,1,8,3:0:0:0:
426,192,60359,1,0,0:0:0:0:
85,192,60510,1,8,3:0:0:0:
369,192,60662,1,0,0:0:0:0:
312,192,60965,1,0,0:0:0:0:
142,192,60965,1,8,3:0:0:0:
312,192,61268,1,0,0:0:0:0:
199,192,61571,1,0,0:0:0:0:
85,192,61571,1,8,3:0:0:0:
312,192,61874,1,0,0:0:0:0:
28,192,61874,1,8,2:0:0:0:
369,192,62177,1,0,0:0:0:0:
85,192,62480,1,8,3:0:0:0:
312,192,62480,128,0,63389:0:0:0:0:
85,192,62934,1,8,3:0:0:0:
199,192,63086,1,8,2:0:0:0:
85,192,63389,1,8,3:0:0:0:
426,192,63389,1,0,0:0:0:0:
142,192,63692,1,8,3:0:0:0:
426,192,63692,1,0,0:0:0:0:
256,192,64298,1,8,2:0:0:0:
142,192,64601,1,0,0:0:0:0:
199,192,64904,1,0,0:0:0:0:
369,192,64904,1,8,3:0:0:0:
85,192,65207,1,0,0:0:0:0:
199,192,65359,1,0,0:0:0:0:
369,192,65359,1,8,3:0:0:0:
312,192,65662,1,0,0:0:0:0:
426,192,65813,1,8,3:0:0:0:
199,192,65965,1,0,0:0:0:0:
142,192,66419,1,0,0:0:0:0:
369,192,66419,1,8,3:0:0:0:
142,192,66722,1,0,0:0:0:0:
483,192,66722,1,8,2:0:0:0:
28,192,67025,1,0,0:0:0:0:
369,192,67328,1,8,3:0:0:0:
256,192,67328,1,0,0:0:0:0:
142,192,67631,1,0,0:0:0:0:
369,192,67783,1,8,3:0:0:0:
28,192,67783,1,0,0:0:0:0:
199,192,68086,1,0,0:0:0:0:
426,192,68237,1,8,3:0:0:0:
85,192,68389,1,0,0:0:0:0:
369,192,68844,1,8,3:0:0:0:
483,192,69147,1,8,2:0:0:0:
199,192,69450,1,0,0:0:0:0:
256,192,69753,1,0,0:0:0:0:
369,192,69753,1,8,3:0:0:0:
199,192,70056,1,0,0:0:0:0:
85,192,70207,1,0,0:0:0:0:
369,192,70207,1,8,3:0:0:0:
142,192,70662,1,0,0:0:0:0:
426,192,70662,1,8,3:0:0:0:
142,192,70965,1,0,0:0:0:0:
28,192,71268,1,0,0:0:0:0:
369,192,71268,1,8,3:0:0:0:
142,192,71571,1,0,0:0:0:0:
483,192,71571,1,8,2:0:0:0:
199,192,71874,1,0,0:0:0:0:
256,192,72177,128,0,73086:0:0:0:0:
369,192,72177,1,8,3:0:0:0:
369,192,72631,1,8,3:0:0:0:
28,192,72783,1,8,2:0:0:0:
142,192,73086,1,0,0:0:0:0:
426,192,73086,1,8,3:0:0:0:
142,192,73389,1,0,0:0:0:0:
426,192,73389,128,8,73995:3:0:0:0:
256,192,73995,1,8,2:0:0:0:
369,192,74601,1,0,0:0:0:0:
142,192,74601,1,0,0:0:0:0:
369,192,75056,1,0,0:0:0:0:
142,192,75056,1,0,0:0:0:0:
483,192,75207,1,2,2:0:0:0:
312,192,75510,1,0,0:0:0:0:
142,192,75510,128,2,76722:1:0:0:0:
426,192,76419,1,2,2:0:0:0:
199,192,77025,1,0,0:0:0:0:
312,192,77025,1,0,0:0:0:0:
199,192,77480,1,0,0:0:0:0:
312,192,77480,1,0,0:0:0:0:
426,192,77631,1,2,2:0:0:0:
256,192,77934,1,0,0:0:0:0:
142,192,77934,1,0,0:0:0:0:
483,192,78237,128,0,79450:0:0:0:0:
85,192,78844,1,2,2:0:0:0:
28,192,79450,1,0,0:0:0:0:
256,192,79450,1,0,0:0:0:0:
28,192,79904,1,0,0:0:0:0:
256,192,79904,1,0,0:0:0:0:
426,192,80056,1,2,2:0:0:0:
28,192,80359,1,0,0:0:0:0:
256,192,80359,128,2,81571:1:0:0:0:
426,192,81268,1,2,2:0:0:0:
312,192,81874,1,0,0:0:0:0:
85,192,81874,1,0,0:0:0:0:
85,192,82328,1,0,0:0:0:0:
312,192,82328,1,0,0:0:0:0:
483,192,82480,1,2,2:0:0:0:
85,192,82783,1,0,0:0:0:0:
312,192,82783,1,0,0:0:0:0:
142,192,83692,128,0,84298:0:0:0:0:
369,192,83692,1,2,2:0:0:0:
256,192,84298,1,0,0:0:0:0:
483,192,84298,1,0,0:0:0:0:
256,192,84753,1,0,0:0:0:0:
483,192,84753,1,0,0:0:0:0:
142,192,84904,1,2,2:0:0:0:
199,192,85207,1,0,0:0:0:0:
483,192,85207,128,2,86419:1:0:0:0:
85,192,86116,1,2,2:0:0:0:
426,192,86722,1,0,0:0:0:0:
199,192,86722,1,0,0:0:0:0:
199,192,87177,1,0,0:0:0:0:
426,192,87177,1,0,0:0:0:0:
85,192,87328,1,2,2:0:0:0:
142,192,87631,1,0,0:0:0:0:
369,192,87631,1,0,0:0:0:0:
483,192,87934,128,0,89147:0:0:0:0:
28,192,88541,1,2,2:0:0:0:
142,192,89147,1,0,0:0:0:0:
312,192,89147,1,0,0:0:0:0:
312,192,89601,1,0,0:0:0:0:
142,192,89601,1,0,0:0:0:0:
28,192,89753,1,2,2:0:0:0:
142,192,90056,1,0,0:0:0:0:
312,192,90056,128,2,91268:1:0:0:0:
28,192,90965,1,2,2:0:0:0:
426,192,91571,1,0,0:0:0:0:
199,192,91571,1,0,0:0:0:0:
426,192,92025,1,0,0:0:0:0:
199,192,92025,1,0,0:0:0:0:
85,192,92177,1,2,2:0:0:0:
426,192,92480,1,0,0:0:0:0:
199,192,92480,1,0,0:0:0:0:
369,192,92783,1,2,2:0:0:0:
256,192,92783,1,0,0:0:0:0:
199,192,93086,1,0,0:0:0:0:
312,192,93086,1,2,2:0:0:0:
142,192,93389,1,0,0:0:0:0:
256,192,93389,1,2,2:0:0:0:
85,192,93692,1,0,0:0:0:0:
199,192,93692,1,2,2:0:0:0:
28,192,93995,1,8,3:0:0:0:
312,192,93995,1,0,0:0:0:0:
28,192,94450,1,8,3:0:0:0:
312,192,94450,1,0,0:0:0:0:
199,192,94601,1,8,2:0:0:0:
85,192,94904,1,8,3:0:0:0:
426,192,94904,1,0,0:0:0:0:
483,192,95207,1,0,0:0:0:0:
85,192,95510,1,8,3:0:0:0:
426,192,95662,1,0,0:0:0:0:
199,192,95813,1,8,2:0:0:0:
28,192,96116,1,8,3:0:0:0:
369,192,96116,1,0,0:0:0:0:
85,192,96268,1,8,3:0:0:0:
142,192,96419,1,8,3:0:0:0:
312,192,96419,1,0,0:0:0:0:
312,192,96874,1,0,0:0:0:0:
142,192,96874,1,8,3:0:0:0:
256,192,97025,1,8,2:0:0:0:
369,192,97328,1,0,0:0:0:0:
28,192,97328,1,8,3:0:0:0:
85,192,97631,1,8,3:0:0:0:
426,192,97631,1,0,0:0:0:0:
256,192,98237,1,8,2:0:0:0:
142,192,98541,1,8,3:0:0:0:
28,192,98844,1,8,3:0:0:0:
369,192,98844,1,0,0:0:0:0:
28,192,99298,1,8,3:0:0:0:
369,192,99298,1,0,0:0:0:0:
199,192,99450,1,8,2:0:0:0:
483,192,99753,1,0,0:0:0:0:
85,192,99753,1,8,3:0:0:0:
369,192,100056,1,0,0:0:0:0:
85,192,100359,1,8,3:0:0:0:
256,192,100510,1,0,0:0:0:0:
199,192,100662,1,8,2:0:0:0:
28,192,100965,1,8,3:0:0:0:
369,192,100965,1,0,0:0:0:0:
85,192,101116,1,8,3:0:0:0:
483,192,101268,1,0,0:0:0:0:
142,192,101268,1,8,3:0:0:0:
369,192,101722,1,0,0:0:0:0:
142,192,101722,1,8,3:0:0:0:
312,192,101874,1,8,2:0:0:0:
256,192,102177,1,0,0:0:0:0:
28,192,102177,1,8,3:0:0:0:
85,192,102480,1,8,3:0:0:0:
256,192,102480,1,0,0:0:0:0:
199,192,103086,1,8,2:0:0:0:
142,192,103389,1,8,3:0:0:0:
369,192,103389,1,0,0:0:0:0:
28,192,103692,1,8,3:0:0:0:
426,192,103692,1,0,0:0:0:0:
256,192,103995,1,0,0:0:0:0:
312,192,104147,1,0,0:0:0:0:
28,192,104147,1,8,3:0:0:0:
199,192,104298,1,8,2:0:0:0:
426,192,104601,1,0,0:0:0:0:
142,192,104601,1,8,3:0:0:0:
312,192,104904,1,0,0:0:0:0:
85,192,105207,1,8,3:0:0:0:
256,192,105359,1,0,0:0:0:0:
199,192,105510,1,8,2:0:0:0:
312,192,105813,1,0,0:0:0:0:
28,192,105813,1,8,3:0:0:0:
85,192,105965,1,8,3:0:0:0:
483,192,106116,1,0,0:0:0:0:
142,192,106116,1,8,3:0:0:0:
426,192,106571,1,0,0:0:0:0:
142,192,106571,1,8,3:0:0:0:
199,192,106722,1,8,2:0:0:0:
369,192,107025,1,0,0:0:0:0:
85,192,107025,1,8,3:0:0:0:
369,192,107328,1,0,0:0:0:0:
28,192,107328,1,8,3:0:0:0:
199,192,107934,1,8,2:0:0:0:
483,192,107934,1,0,0:0:0:0:
312,192,108237,1,0,0:0:0:0:
142,192,108237,1,8,3:0:0:0:
312,192,108541,1,0,0:0:0:0:
28,192,108541,1,8,3:0:0:0:
28,192,108995,1,8,3:0:0:0:
426,192,109147,1,0,0:0:0:0:
199,192,109147,1,8,2:0:0:0:
256,192,109450,1,0,0:0:0:0:
85,192,109450,1,8,3:0:0:0:
256,192,109753,1,0,0:0:0:0:
142,192,110056,1,8,3:0:0:0:
256,192,110359,1,8,2:0:0:0:
199,192,110662,1,8,3:0:0:0:
483,192,110662,1,0,0:0:0:0:
142,192,110813,1,8,3:0:0:0:
85,192,110965,1,8,3:0:0:0:
426,192,110965,1,0,0:0:0:0:
85,192,111419,1,8,3:0:0:0:
369,192,111419,1,0,0:0:0:0:
199,192,111571,1,8,2:0:0:0:
312,192,111874,1,0,0:0:0:0:
142,192,111874,1,8,3:0:0:0:
28,192,112177,128,4,112783:2:0:0:0:
369,192,112177,1,0,0:0:0:0:
85,192,112783,128,4,113389:2:0:0:0:
312,192,112783,1,2,2:0:0:0:
369,192,113086,1,2,2:0:0:0:
256,192,113086,1,0,0:0:0:0:
426,192,113389,1,2,2:0:0:0:
312,192,113389,1,4,2:0:0:0:
142,192,113692,1,0,3:0:0:0:
142,192,113995,1,0,3:0:0:0:
199,192,114298,1,0,0:0:0:0:
312,192,114298,1,2,2:0:0:0:
256,192,114601,1,0,0:0:0:0:
369,192,114601,1,2,2:0:0:0:
28,192,114904,1,0,3:0:0:0:
28,192,115207,1,0,3:0:0:0:
256,192,115510,1,0,0:0:0:0:
369,192,115510,1,2,2:0:0:0:
426,192,115813,1,2,2:0:0:0:
312,192,115813,1,0,0:0:0:0:
85,192,116116,1,0,3:0:0:0:
85,192,116419,1,0,3:0:0:0:
199,192,116571,1,2,2:0:0:0:
256,192,116722,1,0,0:0:0:0:
426,192,116874,1,0,0:0:0:0:
142,192,116874,1,0,3:0:0:0:
312,192,117025,1,2,2:0:0:0:
28,192,117025,1,0,3:0:0:0:
483,192,117328,1,2,2:0:0:0:
369,192,117328,1,0,0:0:0:0:
85,192,117328,1,0,3:0:0:0:
256,192,117631,1,0,0:0:0:0:
142,192,117631,1,0,3:0:0:0:
256,192,117934,1,0,0:0:0:0:
369,192,117934,1,2,2:0:0:0:
312,192,118237,1,0,0:0:0:0:
426,192,118237,1,2,2:0:0:0:
142,192,118540,1,0,3:0:0:0:
142,192,118844,1,0,3:0:0:0:
199,192,119147,1,0,0:0:0:0:
312,192,119147,1,2,2:0:0:0:
256,192,119450,1,0,0:0:0:0:
369,192,119450,1,2,2:0:0:0:
28,192,119753,1,0,3:0:0:0:
28,192,120056,1,0,3:0:0:0:
256,192,120359,1,0,0:0:0:0:
369,192,120359,1,2,2:0:0:0:
426,192,120662,1,0,0:0:0:0:
312,192,120662,128,2,121268:2:0:0:0:
85,192,120965,1,0,3:0:0:0:
483,192,121268,128,2,121874:2:0:0:0:
85,192,121268,1,0,3:0:0:0:
142,192,121571,1,0,3:0:0:0:
199,192,121722,1,0,3:0:0:0:
369,192,121874,1,2,2:0:0:0:
256,192,122025,1,0,3:0:0:0:
312,192,122177,1,0,3:0:0:0:
369,192,122328,1,0,3:0:0:0:
426,192,122480,1,0,3:0:0:0:
85,192,122480,1,0,0:0:0:0:
199,192,122480,1,2,2:0:0:0:
142,192,122783,1,0,0:0:0:0:
256,192,122783,1,2,2:0:0:0:
199,192,123086,1,0,0:0:0:0:
312,192,123086,1,2,2:0:0:0:
483,192,123389,1,0,3:0:0:0:
483,192,123692,1,0,3:0:0:0:
85,192,123995,1,0,0:0:0:0:
199,192,123995,1,2,2:0:0:0:
142,192,124298,1,0,0:0:0:0:
256,192,124298,1,2,2:0:0:0:
369,192,124601,1,0,3:0:0:0:
369,192,124904,1,0,3:0:0:0:
142,192,125207,1,0,0:0:0:0:
256,192,125207,1,2,2:0:0:0:
199,192,125510,1,0,0:0:0:0:
312,192,125510,1,2,2:0:0:0:
426,192,125813,1,0,3:0:0:0:
426,192,126116,1,0,3:0:0:0:
28,192,126419,128,2,127328:2:0:0:0:
199,192,126571,1,0,3:0:0:0:
256,192,126722,1,0,3:0:0:0:
312,192,126874,1,0,3:0:0:0:
369,192,127025,1,0,3:0:0:0:
426,192,127177,1,0,3:0:0:0:
483,192,127328,1,0,3:0:0:0:
142,192,127328,1,2,2:0:0:0:
142,192,127631,1,0,0:0:0:0:
256,192,127631,1,2,2:0:0:0:
199,192,127934,1,0,0:0:0:0:
312,192,127934,1,2,2:0:0:0:
483,192,128237,1,0,3:0:0:0:
483,192,128540,1,0,3:0:0:0:
85,192,128844,1,0,0:0:0:0:
199,192,128844,1,2,2:0:0:0:
142,192,129147,1,0,0:0:0:0:
256,192,129147,1,2,2:0:0:0:
369,192,129450,1,0,3:0:0:0:
369,192,129753,1,0,3:0:0:0:
142,192,130056,1,0,0:0:0:0:
256,192,130056,1,2,2:0:0:0:
312,192,130359,1,2,2:0:0:0:
199,192,130359,1,0,0:0:0:0:
426,192,130662,1,0,3:0:0:0:
426,192,130965,1,0,3:0:0:0:
369,192,131268,1,0,3:0:0:0:
256,192,131419,1,0,3:0:0:0:
142,192,131571,1,0,3:0:0:0:
369,192,131874,1,0,3:0:0:0:
142,192,132177,1,0,3:0:0:0:
28,192,132783,1,4,3:0:0:0:
426,192,132783,1,0,0:0:0:0:
85,192,133086,1,0,0:0:0:0:
199,192,133237,1,0,0:0:0:0:
312,192,133389,1,0,0:0:0:0:
426,192,133541,1,0,0:0:0:0:
142,192,133692,1,0,0:0:0:0:
483,192,133844,1,0,0:0:0:0:
369,192,133995,1,0,0:0:0:0:
312,192,134147,1,0,0:0:0:0:
199,192,134298,1,0,0:0:0:0:
142,192,134450,1,0,0:0:0:0:
312,192,134601,1,0,0:0:0:0:
256,192,134753,1,0,0:0:0:0:
142,192,134904,1,0,0:0:0:0:
28,192,135056,1,0,0:0:0:0:
85,192,135207,1,0,0:0:0:0:
199,192,135510,1,0,0:0:0:0:
312,192,135662,1,0,0:0:0:0:
85,192,135813,1,0,0:0:0:0:
369,192,135965,1,0,0:0:0:0:
142,192,136116,1,0,0:0:0:0:
426,192,136268,1,0,0:0:0:0:
199,192,136419,1,0,0:0:0:0:
483,192,136419,1,0,0:0:0:0:
28,192,137025,1,8,3:0:0:0:
28,192,137328,1,8,3:0:0:0:
199,192,137631,1,8,3:0:0:0:
256,192,137631,1,0,0:0:0:0:
426,192,137783,1,0,0:0:0:0:
142,192,137934,1,0,0:0:0:0:
426,192,138237,1,8,2:0:0:0:
199,192,138541,1,0,0:0:0:0:
312,192,138692,1,0,0:0:0:0:
483,192,138844,1,0,0:0:0:0:
28,192,138844,1,0,0:0:0:0:
142,192,138995,1,0,0:0:0:0:
256,192,139147,1,0,0:0:0:0:
369,192,139298,1,0,0:0:0:0:
483,192,139450,1,8,2:0:0:0:
85,192,139450,1,0,0:0:0:0:
199,192,139753,1,0,0:0:0:0:
369,192,139904,1,0,0:0:0:0:
256,192,140056,1,0,0:0:0:0:
28,192,140056,1,8,3:0:0:0:
199,192,140359,1,0,0:0:0:0:
483,192,140510,1,0,0:0:0:0:
199,192,140662,1,8,2:0:0:0:
142,192,140965,1,0,0:0:0:0:
256,192,140965,1,0,0:0:0:0:
312,192,141116,1,0,0:0:0:0:
85,192,141268,1,0,0:0:0:0:
369,192,141268,1,0,0:0:0:0:
199,192,141419,1,0,0:0:0:0:
312,192,141571,1,0,0:0:0:0:
426,192,141722,1,0,0:0:0:0:
312,192,141874,1,8,2:0:0:0:
199,192,142025,1,0,0:0:0:0:
85,192,142177,1,0,0:0:0:0:
199,192,142328,1,0,0:0:0:0:
28,192,142480,1,8,3:0:0:0:
369,192,142480,1,0,0:0:0:0:
483,192,142631,1,0,0:0:0:0:
312,192,142783,1,0,0:0:0:0:
142,192,142934,1,0,0:0:0:0:
483,192,143086,1,8,2:0:0:0:
369,192,143389,1,0,0:0:0:0:
256,192,143541,1,0,0:0:0:0:
142,192,143692,1,0,0:0:0:0:
256,192,143844,1,0,0:0:0:0:
28,192,143844,1,0,0:0:0:0:
312,192,143995,1,0,0:0:0:0:
369,192,144147,1,0,0:0:0:0:
426,192,144298,1,8,2:0:0:0:
199,192,144601,1,0,0:0:0:0:
483,192,144904,1,2,2:0:0:0:
369,192,145056,1,2,2:0:0:0:
256,192,145207,1,2,2:0:0:0:
142,192,145359,1,2,2:0:0:0:
312,192,146116,1,8,3:0:0:0:
142,192,146268,1,0,0:0:0:0:
312,192,146419,1,0,0:0:0:0:
483,192,146571,1,0,0:0:0:0:
312,192,146722,1,0,0:0:0:0:
199,192,146874,1,0,0:0:0:0:
85,192,147025,1,8,3:0:0:0:
199,192,147177,1,0,0:0:0:0:
28,192,147328,1,8,3:0:0:0:
256,192,147328,1,0,0:0:0:0:
426,192,147480,1,0,0:0:0:0:
142,192,147631,1,0,0:0:0:0:
426,192,147934,1,8,2:0:0:0:
312,192,148237,1,0,0:0:0:0:
199,192,148389,1,0,0:0:0:0:
28,192,148541,1,0,0:0:0:0:
142,192,148692,1,0,0:0:0:0:
256,192,148844,1,0,0:0:0:0:
369,192,148995,1,0,0:0:0:0:
483,192,149147,1,0,0:0:0:0:
85,192,149147,1,8,2:0:0:0:
199,192,149450,1,0,0:0:0:0:
369,192,149601,1,0,0:0:0:0:
256,192,149753,1,0,0:0:0:0:
28,192,149753,1,8,3:0:0:0:
199,192,150056,1,0,0:0:0:0:
483,192,150207,1,0,0:0:0:0:
199,192,150359,1,8,2:0:0:0:
312,192,150662,1,0,0:0:0:0:
28,192,150662,1,0,0:0:0:0:
312,192,150965,1,0,0:0:0:0:
142,192,150965,1,0,0:0:0:0:
312,192,151268,1,0,0:0:0:0:
85,192,151268,1,0,0:0:0:0:
426,192,151571,1,8,2:0:0:0:
256,192,151722,1,0,0:0:0:0:
85,192,151874,1,0,0:0:0:0:
256,192,152025,1,0,0:0:0:0:
483,192,152177,1,0,0:0:0:0:
28,192,152177,1,8,3:0:0:0:
312,192,152480,1,0,0:0:0:0:
142,192,152631,1,0,0:0:0:0:
483,192,152783,1,8,2:0:0:0:
312,192,153086,1,0,0:0:0:0:
142,192,153237,1,0,0:0:0:0:
28,192,153389,1,0,0:0:0:0:
85,192,153541,1,0,0:0:0:0:
369,192,153541,1,0,0:0:0:0:
142,192,153692,1,0,0:0:0:0:
199,192,153844,1,0,0:0:0:0:
256,192,153995,1,8,2:0:0:0:
85,192,154298,1,0,0:0:0:0:
426,192,154450,1,0,0:0:0:0:
312,192,154601,1,0,0:0:0:0:
142,192,154601,1,8,3:0:0:0:
199,192,154904,1,0,0:0:0:0:
483,192,155056,1,0,0:0:0:0:
199,192,155207,1,8,2:0:0:0:
28,192,155510,1,0,0:0:0:0:
256,192,155510,1,2,2:0:0:0:
142,192,155813,1,0,0:0:0:0:
369,192,155813,1,2,2:0:0:0:
483,192,156116,1,2,2:0:0:0:
256,192,156116,1,0,0:0:0:0:
142,192,156419,1,0,0:0:0:0:
369,192,156419,1,2,2:0:0:0:
28,192,156722,1,0,0:0:0:0:
256,192,156722,1,2,2:0:0:0:
256,192,157025,1,0,0:0:0:0:
199,192,157025,1,8,3:0:0:0:
426,192,157177,1,0,0:0:0:0:
142,192,157328,1,0,0:0:0:0:
426,192,157631,1,8,2:0:0:0:
312,192,157934,1,0,0:0:0:0:
199,192,158086,1,0,0:0:0:0:
28,192,158237,1,0,0:0:0:0:
142,192,158389,1,0,0:0:0:0:
256,192,158541,1,0,0:0:0:0:
369,192,158692,1,0,0:0:0:0:
85,192,158844,1,0,0:0:0:0:
483,192,158844,1,8,2:0:0:0:
256,192,159147,1,0,0:0:0:0:
369,192,159298,1,0,0:0:0:0:
142,192,159450,1,0,0:0:0:0:
28,192,159450,1,8,3:0:0:0:
312,192,159753,1,0,0:0:0:0:
483,192,160056,1,8,2:0:0:0:
199,192,160359,1,0,0:0:0:0:
312,192,160359,1,0,0:0:0:0:
426,192,160510,1,0,0:0:0:0:
142,192,160662,1,0,0:0:0:0:
28,192,160813,1,0,0:0:0:0:
256,192,160813,1,0,0:0:0:0:
369,192,160965,1,0,0:0:0:0:
483,192,161116,1,0,0:0:0:0:
312,192,161268,1,8,2:0:0:0:
199,192,161571,1,0,0:0:0:0:
369,192,161874,1,0,0:0:0:0:
28,192,161874,1,8,3:0:0:0:
483,192,162025,1,0,0:0:0:0:
312,192,162177,1,0,0:0:0:0:
142,192,162328,1,0,0:0:0:0:
483,192,162480,1,8,2:0:0:0:
369,192,162783,1,0,0:0:0:0:
256,192,162934,1,0,0:0:0:0:
142,192,163086,1,0,0:0:0:0:
256,192,163237,1,0,0:0:0:0:
28,192,163237,1,0,0:0:0:0:
312,192,163389,1,0,0:0:0:0:
369,192,163541,1,0,0:0:0:0:
426,192,163692,1,8,2:0:0:0:
199,192,163995,1,0,0:0:0:0:
85,192,164298,1,8,3:0:0:0:
256,192,164298,1,0,0:0:0:0:
369,192,164450,1,0,0:0:0:0:
483,192,164601,1,0,0:0:0:0:
142,192,164753,1,0,0:0:0:0:
199,192,164904,1,8,2:0:0:0:
256,192,165207,1,0,0:0:0:0:
426,192,165359,1,0,0:0:0:0:
312,192,165510,1,0,0:0:0:0:
142,192,165662,1,0,0:0:0:0:
28,192,165662,1,0,0:0:0:0:
312,192,165813,1,0,0:0:0:0:
483,192,165965,1,0,0:0:0:0:
369,192,166116,1,8,2:0:0:0:
199,192,166419,1,0,0:0:0:0:
312,192,166571,1,0,0:0:0:0:
256,192,166722,1,0,0:0:0:0:
28,192,166722,1,8,3:0:0:0:
426,192,166874,1,0,0:0:0:0:
142,192,167025,1,0,0:0:0:0:
426,192,167328,1,8,2:0:0:0:
312,192,167631,1,0,0:0:0:0:
199,192,167783,1,0,0:0:0:0:
28,192,167934,1,0,0:0:0:0:
142,192,168086,1,0,0:0:0:0:
256,192,168237,1,0,0:0:0:0:
369,192,168389,1,0,0:0:0:0:
85,192,168541,1,8,2:0:0:0:
483,192,168541,1,0,0:0:0:0:
199,192,168844,1,0,0:0:0:0:
369,192,168995,1,0,0:0:0:0:
256,192,169147,1,0,0:0:0:0:
28,192,169147,1,8,3:0:0:0:
199,192,169450,1,0,0:0:0:0:
483,192,169601,1,0,0:0:0:0:
199,192,169753,1,8,2:0:0:0:
256,192,170056,1,0,0:0:0:0:
312,192,170207,1,0,0:0:0:0:
28,192,170359,1,0,0:0:0:0:
369,192,170359,1,0,0:0:0:0:
199,192,170510,1,0,0:0:0:0:
142,192,170662,1,0,0:0:0:0:
85,192,170813,1,0,0:0:0:0:
426,192,170965,1,8,2:0:0:0:
256,192,171116,1,0,0:0:0:0:
85,192,171268,1,0,0:0:0:0:
256,192,171419,1,0,0:0:0:0:
28,192,171571,1,8,3:0:0:0:
369,192,171571,1,0,0:0:0:0:
483,192,171722,1,0,0:0:0:0:
199,192,171874,1,0,0:0:0:0:
483,192,172177,1,8,2:0:0:0:
312,192,172480,1,0,0:0:0:0:
142,192,172631,1,0,0:0:0:0:
85,192,172783,1,0,0:0:0:0:
199,192,172934,1,0,0:0:0:0:
256,192,173086,1,0,0:0:0:0:
312,192,173237,1,0,0:0:0:0:
369,192,173389,1,8,2:0:0:0:
85,192,173692,1,0,0:0:0:0:
426,192,173844,1,0,0:0:0:0:
142,192,173995,1,8,3:0:0:0:
312,192,173995,1,0,0:0:0:0:
199,192,174298,1,0,0:0:0:0:
483,192,174450,1,0,0:0:0:0:
199,192,174601,1,8,2:0:0:0:
256,192,174904,1,2,2:0:0:0:
28,192,174904,1,0,0:0:0:0:
142,192,175207,1,0,0:0:0:0:
369,192,175207,1,2,2:0:0:0:
256,192,175510,1,0,0:0:0:0:
483,192,175510,1,2,2:0:0:0:
142,192,175813,1,0,0:0:0:0:
369,192,175813,1,2,2:0:0:0:
28,192,176116,1,0,0:0:0:0:
256,192,176116,1,2,2:0:0:0:
85,192,176419,1,0,0:0:0:0:
369,192,176419,1,2,2:0:0:0:
142,192,176571,1,0,0:0:0:0:
199,192,176722,1,0,0:0:0:0:
256,192,176874,1,0,0:0:0:0:
426,192,177025,1,2,2:0:0:0:
142,192,177177,1,0,0:0:0:0:
256,192,177328,1,0,0:0:0:0:
369,192,177480,1,0,0:0:0:0:
28,192,177631,1,0,0:0:0:0:
483,192,177631,1,2,2:0:0:0:
85,192,177783,1,0,0:0:0:0:
142,192,177934,1,0,0:0:0:0:
199,192,178086,1,0,0:0:0:0:
369,192,178237,1,2,2:0:0:0:
312,192,178541,1,0,0:0:0:0:
199,192,178692,1,0,0:0:0:0:
85,192,178844,1,0,0:0:0:0:
426,192,178844,1,2,2:0:0:0:
142,192,178995,1,0,0:0:0:0:
199,192,179147,1,0,0:0:0:0:
256,192,179298,1,0,0:0:0:0:
483,192,179450,1,2,2:0:0:0:
312,192,179753,1,0,0:0:0:0:
85,192,180056,1,0,0:0:0:0:
369,192,180056,1,2,2:0:0:0:
142,192,180207,1,0,0:0:0:0:
199,192,180359,1,0,0:0:0:0:
256,192,180510,1,0,0:0:0:0:
312,192,180662,1,2,2:0:0:0:
369,192,180813,1,0,0:0:0:0:
426,192,180965,1,0,0:0:0:0:
483,192,181116,1,0,0:0:0:0:
85,192,181268,1,0,0:0:0:0:
369,192,181268,1,2,2:0:0:0:
142,192,181419,1,0,0:0:0:0:
199,192,181571,1,0,0:0:0:0:
256,192,181722,1,0,0:0:0:0:
369,192,181874,1,2,2:0:0:0:
483,192,182025,1,0,0:0:0:0:
199,192,182177,1,0,0:0:0:0:
28,192,182480,1,0,0:0:0:0:
483,192,182480,1,2,2:0:0:0:
85,192,182631,1,0,0:0:0:0:
142,192,182783,1,0,0:0:0:0:
199,192,182934,1,0,0:0:0:0:
369,192,183086,1,2,2:0:0:0:
426,192,183237,1,0,0:0:0:0:
312,192,183389,1,0,0:0:0:0:
199,192,183541,1,0,0:0:0:0:
85,192,183692,1,0,0:0:0:0:
369,192,183692,1,2,2:0:0:0:
142,192,183844,1,0,0:0:0:0:
199,192,183995,1,0,0:0:0:0:
256,192,184147,1,0,0:0:0:0:
483,192,184298,1,2,2:0:0:0:
369,192,184601,1,0,0:0:0:0:
256,192,184753,1,0,0:0:0:0:
426,192,184904,1,2,2:0:0:0:
142,192,184904,1,0,0:0:0:0:
85,192,185056,1,0,0:0:0:0:
199,192,185207,1,0,0:0:0:0:
256,192,185359,1,0,0:0:0:0:
312,192,185510,1,2,2:0:0:0:
369,192,185662,1,0,0:0:0:0:
426,192,185813,1,0,0:0:0:0:
483,192,185965,1,0,0:0:0:0:
85,192,186116,1,0,0:0:0:0:
369,192,186116,1,2,2:0:0:0:
142,192,186268,1,0,0:0:0:0:
199,192,186419,1,0,0:0:0:0:
256,192,186571,1,0,0:0:0:0:
426,192,186722,1,2,2:0:0:0:
199,192,186874,1,0,0:0:0:0:
256,192,187025,1,0,0:0:0:0:
312,192,187177,1,0,0:0:0:0:
28,192,187328,1,0,0:0:0:0:
369,192,187328,1,2,2:0:0:0:
85,192,187480,1,0,0:0:0:0:
142,192,187631,1,0,0:0:0:0:
199,192,187783,1,0,0:0:0:0:
312,192,187934,1,2,2:0:0:0:
426,192,188086,1,0,0:0:0:0:
199,192,188237,1,0,0:0:0:0:
85,192,188541,1,0,0:0:0:0:
483,192,188541,1,2,2:0:0:0:
142,192,188692,1,0,0:0:0:0:
199,192,188844,1,0,0:0:0:0:
256,192,188995,1,0,0:0:0:0:
426,192,189147,1,2,2:0:0:0:
312,192,189450,1,0,0:0:0:0:
142,192,189753,1,0,0:0:0:0:
369,192,189753,1,2,2:0:0:0:
28,192,189904,1,0,0:0:0:0:
85,192,190056,1,0,0:0:0:0:
142,192,190207,1,0,0:0:0:0:
199,192,190359,1,2,2:0:0:0:
256,192,190510,1,0,0:0:0:0:
312,192,190662,1,0,0:0:0:0:
369,192,190813,1,0,0:0:0:0:
426,192,190965,1,2,2:0:0:0:
85,192,190965,1,0,0:0:0:0:
142,192,191116,1,0,0:0:0:0:
199,192,191268,1,0,0:0:0:0:
256,192,191419,1,0,0:0:0:0:
426,192,191571,1,2,2:0:0:0:
256,192,191874,1,0,0:0:0:0:
312,192,192025,1,0,0:0:0:0:
369,192,192177,1,2,2:0:0:0:
28,192,192177,1,0,0:0:0:0:
85,192,192328,1,0,0:0:0:0:
142,192,192480,1,0,0:0:0:0:
199,192,192631,1,0,0:0:0:0:
312,192,192783,1,2,2:0:0:0:
483,192,192934,1,0,0:0:0:0:
369,192,193086,1,0,0:0:0:0:
85,192,193389,1,0,0:0:0:0:
426,192,193389,1,2,2:0:0:0:
142,192,193540,1,0,0:0:0:0:
199,192,193692,1,0,0:0:0:0:
256,192,193844,1,0,0:0:0:0:
483,192,193995,1,2,2:0:0:0:
312,192,194147,1,0,0:0:0:0:
369,192,194298,1,0,0:0:0:0:
199,192,194450,1,0,0:0:0:0:
142,192,194601,1,0,0:0:0:0:
426,192,194601,1,2,2:0:0:0:
199,192,194752,1,0,0:0:0:0:
256,192,194904,1,0,0:0:0:0:
142,192,196419,1,8,3:0:0:0:
85,192,196419,1,0,0:0:0:0:
312,192,196570,1,0,0:0:0:0:
369,192,196722,1,0,0:0:0:0:
426,192,196873,1,0,0:0:0:0:
199,192,197025,1,0,0:0:0:0:
28,192,197025,1,8,3:0:0:0:
256,192,197176,1,0,0:0:0:0:
312,192,197328,1,0,0:0:0:0:
369,192,197479,1,0,0:0:0:0:
28,192,197479,1,8,3:0:0:0:
199,192,197631,1,8,2:0:0:0:
369,192,197934,1,0,0:0:0:0:
85,192,197934,1,8,3:0:0:0:
426,192,198085,1,0,0:0:0:0:
256,192,198237,1,0,0:0:0:0:
312,192,198388,1,0,0:0:0:0:
369,192,198540,1,0,0:0:0:0:
85,192,198540,1,8,3:0:0:0:
426,192,198691,1,0,0:0:0:0:
199,192,198843,1,8,2:0:0:0:
483,192,199146,1,0,0:0:0:0:
28,192,199146,1,8,3:0:0:0:
85,192,199297,1,8,3:0:0:0:
369,192,199449,1,0,0:0:0:0:
142,192,199449,1,8,3:0:0:0:
256,192,199752,1,0,0:0:0:0:
312,192,199904,1,0,0:0:0:0:
142,192,199904,1,8,3:0:0:0:
199,192,200055,1,8,2:0:0:0:
369,192,200207,1,0,0:0:0:0:
85,192,200358,1,8,3:0:0:0:
483,192,200510,128,0,201267:0:0:0:0:
28,192,200661,1,8,3:0:0:0:
199,192,201267,1,8,2:0:0:0:
312,192,201419,1,0,0:0:0:0:
369,192,201570,1,0,0:0:0:0:
142,192,201570,1,8,3:0:0:0:
426,192,201722,1,0,0:0:0:0:
199,192,201873,1,0,0:0:0:0:
28,192,201873,1,8,3:0:0:0:
256,192,202025,1,0,0:0:0:0:
312,192,202176,1,0,0:0:0:0:
369,192,202328,1,0,0:0:0:0:
28,192,202328,1,8,3:0:0:0:
199,192,202479,1,8,2:0:0:0:
312,192,202631,1,0,0:0:0:0:
85,192,202782,1,8,3:0:0:0:
426,192,202934,1,0,0:0:0:0:
256,192,203085,1,0,0:0:0:0:
312,192,203237,1,0,0:0:0:0:
85,192,203388,1,8,3:0:0:0:
369,192,203388,1,0,0:0:0:0:
426,192,203540,1,0,0:0:0:0:
199,192,203691,1,8,2:0:0:0:
483,192,203691,1,0,0:0:0:0:
28,192,203994,1,8,3:0:0:0:
369,192,203994,1,0,0:0:0:0:
85,192,204146,1,8,3:0:0:0:
142,192,204297,1,8,3:0:0:0:
369,192,204297,1,0,0:0:0:0:
256,192,204601,1,0,0:0:0:0:
426,192,204752,1,0,0:0:0:0:
142,192,204752,1,8,3:0:0:0:
199,192,204904,1,8,2:0:0:0:
312,192,205055,1,0,0:0:0:0:
28,192,205207,1,8,3:0:0:0:
369,192,205358,128,0,206116:0:0:0:0:
85,192,205510,1,8,3:0:0:0:
199,192,206116,1,8,2:0:0:0:
312,192,206267,1,0,0:0:0:0:
85,192,206419,1,8,3:0:0:0:
369,192,206419,1,0,0:0:0:0:
426,192,206570,1,0,0:0:0:0:
28,192,206722,1,8,3:0:0:0:
256,192,206722,1,0,0:0:0:0:
312,192,206873,1,0,0:0:0:0:
369,192,207176,1,0,0:0:0:0:
28,192,207176,1,8,3:0:0:0:
199,192,207328,1,8,2:0:0:0:
312,192,207479,1,0,0:0:0:0:
85,192,207631,1,8,3:0:0:0:
369,192,207631,1,0,0:0:0:0:
426,192,207782,1,0,0:0:0:0:
256,192,207934,1,0,0:0:0:0:
312,192,208085,1,0,0:0:0:0:
85,192,208237,1,8,3:0:0:0:
369,192,208237,1,0,0:0:0:0:
426,192,208388,1,0,0:0:0:0:
199,192,208540,1,8,2:0:0:0:
483,192,208540,1,0,0:0:0:0:
28,192,208843,1,8,3:0:0:0:
369,192,208843,1,0,0:0:0:0:
85,192,208994,1,8,3:0:0:0:
142,192,209146,1,8,3:0:0:0:
369,192,209146,1,0,0:0:0:0:
142,192,209601,1,8,3:0:0:0:
426,192,209601,1,0,0:0:0:0:
256,192,209752,1,8,2:0:0:0:
28,192,210055,1,8,3:0:0:0:
369,192,210055,1,0,0:0:0:0:
85,192,210358,1,8,3:0:0:0:
312,192,210358,1,0,0:0:0:0:
483,192,210964,1,0,0:0:0:0:
256,192,210964,1,8,2:0:0:0:
142,192,211267,1,8,3:0:0:0:
312,192,211267,1,0,0:0:0:0:
28,192,211570,1,8,3:0:0:0:
312,192,211570,1,0,0:0:0:0:
28,192,212025,1,8,3:0:0:0:
199,192,212176,1,8,2:0:0:0:
483,192,212176,1,0,0:0:0:0:
85,192,212479,1,8,3:0:0:0:
312,192,212479,1,0,0:0:0:0:
312,192,212782,1,0,0:0:0:0:
85,192,213085,1,8,3:0:0:0:
199,192,213388,1,8,2:0:0:0:
28,192,213691,1,8,3:0:0:0:
483,192,213691,1,0,0:0:0:0:
85,192,213843,1,8,3:0:0:0:
142,192,213994,1,8,3:0:0:0:
426,192,213994,1,0,0:0:0:0:
142,192,214449,1,8,3:0:0:0:
369,192,214449,1,0,0:0:0:0:
256,192,214601,1,8,2:0:0:0:
142,192,214904,1,8,3:0:0:0:
312,192,214904,1,0,0:0:0:0:
369,192,215207,1,0,0:0:0:0:
28,192,215207,128,4,215813:2:0:0:0:
85,192,215813,128,4,216419:2:0:0:0:
312,192,215813,1,2,2:0:0:0:
369,192,216116,1,2,2:0:0:0:
256,192,216116,1,0,0:0:0:0:
426,192,216419,1,2,2:0:0:0:
312,192,216419,1,4,2:0:0:0:
142,192,216722,1,0,3:0:0:0:
142,192,217025,1,0,3:0:0:0:
312,192,217328,1,2,2:0:0:0:
199,192,217328,1,0,0:0:0:0:
256,192,217631,1,0,0:0:0:0:
369,192,217631,1,2,2:0:0:0:
28,192,217934,1,0,3:0:0:0:
28,192,218237,1,0,3:0:0:0:
256,192,218540,1,0,0:0:0:0:
369,192,218540,1,2,2:0:0:0:
426,192,218843,1,2,2:0:0:0:
312,192,218843,1,0,0:0:0:0:
85,192,219146,1,0,3:0:0:0:
85,192,219449,1,0,3:0:0:0:
199,192,219601,1,2,2:0:0:0:
256,192,219752,1,0,0:0:0:0:
142,192,219904,1,0,3:0:0:0:
426,192,219904,1,0,0:0:0:0:
312,192,220055,1,2,2:0:0:0:
28,192,220055,1,0,3:0:0:0:
369,192,220358,1,0,0:0:0:0:
85,192,220358,1,0,3:0:0:0:
483,192,220358,1,2,2:0:0:0:
256,192,220661,1,0,0:0:0:0:
142,192,220661,1,0,3:0:0:0:
369,192,220964,1,2,2:0:0:0:
256,192,220964,1,0,0:0:0:0:
312,192,221267,1,0,0:0:0:0:
426,192,221267,1,2,2:0:0:0:
142,192,221570,1,0,3:0:0:0:
142,192,221873,1,0,3:0:0:0:
199,192,222176,1,0,0:0:0:0:
312,192,222176,1,2,2:0:0:0:
256,192,222479,1,0,0:0:0:0:
369,192,222479,1,2,2:0:0:0:
28,192,222782,1,0,3:0:0:0:
28,192,223085,1,0,3:0:0:0:
369,192,223388,1,2,2:0:0:0:
256,192,223388,1,0,0:0:0:0:
426,192,223691,1,0,0:0:0:0:
312,192,223691,128,2,224297:2:0:0:0:
85,192,223994,1,0,3:0:0:0:
483,192,224297,128,2,224904:2:0:0:0:
85,192,224297,1,0,3:0:0:0:
142,192,224601,1,0,3:0:0:0:
199,192,224752,1,0,3:0:0:0:
369,192,224904,1,2,2:0:0:0:
256,192,225055,1,0,3:0:0:0:
312,192,225207,1,0,3:0:0:0:
369,192,225358,1,0,3:0:0:0:
85,192,225510,1,0,0:0:0:0:
426,192,225510,1,0,3:0:0:0:
199,192,225510,1,2,2:0:0:0:
142,192,225813,1,0,0:0:0:0:
256,192,225813,1,2,2:0:0:0:
312,192,226116,1,2,2:0:0:0:
199,192,226116,1,0,0:0:0:0:
483,192,226419,1,0,3:0:0:0:
483,192,226722,1,0,3:0:0:0:
85,192,227025,1,0,0:0:0:0:
199,192,227025,1,2,2:0:0:0:
142,192,227328,1,0,0:0:0:0:
256,192,227328,1,2,2:0:0:0:
369,192,227631,1,0,3:0:0:0:
369,192,227934,1,0,3:0:0:0:
142,192,228237,1,0,0:0:0:0:
256,192,228237,1,2,2:0:0:0:
199,192,228540,1,0,0:0:0:0:
312,192,228540,1,2,2:0:0:0:
426,192,228843,1,0,3:0:0:0:
426,192,229146,1,0,3:0:0:0:
28,192,229449,128,2,230358:2:0:0:0:
199,192,229601,1,0,3:0:0:0:
256,192,229752,1,0,3:0:0:0:
312,192,229904,1,0,3:0:0:0:
369,192,230055,1,0,3:0:0:0:
426,192,230207,1,0,3:0:0:0:
142,192,230358,1,2,2:0:0:0:
483,192,230358,1,0,3:0:0:0:
142,192,230661,1,0,0:0:0:0:
256,192,230661,1,2,2:0:0:0:
312,192,230964,1,2,2:0:0:0:
199,192,230964,1,0,0:0:0:0:
483,192,231267,1,0,3:0:0:0:
483,192,231570,1,0,3:0:0:0:
85,192,231873,1,0,0:0:0:0:
199,192,231873,1,2,2:0:0:0:
256,192,232176,1,2,2:0:0:0:
142,192,232176,1,0,0:0:0:0:
369,192,232479,1,0,3:0:0:0:
369,192,232782,1,0,3:0:0:0:
256,192,233085,1,2,2:0:0:0:
142,192,233085,1,0,0:0:0:0:
199,192,233388,1,0,0:0:0:0:
312,192,233388,1,2,2:0:0:0:
426,192,233691,1,0,3:0:0:0:
426,192,233994,1,0,3:0:0:0:
369,192,234297,1,0,3:0:0:0:
256,192,234449,1,0,3:0:0:0:
142,192,234601,1,0,3:0:0:0:
369,192,234904,1,0,3:0:0:0:
142,192,235207,1,0,3:0:0:0:
28,192,235813,1,4,2:0:0:0:
312,192,235813,1,8,3:0:0:0:
256,192,236419,1,8,2:0:0:0:
426,192,236722,1,0,0:0:0:0:
312,192,236873,1,0,0:0:0:0:
85,192,237025,1,0,0:0:0:0:
369,192,237025,1,0,0:0:0:0:
199,192,237176,1,0,0:0:0:0:
312,192,237328,1,0,0:0:0:0:
426,192,237479,1,0,0:0:0:0:
256,192,237631,1,8,2:0:0:0:
483,192,237782,1,0,0:0:0:0:
312,192,237934,1,0,0:0:0:0:
199,192,238237,1,0,0:0:0:0:
28,192,238237,1,8,3:0:0:0:
369,192,238691,1,0,0:0:0:0:
256,192,238843,1,8,2:0:0:0:
142,192,238994,1,0,0:0:0:0:
312,192,239146,1,0,0:0:0:0:
199,192,239297,1,0,0:0:0:0:
483,192,239449,1,0,0:0:0:0:
28,192,239449,1,0,0:0:0:0:
142,192,239601,1,0,0:0:0:0:
256,192,239752,1,0,0:0:0:0:
369,192,239904,1,0,0:0:0:0:
312,192,240055,1,8,2:0:0:0:
426,192,240207,1,0,0:0:0:0:
256,192,240358,1,0,0:0:0:0:
142,192,240510,1,0,0:0:0:0:
312,192,240661,1,0,0:0:0:0:
28,192,240661,1,8,3:0:0:0:
369,192,241116,1,0,0:0:0:0:
483,192,241267,1,8,2:0:0:0:
312,192,241570,1,0,0:0:0:0:
85,192,241722,1,0,0:0:0:0:
142,192,241873,1,0,0:0:0:0:
199,192,242025,1,0,0:0:0:0:
256,192,242176,1,0,0:0:0:0:
369,192,242328,1,0,0:0:0:0:
426,192,242479,1,8,2:0:0:0:
312,192,242631,1,0,0:0:0:0:
199,192,242782,1,0,0:0:0:0:
85,192,242934,1,0,0:0:0:0:
142,192,243085,1,8,3:0:0:0:
369,192,243085,1,0,0:0:0:0:
256,192,243388,1,0,0:0:0:0:
312,192,243540,1,0,0:0:0:0:
142,192,243691,1,8,2:0:0:0:
199,192,243843,1,0,0:0:0:0:
369,192,243994,1,0,0:0:0:0:
312,192,244146,1,0,0:0:0:0:
28,192,244297,1,0,0:0:0:0:
199,192,244449,1,0,0:0:0:0:
312,192,244601,1,0,0:0:0:0:
483,192,244752,1,0,0:0:0:0:
142,192,244904,1,8,2:0:0:0:
199,192,245055,1,0,0:0:0:0:
312,192,245207,1,0,0:0:0:0:
369,192,245358,1,0,0:0:0:0:
28,192,245510,1,8,3:0:0:0:
256,192,245510,1,0,0:0:0:0:
312,192,245964,1,0,0:0:0:0:
199,192,246116,1,8,2:0:0:0:
369,192,246419,1,0,0:0:0:0:
312,192,246570,1,0,0:0:0:0:
426,192,246722,1,0,0:0:0:0:
85,192,246722,1,0,0:0:0:0:
142,192,246873,1,0,0:0:0:0:
199,192,247025,1,0,0:0:0:0:
256,192,247176,1,0,0:0:0:0:
483,192,247328,1,8,2:0:0:0:
312,192,247479,1,0,0:0:0:0:
199,192,247631,1,0,0:0:0:0:
28,192,247934,1,8,3:0:0:0:
426,192,247934,1,0,0:0:0:0:
85,192,248085,1,0,0:0:0:0:
142,192,248237,1,0,0:0:0:0:
426,192,248388,1,0,0:0:0:0:
256,192,248540,1,8,2:0:0:0:
369,192,248843,1,0,0:0:0:0:
199,192,248994,1,0,0:0:0:0:
312,192,249146,1,0,0:0:0:0:
85,192,249297,1,0,0:0:0:0:
256,192,249449,1,0,0:0:0:0:
142,192,249601,1,0,0:0:0:0:
312,192,249752,1,8,2:0:0:0:
142,192,249904,1,0,0:0:0:0:
312,192,250055,1,0,0:0:0:0:
426,192,250207,1,0,0:0:0:0:
28,192,250358,1,8,3:0:0:0:
369,192,250358,1,0,0:0:0:0:
142,192,250813,1,0,0:0:0:0:
256,192,250964,1,8,2:0:0:0:
199,192,251267,1,0,0:0:0:0:
142,192,251419,1,0,0:0:0:0:
312,192,251419,1,0,0:0:0:0:
85,192,251570,1,0,0:0:0:0:
369,192,251570,1,0,0:0:0:0:
199,192,251722,1,0,0:0:0:0:
312,192,251873,1,0,0:0:0:0:
426,192,252025,1,0,0:0:0:0:
256,192,252176,1,8,2:0:0:0:
483,192,252328,1,0,0:0:0:0:
312,192,252479,1,0,0:0:0:0:
142,192,252631,1,0,0:0:0:0:
28,192,252782,1,8,3:0:0:0:
369,192,252782,1,0,0:0:0:0:
199,192,253237,1,0,0:0:0:0:
85,192,253388,1,8,2:0:0:0:
256,192,253540,1,0,0:0:0:0:
426,192,253691,1,0,0:0:0:0:
312,192,253843,1,0,0:0:0:0:
28,192,253994,1,0,0:0:0:0:
142,192,254146,1,0,0:0:0:0:
256,192,254297,1,0,0:0:0:0:
369,192,254449,1,0,0:0:0:0:
142,192,254601,1,8,2:0:0:0:
256,192,254752,1,0,0:0:0:0:
369,192,254904,1,0,0:0:0:0:
483,192,255055,1,0,0:0:0:0:
