osu file format v14

[General]
AudioFilename: CLIFF EDGE feat. Nakamura Maiko - Endless Tears.mp3
AudioLeadIn: 0
PreviewTime: 196417
Countdown: 0
SampleSet: Soft
StackLeniency: 0.7
Mode: 3
LetterboxInBreaks: 0
SpecialStyle: 0
WidescreenStoryboard: 0

[Editor]
DistanceSpacing: 2
BeatDivisor: 4
GridSize: 8
TimelineZoom: 1.7

[Metadata]
Title:Endless Tears feat. Nakamura Maiko
TitleUnicode:Endless Tears feat. 中村舞子
Artist:CLIFF EDGE
ArtistUnicode:クリフエッジ
Creator:hannanos
Version:Easy
Source:
Tags:Sweet Grande 2 mixed by DJ GEORGIA the best You're the only one of love あなたの声が聞こえる
BeatmapID:883631
BeatmapSetID:406628

[Difficulty]
HPDrainRate:6
CircleSize:9
OverallDifficulty:6
ApproachRate:5
SliderMultiplier:1.4
SliderTickRate:1

[Events]
//Background and Video events
0,0,"endless tears BG.png",0,0
//Break Periods
//Storyboard Layer 0 (Background)
//Storyboard Layer 1 (Fail)
//Storyboard Layer 2 (Pass)
//Storyboard Layer 3 (Foreground)
//Storyboard Sound Samples

[TimingPoints]
663,606.060606060606,4,2,1,40,1,0
28541,606.060606060606,4,2,1,40,1,0
93995,-100,4,2,1,40,0,1
112177,-100,4,2,1,40,0,0
113389,-100,4,2,1,40,0,1
132783,-100,4,2,1,40,0,0
194601,606.060606060606,4,2,1,40,1,0
197025,-100,4,2,1,40,0,1
215207,-100,4,2,1,40,0,0
216419,-100,4,2,1,40,0,1
235813,-100,4,2,1,40,0,0

[HitObjects]
312,192,663,5,0,0:0:0:0:
142,192,663,1,2,0:0:0:0:
312,192,1117,1,0,0:0:0:0:
426,192,1572,1,0,0:0:0:0:
483,192,1875,1,0,0:0:0:0:
28,192,1875,1,2,0:0:0:0:
426,192,2329,1,0,0:0:0:0:
312,192,2784,1,0,0:0:0:0:
199,192,3087,1,0,0:0:0:0:
85,192,3087,1,2,0:0:0:0:
199,192,3541,1,0,0:0:0:0:
312,192,3996,1,0,0:0:0:0:
426,192,4299,1,0,0:0:0:0:
199,192,4299,1,2,0:0:0:0:
312,192,5511,1,0,0:0:0:0:
142,192,5511,1,2,0:0:0:0:
312,192,5966,1,0,0:0:0:0:
426,192,6420,1,0,0:0:0:0:
369,192,6723,1,0,0:0:0:0:
28,192,6723,1,2,0:0:0:0:
312,192,7178,1,0,0:0:0:0:
199,192,7481,1,0,0:0:0:0:
369,192,7632,1,0,0:0:0:0:
426,192,7935,1,0,0:0:0:0:
85,192,7935,1,2,0:0:0:0:
369,192,8390,1,0,0:0:0:0:
142,192,8693,1,0,0:0:0:0:
312,192,8844,1,0,0:0:0:0:
199,192,8996,1,0,0:0:0:0:
28,192,9147,1,2,0:0:0:0:
483,192,9147,1,0,0:0:0:0:
142,192,10359,1,0,3:0:0:0:
256,192,10966,1,0,0:0:0:0:
426,192,10966,1,2,0:0:0:0:
28,192,11572,1,0,3:0:0:0:
142,192,12178,1,0,0:0:0:0:
312,192,12178,1,2,0:0:0:0:
85,192,12784,1,0,3:0:0:0:
199,192,13390,1,0,0:0:0:0:
369,192,13390,1,2,0:0:0:0:
256,192,13996,1,0,3:0:0:0:
312,192,14602,1,0,0:0:0:0:
483,192,14602,1,2,0:0:0:0:
142,192,15208,1,0,3:0:0:0:
256,192,15814,1,0,0:0:0:0:
426,192,15814,1,2,0:0:0:0:
28,192,16420,1,0,3:0:0:0:
142,192,17026,1,0,0:0:0:0:
312,192,17026,1,2,0:0:0:0:
85,192,17632,1,0,3:0:0:0:
199,192,18238,1,0,0:0:0:0:
369,192,18238,1,2,0:0:0:0:
256,192,18844,1,0,3:0:0:0:
312,192,19450,1,0,0:0:0:0:
483,192,19450,1,2,0:0:0:0:
142,192,20056,1,0,3:0:0:0:
256,192,20662,1,0,0:0:0:0:
426,192,20662,1,2,0:0:0:0:
28,192,21269,1,0,3:0:0:0:
142,192,21875,1,0,0:0:0:0:
312,192,21875,1,2,0:0:0:0:
483,192,22481,1,2,0:0:0:0:
85,192,22481,1,0,3:0:0:0:
483,192,22935,1,2,0:0:0:0:
199,192,23087,1,0,0:0:0:0:
426,192,23390,1,2,0:0:0:0:
369,192,23693,1,2,0:0:0:0:
256,192,23693,1,0,3:0:0:0:
426,192,24299,1,2,0:0:0:0:
199,192,24299,1,0,0:0:0:0:
142,192,24905,1,0,3:0:0:0:
426,192,25511,1,2,0:0:0:0:
256,192,25511,1,0,0:0:0:0:
28,192,26117,1,0,3:0:0:0:
142,192,26723,1,0,0:0:0:0:
369,192,27026,1,2,0:0:0:0:
85,192,27329,1,0,3:0:0:0:
312,192,27329,1,2,0:0:0:0:
256,192,27784,1,2,0:0:0:0:
312,192,28238,1,2,0:0:0:0:
142,192,28541,1,0,3:0:0:0:
369,192,28541,128,2,30359:0:0:0:0:
85,192,30359,128,8,30965:3:0:0:0:
199,192,30965,1,8,3:0:0:0:
199,192,31419,1,0,0:0:0:0:
369,192,31874,1,0,0:0:0:0:
483,192,32177,1,8,3:0:0:0:
369,192,32631,1,0,0:0:0:0:
199,192,33086,1,0,0:0:0:0:
85,192,33389,1,8,3:0:0:0:
85,192,33844,1,0,0:0:0:0:
256,192,34298,1,0,0:0:0:0:
369,192,34601,1,8,3:0:0:0:
142,192,35813,1,8,3:0:0:0:
142,192,36268,1,0,0:0:0:0:
369,192,36722,1,0,0:0:0:0:
256,192,37025,1,8,3:0:0:0:
142,192,37480,1,0,0:0:0:0:
256,192,37934,1,0,0:0:0:0:
426,192,38237,1,8,3:0:0:0:
312,192,38692,1,0,0:0:0:0:
199,192,39147,1,0,0:0:0:0:
85,192,39450,1,8,3:0:0:0:
256,192,40359,1,0,0:0:0:0:
312,192,40662,1,8,3:0:0:0:
199,192,40965,1,0,0:0:0:0:
312,192,41116,1,0,0:0:0:0:
369,192,41571,1,0,0:0:0:0:
256,192,41874,1,8,3:0:0:0:
142,192,42328,1,0,0:0:0:0:
256,192,42783,1,0,0:0:0:0:
483,192,43086,1,8,3:0:0:0:
426,192,43541,1,0,0:0:0:0:
85,192,43995,1,0,0:0:0:0:
369,192,44298,1,8,3:0:0:0:
483,192,44904,1,0,0:0:0:0:
199,192,45207,1,0,0:0:0:0:
199,192,45510,1,8,3:0:0:0:
426,192,46116,1,0,0:0:0:0:
142,192,46419,1,0,0:0:0:0:
142,192,46722,1,8,3:0:0:0:
369,192,47631,1,0,0:0:0:0:
256,192,47934,1,8,3:0:0:0:
199,192,48389,1,0,0:0:0:0:
142,192,48844,1,0,0:0:0:0:
199,192,49147,128,8,50359:3:0:0:0:
28,192,50359,1,4,3:0:0:0:
369,192,50359,1,0,0:0:0:0:
142,192,50662,1,0,0:0:0:0:
256,192,50965,1,0,0:0:0:0:
426,192,51268,1,0,0:0:0:0:
312,192,51571,1,0,0:0:0:0:
256,192,51874,1,0,0:0:0:0:
199,192,52177,1,0,0:0:0:0:
85,192,52480,1,0,0:0:0:0:
142,192,52783,1,0,0:0:0:0:
199,192,53086,1,0,0:0:0:0:
256,192,53389,1,0,0:0:0:0:
312,192,53692,1,0,0:0:0:0:
199,192,53995,1,0,0:0:0:0:
483,192,53995,1,0,0:0:0:0:
85,192,54601,128,8,55207:3:0:0:0:
369,192,55207,1,0,0:0:0:0:
199,192,55207,1,8,3:0:0:0:
369,192,55662,1,0,0:0:0:0:
199,192,55662,1,8,3:0:0:0:
426,192,56116,1,0,0:0:0:0:
199,192,56116,1,8,3:0:0:0:
256,192,57025,1,8,0:0:0:0:
369,192,57631,1,0,0:0:0:0:
142,192,57631,1,8,3:0:0:0:
369,192,58086,1,0,0:0:0:0:
142,192,58086,1,8,3:0:0:0:
426,192,58541,1,0,0:0:0:0:
142,192,58541,1,8,3:0:0:0:
256,192,59450,1,8,0:0:0:0:
28,192,60056,1,8,3:0:0:0:
369,192,60056,1,0,0:0:0:0:
28,192,60510,1,8,3:0:0:0:
369,192,60510,1,0,0:0:0:0:
28,192,60965,1,8,3:0:0:0:
426,192,60965,1,0,0:0:0:0:
256,192,61874,1,8,0:0:0:0:
369,192,62480,1,0,0:0:0:0:
85,192,62480,1,8,3:0:0:0:
369,192,62934,1,0,0:0:0:0:
85,192,62934,1,8,3:0:0:0:
426,192,63389,1,0,0:0:0:0:
85,192,63389,1,8,3:0:0:0:
256,192,64298,1,8,0:0:0:0:
85,192,64904,1,0,0:0:0:0:
483,192,64904,1,8,3:0:0:0:
85,192,65359,1,0,0:0:0:0:
483,192,65359,1,8,3:0:0:0:
142,192,65813,1,0,0:0:0:0:
483,192,65813,1,8,3:0:0:0:
256,192,66722,1,8,0:0:0:0:
85,192,67328,1,0,0:0:0:0:
426,192,67328,1,8,3:0:0:0:
85,192,67783,1,0,0:0:0:0:
426,192,67783,1,8,3:0:0:0:
142,192,68237,1,0,0:0:0:0:
426,192,68237,1,8,3:0:0:0:
256,192,69147,1,8,0:0:0:0:
85,192,69753,1,0,0:0:0:0:
312,192,69753,1,8,3:0:0:0:
85,192,70207,1,0,0:0:0:0:
312,192,70207,1,8,3:0:0:0:
142,192,70662,1,0,0:0:0:0:
312,192,70662,1,8,3:0:0:0:
256,192,71571,1,8,0:0:0:0:
369,192,72177,1,8,3:0:0:0:
85,192,72177,1,0,0:0:0:0:
369,192,72631,1,8,3:0:0:0:
85,192,72631,1,0,0:0:0:0:
369,192,73086,1,8,3:0:0:0:
142,192,73086,1,0,0:0:0:0:
256,192,73995,1,8,0:0:0:0:
426,192,74601,1,0,0:0:0:0:
256,192,74601,1,8,3:0:0:0:
426,192,75056,1,0,0:0:0:0:
256,192,75056,1,8,3:0:0:0:
199,192,75510,1,8,3:0:0:0:
426,192,75510,128,2,76722:0:0:0:0:
369,192,77025,1,0,0:0:0:0:
142,192,77025,1,8,3:0:0:0:
369,192,77480,1,0,0:0:0:0:
142,192,77480,1,8,3:0:0:0:
312,192,77934,1,2,0:0:0:0:
85,192,77934,1,8,3:0:0:0:
256,192,79450,1,0,0:0:0:0:
28,192,79450,1,8,3:0:0:0:
256,192,79904,1,0,0:0:0:0:
28,192,79904,1,8,3:0:0:0:
28,192,80359,1,8,3:0:0:0:
426,192,80359,128,2,81571:0:0:0:0:
142,192,81874,1,8,3:0:0:0:
312,192,81874,1,0,0:0:0:0:
312,192,82328,1,0,0:0:0:0:
142,192,82328,1,8,3:0:0:0:
142,192,82783,1,8,3:0:0:0:
312,192,82783,1,2,0:0:0:0:
199,192,83692,128,0,84298:0:0:0:0:
426,192,84298,1,0,0:0:0:0:
256,192,84298,1,8,3:0:0:0:
426,192,84753,1,0,0:0:0:0:
256,192,84753,1,8,3:0:0:0:
426,192,85207,128,2,86419:0:0:0:0:
199,192,85207,1,8,3:0:0:0:
142,192,86722,1,8,3:0:0:0:
369,192,86722,1,0,0:0:0:0:
369,192,87177,1,0,0:0:0:0:
142,192,87177,1,8,3:0:0:0:
85,192,87631,1,8,3:0:0:0:
312,192,87631,1,2,0:0:0:0:
28,192,89147,1,8,3:0:0:0:
256,192,89147,1,0,0:0:0:0:
28,192,89601,1,8,3:0:0:0:
256,192,89601,1,0,0:0:0:0:
426,192,90056,128,2,91268:0:0:0:0:
28,192,90056,1,8,3:0:0:0:
312,192,91571,1,0,0:0:0:0:
142,192,91571,1,8,3:0:0:0:
312,192,92025,1,0,0:0:0:0:
142,192,92025,1,8,3:0:0:0:
142,192,92480,1,8,3:0:0:0:
312,192,92480,1,2,0:0:0:0:
426,192,92783,1,2,0:0:0:0:
312,192,93086,1,2,0:0:0:0:
199,192,93389,1,2,0:0:0:0:
85,192,93692,1,2,0:0:0:0:
199,192,93995,1,8,3:0:0:0:
199,192,94450,1,0,0:0:0:0:
369,192,94904,1,0,0:0:0:0:
483,192,95207,1,8,3:0:0:0:
369,192,95662,1,0,0:0:0:0:
199,192,96116,1,0,0:0:0:0:
85,192,96419,1,8,3:0:0:0:
85,192,96874,1,0,0:0:0:0:
256,192,97328,1,0,0:0:0:0:
369,192,97631,1,8,3:0:0:0:
142,192,98844,1,8,3:0:0:0:
142,192,99298,1,0,0:0:0:0:
369,192,99753,1,0,0:0:0:0:
256,192,100056,1,8,3:0:0:0:
142,192,100510,1,0,0:0:0:0:
256,192,100965,1,0,0:0:0:0:
426,192,101268,1,8,3:0:0:0:
312,192,101722,1,0,0:0:0:0:
199,192,102177,1,0,0:0:0:0:
85,192,102480,1,8,3:0:0:0:
28,192,103389,1,0,0:0:0:0:
256,192,103692,1,8,3:0:0:0:
142,192,103995,1,0,0:0:0:0:
369,192,104147,1,0,0:0:0:0:
426,192,104601,1,0,0:0:0:0:
256,192,104904,1,8,3:0:0:0:
85,192,105359,1,0,0:0:0:0:
256,192,105813,1,0,0:0:0:0:
483,192,106116,1,8,3:0:0:0:
426,192,106571,1,0,0:0:0:0:
369,192,107025,1,0,0:0:0:0:
369,192,107328,1,8,3:0:0:0:
483,192,107934,1,0,0:0:0:0:
199,192,108237,1,0,0:0:0:0:
199,192,108541,1,8,3:0:0:0:
426,192,109147,1,0,0:0:0:0:
142,192,109450,1,0,0:0:0:0:
142,192,109753,1,8,3:0:0:0:
369,192,110662,1,0,0:0:0:0:
312,192,110965,1,8,3:0:0:0:
256,192,111419,1,0,0:0:0:0:
199,192,111874,1,0,0:0:0:0:
28,192,112177,128,4,112783:0:0:0:0:
256,192,112177,1,8,3:0:0:0:
85,192,112783,128,4,113389:0:0:0:0:
312,192,112783,1,2,0:0:0:0:
369,192,113086,1,2,0:0:0:0:
142,192,113389,1,4,0:0:0:0:
426,192,113389,1,2,0:0:0:0:
199,192,113692,1,0,3:0:0:0:
199,192,113995,1,0,3:0:0:0:
312,192,114298,1,2,0:0:0:0:
369,192,114601,1,2,0:0:0:0:
85,192,114904,1,0,3:0:0:0:
85,192,115207,1,0,3:0:0:0:
369,192,115510,1,2,0:0:0:0:
426,192,115813,1,2,0:0:0:0:
142,192,116116,1,0,3:0:0:0:
142,192,116419,1,0,3:0:0:0:
312,192,116571,128,2,117025:0:0:0:0:
199,192,117025,1,2,0:0:0:0:
369,192,117328,128,2,117934:0:0:0:0:
142,192,117934,1,2,0:0:0:0:
199,192,118237,1,2,0:0:0:0:
426,192,118540,1,0,3:0:0:0:
426,192,118844,1,0,3:0:0:0:
28,192,119147,1,2,0:0:0:0:
85,192,119450,1,2,0:0:0:0:
312,192,119753,1,0,3:0:0:0:
312,192,120056,1,0,3:0:0:0:
142,192,120359,1,2,0:0:0:0:
199,192,120662,128,2,121268:0:0:0:0:
369,192,121268,128,2,121874:0:0:0:0:
256,192,121874,1,2,0:0:0:0:
312,192,122480,1,2,0:0:0:0:
369,192,122783,1,2,0:0:0:0:
426,192,123086,1,2,0:0:0:0:
199,192,123389,1,0,3:0:0:0:
199,192,123692,1,0,3:0:0:0:
312,192,123995,1,2,0:0:0:0:
369,192,124298,1,2,0:0:0:0:
85,192,124601,1,0,3:0:0:0:
85,192,124904,1,0,3:0:0:0:
369,192,125207,1,2,0:0:0:0:
426,192,125510,1,2,0:0:0:0:
142,192,125813,1,0,3:0:0:0:
142,192,126116,1,0,3:0:0:0:
483,192,126419,128,2,127328:0:0:0:0:
256,192,127328,1,2,0:0:0:0:
142,192,127631,1,2,0:0:0:0:
199,192,127934,1,2,0:0:0:0:
426,192,128237,1,0,3:0:0:0:
426,192,128540,1,0,3:0:0:0:
28,192,128844,1,2,0:0:0:0:
85,192,129147,1,2,0:0:0:0:
312,192,129450,1,0,3:0:0:0:
312,192,129753,1,0,3:0:0:0:
142,192,130056,1,2,0:0:0:0:
199,192,130359,1,2,0:0:0:0:
369,192,130662,1,0,3:0:0:0:
369,192,130965,1,0,3:0:0:0:
256,192,131268,1,0,0:0:0:0:
85,192,131571,1,0,3:0:0:0:
426,192,131874,1,0,3:0:0:0:
85,192,132177,1,0,3:0:0:0:
369,192,132783,1,0,0:0:0:0:
28,192,132783,1,4,3:0:0:0:
142,192,133086,1,0,0:0:0:0:
256,192,133389,1,0,0:0:0:0:
426,192,133692,1,0,0:0:0:0:
312,192,133995,1,0,0:0:0:0:
256,192,134298,1,0,0:0:0:0:
199,192,134601,1,0,0:0:0:0:
85,192,134904,1,0,0:0:0:0:
142,192,135207,1,0,0:0:0:0:
199,192,135510,1,0,0:0:0:0:
256,192,135813,1,0,0:0:0:0:
312,192,136116,1,0,0:0:0:0:
483,192,136419,1,0,0:0:0:0:
199,192,136419,1,0,0:0:0:0:
369,192,137025,128,8,137631:3:0:0:0:
85,192,137631,1,8,3:0:0:0:
426,192,138086,1,8,3:0:0:0:
256,192,138237,1,8,2:0:0:0:
142,192,138541,1,8,3:0:0:0:
369,192,139147,1,8,3:0:0:0:
256,192,139450,1,8,2:0:0:0:
369,192,139753,1,8,3:0:0:0:
199,192,139904,1,8,3:0:0:0:
28,192,140056,1,8,3:0:0:0:
483,192,140510,1,8,3:0:0:0:
256,192,140662,1,8,2:0:0:0:
199,192,140965,1,8,3:0:0:0:
312,192,141268,1,8,3:0:0:0:
256,192,141874,1,8,2:0:0:0:
426,192,142177,1,8,3:0:0:0:
85,192,142480,1,8,3:0:0:0:
426,192,142934,1,8,3:0:0:0:
256,192,143086,1,8,2:0:0:0:
142,192,143389,1,8,3:0:0:0:
369,192,143995,1,8,3:0:0:0:
256,192,144298,1,8,2:0:0:0:
199,192,144601,1,8,3:0:0:0:
312,192,144753,1,8,3:0:0:0:
483,192,144904,128,2,145510:2:0:0:0:
28,192,145510,128,0,146116:0:0:0:0:
369,192,146116,1,8,3:0:0:0:
256,192,146722,1,0,3:0:0:0:
312,192,147025,1,8,3:0:0:0:
199,192,147177,1,8,3:0:0:0:
85,192,147328,1,8,3:0:0:0:
426,192,147783,1,8,3:0:0:0:
256,192,147934,1,8,2:0:0:0:
369,192,148237,1,8,3:0:0:0:
142,192,148844,1,8,3:0:0:0:
256,192,149147,1,8,2:0:0:0:
199,192,149450,1,8,3:0:0:0:
369,192,149601,1,8,3:0:0:0:
28,192,149753,1,8,3:0:0:0:
483,192,150207,1,8,3:0:0:0:
256,192,150359,1,8,2:0:0:0:
369,192,150662,1,8,3:0:0:0:
142,192,150965,1,8,3:0:0:0:
312,192,151268,1,8,3:0:0:0:
199,192,151571,1,8,2:0:0:0:
426,192,151874,1,8,3:0:0:0:
85,192,152177,1,8,3:0:0:0:
426,192,152631,1,8,3:0:0:0:
256,192,152783,1,8,2:0:0:0:
369,192,153086,1,8,3:0:0:0:
142,192,153692,1,8,3:0:0:0:
256,192,153995,1,8,2:0:0:0:
199,192,154298,1,8,3:0:0:0:
369,192,154450,1,8,3:0:0:0:
28,192,154601,1,8,3:0:0:0:
483,192,155056,1,8,3:0:0:0:
256,192,155207,1,8,2:0:0:0:
142,192,155510,1,8,3:0:0:0:
312,192,155965,1,8,3:0:0:0:
369,192,156116,1,8,3:0:0:0:
199,192,156419,1,8,3:0:0:0:
312,192,156722,1,8,3:0:0:0:
85,192,157025,1,0,0:0:0:0:
199,192,157480,128,0,158237:0:0:0:0:
426,192,157934,1,2,1:0:0:0:
28,192,158237,1,0,0:0:0:0:
199,192,158692,128,0,159450:0:0:0:0:
483,192,159450,1,0,0:0:0:0:
312,192,159904,1,0,0:0:0:0:
142,192,160359,1,0,0:0:0:0:
312,192,160510,128,0,161268:0:0:0:0:
85,192,161874,1,0,0:0:0:0:
199,192,162328,128,0,163086:0:0:0:0:
426,192,162783,1,2,1:0:0:0:
28,192,163086,1,0,0:0:0:0:
199,192,163541,128,0,164298:0:0:0:0:
483,192,164298,1,0,0:0:0:0:
312,192,164753,1,0,0:0:0:0:
142,192,165207,1,0,0:0:0:0:
312,192,165359,128,0,166116:0:0:0:0:
312,192,166722,1,0,0:0:0:0:
426,192,167177,128,0,167934:0:0:0:0:
85,192,167631,1,2,1:0:0:0:
256,192,167934,1,0,0:0:0:0:
369,192,168389,128,0,169147:0:0:0:0:
483,192,169147,1,0,0:0:0:0:
312,192,169601,1,0,0:0:0:0:
28,192,170056,1,0,0:0:0:0:
199,192,170207,1,0,0:0:0:0:
369,192,170662,1,0,0:0:0:0:
256,192,170965,1,0,0:0:0:0:
142,192,171268,1,0,0:0:0:0:
312,192,171571,1,0,0:0:0:0:
426,192,172025,128,0,172783:0:0:0:0:
85,192,172480,1,2,1:0:0:0:
256,192,172783,1,0,0:0:0:0:
369,192,173237,128,0,173995:0:0:0:0:
483,192,173995,1,0,0:0:0:0:
312,192,174450,1,0,0:0:0:0:
28,192,174904,1,0,0:0:0:0:
199,192,175056,128,0,175813:0:0:0:0:
85,192,176419,5,2,2:0:0:0:
312,192,176419,1,0,0:0:0:0:
312,192,176874,1,0,0:0:0:0:
426,192,177328,1,0,0:0:0:0:
483,192,177631,1,0,0:0:0:0:
28,192,177631,1,2,2:0:0:0:
426,192,178086,1,0,0:0:0:0:
312,192,178541,1,0,0:0:0:0:
85,192,178844,1,2,2:0:0:0:
199,192,178844,1,0,0:0:0:0:
199,192,179298,1,0,0:0:0:0:
256,192,179753,1,0,0:0:0:0:
312,192,180056,1,0,0:0:0:0:
142,192,180056,1,2,2:0:0:0:
312,192,181268,1,0,0:0:0:0:
85,192,181268,1,2,2:0:0:0:
312,192,181722,1,0,0:0:0:0:
426,192,182177,1,0,0:0:0:0:
28,192,182480,1,2,2:0:0:0:
312,192,182480,1,0,0:0:0:0:
199,192,182934,1,0,0:0:0:0:
312,192,183389,1,0,0:0:0:0:
85,192,183692,1,2,2:0:0:0:
483,192,183692,1,0,0:0:0:0:
369,192,184147,1,0,0:0:0:0:
199,192,184601,1,0,0:0:0:0:
142,192,184904,1,2,2:0:0:0:
312,192,184904,1,0,0:0:0:0:
256,192,185813,1,0,0:0:0:0:
85,192,186116,1,2,2:0:0:0:
312,192,186116,1,0,0:0:0:0:
142,192,186419,1,0,0:0:0:0:
199,192,186571,1,0,0:0:0:0:
369,192,187025,1,0,0:0:0:0:
28,192,187328,1,2,2:0:0:0:
312,192,187328,1,0,0:0:0:0:
199,192,187783,1,0,0:0:0:0:
312,192,188237,1,0,0:0:0:0:
483,192,188541,1,0,0:0:0:0:
85,192,188541,1,2,2:0:0:0:
369,192,188995,1,0,0:0:0:0:
256,192,189450,1,0,0:0:0:0:
142,192,189753,1,2,2:0:0:0:
312,192,189753,1,0,0:0:0:0:
483,192,190359,1,0,0:0:0:0:
256,192,190662,1,0,0:0:0:0:
85,192,190965,1,2,2:0:0:0:
256,192,190965,1,0,0:0:0:0:
426,192,191571,1,0,0:0:0:0:
199,192,191874,1,0,0:0:0:0:
199,192,192177,1,0,0:0:0:0:
28,192,192177,1,2,2:0:0:0:
426,192,193086,1,0,0:0:0:0:
85,192,193389,1,2,2:0:0:0:
312,192,193389,1,0,0:0:0:0:
199,192,193844,1,0,0:0:0:0:
312,192,194298,1,0,0:0:0:0:
142,192,194601,1,2,2:0:0:0:
426,192,194601,128,0,196419:0:0:0:0:
28,192,196419,1,8,3:0:0:0:
312,192,196570,1,0,0:0:0:0:
369,192,196722,1,0,0:0:0:0:
426,192,196873,1,0,0:0:0:0:
85,192,197025,1,4,2:0:0:0:
142,192,197176,1,0,0:0:0:0:
199,192,197328,1,0,0:0:0:0:
256,192,197479,1,0,0:0:0:0:
312,192,197934,1,0,0:0:0:0:
369,192,198085,1,0,0:0:0:0:
85,192,198237,1,8,3:0:0:0:
142,192,198388,1,0,0:0:0:0:
199,192,198540,1,0,0:0:0:0:
256,192,198691,1,0,0:0:0:0:
483,192,199146,1,0,0:0:0:0:
312,192,199449,1,8,3:0:0:0:
28,192,199752,1,0,0:0:0:0:
142,192,199904,1,0,0:0:0:0:
312,192,200207,1,0,0:0:0:0:
483,192,200510,128,0,201267:0:0:0:0:
312,192,201419,1,0,0:0:0:0:
369,192,201570,1,0,0:0:0:0:
426,192,201722,1,0,0:0:0:0:
85,192,201873,1,8,3:0:0:0:
142,192,202025,1,0,0:0:0:0:
199,192,202176,1,0,0:0:0:0:
256,192,202328,1,0,0:0:0:0:
312,192,202631,1,0,0:0:0:0:
369,192,202934,1,0,0:0:0:0:
85,192,203085,1,8,3:0:0:0:
142,192,203237,1,0,0:0:0:0:
199,192,203388,1,0,0:0:0:0:
256,192,203540,1,0,0:0:0:0:
483,192,203691,1,0,0:0:0:0:
369,192,203994,1,0,0:0:0:0:
369,192,204297,1,8,3:0:0:0:
28,192,204601,1,0,0:0:0:0:
312,192,204752,1,0,0:0:0:0:
85,192,205055,1,0,0:0:0:0:
199,192,205358,128,0,206116:0:0:0:0:
312,192,206267,1,0,0:0:0:0:
369,192,206419,1,0,0:0:0:0:
426,192,206570,1,0,0:0:0:0:
85,192,206722,1,8,3:0:0:0:
142,192,206873,1,0,0:0:0:0:
199,192,207176,1,0,0:0:0:0:
312,192,207479,1,0,0:0:0:0:
369,192,207631,1,0,0:0:0:0:
426,192,207782,1,0,0:0:0:0:
85,192,207934,1,8,3:0:0:0:
142,192,208085,1,0,0:0:0:0:
199,192,208237,1,0,0:0:0:0:
256,192,208388,1,0,0:0:0:0:
483,192,208540,1,0,0:0:0:0:
369,192,208843,1,0,0:0:0:0:
312,192,209146,1,8,3:0:0:0:
369,192,209601,1,0,0:0:0:0:
199,192,210055,1,0,0:0:0:0:
28,192,210358,1,8,3:0:0:0:
483,192,210964,1,0,0:0:0:0:
199,192,211267,1,0,0:0:0:0:
199,192,211570,1,8,3:0:0:0:
426,192,212176,1,0,0:0:0:0:
142,192,212479,1,0,0:0:0:0:
142,192,212782,1,8,3:0:0:0:
369,192,213691,1,0,0:0:0:0:
312,192,213994,1,8,3:0:0:0:
256,192,214449,1,0,0:0:0:0:
199,192,214904,1,0,0:0:0:0:
256,192,215207,1,0,0:0:0:0:
28,192,215207,128,4,215813:2:0:0:0:
85,192,215813,128,4,216419:2:0:0:0:
312,192,215813,1,0,0:0:0:0:
369,192,216116,1,0,0:0:0:0:
142,192,216419,1,4,2:0:0:0:
426,192,216419,1,2,0:0:0:0:
199,192,216722,1,0,3:0:0:0:
199,192,217025,1,0,3:0:0:0:
312,192,217328,1,2,0:0:0:0:
369,192,217631,1,2,0:0:0:0:
85,192,217934,1,0,3:0:0:0:
85,192,218237,1,0,3:0:0:0:
369,192,218540,1,2,0:0:0:0:
426,192,218843,1,2,0:0:0:0:
142,192,219146,1,0,3:0:0:0:
142,192,219449,1,0,3:0:0:0:
312,192,219601,128,2,220055:0:0:0:0:
199,192,220055,1,2,0:0:0:0:
369,192,220358,128,2,220964:0:0:0:0:
142,192,220964,1,2,0:0:0:0:
199,192,221267,1,2,0:0:0:0:
426,192,221570,1,0,3:0:0:0:
426,192,221873,1,0,3:0:0:0:
28,192,222176,1,2,0:0:0:0:
85,192,222479,1,2,0:0:0:0:
312,192,222782,1,0,3:0:0:0:
312,192,223085,1,0,3:0:0:0:
142,192,223388,1,2,0:0:0:0:
199,192,223691,128,2,224297:0:0:0:0:
369,192,224297,128,2,224904:0:0:0:0:
256,192,224904,1,2,0:0:0:0:
312,192,225510,1,2,0:0:0:0:
369,192,225813,1,2,0:0:0:0:
426,192,226116,1,2,0:0:0:0:
199,192,226419,1,0,3:0:0:0:
199,192,226722,1,0,3:0:0:0:
312,192,227025,1,2,0:0:0:0:
369,192,227328,1,2,0:0:0:0:
85,192,227631,1,0,3:0:0:0:
85,192,227934,1,0,3:0:0:0:
369,192,228237,1,2,0:0:0:0:
426,192,228540,1,2,0:0:0:0:
142,192,228843,1,0,3:0:0:0:
142,192,229146,1,0,3:0:0:0:
483,192,229449,128,2,230358:0:0:0:0:
256,192,230358,1,2,0:0:0:0:
142,192,230661,1,2,0:0:0:0:
199,192,230964,1,2,0:0:0:0:
426,192,231267,1,0,3:0:0:0:
426,192,231570,1,0,3:0:0:0:
28,192,231873,1,2,0:0:0:0:
85,192,232176,1,2,0:0:0:0:
312,192,232479,1,0,3:0:0:0:
312,192,232782,1,0,3:0:0:0:
142,192,233085,1,2,0:0:0:0:
199,192,233388,1,2,0:0:0:0:
369,192,233691,1,0,3:0:0:0:
369,192,233994,1,0,3:0:0:0:
256,192,234297,1,0,0:0:0:0:
85,192,234601,1,0,3:0:0:0:
426,192,234904,1,0,3:0:0:0:
85,192,235207,1,0,3:0:0:0:
142,192,235510,1,2,2:0:0:0:
369,192,235813,1,2,2:0:0:0:
199,192,236116,1,2,2:0:0:0:
369,192,236267,128,2,238843:2:0:0:0:
426,192,239752,1,2,2:0:0:0:
85,192,240055,1,2,2:0:0:0:
256,192,240207,1,2,2:0:0:0:
483,192,241570,1,2,2:0:0:0:
28,192,241873,1,2,2:0:0:0:
256,192,243085,128,0,245510:0:0:0:0:
142,192,247631,5,2,2:0:0:0:
369,192,247934,1,2,2:0:0:0:
312,192,248237,1,2,2:0:0:0:
256,192,248540,128,2,250964:2:0:0:0:
199,192,252479,1,2,2:0:0:0:
28,192,252782,1,2,2:0:0:0:
483,192,253085,1,2,2:0:0:0:
142,192,253388,1,2,2:0:0:0:
312,192,253540,128,2,254601:2:0:0:0:
