osu file format v14

[General]
AudioFilename: audio.mp3
AudioLeadIn: 0
PreviewTime: 176269
Countdown: 0
SampleSet: Soft
StackLeniency: 0.7
Mode: 0
LetterboxInBreaks: 0
WidescreenStoryboard: 0

[Editor]
DistanceSpacing: 1.1
BeatDivisor: 4
GridSize: 4
TimelineZoom: 1

[Metadata]
Title:Endless Tears feat. Nakamura Maiko
TitleUnicode:Endless Tears feat. 中村舞子
Artist:CLIFF EDGE
ArtistUnicode:クリフエッジ
Creator:Modem
Version:Normal
Source:
Tags:爱你真的好痛苦 best of love is a beautiful pain sweet grande 2 you are the only one あなたの声が聞こえる
BeatmapID:1751724
BeatmapSetID:818406

[Difficulty]
HPDrainRate:4
CircleSize:3.5
OverallDifficulty:4
ApproachRate:5
SliderMultiplier:1.6
SliderTickRate:1

[Events]
//Background and Video events
0,0,"bg.jpg",0,0
Video,0,"Video.flv"
//Break Periods
2,50559,53876
2,132984,136300
2,176620,184785
//Storyboard Layer 0 (Background)
//Storyboard Layer 1 (Fail)
//Storyboard Layer 2 (Pass)
//Storyboard Layer 3 (Foreground)
//Storyboard Sound Samples

[TimingPoints]
663,606.060606060606,4,2,1,45,1,0
9147,-100,4,2,1,25,0,0
9905,-100,4,2,1,45,0,0
30966,606.060606060606,4,2,2,45,1,1
31420,-100,4,2,1,60,0,1
40359,-100,4,2,1,60,0,0
40662,-100,4,2,1,60,0,1
50359,-100,4,2,1,60,0,0
54602,-100,4,2,1,40,0,0
55208,-100,4,2,1,50,0,0
55662,-100,4,2,2,50,0,0
57632,-100,4,2,1,50,0,0
58087,-100,4,2,2,50,0,0
60056,-100,4,2,1,50,0,0
60511,-100,4,2,2,50,0,0
62481,-100,4,2,1,50,0,0
62935,-100,4,2,2,50,0,0
64905,-100,4,2,1,50,0,0
65359,-100,4,2,2,50,0,0
67329,-100,4,2,1,50,0,0
67784,-100,4,2,2,50,0,0
69753,-100,4,2,1,50,0,0
70208,-100,4,2,2,50,0,0
72178,-100,4,2,1,50,0,0
72632,-100,4,2,2,50,0,0
74602,-100,4,2,1,50,0,0
93996,-100,4,2,2,60,0,1
94450,-100,4,2,1,60,0,1
103390,-100,4,2,1,60,0,0
103693,-100,4,2,1,60,0,1
112178,-100,4,2,2,60,0,1
113087,-100,4,2,1,60,0,0
113390,-100,4,2,2,60,0,1
113693,-100,4,2,1,60,0,1
117935,-100,4,2,1,60,0,0
118238,-100,4,2,1,60,0,1
122784,-100,4,2,1,60,0,0
123087,-100,4,2,1,60,0,1
127632,-100,4,2,1,60,0,0
127935,-100,4,2,1,60,0,1
132784,-100,4,2,1,60,0,0
144905,-100,4,2,1,60,0,0
146117,-100,4,2,1,60,0,0
173996,-100,4,2,1,40,0,0
174299,-100,4,2,1,70,0,0
185814,-100,4,2,1,60,0,0
197026,606.060606060606,4,2,2,60,1,1
197177,-100,4,2,1,60,0,1
197480,-100,4,2,1,60,0,1
206419,-100,4,2,1,60,0,0
206722,-100,4,2,1,60,0,1
215207,-100,4,2,2,70,0,1
216116,-100,4,2,1,60,0,0
216419,-100,4,2,2,60,0,1
216722,-100,4,2,1,60,0,1
220965,-100,4,2,1,60,0,0
221268,-100,4,2,1,60,0,1
225813,-100,4,2,1,60,0,0
226116,-100,4,2,1,60,0,1
230662,-100,4,2,1,60,0,0
230965,-100,4,2,1,60,0,1
235510,-100,4,2,1,60,0,0
235813,-100,4,2,2,60,0,1
236116,-100,4,2,1,60,0,1
245207,-100,4,2,1,60,0,0
245510,-100,4,2,1,60,0,1
255207,-100,4,2,1,5,0,0

[Colours]
Combo1 : 34,176,169
Combo2 : 73,196,254
Combo3 : 0,128,255
SliderBorder : 255,255,255

[HitObjects]
100,144,663,6,0,P|72:200|100:280,2,120,2|2|2,3:2|0:0|0:0,0:0:0:0:
187,141,1875,2,0,P|168:90|75:62,2,120,2|2|2,0:0|0:0|0:0,0:0:0:0:
256,196,3087,2,0,L|380:180,2,120,2|2|2,0:0|0:0|0:0,0:0:0:0:
244,284,4299,2,0,L|343:271,1,80,2|0,0:0|0:0,0:0:0:0:
379,341,4905,2,0,P|407:302|405:251,1,80,2|2,0:0|0:0,0:0:0:0:
476,216,5511,6,0,P|476:156|511:109,2,120,2|2|2,3:2|0:0|0:0,0:0:0:0:
392,184,6723,2,0,P|407:114|449:57,2,120,2|2|2,0:0|0:0|0:0,0:0:0:0:
316,140,7935,2,0,P|336:76|382:13,2,120,2|2|2,0:0|0:0|0:0,0:0:0:0:
240,184,9147,1,4,3:1:0:0:
240,184,10359,6,0,B|196:176|196:176|88:200,2,120,2|2|2,3:2|0:0|0:0,0:0:0:0:
288,256,11572,2,0,P|340:268|428:232,2,120,2|2|2,0:0|0:0|0:0,0:0:0:0:
220,312,12784,2,0,B|115:292|115:292,1,80,2|2,0:0|0:0,0:0:0:0:
56,320,13390,2,0,P|56:272|88:228,1,80,2|2,0:0|0:0,0:0:0:0:
51,158,13996,2,0,P|109:162|148:204,1,80,2|0,0:0|0:0,0:0:0:0:
204,216,14602,1,2,0:0:0:0:
276,164,14905,1,0,0:0:0:0:
256,80,15208,6,0,P|333:96|363:159,2,120,2|2|0,3:2|0:0|0:0,0:0:0:0:
172,108,16420,2,0,L|40:76,1,120,2|0,0:0|0:0,0:0:0:0:
16,100,17026,1,2,0:0:0:0:
12,188,17329,1,0,0:0:0:0:
98,176,17632,2,0,L|176:196,1,80,2|2,0:0|0:0,0:0:0:0:
132,272,18238,2,0,L|27:297,1,80,2|2,0:0|0:0,0:0:0:0:
104,364,18844,2,0,P|152:372|195:353,1,80,2|0,0:0|0:0,0:0:0:0:
214,281,19450,1,2,0:0:0:0:
288,328,19753,1,0,0:0:0:0:
376,340,20056,6,0,B|364:252|364:252|400:268,2,120,2|2|0,3:2|0:0|0:0,0:0:0:0:
460,316,21269,2,0,P|476:268|436:192,1,120,2|0,0:0|0:0,0:0:0:0:
424,172,21875,1,2,0:0:0:0:
336,172,22178,1,0,0:0:0:0:
304,92,22481,2,0,B|300:56|280:52|280:52|240:72|188:52,2,120,2|2|2,0:0|0:0|0:0,0:0:0:0:
388,64,23693,1,2,0:0:0:0:
450,126,23996,1,0,0:0:0:0:
384,184,24299,2,0,L|292:204,1,80,2|0,0:0|0:0,0:0:0:0:
236,148,24905,6,0,B|180:168|132:148|132:148|168:220,2,160,2|2|2,3:2|0:0|0:0,0:0:0:0:
280,72,26420,1,0,0:0:0:0:
368,84,26723,2,0,L|446:100,1,80,2|2,0:0|0:0,0:0:0:0:
480,184,27329,2,0,P|424:224|416:276,2,120,2|2|2,0:0|0:0|0:0,0:0:0:0:
447,100,28541,5,2,3:2:0:0:
480,184,30966,6,0,P|476:128|412:76,1,120,4|6,0:1|0:0,0:0:0:0:
392,68,31572,2,0,L|356:152,1,80,8|6,0:0|0:0,0:0:0:0:
272,152,32178,2,0,L|296:244,1,80,2|4,0:0|0:0,0:0:0:0:
350,294,32784,2,0,P|286:314|242:294,1,80,8|6,0:0|0:0,0:0:0:0:
236,328,33238,1,4,0:0:0:0:
236,328,33390,6,0,L|198:180,1,120,2|6,3:1|0:0,0:0:0:0:
168,188,33996,2,0,L|189:111,1,80,8|6,0:0|0:0,0:0:0:0:
159,28,34602,2,0,P|216:26|261:60,1,80,6|2,0:0|0:0,0:0:0:0:
304,88,35208,2,0,L|368:80,2,40,10|2|6,0:0|0:0|0:0,0:0:0:0:
280,172,35814,6,0,L|408:155,1,120,6|6,0:0|0:0,0:0:0:0:
428,192,36420,2,0,P|420:240|439:283,1,80,8|6,0:0|0:0,0:0:0:0:
344,288,37026,2,0,P|352:336|333:379,1,80,2|4,0:0|0:0,0:0:0:0:
264,324,37632,2,0,L|185:335,1,80,8|6,0:0|0:0,0:0:0:0:
148,356,38087,1,4,0:0:0:0:
148,356,38238,6,0,L|32:312,1,120,2|6,3:1|0:0,0:0:0:0:
56,272,38844,2,0,P|48:224|67:181,1,80,8|6,0:0|0:0,0:0:0:0:
37,109,39450,2,0,P|85:109|132:149,1,80,6|2,0:0|0:0,0:0:0:0:
188,172,40056,2,0,L|259:162,2,40,10|0|2,0:0|0:0|0:0,0:0:0:0:
204,260,40662,6,0,P|239:277|279:274,1,80,6|2,0:0|0:0,0:0:0:0:
316,300,41117,1,2,0:0:0:0:
352,324,41269,2,0,L|364:212,1,80,8|6,0:0|0:0,0:0:0:0:
444,216,41875,2,0,L|432:108,1,80,2|4,0:0|0:0,0:0:0:0:
449,49,42481,2,0,P|393:57|359:97,1,80,8|6,0:0|0:0,0:0:0:0:
332,60,42935,1,4,0:0:0:0:
332,60,43087,6,0,B|276:84|276:84|196:60,1,120,2|6,3:1|0:0,0:0:0:0:
188,36,43693,2,0,B|110:69|110:69,1,80,8|6,0:0|0:0,0:0:0:0:
148,148,44299,2,0,P|140:196|159:239,1,80,6|2,0:0|0:0,0:0:0:0:
128,308,44905,2,0,P|176:308|226:264,1,80,10|4,0:0|0:0,0:0:0:0:
292,288,45511,6,0,B|279:250|279:250|295:139,1,120,6|4,0:0|0:0,0:0:0:0:
332,156,46117,2,0,B|320:76,1,80,10|4,0:0|0:0,0:0:0:0:
396,32,46723,2,0,B|408:112,1,80,2|6,0:0|0:0,0:0:0:0:
460,180,47329,2,0,P|424:224|424:272,1,80,10|6,0:0|0:0,0:0:0:0:
428,288,47784,1,4,0:0:0:0:
428,288,47935,6,0,P|352:284|312:324,1,120,2|6,3:1|0:0,0:0:0:0:
276,312,48541,2,0,B|264:232,1,80,8|6,0:0|0:0,0:0:0:0:
192,184,49147,2,0,B|204:104,1,80,6|2,0:0|0:0,0:0:0:0:
120,84,49753,2,0,B|109:156,2,40,10|0|2,0:0|0:0|0:0,0:0:0:0:
52,28,50359,5,6,0:0:0:0:
52,28,55208,6,0,L|180:36,2,120,6|6|6,3:2|0:0|0:0,0:0:0:0:
80,112,56420,2,0,L|195:119,1,80,0|4,0:0|0:0,0:0:0:0:
215,184,57026,2,0,P|243:144|239:88,1,80,8|0,0:0|0:0,0:0:0:0:
226,28,57632,2,0,P|284:32|333:100,2,120,6|6|6,3:2|0:0|0:0,0:0:0:0:
148,68,58844,2,0,L|68:63,1,80,0|4,0:0|0:0,0:0:0:0:
68,152,59450,2,0,L|147:147,1,80,8|0,0:0|0:0,0:0:0:0:
144,236,60056,6,0,L|21:228,2,120,6|6|6,3:2|0:0|0:0,0:0:0:0:
187,311,61269,2,0,P|223:271|228:225,1,80,0|4,0:0|0:0,0:0:0:0:
200,164,61875,2,0,L|280:169,1,80,8|0,0:0|0:0,0:0:0:0:
368,160,62481,2,0,B|360:208|360:208|384:248|364:296,1,120,6|4,3:2|0:0,0:0:0:0:
328,288,63087,2,0,B|344:384|344:384,1,80,8|6,0:0|0:0,0:0:0:0:
252,372,63693,2,0,B|239:293|239:293|160:224,1,160,6|8,0:0|0:0,0:0:0:0:
116,300,64602,1,0,0:0:0:0:
36,336,64905,6,0,P|31:275|85:219,2,120,6|6|6,3:2|0:0|0:0,0:0:0:0:
116,300,66117,2,0,B|176:352|176:352,1,80,0|4,0:0|0:0,0:0:0:0:
220,276,66723,2,0,P|268:284|311:265,1,80,8|0,0:0|0:0,0:0:0:0:
368,324,67329,2,0,P|377:246|345:205,2,120,6|6|6,3:2|0:0|0:0,0:0:0:0:
292,368,68541,2,0,L|184:356,1,80,0|4,0:0|0:0,0:0:0:0:
184,276,69147,2,0,L|76:288,1,80,8|0,0:0|0:0,0:0:0:0:
112,196,69753,6,0,B|185:188|185:188|225:164,2,120,6|6|6,3:2|0:0|0:0,0:0:0:0:
29,226,70966,2,0,P|26:173|54:131,1,80,0|4,0:0|0:0,0:0:0:0:
12,64,71572,2,0,B|-12:78|80:22,1,80,8|0,0:0|0:0,0:0:0:0:
140,84,72178,2,0,B|176:100|214:87|214:87|231:94|231:94|270:70,1,120,6|4,3:2|0:0,0:0:0:0:
280,44,72784,2,0,P|327:52|371:34,1,80,8|6,0:0|0:0,0:0:0:0:
408,116,73390,2,0,B|375:136|375:136|396:172|396:172|356:216|384:276,1,160,6|8,0:0|0:0,0:0:0:0:
460,232,74299,1,0,0:0:0:0:
423,311,74602,6,0,P|375:327|327:311,1,80,6|2,3:2|0:0,0:0:0:0:
308,344,75056,1,0,0:0:0:0:
265,354,75208,2,0,P|259:312|281:266,1,80,8|4,0:0|0:0,0:0:0:0:
300,196,75814,2,0,L|212:164,2,80,2|6|8,0:0|0:0|0:0,0:0:0:0:
348,120,76723,1,4,0:0:0:0:
348,120,76875,1,4,0:0:0:0:
348,120,77026,6,0,L|436:88,1,80,6|2,3:2|0:0,0:0:0:0:
480,160,77632,2,0,L|404:187,1,80,8|4,0:0|0:0,0:0:0:0:
442,265,78238,2,0,P|394:273|351:254,1,80,2|6,0:0|0:0,0:0:0:0:
285,227,78844,2,0,P|278:282|299:321,1,80,8|0,0:0|0:0,0:0:0:0:
220,364,79450,6,0,B|168:352|168:352|120:360,1,80,6|2,3:2|0:0,0:0:0:0:
56,368,80056,2,0,P|60:324|96:284,1,80,8|4,0:0|0:0,0:0:0:0:
164,264,80662,2,0,B|207:256|207:256,2,40,2|6|6,0:0|0:0|0:0,0:0:0:0:
128,184,81269,2,0,B|34:162|34:162,1,80,8|0,0:0|0:0,0:0:0:0:
52,76,81875,6,0,P|96:72|140:36,1,80,6|2,3:2|0:0,0:0:0:0:
204,92,82481,2,0,B|230:87|230:87|282:99,1,80,8|6,0:0|0:0,0:0:0:0:
268,188,83087,2,0,B|216:176|216:176,2,40,2|4|6,0:0|0:0|0:0,0:0:0:0:
284,276,83693,2,0,B|383:252|383:252,1,80,8|4,0:0|0:0,0:0:0:0:
444,289,84299,6,0,P|448:241|416:189,1,80,6|0,3:2|0:0,0:0:0:0:
456,172,84753,1,6,0:0:0:0:
456,172,84905,2,0,B|349:148|349:148,1,80,8|4,0:0|0:0,0:0:0:0:
332,80,85511,2,0,B|225:104|225:104,2,80,0|6|8,0:0|0:0|0:0,0:0:0:0:
408,32,86420,1,6,0:0:0:0:
408,32,86572,1,4,0:0:0:0:
408,32,86723,6,0,P|440:72|480:80,1,80,6|2,3:2|0:0,0:0:0:0:
496,164,87329,2,0,P|500:228|488:260,1,80,8|6,0:0|0:0,0:0:0:0:
512,284,87784,1,0,0:0:0:0:
512,284,87935,2,0,B|405:308|405:308,1,80,2|6,0:0|0:0,0:0:0:0:
372,364,88541,2,0,B|265:340|265:340,1,80,8|0,0:0|0:0,0:0:0:0:
206,352,89147,6,0,P|218:300|242:276,1,80,6|2,3:2|0:0,0:0:0:0:
180,212,89753,2,0,P|168:160|144:136,1,80,10|2,0:0|0:0,0:0:0:0:
76,96,90359,2,0,B|1:112|1:112,2,40,2|6|6,0:0|0:0|0:0,0:0:0:0:
136,32,90966,2,0,B|243:56,1,80,10|4,0:0|0:0,0:0:0:0:
256,40,91420,1,4,0:0:0:0:
256,40,91572,6,0,P|268:92|292:116,1,80,6|2,3:2|0:0,0:0:0:0:
368,136,92178,2,0,L|356:236,1,80,8|6,0:0|0:0,0:0:0:0:
316,232,92632,2,0,L|329:343,2,80,2|2|0,0:0|0:0|0:0,0:0:0:0:
272,244,93390,1,2,0:0:0:0:
96,232,93996,6,0,P|68:176|88:112,1,120,4|6,0:1|0:0,0:0:0:0:
76,80,94602,2,0,L|176:92,1,80,8|6,0:0|0:0,0:0:0:0:
208,160,95208,2,0,L|308:148,1,80,2|4,0:0|0:0,0:0:0:0:
341,81,95814,2,0,P|372:124|373:161,1,80,8|6,0:0|0:0,0:0:0:0:
412,176,96269,1,4,0:0:0:0:
412,176,96420,6,0,P|368:237|366:289,1,120,2|6,3:1|0:0,0:0:0:0:
328,304,97026,2,0,P|280:294|237:312,1,80,8|6,0:0|0:0,0:0:0:0:
176,348,97632,2,0,P|164:292|183:251,1,80,6|2,0:0|0:0,0:0:0:0:
236,212,98238,2,0,L|296:205,2,40,10|2|6,0:0|0:0|0:0,0:0:0:0:
192,136,98844,6,0,B|104:124|104:124|120:172,1,120,6|6,0:0|0:0,0:0:0:0:
120,196,99450,2,0,P|72:208|44:240,1,80,8|6,0:0|0:0,0:0:0:0:
119,284,100056,2,0,B|207:296,1,80,2|4,0:0|0:0,0:0:0:0:
260,356,100662,2,0,L|360:344,1,80,8|6,0:0|0:0,0:0:0:0:
380,368,101117,1,4,0:0:0:0:
380,368,101269,6,0,P|356:316|384:236,1,120,2|6,3:1|0:0,0:0:0:0:
400,228,101875,2,0,P|438:217|476:226,1,80,8|6,0:0|0:0,0:0:0:0:
504,144,102481,2,0,L|488:60,1,80,6|2,0:0|0:0,0:0:0:0:
404,88,103087,2,0,L|417:158,2,40,10|0|2,0:0|0:0|0:0,0:0:0:0:
328,48,103693,6,0,B|288:52|288:52|228:28,1,80,6|2,0:0|0:0,0:0:0:0:
208,36,104147,1,2,0:0:0:0:
164,36,104299,2,0,P|175:74|166:112,1,80,8|6,0:0|0:0,0:0:0:0:
85,148,104905,2,0,P|117:188|162:198,1,80,2|4,0:0|0:0,0:0:0:0:
176,280,105511,2,0,P|212:256|228:204,1,80,8|6,0:0|0:0,0:0:0:0:
244,184,105966,1,4,0:0:0:0:
244,184,106117,6,0,P|248:124|316:88,1,120,2|6,3:1|0:0,0:0:0:0:
312,52,106723,2,0,B|400:64,1,80,8|6,0:0|0:0,0:0:0:0:
475,38,107329,2,0,P|475:94|450:129,1,80,6|2,0:0|0:0,0:0:0:0:
484,200,107935,2,0,B|404:210,1,80,10|4,0:0|0:0,0:0:0:0:
352,280,108541,6,0,B|308:268|308:268|260:288|212:260,1,120,6|4,0:0|0:0,0:0:0:0:
224,312,109147,2,0,B|143:290|143:290,1,80,10|4,0:0|0:0,0:0:0:0:
62,315,109753,2,0,P|66:255|94:223,1,80,2|2,0:0|0:0,0:0:0:0:
140,176,110359,2,0,L|124:64,1,80,10|6,0:0|0:0,0:0:0:0:
104,60,110814,1,4,0:0:0:0:
104,60,110966,6,0,B|90:59|208:91,1,120,2|6,3:1|0:0,0:0:0:0:
248,60,111572,2,0,B|332:52,1,80,8|6,0:0|0:0,0:0:0:0:
412,28,112178,2,0,P|412:84|392:112,1,80,12|0,0:1|0:0,0:0:0:0:
344,172,112784,2,0,B|264:179,1,80,12|2,0:1|0:0,0:0:0:0:
204,243,113390,6,0,P|179:202|180:162,1,80,12|0,0:1|0:0,0:0:0:0:
112,112,113996,2,0,P|137:71|136:31,1,80,8|6,0:0|0:0,0:0:0:0:
224,60,114602,2,0,B|304:53,1,80,2|4,0:0|0:0,0:0:0:0:
356,124,115208,2,0,B|436:131,1,80,8|6,0:0|0:0,0:0:0:0:
476,116,115662,1,4,0:0:0:0:
476,116,115814,6,0,P|440:176|452:236,1,120,6|4,3:2|0:0,0:0:0:0:
436,268,116420,2,0,P|397:277|359:267,1,80,8|4,0:0|0:0,0:0:0:0:
304,196,117026,2,0,P|265:186|227:196,2,80,6|2|10,0:0|0:0|0:0,0:0:0:0:
264,276,117935,1,6,0:0:0:0:
176,260,118238,6,0,P|148:216|157:158,1,80,6|0,0:0|0:0,0:0:0:0:
76,140,118844,2,0,P|119:106|156:106,1,80,8|6,0:0|0:0,0:0:0:0:
200,40,119450,2,0,P|229:96|226:124,1,80,2|4,0:0|0:0,0:0:0:0:
292,172,120056,1,8,0:0:0:0:
340,100,120359,1,6,0:0:0:0:
340,100,120511,1,4,0:0:0:0:
340,100,120662,6,0,B|468:111,1,120,6|4,3:2|0:0,0:0:0:0:
476,152,121269,2,0,P|447:208|450:236,1,80,10|4,0:0|0:0,0:0:0:0:
492,300,121875,2,0,P|408:256|344:296,1,160,6|10,0:0|0:0,0:0:0:0:
288,336,122784,1,6,0:0:0:0:
216,284,123087,6,0,P|187:228|190:200,1,80,6|0,0:0|0:0,0:0:0:0:
244,148,123693,2,0,P|273:204|270:232,1,80,8|6,0:0|0:0,0:0:0:0:
356,252,124299,2,0,P|405:223|440:226,1,80,2|4,0:0|0:0,0:0:0:0:
493,279,124905,2,0,P|437:308|409:305,1,80,8|6,0:0|0:0,0:0:0:0:
396,340,125359,1,4,0:0:0:0:
396,340,125511,6,0,L|268:320,1,120,6|4,3:2|0:0,0:0:0:0:
252,356,126117,2,0,L|164:368,1,80,8|6,0:0|0:0,0:0:0:0:
128,292,126723,2,0,L|207:281,2,80,6|2|10,0:0|0:0|0:0,0:0:0:0:
64,232,127632,1,6,0:0:0:0:
37,148,127935,6,0,P|93:148|129:172,1,80,6|0,0:0|0:0,0:0:0:0:
188,204,128541,2,0,B|227:211|227:211|284:200,1,80,8|6,0:0|0:0,0:0:0:0:
304,124,129147,2,0,B|265:117|265:117|208:128,1,80,2|4,0:0|0:0,0:0:0:0:
156,68,129753,1,8,0:0:0:0:
232,24,130056,1,6,0:0:0:0:
232,24,130208,1,4,0:0:0:0:
232,24,130359,6,0,B|348:45,1,80,6|0,3:2|0:0,0:0:0:0:
400,32,130965,2,0,L|464:96,1,80,8|6,0:0|0:0,0:0:0:0:
404,160,131572,2,0,P|414:199|404:237,2,80,6|2|10,0:0|0:0|0:0,0:0:0:0:
328,116,132481,1,2,0:0:0:0:
252,160,132784,5,6,3:2:0:0:
252,160,137632,6,0,L|196:184,2,40,6|0|2,0:0|0:0|0:0,0:0:0:0:
224,76,138238,2,0,L|137:113,1,80,8|4,0:0|0:0,0:0:0:0:
108,104,138693,1,2,0:0:0:0:
108,104,138844,2,0,L|84:192,1,80,2|6,0:0|0:0,0:0:0:0:
156,236,139450,2,0,L|172:328,1,80,8|6,0:0|0:0,0:0:0:0:
208,340,139905,1,4,0:0:0:0:
208,340,140056,6,0,P|284:328|304:304,1,80,6|0,0:0|0:0,0:0:0:0:
328,340,140511,1,6,0:0:0:0:
328,340,140662,2,0,L|315:262,1,80,8|6,0:0|0:0,0:0:0:0:
388,216,141269,2,0,L|406:146,2,40,6|0|2,0:0|0:0|0:0,0:0:0:0:
316,164,141875,2,0,P|250:188|236:212,1,80,8|4,0:0|0:0,0:0:0:0:
224,232,142329,1,2,0:0:0:0:
224,232,142481,6,0,P|193:207|154:203,1,80,6|2,0:0|0:0,0:0:0:0:
68,216,143087,2,0,B|80:248|80:248|68:324,1,80,8|4,0:0|0:0,0:0:0:0:
100,328,143541,1,2,0:0:0:0:
100,328,143693,2,0,L|200:352,1,80,0|6,0:0|0:0,0:0:0:0:
216,324,144147,1,0,0:0:0:0:
216,324,144299,2,0,L|316:300,1,80,10|6,0:0|0:0,0:0:0:0:
380,304,144905,6,0,P|416:272|392:268,1,80,2|2,3:2|3:2,0:0:0:0:
164,208,146117,2,0,P|125:218|87:208,1,80,6|2,0:0|0:0,0:0:0:0:
44,220,146572,1,0,0:0:0:0:
44,220,146723,2,0,L|56:120,1,80,8|4,0:0|0:0,0:0:0:0:
24,56,147329,6,0,P|89:58|116:78,1,80,6|2,0:0|0:0,0:0:0:0:
136,92,147784,1,4,0:0:0:0:
136,92,147935,2,0,L|224:72,1,80,8|4,0:0|0:0,0:0:0:0:
244,156,148541,2,0,L|332:176,1,80,2|6,0:0|0:0,0:0:0:0:
364,160,148996,1,0,0:0:0:0:
364,160,149147,2,0,L|404:240,1,80,8|4,0:0|0:0,0:0:0:0:
376,268,149602,1,4,0:0:0:0:
376,268,149753,6,0,P|324:316|288:316,1,80,6|2,0:0|0:0,0:0:0:0:
232,308,150359,2,0,B|192:300|192:300|144:316,2,80,10|6|6,0:0|0:0|0:0,0:0:0:0:
228,220,151269,1,6,0:0:0:0:
140,220,151572,2,0,B|54:248,1,80,10|4,0:0|0:0,0:0:0:0:
12,172,152178,6,0,P|16:120|44:88,1,80,6|2,0:0|0:0,0:0:0:0:
36,56,152632,1,6,0:0:0:0:
36,56,152784,2,0,P|88:40|120:48,1,80,10|6,0:0|0:0,0:0:0:0:
152,32,153238,1,2,0:0:0:0:
152,32,153390,2,0,P|192:60|204:104,1,80,2|6,0:0|0:0,0:0:0:0:
168,168,153996,2,0,P|216:176|257:155,1,80,10|4,0:0|0:0,0:0:0:0:
288,156,154450,1,4,0:0:0:0:
288,156,154602,6,0,L|280:268,1,80,6|2,0:0|0:0,0:0:0:0:
288,280,155056,2,0,L|340:268,1,40,2|8,0:0|0:0,0:0:0:0:
368,264,155359,2,0,L|376:376,2,80,2|2|6,0:0|0:0|0:0,0:0:0:0:
404,236,156117,1,4,0:0:0:0:
468,172,156420,2,0,P|412:147|364:160,1,80,6|4,0:0|0:0,0:0:0:0:
320,196,157026,6,0,P|306:146|339:80,1,120,6|6,0:0|0:0,0:0:0:0:
352,48,157632,2,0,L|248:24,1,80,8|6,0:0|0:0,0:0:0:0:
236,52,158087,1,2,0:0:0:0:
236,52,158238,2,0,P|197:42|159:52,1,80,2|6,0:0|0:0,0:0:0:0:
76,21,158844,2,0,P|28:49|12:89,1,80,8|6,0:0|0:0,0:0:0:0:
56,148,159450,6,0,L|133:165,1,80,6|2,0:0|0:0,0:0:0:0:
164,200,159905,1,6,0:0:0:0:
164,200,160056,2,0,L|241:182,1,80,8|4,0:0|0:0,0:0:0:0:
280,208,160511,1,2,0:0:0:0:
280,208,160662,2,0,L|352:140,2,80,6|2|8,0:0|0:0|0:0,0:0:0:0:
224,276,161572,1,4,0:0:0:0:
220,364,161875,6,0,P|164:342|142:293,2,80,6|2|10,0:0|0:0|0:0,0:0:0:0:
300,324,162784,1,6,0:0:0:0:
384,352,163087,2,0,L|456:284,1,80,2|6,0:0|0:0,0:0:0:0:
392,224,163693,2,0,P|402:185|392:147,1,80,8|4,0:0|0:0,0:0:0:0:
364,112,164147,1,6,0:0:0:0:
364,112,164299,6,0,L|248:128,2,80,6|2|8,0:0|0:0|0:0,0:0:0:0:
420,44,165208,1,4,0:0:0:0:
420,44,165359,1,2,0:0:0:0:
420,44,165511,2,0,L|536:60,1,80,4|0,0:0|0:0,0:0:0:0:
484,140,166117,1,10,0:0:0:0:
468,228,166420,1,2,0:0:0:0:
392,272,166723,6,0,P|340:268|308:240,1,80,4|2,0:0|0:0,0:0:0:0:
276,176,167329,2,0,L|160:192,1,80,8|6,0:0|0:0,0:0:0:0:
148,112,167935,2,0,L|227:101,1,80,2|6,0:0|0:0,0:0:0:0:
260,72,168390,1,2,0:0:0:0:
260,72,168541,2,0,B|298:63|298:63|348:75,1,80,8|4,0:0|0:0,0:0:0:0:
380,56,168996,1,4,0:0:0:0:
380,56,169147,6,0,P|419:66|457:56,2,80,6|0|8,0:0|0:0|0:0,0:0:0:0:
376,144,170056,1,6,0:0:0:0:
308,200,170359,2,0,P|269:190|231:200,2,80,6|2|10,0:0|0:0|0:0,0:0:0:0:
360,272,171269,1,6,0:0:0:0:
444,296,171572,6,0,L|436:208,1,80,6|2,0:0|0:0,0:0:0:0:
468,184,172026,1,6,0:0:0:0:
468,184,172178,2,0,L|476:96,1,80,8|4,0:0|0:0,0:0:0:0:
400,56,172784,2,0,L|392:135,1,80,2|6,0:0|0:0,0:0:0:0:
348,144,173238,1,2,0:0:0:0:
348,144,173390,2,0,P|300:152|268:192,1,80,8|4,0:0|0:0,0:0:0:0:
232,172,173844,1,4,0:0:0:0:
232,172,173996,6,0,L|240:252,2,80,4|2|2,0:1|0:0|0:0,0:0:0:0:
160,124,174905,1,2,0:0:0:0:
88,176,175208,1,2,0:0:0:0:
116,260,175511,1,2,0:0:0:0:
86,344,175814,2,0,P|136:348|185:319,1,80,2|2,0:0|0:0,0:0:0:0:
236,292,176420,5,2,3:1:0:0:
236,292,186117,6,0,P|286:288|335:317,1,80,2|2,3:1|0:0,0:0:0:0:
356,308,186572,2,0,L|344:164,1,120,2|2,0:0|0:0,0:0:0:0:
428,160,187329,2,0,L|440:16,2,120,2|2|2,0:0|0:0|0:0,0:0:0:0:
472,236,188541,2,0,B|445:278|460:324|460:324|412:308,2,120,2|2|2,3:1|0:0|0:0,0:0:0:0:
428,160,189753,6,0,P|360:156|312:76,1,160,2|2,0:0|0:0,0:0:0:0:
240,36,190662,1,2,0:0:0:0:
188,108,190966,2,0,B|198:147|182:176|182:176|189:195|189:195|170:244|207:287,2,160,2|2|2,3:1|0:0|0:0,0:0:0:0:
104,133,192481,1,2,0:0:0:0:
104,220,192784,2,0,P|110:275|134:318,1,80,2|2,0:0|0:0,0:0:0:0:
192,344,193390,6,0,P|235:336|302:380,2,120,2|2|2,3:1|0:0|0:0,0:0:0:0:
120,297,194602,1,2,3:2:0:0:
192,344,197026,6,0,P|184:301|228:234,1,120,4|4,0:1|0:0,0:0:0:0:
264,240,197632,2,0,L|248:152,1,80,8|6,0:0|0:0,0:0:0:0:
336,140,198238,2,0,L|352:52,1,80,2|6,0:0|0:0,0:0:0:0:
264,44,198844,2,0,P|200:52|180:68,1,80,8|6,0:0|0:0,0:0:0:0:
164,96,199298,1,4,0:0:0:0:
164,96,199450,6,0,P|96:68|44:88,1,120,2|6,3:1|0:0,0:0:0:0:
24,112,200056,2,0,L|39:191,1,80,8|4,0:0|0:0,0:0:0:0:
84,264,200662,2,0,L|69:342,1,80,6|2,0:0|0:0,0:0:0:0:
156,320,201268,2,0,L|168:249,2,40,8|2|4,0:0|0:0|0:0,0:0:0:0:
236,356,201874,6,0,P|304:352|352:296,1,120,6|6,0:0|0:0,0:0:0:0:
340,276,202480,2,0,P|373:250|425:246,1,80,8|4,0:0|0:0,0:0:0:0:
484,289,203086,2,0,P|496:241|479:195,1,80,2|6,0:0|0:0,0:0:0:0:
491,124,203692,2,0,P|435:141|415:169,1,80,8|4,0:0|0:0,0:0:0:0:
380,164,204147,1,4,0:0:0:0:
380,164,204298,6,0,L|328:64,1,80,2|2,3:1|0:0,0:0:0:0:
301,95,204753,1,6,0:0:0:0:
301,95,204904,2,0,L|265:166,2,80,8|4|6,0:0|0:0|0:0,0:0:0:0:
240,32,205813,1,2,0:0:0:0:
176,92,206116,2,0,L|144:32,2,40,8|2|4,0:0|0:0|0:0,0:0:0:0:
176,180,206722,6,0,B|142:172|142:172|69:192,1,80,6|2,0:0|0:0,0:0:0:0:
102,228,207177,1,2,0:0:0:0:
108,272,207329,2,0,B|198:292,1,80,8|4,0:0|0:0,0:0:0:0:
248,352,207935,2,0,B|339:326|339:326,1,80,2|6,0:0|0:0,0:0:0:0:
408,358,208541,2,0,P|408:306|378:261,1,80,8|4,0:0|0:0,0:0:0:0:
368,248,208995,1,4,0:0:0:0:
368,248,209147,6,0,P|288:236|256:176,1,120,2|6,3:1|0:0,0:0:0:0:
256,164,209753,2,0,B|270:159|179:185,1,80,8|6,0:0|0:0,0:0:0:0:
140,260,210359,2,0,B|49:234,1,80,6|0,0:0|0:0,0:0:0:0:
12,168,210965,2,0,P|1:130|10:92,1,80,8|4,0:0|0:0,0:0:0:0:
80,40,211571,6,0,B|120:30|120:30|214:57,1,120,6|0,0:0|0:0,0:0:0:0:
228,84,212177,2,0,P|266:73|304:82,1,80,8|0,0:0|0:0,0:0:0:0:
392,84,212783,2,0,L|380:188,1,80,2|4,0:0|0:0,0:0:0:0:
308,208,213389,2,0,L|320:312,1,80,8|6,0:0|0:0,0:0:0:0:
356,312,213844,1,4,0:0:0:0:
356,312,213995,6,0,L|228:332,1,120,2|6,3:1|0:0,0:0:0:0:
216,292,214601,2,0,P|178:303|140:294,1,80,8|6,0:0|0:0,0:0:0:0:
56,322,215207,2,0,P|53:273|73:238,1,80,12|0,0:1|0:0,0:0:0:0:
92,160,215813,2,0,L|-10:176,1,80,12|2,0:1|0:0,0:0:0:0:
16,84,216419,6,0,L|95:71,1,80,12|0,0:1|0:0,0:0:0:0:
172,28,217026,2,0,L|272:52,1,80,8|6,0:0|0:0,0:0:0:0:
336,36,217632,2,0,L|372:116,1,80,2|4,0:0|0:0,0:0:0:0:
452,132,218238,2,0,L|440:228,1,80,8|6,0:0|0:0,0:0:0:0:
456,252,218692,1,4,0:0:0:0:
456,252,218844,6,0,P|400:228|328:264,1,120,6|4,3:2|0:0,0:0:0:0:
312,276,219450,2,0,P|274:287|236:278,1,80,8|4,0:0|0:0,0:0:0:0:
152,300,220056,2,0,L|161:220,2,80,6|2|10,0:0|0:0|0:0,0:0:0:0:
96,368,220965,1,6,0:0:0:0:
12,344,221268,6,0,L|3:264,1,80,6|0,0:0|0:0,0:0:0:0:
72,212,221874,2,0,L|81:132,1,80,8|6,0:0|0:0,0:0:0:0:
168,112,222480,2,0,L|159:32,1,80,2|4,0:0|0:0,0:0:0:0:
244,60,223086,1,8,0:0:0:0:
328,36,223389,1,6,0:0:0:0:
328,36,223541,1,4,0:0:0:0:
328,36,223692,6,0,P|376:60|388:148,1,120,6|4,3:2|0:0,0:0:0:0:
416,160,224298,2,0,P|382:193|374:238,1,80,10|6,0:0|0:0,0:0:0:0:
408,304,224904,2,0,P|322:295|291:201,1,160,6|10,0:0|0:0,0:0:0:0:
308,152,225813,1,6,0:0:0:0:
220,168,226116,6,0,B|180:172|180:172|128:156,1,80,6|0,0:0|0:0,0:0:0:0:
112,76,226722,2,0,B|152:72|152:72|204:88,1,80,8|6,0:0|0:0,0:0:0:0:
260,28,227329,2,0,B|338:52,1,80,2|4,0:0|0:0,0:0:0:0:
324,140,227935,2,0,L|368:212,1,80,8|6,0:0|0:0,0:0:0:0:
332,240,228389,1,4,0:0:0:0:
332,240,228541,6,0,P|268:240|220:296,1,120,6|4,3:2|0:0,0:0:0:0:
188,296,229147,2,0,P|148:288|108:232,1,80,8|6,0:0|0:0,0:0:0:0:
52,204,229753,2,0,L|24:308,2,80,6|2|10,0:0|0:0|0:0,0:0:0:0:
136,176,230662,1,6,0:0:0:0:
116,92,230965,6,0,P|189:106|206:125,1,80,6|0,0:0|0:0,0:0:0:0:
233,184,231571,2,0,P|269:148|275:100,1,80,8|6,0:0|0:0,0:0:0:0:
276,32,232177,2,0,P|334:51|354:80,1,80,2|4,0:0|0:0,0:0:0:0:
388,140,232783,1,8,0:0:0:0:
336,212,233086,1,6,0:0:0:0:
336,212,233238,1,4,0:0:0:0:
336,212,233389,6,0,L|348:312,1,80,6|0,3:2|0:0,0:0:0:0:
272,340,233995,2,0,L|262:260,1,80,8|6,0:0|0:0,0:0:0:0:
180,236,234601,2,0,L|189:315,2,80,6|2|10,0:0|0:0|0:0,0:0:0:0:
96,208,235510,1,2,0:0:0:0:
16,248,235813,6,0,P|7:200|24:156,1,80,12|2,0:1|0:0,0:0:0:0:
12,128,236268,1,6,0:0:0:0:
12,128,236419,2,0,L|116:132,1,80,8|6,0:0|0:0,0:0:0:0:
152,68,237026,2,0,L|256:72,1,80,2|6,0:0|0:0,0:0:0:0:
300,128,237632,1,10,0:0:0:0:
256,204,237935,1,6,0:0:0:0:
248,292,238238,6,0,P|305:280|342:213,1,120,4|6,0:0|0:0,0:0:0:0:
364,196,238844,2,0,L|468:200,1,80,8|6,0:0|0:0,0:0:0:0:
440,112,239450,2,0,P|401:120|363:110,1,80,6|2,0:0|0:0,0:0:0:0:
312,41,240056,2,0,P|279:90|280:121,1,80,8|6,0:0|0:0,0:0:0:0:
212,168,240662,6,0,B|168:185|124:168|124:168|96:216,1,120,8|6,3:1|0:0,0:0:0:0:
80,228,241268,2,0,P|113:277|112:308,1,80,8|6,0:0|0:0,0:0:0:0:
196,328,241874,2,0,B|237:256|237:256,1,80,2|6,0:0|0:0,0:0:0:0:
324,272,242480,1,10,0:0:0:0:
380,204,242783,1,6,0:0:0:0:
444,144,243086,6,0,P|387:117|316:148,1,120,6|6,0:0|0:0,0:0:0:0:
304,164,243692,2,0,L|216:128,1,80,8|6,0:0|0:0,0:0:0:0:
144,157,244298,2,0,P|148:99|175:66,2,80,6|2|10,0:0|0:0|0:0,0:0:0:0:
56,172,245207,1,6,0:0:0:0:
84,256,245510,6,0,P|124:304|124:372,1,120,8|6,3:1|0:0,0:0:0:0:
172,368,246116,2,0,L|246:337,1,80,8|6,0:0|0:0,0:0:0:0:
228,252,246722,2,0,L|336:244,1,80,2|6,0:0|0:0,0:0:0:0:
368,180,247329,2,0,L|442:211,1,80,10|6,0:0|0:0,0:0:0:0:
468,128,247935,6,0,L|342:75,1,120,6|6,0:0|0:0,0:0:0:0:
332,44,248541,2,0,L|252:49,1,80,8|6,0:0|0:0,0:0:0:0:
224,132,249147,2,0,P|184:152|164:204,1,80,6|2,0:0|0:0,0:0:0:0:
247,217,249753,1,8,0:0:0:0:
224,300,250056,1,6,0:0:0:0:
312,300,250359,6,0,B|360:244|360:244|416:228,1,120,8|6,3:1|0:0,0:0:0:0:
436,264,250965,2,0,B|488:203,1,80,8|2,0:0|0:0,0:0:0:0:
428,136,251571,2,0,P|432:84|399:34,1,80,2|6,0:0|0:0,0:0:0:0:
344,102,252177,2,0,P|305:110|267:100,1,80,10|6,0:0|0:0,0:0:0:0:
192,52,252783,6,0,B|160:56|160:56|104:40,2,80,6|2|8,0:0|0:0|0:0,0:0:0:0:
184,140,253692,1,6,0:0:0:0:
240,208,253995,2,0,B|327:197,1,80,4|2,0:0|0:0,0:0:0:0:
348,280,254601,2,0,B|285:287,2,40,8|2|2,0:0|0:0|0:0,0:0:0:0:
256,192,255207,12,0,259450,0:0:0:0:
