osu file format v14

[General]
AudioFilename: audio.mp3
AudioLeadIn: 0
PreviewTime: 176269
Countdown: 0
SampleSet: Soft
StackLeniency: 0.7
Mode: 0
LetterboxInBreaks: 0
WidescreenStoryboard: 0

[Editor]
DistanceSpacing: 1.9
BeatDivisor: 4
GridSize: 4
TimelineZoom: 1

[Metadata]
Title:Endless Tears feat. Nakamura Maiko
TitleUnicode:Endless Tears feat. 中村舞子
Artist:CLIFF EDGE
ArtistUnicode:クリフエッジ
Creator:Modem
Version:Hard
Source:
Tags:爱你真的好痛苦 best of love is a beautiful pain sweet grande 2 you are the only one あなたの声が聞こえる
BeatmapID:1758400
BeatmapSetID:818406

[Difficulty]
HPDrainRate:6
CircleSize:3.8
OverallDifficulty:6
ApproachRate:7
SliderMultiplier:1.9
SliderTickRate:1

[Events]
//Background and Video events
0,0,"bg.jpg",0,0
Video,0,"Video.flv"
//Break Periods
2,50559,54146
2,132984,136267
2,176620,184752
//Storyboard Layer 0 (Background)
//Storyboard Layer 1 (Fail)
//Storyboard Layer 2 (Pass)
//Storyboard Layer 3 (Foreground)
//Storyboard Sound Samples

[TimingPoints]
663,606.060606060606,4,2,1,45,1,0
663,-125,4,2,1,45,0,0
9147,-125,4,2,1,25,0,0
9905,-125,4,2,1,45,0,0
28541,-125,4,2,1,5,0,0
30359,-125,4,2,1,40,0,0
30966,606.060606060606,4,2,2,40,1,1
31420,-100,4,2,1,60,0,1
40359,-100,4,2,1,60,0,0
40662,-100,4,2,1,60,0,1
50359,-100,4,2,1,60,0,0
54602,-100,4,2,1,40,0,0
55208,-125,4,2,1,50,0,0
55662,-125,4,2,2,50,0,0
57632,-125,4,2,1,50,0,0
58087,-125,4,2,2,50,0,0
60056,-125,4,2,1,50,0,0
60511,-125,4,2,2,50,0,0
62481,-125,4,2,1,50,0,0
62935,-125,4,2,2,50,0,0
64905,-125,4,2,1,50,0,0
65359,-125,4,2,2,50,0,0
67329,-125,4,2,1,50,0,0
67784,-125,4,2,2,50,0,0
69753,-125,4,2,1,50,0,0
70208,-125,4,2,2,50,0,0
72178,-125,4,2,1,50,0,0
72632,-125,4,2,2,50,0,0
74602,-125,4,2,1,50,0,0
93390,-100,4,2,1,60,0,0
93996,-100,4,2,2,60,0,1
94450,-100,4,2,1,60,0,1
103390,-100,4,2,1,60,0,0
103693,-100,4,2,1,60,0,1
112178,-100,4,2,2,60,0,1
113087,-100,4,2,1,60,0,0
113390,-100,4,2,2,60,0,1
113693,-100,4,2,1,60,0,1
117935,-100,4,2,1,60,0,0
118238,-100,4,2,1,60,0,1
122784,-100,4,2,1,60,0,0
123087,-100,4,2,1,60,0,1
127632,-100,4,2,1,60,0,0
127935,-100,4,2,1,60,0,1
132784,-100,4,2,1,60,0,0
144905,-100,4,2,1,60,0,0
146117,-100,4,2,1,60,0,0
173996,-100,4,2,1,40,0,0
174299,-100,4,2,1,70,0,0
185814,-125,4,2,1,60,0,0
194602,-100,4,2,1,5,0,0
196420,-100,4,2,1,80,0,0
197026,606.060606060606,4,2,2,80,1,1
197329,-100,4,2,1,60,0,1
206419,-100,4,2,1,60,0,0
206722,-100,4,2,1,60,0,1
215207,-100,4,2,2,70,0,1
216116,-100,4,2,1,60,0,0
216419,-100,4,2,2,60,0,1
216722,-100,4,2,1,60,0,1
220965,-100,4,2,1,60,0,0
221268,-100,4,2,1,60,0,1
225813,-100,4,2,1,60,0,0
226116,-100,4,2,1,60,0,1
230662,-100,4,2,1,60,0,0
230965,-100,4,2,1,60,0,1
235510,-100,4,2,1,60,0,0
235813,-100,4,2,2,60,0,1
236116,-100,4,2,1,60,0,1
245207,-100,4,2,1,60,0,0
245510,-100,4,2,1,60,0,1
255207,-100,4,2,1,5,0,0

[Colours]
Combo1 : 34,176,169
Combo2 : 73,196,254
Combo3 : 0,128,255
SliderBorder : 255,255,255

[HitObjects]
256,248,663,6,0,P|300:272|372:256,2,114,2|2|2,3:2|0:0|0:0,0:0:0:0:
172,264,1875,2,0,L|192:140,2,114,2|2|2,0:0|0:0|0:0,0:0:0:0:
113,322,3087,2,0,P|178:346|241:310,2,114,2|2|2,0:0|0:0|0:0,0:0:0:0:
40,280,4299,2,0,L|50:216,2,38,2|0|0,0:0|0:0|0:0,0:0:0:0:
113,322,4905,2,0,L|125:247,1,76,2|2,0:0|0:0,0:0:0:0:
220,268,5511,6,0,L|198:136,2,114,2|2|2,3:2|0:0|0:0,0:0:0:0:
300,292,6723,2,0,B|340:272|384:288|384:288|416:256,2,114,2|2|2,0:0|0:0|0:0,0:0:0:0:
292,208,7935,2,0,B|339:160|339:160|412:144,2,114,2|2|2,0:0|0:0|0:0,0:0:0:0:
248,136,9147,2,0,P|188:92|100:120,1,152,4|0,3:1|0:0,0:0:0:0:
92,140,9905,2,0,L|103:212,2,38,2|2|2,0:0|0:0|0:0,0:0:0:0:
32,228,10359,6,0,L|21:300,1,38,2|2,3:2|0:0,0:0:0:0:
84,324,10663,2,0,L|95:396,1,38,2|2,0:0|0:0,0:0:0:0:
172,372,10966,2,0,L|161:297,1,76,2|2,0:0|0:0,0:0:0:0:
228,248,11420,1,0,0:0:0:0:
296,196,11572,2,0,L|301:158,1,38,2|2,0:0|0:0,0:0:0:0:
244,96,11875,2,0,L|238:58,1,38,2|2,0:0|0:0,0:0:0:0:
321,84,12178,2,0,P|371:125|378:155,1,76,2|2,0:0|0:0,0:0:0:0:
440,288,12784,6,0,P|460:256|493:238,1,76,2|2,0:0|0:0,0:0:0:0:
448,168,13238,1,2,0:0:0:0:
374,133,13390,2,0,P|354:101|321:84,1,76,2|2,0:0|0:0,0:0:0:0:
240,228,13996,2,0,L|246:266,1,38,2|0,0:0|0:0,0:0:0:0:
180,316,14299,2,0,L|174:354,1,38,0|2,0:0|0:0,0:0:0:0:
100,296,14602,2,0,P|92:252|116:200,1,76,2|0,0:0|0:0,0:0:0:0:
172,180,15056,1,2,0:0:0:0:
240,228,15208,6,0,L|246:266,2,38,2|0|2,3:2|0:0|0:0,0:0:0:0:
324,224,15662,1,2,0:0:0:0:
344,144,15814,2,0,L|332:68,1,76,2|0,0:0|0:0,0:0:0:0:
260,24,16269,1,2,0:0:0:0:
256,108,16420,2,0,L|262:146,1,38,2|2,0:0|0:0,0:0:0:0:
176,84,16723,2,0,L|182:46,1,38,2|2,0:0|0:0,0:0:0:0:
112,136,17026,2,0,P|104:180|128:232,1,76,2|0,0:0|0:0,0:0:0:0:
192,356,17632,6,0,L|204:276,1,76,2|2,0:0|0:0,0:0:0:0:
276,236,18087,1,2,0:0:0:0:
348,196,18238,2,0,P|299:158|261:159,1,76,2|2,0:0|0:0,0:0:0:0:
360,308,18844,2,0,L|424:300,1,38,2|0,0:0|0:0,0:0:0:0:
440,232,19147,2,0,L|484:212,1,38,2|2,0:0|0:0,0:0:0:0:
485,123,19450,2,0,L|414:154,1,76,2|0,0:0|0:0,0:0:0:0:
360,92,19905,1,2,0:0:0:0:
288,52,20056,6,0,L|250:56,2,38,2|2|2,3:2|0:0|0:0,0:0:0:0:
280,136,20511,1,2,0:0:0:0:
200,116,20662,2,0,P|175:71|179:27,1,76,2|0,0:0|0:0,0:0:0:0:
92,28,21117,1,2,0:0:0:0:
48,100,21269,2,0,L|40:168,1,38,2|2,0:0|0:0,0:0:0:0:
108,192,21572,2,0,L|116:260,1,38,2|2,0:0|0:0,0:0:0:0:
212,272,21875,2,0,B|197:245|197:245|190:184,1,76,2|0,0:0|0:0,0:0:0:0:
332,292,22481,6,0,B|347:319|347:319|354:380,1,76,2|0,0:0|0:0,0:0:0:0:
432,336,22935,1,2,0:0:0:0:
412,256,23087,2,0,B|369:179,1,76,2|2,0:0|0:0,0:0:0:0:
296,40,23693,2,0,P|240:60|208:52,1,76,2|0,0:0|0:0,0:0:0:0:
84,144,24299,2,0,B|69:171|69:171|62:232,1,76,2|0,0:0|0:0,0:0:0:0:
184,332,24905,6,0,B|194:236|194:236,1,76,2|0,3:2|0:0,0:0:0:0:
272,108,25511,2,0,B|282:203|282:203,1,76,2|0,0:0|0:0,0:0:0:0:
356,332,26117,2,0,B|363:264|363:264,1,38,2|0,0:0|0:0,0:0:0:0:
360,212,26420,2,0,L|468:232,2,76,0|2|2,0:0|0:0|0:0,0:0:0:0:
220,304,27329,6,0,L|112:324,1,76,2|0,0:0|0:0,0:0:0:0:
76,272,27784,1,2,0:0:0:0:
30,202,27935,2,0,P|74:188|112:197,1,76,2|2,0:0|0:0,0:0:0:0:
256,192,28541,12,4,30359,0:0:0:0:
103,193,30966,6,0,P|155:185|191:105,1,142.5,4|6,0:1|0:0,0:0:0:0:
164,32,31572,2,0,P|232:36|261:63,1,95,8|6,0:0|0:0,0:0:0:0:
280,128,32026,1,0,0:0:0:0:
280,208,32178,2,0,P|330:193|359:133,1,95,2|4,0:0|0:0,0:0:0:0:
347,79,32632,1,2,0:0:0:0:
408,25,32784,2,0,P|428:90|412:130,1,95,8|6,0:0|0:0,0:0:0:0:
472,176,33238,1,4,0:0:0:0:
472,176,33390,6,0,P|424:216|428:304,1,142.5,2|6,3:1|0:0,0:0:0:0:
440,372,33996,2,0,L|316:356,1,95,8|6,0:0|0:0,0:0:0:0:
268,220,34602,2,0,L|205:228,1,47.5,6|0,0:0|0:0,0:0:0:0:
172,164,34905,2,0,L|109:155,1,47.5,2|0,0:0|0:0,0:0:0:0:
80,224,35208,2,0,L|17:232,2,47.5,10|2|6,0:0|0:0|0:0,0:0:0:0:
100,300,35662,1,2,0:0:0:0:
204,312,35814,6,0,L|345:330,1,142.5,6|6,0:0|0:0,0:0:0:0:
424,356,36420,2,0,P|420:296|377:254,1,95,8|6,0:0|0:0,0:0:0:0:
348,208,36875,1,0,0:0:0:0:
272,240,37026,2,0,L|177:227,1,95,2|4,0:0|0:0,0:0:0:0:
176,308,37481,1,2,0:0:0:0:
104,344,37632,2,0,L|9:357,1,95,8|6,0:0|0:0,0:0:0:0:
20,276,38087,1,4,0:0:0:0:
20,276,38238,6,0,P|68:212|48:148,1,142.5,2|6,3:1|0:0,0:0:0:0:
16,84,38844,2,0,P|72:76|118:104,1,95,8|6,0:0|0:0,0:0:0:0:
184,232,39450,2,0,L|258:221,1,47.5,6|0,0:0|0:0,0:0:0:0:
272,156,39753,2,0,L|336:188,1,47.5,2|0,0:0|0:0,0:0:0:0:
388,144,40056,2,0,L|412:208,2,47.5,10|0|2,0:0|0:0|0:0,0:0:0:0:
448,88,40511,1,0,0:0:0:0:
332,84,40662,6,0,L|169:1,1,142.5,6|6,0:0|0:0,0:0:0:0:
136,64,41269,1,8,0:0:0:0:
68,208,41572,1,6,0:0:0:0:
228,208,41875,2,0,P|217:276|165:306,1,95,2|4,0:0|0:0,0:0:0:0:
152,228,42329,1,2,0:0:0:0:
172,148,42481,2,0,P|235:126|283:147,1,95,8|6,0:0|0:0,0:0:0:0:
320,188,42935,1,4,0:0:0:0:
320,188,43087,6,0,P|344:136|432:128,1,142.5,2|6,3:1|0:0,0:0:0:0:
500,108,43693,2,0,L|484:220,1,95,8|6,0:0|0:0,0:0:0:0:
392,332,44299,1,6,0:0:0:0:
244,268,44602,2,0,L|254:191,1,47.5,2|0,0:0|0:0,0:0:0:0:
192,164,44905,2,0,L|175:46,1,95,10|4,0:0|0:0,0:0:0:0:
386,84,45511,6,0,P|330:112|254:76,1,142.5,6|4,0:0|0:0,0:0:0:0:
179,70,46117,2,0,P|128:44|60:77,1,95,10|4,0:0|0:0,0:0:0:0:
134,216,46723,2,0,L|117:98,1,95,2|6,0:0|0:0,0:0:0:0:
40,112,47178,1,0,0:0:0:0:
48,192,47329,2,0,L|54:239,1,47.5,10|0,0:0|0:0,0:0:0:0:
112,296,47632,2,0,L|100:360,1,47.5,6|4,0:0|0:0,0:0:0:0:
212,348,47935,6,0,B|176:368|176:368|200:244,1,142.5,2|6,3:1|0:0,0:0:0:0:
272,292,48541,2,0,B|296:168,1,95,8|6,0:0|0:0,0:0:0:0:
404,84,49147,2,0,L|410:131,1,47.5,6|0,0:0|0:0,0:0:0:0:
372,204,49450,2,0,L|360:268,1,47.5,2|0,0:0|0:0,0:0:0:0:
420,308,49753,2,0,L|426:355,1,47.5,10|0,0:0|0:0,0:0:0:0:
508,348,50056,2,0,L|502:301,1,47.5,2|0,0:0|0:0,0:0:0:0:
455,234,50359,5,6,0:0:0:0:
455,234,55208,6,0,P|472:187|444:122,2,114,6|6|6,3:2|0:0|0:0,0:0:0:0:
356,320,56420,1,0,0:0:0:0:
276,216,56723,1,4,0:0:0:0:
276,216,57026,2,0,L|292:128,1,76,8|0,0:0|0:0,0:0:0:0:
220,32,57632,2,0,L|199:144,2,114,6|6|6,3:2|0:0|0:0,0:0:0:0:
340,80,58844,2,0,P|384:92|416:128,1,76,0|4,0:0|0:0,0:0:0:0:
500,200,59450,2,0,P|456:212|424:248,1,76,8|0,0:0|0:0,0:0:0:0:
328,308,60056,6,0,P|340:228|308:188,2,114,6|6|6,3:2|0:0|0:0,0:0:0:0:
212,364,61269,2,0,L|116:348,2,76,0|4|8,0:0|0:0|0:0,0:0:0:0:
192,236,62178,1,0,0:0:0:0:
192,236,62481,2,0,B|184:192|184:192|208:96,1,114,6|4,3:2|0:0,0:0:0:0:
248,128,63087,2,0,B|233:47|233:47,1,76,8|6,0:0|0:0,0:0:0:0:
364,40,63693,2,0,B|375:97|375:97|435:101|459:161,1,152,6|8,0:0|0:0,0:0:0:0:
492,268,64602,1,0,0:0:0:0:
492,268,64905,6,0,P|432:252|360:276,2,114,6|6|6,3:2|0:0|0:0,0:0:0:0:
451,144,66117,1,0,0:0:0:0:
324,176,66420,1,4,0:0:0:0:
324,176,66723,2,0,B|309:95|309:95,1,76,8|0,0:0|0:0,0:0:0:0:
200,32,67329,2,0,B|203:14|179:144,2,114,6|6|6,3:2|0:0|0:0,0:0:0:0:
310,101,68541,2,0,B|309:95|324:176,1,76,0|4,0:0|0:0,0:0:0:0:
212,280,69147,2,0,B|214:264|193:380,1,76,8|0,0:0|0:0,0:0:0:0:
156,228,69753,6,0,P|208:204|264:224,2,114,6|6|6,3:2|0:0|0:0,0:0:0:0:
40,288,70966,2,0,B|25:208,2,76,0|4|8,0:0|0:0|0:0,0:0:0:0:
140,368,71875,1,0,0:0:0:0:
140,368,72178,2,0,B|132:329|132:329|180:344|228:316,1,114,6|4,3:2|0:0,0:0:0:0:
252,336,72784,2,0,P|244:292|260:250,1,76,8|6,0:0|0:0,0:0:0:0:
356,184,73390,2,0,P|272:184|228:124,1,152,6|8,0:0|0:0,0:0:0:0:
140,44,74299,1,0,0:0:0:0:
64,192,74602,6,0,L|68:252,1,38,6|0,3:2|0:0,0:0:0:0:
132,280,74905,2,0,L|136:340,1,38,2|4,0:0|0:0,0:0:0:0:
216,344,75208,2,0,L|210:263,1,76,8|4,0:0|0:0,0:0:0:0:
128,120,75814,2,0,L|188:124,1,38,2|4,0:0|0:0,0:0:0:0:
224,184,76117,2,0,L|288:172,1,38,6|0,0:0|0:0,0:0:0:0:
292,100,76420,2,0,P|332:132|344:176,1,76,8|4,0:0|0:0,0:0:0:0:
327,236,76875,1,4,0:0:0:0:
248,261,77026,6,0,L|210:268,2,38,6|0|2,3:2|0:0|0:0,0:0:0:0:
308,320,77481,1,4,0:0:0:0:
327,236,77632,2,0,P|380:272|392:312,1,76,8|4,0:0|0:0,0:0:0:0:
492,152,78238,2,0,L|496:80,1,38,2|4,0:0|0:0,0:0:0:0:
424,68,78541,2,0,L|412:4,1,38,6|0,0:0|0:0,0:0:0:0:
340,64,78844,2,0,L|354:142,1,76,8|0,0:0|0:0,0:0:0:0:
188,136,79450,6,0,P|223:115|288:127,2,76,6|2|8,3:2|0:0|0:0,0:0:0:0:
88,268,80359,1,4,0:0:0:0:
254,236,80662,2,0,L|242:172,1,38,2|6,0:0|0:0,0:0:0:0:
320,288,80966,2,0,L|308:352,1,38,6|0,0:0|0:0,0:0:0:0:
396,268,81269,2,0,P|369:225|313:211,1,76,8|0,0:0|0:0,0:0:0:0:
248,80,81875,6,0,L|236:144,2,38,6|0|2,3:2|0:0|0:0,0:0:0:0:
416,80,82481,2,0,L|428:144,2,38,8|0|6,0:0|0:0|0:0,0:0:0:0:
232,84,83087,2,0,L|220:148,1,38,2|4,0:0|0:0,0:0:0:0:
156,168,83390,2,0,L|168:232,1,38,6|0,0:0|0:0,0:0:0:0:
112,272,83693,2,0,P|174:288|200:280,1,76,8|4,0:0|0:0,0:0:0:0:
352,268,84299,6,0,P|288:288|264:356,1,114,6|6,3:2|0:0,0:0:0:0:
196,372,84905,2,0,L|112:364,1,76,8|4,0:0|0:0,0:0:0:0:
48,324,85359,1,2,0:0:0:0:
112,272,85511,2,0,L|176:278,1,38,0|6,0:0|0:0,0:0:0:0:
92,192,85814,2,0,L|-16:212,2,76,6|8|6,0:0|0:0|0:0,0:0:0:0:
120,112,86572,1,4,0:0:0:0:
204,108,86723,6,0,L|268:114,1,38,6|0,3:2|0:0,0:0:0:0:
296,176,87026,2,0,L|333:169,1,38,2|0,0:0|0:0,0:0:0:0:
392,228,87329,2,0,L|428:192,2,38,8|0|6,0:0|0:0|0:0,0:0:0:0:
332,284,87784,1,0,0:0:0:0:
252,256,87935,2,0,P|204:232|152:248,2,76,2|6|8,0:0|0:0|0:0,0:0:0:0:
388,356,88844,1,0,0:0:0:0:
456,204,89147,6,0,L|444:132,1,38,6|0,3:2|0:0,0:0:0:0:
400,99,89450,2,0,L|412:27,1,38,2|4,0:0|0:0,0:0:0:0:
492,59,89753,2,0,L|498:96,2,38,10|0|2,0:0|0:0|0:0,0:0:0:0:
368,172,90359,2,0,L|374:209,1,38,2|6,0:0|0:0,0:0:0:0:
308,260,90662,2,0,L|301:297,1,38,6|2,0:0|0:0,0:0:0:0:
224,264,90966,2,0,P|185:243|165:196,1,76,10|4,0:0|0:0,0:0:0:0:
244,184,91420,1,4,0:0:0:0:
172,140,91572,6,0,P|121:156|96:198,2,76,6|2|8,3:2|0:0|0:0,0:0:0:0:
316,56,92481,1,6,0:0:0:0:
356,128,92632,2,0,B|352:182|352:182|320:220,2,76,2|2|0,0:0|0:0|0:0,0:0:0:0:
396,56,93390,1,2,0:0:0:0:
396,56,93996,6,0,P|343:79|248:37,1,142.5,4|6,0:1|0:0,0:0:0:0:
188,32,94602,2,0,P|195:96|235:130,1,95,8|6,0:0|0:0,0:0:0:0:
252,188,95056,1,0,0:0:0:0:
332,178,95208,2,0,P|313:244|275:265,1,95,2|4,0:0|0:0,0:0:0:0:
232,312,95662,1,2,0:0:0:0:
164,268,95814,2,0,L|60:256,1,95,8|6,0:0|0:0,0:0:0:0:
36,184,96269,1,4,0:0:0:0:
36,184,96420,6,0,P|40:120|128:80,1,142.5,2|6,3:1|0:0,0:0:0:0:
168,32,97026,2,0,P|180:102|156:143,1,95,8|6,0:0|0:0,0:0:0:0:
268,252,97632,2,0,L|343:260,1,47.5,6|0,0:0|0:0,0:0:0:0:
364,192,97935,2,0,L|439:183,1,47.5,2|0,0:0|0:0,0:0:0:0:
452,116,98238,2,0,L|527:124,2,47.5,10|2|6,0:0|0:0|0:0,0:0:0:0:
388,68,98693,1,2,0:0:0:0:
296,124,98844,6,0,P|252:148|168:124,1,142.5,6|6,0:0|0:0,0:0:0:0:
96,84,99450,2,0,L|80:184,1,95,8|6,0:0|0:0,0:0:0:0:
148,220,99905,1,0,0:0:0:0:
220,256,100056,2,0,L|236:356,1,95,2|4,0:0|0:0,0:0:0:0:
312,328,100511,1,2,0:0:0:0:
392,336,100662,2,0,P|380:284|332:251,1,95,8|6,0:0|0:0,0:0:0:0:
288,204,101117,1,4,0:0:0:0:
288,204,101269,6,0,P|304:136|388:112,1,142.5,2|6,3:1|0:0,0:0:0:0:
432,60,101875,2,0,P|448:112|424:168,1,95,8|6,0:0|0:0,0:0:0:0:
328,32,102481,2,0,L|272:28,1,47.5,6|0,0:0|0:0,0:0:0:0:
220,84,102784,2,0,L|160:104,1,47.5,2|0,0:0|0:0,0:0:0:0:
184,180,103087,2,0,L|148:240,2,47.5,10|0|2,0:0|0:0|0:0,0:0:0:0:
256,216,103541,1,0,0:0:0:0:
184,296,103693,6,0,P|106:280|82:212,1,142.5,6|6,0:0|0:0,0:0:0:0:
20,176,104299,2,0,P|88:168|116:136,1,95,8|6,0:0|0:0,0:0:0:0:
224,40,104905,2,0,P|292:48|320:80,1,95,2|4,0:0|0:0,0:0:0:0:
248,116,105359,1,2,0:0:0:0:
188,172,105511,2,0,B|180:208|180:208|200:284,1,95,8|6,0:0|0:0,0:0:0:0:
284,298,105966,1,4,0:0:0:0:
284,298,106117,6,0,B|259:206|259:206|316:226,1,142.5,2|6,3:1|0:0,0:0:0:0:
324,144,106723,2,0,B|450:188,1,95,8|6,0:0|0:0,0:0:0:0:
484,32,107329,1,6,0:0:0:0:
324,48,107632,2,0,B|252:22,1,47.5,2|0,0:0|0:0,0:0:0:0:
228,96,107935,2,0,B|102:140,1,95,10|4,0:0|0:0,0:0:0:0:
172,312,108541,6,0,P|160:248|232:192,1,142.5,6|4,0:0|0:0,0:0:0:0:
292,192,109147,2,0,P|336:208|389:191,1,95,10|4,0:0|0:0,0:0:0:0:
346,41,109753,2,0,P|330:104|348:143,1,95,2|2,0:0|0:0,0:0:0:0:
409,91,110208,1,0,0:0:0:0:
464,148,110359,2,0,L|460:216,1,47.5,10|0,0:0|0:0,0:0:0:0:
420,264,110662,2,0,L|424:332,1,47.5,6|4,0:0|0:0,0:0:0:0:
336,372,110966,6,0,B|348:328|348:328|341:201,1,142.5,2|6,3:1|0:0,0:0:0:0:
265,206,111572,2,0,B|270:300|270:300,1,95,8|6,0:0|0:0,0:0:0:0:
120,356,112178,1,12,0:1:0:0:
24,224,112481,1,0,0:0:0:0:
132,344,112784,1,12,0:1:0:0:
92,180,113087,1,2,0:0:0:0:
144,332,113390,6,0,P|192:336|236:380,1,95,12|0,0:1|0:0,0:0:0:0:
308,368,113844,1,4,0:0:0:0:
384,344,113996,2,0,P|343:297|281:296,1,95,8|6,0:0|0:0,0:0:0:0:
184,192,114602,2,0,L|200:72,1,95,2|4,0:0|0:0,0:0:0:0:
276,84,115056,1,0,0:0:0:0:
336,32,115208,2,0,P|351:108|325:147,1,95,8|6,0:0|0:0,0:0:0:0:
292,184,115662,1,4,0:0:0:0:
292,184,115814,6,0,P|348:180|400:216,1,95,6|0,3:2|0:0,0:0:0:0:
480,328,116420,2,0,L|496:208,1,95,8|4,0:0|0:0,0:0:0:0:
432,60,117026,2,0,L|448:180,2,95,6|2|10,0:0|0:0|0:0,0:0:0:0:
272,32,117935,1,6,0:0:0:0:
272,32,118238,6,0,P|212:48|188:96,1,95,6|0,0:0|0:0,0:0:0:0:
120,108,118693,1,4,0:0:0:0:
120,108,118844,2,0,L|200:184,1,95,8|6,0:0|0:0,0:0:0:0:
224,332,119450,2,0,P|284:316|308:268,1,95,2|4,0:0|0:0,0:0:0:0:
308,212,119905,1,0,0:0:0:0:
308,212,120056,2,0,P|360:224|408:208,1,95,8|6,0:0|0:0,0:0:0:0:
436,284,120511,1,4,0:0:0:0:
480,216,120662,6,0,P|467:168|417:135,1,95,6|0,3:2|0:0,0:0:0:0:
272,124,121269,2,0,P|216:176|213:208,1,95,10|4,0:0|0:0,0:0:0:0:
248,264,121723,1,2,0:0:0:0:
248,264,121875,2,0,P|188:240|136:264,2,95,4|2|10,0:0|0:0|0:0,0:0:0:0:
376,364,122784,1,6,0:0:0:0:
376,364,123087,6,0,B|368:328|368:328|388:248,1,95,6|0,0:0|0:0,0:0:0:0:
460,260,123541,1,4,0:0:0:0:
504,192,123693,2,0,P|444:181|401:207,1,95,8|6,0:0|0:0,0:0:0:0:
268,256,124299,2,0,P|272:192|236:148,1,95,2|4,0:0|0:0,0:0:0:0:
200,108,124753,1,0,0:0:0:0:
140,164,124905,2,0,B|125:220|125:220|133:256,1,95,8|6,0:0|0:0,0:0:0:0:
64,304,125359,1,4,0:0:0:0:
64,304,125511,6,0,B|41:203|41:203,1,95,6|0,3:2|0:0,0:0:0:0:
200,108,126117,2,0,B|226:7,1,95,8|6,0:0|0:0,0:0:0:0:
352,212,126723,2,0,P|380:256|368:328,2,95,6|2|10,0:0|0:0|0:0,0:0:0:0:
292,60,127632,1,6,0:0:0:0:
292,60,127935,6,0,P|232:92|184:80,1,95,6|0,0:0|0:0,0:0:0:0:
128,72,128390,1,4,0:0:0:0:
128,72,128541,2,0,B|151:173,1,95,8|6,0:0|0:0,0:0:0:0:
38,344,129147,2,0,B|61:243,1,95,2|4,0:0|0:0,0:0:0:0:
138,272,129602,1,0,0:0:0:0:
138,272,129753,2,0,P|185:270|223:243,1,95,8|6,0:0|0:0,0:0:0:0:
284,192,130208,1,4,0:0:0:0:
280,112,130359,6,0,P|339:131|362:175,1,95,6|0,3:2|0:0,0:0:0:0:
196,148,130965,2,0,L|88:136,1,95,8|6,0:0|0:0,0:0:0:0:
228,36,131572,2,0,L|336:24,2,95,6|2|10,0:0|0:0|0:0,0:0:0:0:
68,36,132481,1,2,0:0:0:0:
32,192,132784,5,6,3:2:0:0:
32,192,137329,6,0,L|72:140,1,47.5,2|0,0:0|0:0,0:0:0:0:
156,95,137632,6,0,L|64:72,2,95,6|2|8,0:0|0:0|0:0,0:0:0:0:
164,256,138541,1,4,0:0:0:0:
292,160,138844,2,0,L|374:139,1,47.5,2|0,0:0|0:0,0:0:0:0:
384,80,139147,2,0,L|457:98,1,47.5,6|0,0:0|0:0,0:0:0:0:
500,52,139450,2,0,P|507:117|474:161,1,95,8|6,0:0|0:0,0:0:0:0:
420,176,139905,1,4,0:0:0:0:
292,160,140056,6,0,L|199:183,1,95,6|0,0:0|0:0,0:0:0:0:
144,124,140511,1,6,0:0:0:0:
148,44,140662,2,0,P|85:68|66:118,1,95,8|6,0:0|0:0,0:0:0:0:
88,252,141269,2,0,L|152:236,1,47.5,6|0,0:0|0:0,0:0:0:0:
184,304,141572,2,0,L|248:319,1,47.5,2|0,0:0|0:0,0:0:0:0:
323,318,141875,2,0,B|275:326|275:326|204:309,1,95,8|4,0:0|0:0,0:0:0:0:
300,168,142481,6,0,B|298:168|351:159,2,47.5,6|0|2,0:0|0:0|0:0,0:0:0:0:
240,224,142935,1,4,0:0:0:0:
160,204,143087,2,0,P|183:162|228:142,1,95,8|4,0:0|0:0,0:0:0:0:
248,64,143541,1,2,0:0:0:0:
248,64,143693,2,0,B|244:64|350:46,1,95,0|6,0:0|0:0,0:0:0:0:
424,188,144299,2,0,B|422:188|475:197,1,47.5,10|0,0:0|0:0,0:0:0:0:
484,276,144602,2,0,B|435:267|437:267,1,47.5,6|4,0:0|0:0,0:0:0:0:
361,314,144905,6,0,P|406:302|437:267,1,95,2|0,3:2|0:0,0:0:0:0:
312,164,145511,2,0,B|264:172|264:172|193:155,1,95,0|0,3:0|0:0,0:0:0:0:
168,96,145966,1,2,0:0:0:0:
224,36,146117,2,0,B|291:52|291:52,1,47.5,6|0,0:0|0:0,0:0:0:0:
344,84,146420,2,0,B|342:84|390:76,1,47.5,2|0,0:0|0:0,0:0:0:0:
460,36,146723,2,0,P|463:112|433:146,1,95,8|4,0:0|0:0,0:0:0:0:
400,184,147178,1,2,0:0:0:0:
448,248,147329,6,0,L|440:332,1,47.5,6|0,0:0|0:0,0:0:0:0:
364,316,147632,2,0,L|368:268,1,47.5,2|4,0:0|0:0,0:0:0:0:
356,157,147935,2,0,B|381:158|404:141|404:141|398:202,1,95,8|4,0:0|0:0,0:0:0:0:
448,248,148390,1,2,0:0:0:0:
480,176,148541,2,0,L|484:128,1,47.5,2|0,0:0|0:0,0:0:0:0:
434,65,148844,2,0,L|429:17,1,47.5,6|0,0:0|0:0,0:0:0:0:
352,48,149147,2,0,P|284:72|248:62,1,95,8|4,0:0|0:0,0:0:0:0:
184,40,149602,1,4,0:0:0:0:
184,40,149753,6,0,L|194:141,1,95,6|2,0:0|0:0,0:0:0:0:
128,184,150208,1,4,0:0:0:0:
104,260,150359,2,0,L|96:340,1,47.5,10|0,0:0|0:0,0:0:0:0:
172,360,150662,2,0,B|179:291|179:291|224:320,2,95,6|6|6,0:0|0:0|0:0,0:0:0:0:
300,244,151572,2,0,B|252:240|252:240|187:197,1,95,10|4,0:0|0:0,0:0:0:0:
340,311,152178,6,0,P|372:275|369:212,1,95,6|2,0:0|0:0,0:0:0:0:
440,184,152632,1,6,0:0:0:0:
400,112,152784,2,0,B|364:104|364:104|288:124,1,95,10|6,0:0|0:0,0:0:0:0:
228,132,153238,1,2,0:0:0:0:
188,204,153390,2,0,B|234:214,1,47.5,2|0,0:0|0:0,0:0:0:0:
284,280,153693,2,0,L|344:256,1,47.5,6|0,0:0|0:0,0:0:0:0:
228,344,153996,2,0,B|130:322|130:322,1,95,10|4,0:0|0:0,0:0:0:0:
135,233,154450,1,4,0:0:0:0:
135,233,154602,6,0,P|147:293|131:329,1,95,6|2,0:0|0:0,0:0:0:0:
68,276,155056,1,4,0:0:0:0:
24,208,155208,1,10,0:0:0:0:
72,144,155359,2,0,P|116:124|176:136,2,95,2|2|6,0:0|0:0|0:0,0:0:0:0:
20,84,156117,2,0,L|28:28,1,47.5,4|2,0:0|0:0,0:0:0:0:
152,32,156420,5,6,0:0:0:0:
168,40,156723,1,4,0:0:0:0:
184,48,157026,6,0,B|232:67|276:48|276:48|240:120,1,142.5,6|6,0:0|0:0,0:0:0:0:
220,172,157632,2,0,P|280:184|308:216,1,95,8|6,0:0|0:0,0:0:0:0:
348,276,158087,1,0,0:0:0:0:
288,332,158238,2,0,B|240:340|240:340|176:324,1,95,2|6,0:0|0:0,0:0:0:0:
115,343,158693,1,2,0:0:0:0:
84,268,158844,2,0,B|112:211|112:211,1,47.5,8|2,0:0|0:0,0:0:0:0:
80,120,159147,1,4,0:0:0:0:
80,120,159299,1,6,0:0:0:0:
80,120,159450,6,0,P|136:144|192:128,1,95,6|2,0:0|0:0,0:0:0:0:
228,192,159905,1,6,0:0:0:0:
244,272,160056,2,0,P|288:248|306:180,1,95,8|4,0:0|0:0,0:0:0:0:
384,184,160511,1,2,0:0:0:0:
380,104,160662,2,0,L|320:60,1,47.5,6|2,0:0|0:0,0:0:0:0:
260,88,160966,1,2,0:0:0:0:
260,88,161117,1,2,0:0:0:0:
180,108,161269,2,0,P|136:92|64:120,1,95,8|4,0:0|0:0,0:0:0:0:
18,138,161723,1,2,0:0:0:0:
44,216,161875,6,0,L|38:263,1,47.5,6|2,0:0|0:0,0:0:0:0:
116,292,162178,2,0,L|124:356,1,47.5,2|6,0:0|0:0,0:0:0:0:
200,368,162481,2,0,L|208:304,2,47.5,10|0|6,0:0|0:0|0:0,0:0:0:0:
280,356,162935,1,2,0:0:0:0:
348,316,163087,2,0,L|334:207,1,95,2|6,0:0|0:0,0:0:0:0:
264,184,163541,1,2,0:0:0:0:
184,172,163693,2,0,P|214:120|262:104,1,95,8|4,0:0|0:0,0:0:0:0:
352,112,164147,1,6,0:0:0:0:
352,112,164299,6,0,P|320:76|328:4,2,95,6|2|8,0:0|0:0|0:0,0:0:0:0:
452,236,165208,1,4,0:0:0:0:
452,236,165359,1,2,0:0:0:0:
452,236,165511,2,0,L|436:344,1,95,4|0,0:0|0:0,0:0:0:0:
284,372,166117,1,10,0:0:0:0:
188,240,166420,1,2,0:0:0:0:
108,100,166723,6,0,P|164:104|216:68,2,95,4|2|8,0:0|0:0|0:0,0:0:0:0:
28,280,167632,2,0,L|43:324,1,47.5,6|0,0:0|0:0,0:0:0:0:
112,372,167935,2,0,L|127:327,1,47.5,2|0,0:0|0:0,0:0:0:0:
103,249,168238,2,0,L|118:204,1,47.5,6|2,0:0|0:0,0:0:0:0:
200,216,168541,1,8,0:0:0:0:
288,80,168844,1,4,0:0:0:0:
288,80,168996,1,4,0:0:0:0:
288,80,169147,6,0,B|314:158|314:158|304:200,2,95,6|0|8,0:0|0:0|0:0,0:0:0:0:
400,200,170056,1,6,0:0:0:0:
260,280,170359,2,0,B|246:338,1,47.5,6|2,0:0|0:0,0:0:0:0:
172,300,170662,2,0,L|132:344,1,47.5,2|2,0:0|0:0,0:0:0:0:
84,276,170966,2,0,L|24:288,2,47.5,10|2|6,0:0|0:0|0:0,0:0:0:0:
184,148,171572,6,0,P|122:142|71:190,1,95,6|2,0:0|0:0,0:0:0:0:
145,220,172026,1,6,0:0:0:0:
224,236,172178,2,0,L|294:158,1,95,8|4,0:0|0:0,0:0:0:0:
380,32,172784,2,0,P|364:84|384:132,1,95,2|6,0:0|0:0,0:0:0:0:
420,188,173238,1,2,0:0:0:0:
464,256,173390,2,0,P|480:308|460:356,1,95,8|4,0:0|0:0,0:0:0:0:
392,368,173844,1,4,0:0:0:0:
392,368,173996,6,0,L|272:356,1,95,4|2,0:1|0:0,0:0:0:0:
248,296,174450,1,2,0:0:0:0:
168,316,174602,2,0,L|87:324,1,47.5,2|2,0:0|0:0,0:0:0:0:
56,368,174905,2,0,L|-16:360,1,47.5,2|2,0:0|0:0,0:0:0:0:
40,284,175208,1,2,0:0:0:0:
108,140,175511,1,2,0:0:0:0:
268,172,175814,1,2,0:0:0:0:
384,60,176117,1,2,0:0:0:0:
252,256,176420,5,2,3:1:0:0:
252,256,185814,5,2,0:0:0:0:
252,256,186117,6,0,L|240:172,1,76,2|2,3:1|0:0,0:0:0:0:
260,100,186572,2,0,P|203:107|163:158,1,114,2|2,0:0|0:0,0:0:0:0:
280,24,187329,2,0,P|337:82|337:117,2,114,2|2|2,0:0|0:0|0:0,0:0:0:0:
319,188,188541,2,0,P|383:178|418:120,2,114,2|2|2,3:1|0:0|0:0,0:0:0:0:
168,260,189753,2,0,L|228:276,1,38,2|0,0:0|0:0,0:0:0:0:
260,336,190056,2,0,L|320:320,1,38,2|0,0:0|0:0,0:0:0:0:
376,352,190359,2,0,L|400:304,2,38,2|0|2,0:0|0:0|0:0,0:0:0:0:
340,192,190966,6,0,B|381:224|381:224|456:219|482:289,2,152,2|2|2,3:1|0:0|0:0,0:0:0:0:
220,308,192481,2,0,B|225:311|166:265,1,38,2|0,0:0|0:0,0:0:0:0:
116,324,192784,2,0,B|121:327|92:256,1,38,2|0,0:0|0:0,0:0:0:0:
20,292,193087,2,0,L|32:240,1,38,2|0,0:0|0:0,0:0:0:0:
106,100,193390,6,0,P|118:152|94:208,2,114,2|2|2,3:1|0:0|0:0,0:0:0:0:
256,192,194602,12,4,196420,0:0:0:0:
107,100,197026,6,0,P|176:68|224:88,1,95,4|2,0:1|0:0,0:0:0:0:
280,76,197480,1,4,0:0:0:0:
272,168,197632,2,0,L|372:156,1,95,8|6,0:0|0:0,0:0:0:0:
428,224,198086,1,0,0:0:0:0:
344,256,198238,2,0,L|277:263,1,47.5,2|0,0:0|0:0,0:0:0:0:
244,336,198541,2,0,L|177:328,1,47.5,6|2,0:0|0:0,0:0:0:0:
108,344,198844,2,0,L|72:284,1,47.5,8|0,0:0|0:0,0:0:0:0:
12,248,199147,2,0,L|28:184,1,47.5,6|4,0:0|0:0,0:0:0:0:
136,120,199450,6,0,L|108:230,1,95,2|2,3:1|0:0,0:0:0:0:
200,196,199904,1,6,0:0:0:0:
212,107,200056,2,0,P|175:54|106:51,1,95,8|4,0:0|0:0,0:0:0:0:
60,44,200510,1,2,0:0:0:0:
12,120,200662,2,0,L|0:166,1,47.5,6|0,0:0|0:0,0:0:0:0:
48,244,200965,2,0,L|36:290,1,47.5,2|0,0:0|0:0,0:0:0:0:
132,372,201268,2,0,L|120:325,1,47.5,8|2,0:0|0:0,0:0:0:0:
168,248,201571,2,0,L|156:201,1,47.5,4|2,0:0|0:0,0:0:0:0:
240,100,201874,6,0,L|228:146,2,47.5,6|0|2,0:0|0:0|0:0,0:0:0:0:
320,144,202329,1,6,0:0:0:0:
276,224,202480,2,0,L|300:320,1,95,8|4,0:0|0:0,0:0:0:0:
388,344,202935,1,2,0:0:0:0:
392,256,203086,2,0,L|380:209,1,47.5,2|0,0:0|0:0,0:0:0:0:
448,152,203389,2,0,L|460:106,1,47.5,6|2,0:0|0:0,0:0:0:0:
320,144,203692,2,0,P|256:144|212:92,1,95,8|4,0:0|0:0,0:0:0:0:
160,32,204147,1,4,0:0:0:0:
160,32,204298,6,0,P|160:96|108:140,1,95,2|2,3:1|0:0,0:0:0:0:
180,200,204753,1,6,0:0:0:0:
116,264,204904,2,0,L|24:208,1,95,8|4,0:0|0:0,0:0:0:0:
8,128,205359,1,2,0:0:0:0:
32,40,205510,2,0,L|96:79,1,47.5,6|0,0:0|0:0,0:0:0:0:
108,148,205813,2,0,L|172:136,1,47.5,2|0,0:0|0:0,0:0:0:0:
232,188,206116,2,0,L|280:132,1,47.5,8|2,0:0|0:0,0:0:0:0:
352,144,206419,2,0,L|336:52,1,47.5,4|2,0:0|0:0,0:0:0:0:
248,28,206722,6,0,L|256:74,2,47.5,6|0|2,0:0|0:0|0:0,0:0:0:0:
164,64,207177,1,4,0:0:0:0:
76,40,207329,2,0,P|32:70|23:137,1,95,8|4,0:0|0:0,0:0:0:0:
24,196,207783,1,2,0:0:0:0:
107,164,207935,2,0,L|98:117,1,47.5,2|0,0:0|0:0,0:0:0:0:
179,216,208238,2,0,L|170:263,1,47.5,6|2,0:0|0:0,0:0:0:0:
276,180,208541,2,0,L|254:292,1,95,8|4,0:0|0:0,0:0:0:0:
362,211,208995,1,4,0:0:0:0:
362,210,209147,6,0,B|322:182|322:182|250:178,1,95,2|0,3:1|0:0,0:0:0:0:
200,132,209601,1,6,0:0:0:0:
280,92,209753,2,0,B|344:96|344:96|388:80,2,95,8|6|6,0:0|0:0|0:0,0:0:0:0:
108,36,210662,1,0,0:0:0:0:
32,200,210965,2,0,P|50:269|76:288,1,95,8|4,0:0|0:0,0:0:0:0:
199,231,211571,6,0,P|151:211|87:227,1,95,6|0,0:0|0:0,0:0:0:0:
88,128,212026,1,4,0:0:0:0:
8,84,212177,2,0,P|43:46|105:40,1,95,8|4,0:0|0:0,0:0:0:0:
245,45,212783,1,2,0:0:0:0:
245,45,213086,2,0,B|313:19|313:19,1,47.5,4|0,0:0|0:0,0:0:0:0:
320,112,213389,2,0,L|404:116,1,47.5,8|0,0:0|0:0,0:0:0:0:
376,204,213692,2,0,L|436:240,1,47.5,6|4,0:0|0:0,0:0:0:0:
494,134,213995,6,0,P|430:162|422:242,1,142.5,2|6,3:1|0:0,0:0:0:0:
360,300,214601,2,0,L|274:248,1,95,8|6,0:0|0:0,0:0:0:0:
116,328,215207,1,12,0:1:0:0:
188,188,215510,1,0,0:0:0:0:
100,320,215813,1,12,0:1:0:0:
260,144,216116,1,2,0:0:0:0:
84,312,216419,6,0,P|56:264|68:204,1,95,12|0,0:1|0:0,0:0:0:0:
106,149,216874,1,4,0:0:0:0:
188,188,217026,2,0,P|216:236|204:296,1,95,8|6,0:0|0:0,0:0:0:0:
274,162,217632,2,0,P|227:162|188:188,1,95,2|4,0:0|0:0,0:0:0:0:
106,149,218086,1,0,0:0:0:0:
42,88,218238,2,0,P|81:62|127:62,1,95,8|6,0:0|0:0,0:0:0:0:
221,38,218692,1,4,0:0:0:0:
220,38,218844,6,0,L|112:66,1,95,6|0,3:2|0:0,0:0:0:0:
14,173,219450,2,0,L|105:149,1,95,8|4,0:0|0:0,0:0:0:0:
260,240,220056,2,0,L|169:216,2,95,6|2|10,0:0|0:0|0:0,0:0:0:0:
372,96,220965,1,6,0:0:0:0:
372,96,221268,6,0,P|300:136|260:124,1,95,6|0,0:0|0:0,0:0:0:0:
212,92,221722,1,4,0:0:0:0:
212,92,221874,2,0,P|166:100|132:132,1,95,8|6,0:0|0:0,0:0:0:0:
260,240,222480,2,0,L|169:216,1,95,2|4,0:0|0:0,0:0:0:0:
95,263,222935,1,0,0:0:0:0:
95,263,223086,2,0,L|2:277,1,95,8|6,0:0|0:0,0:0:0:0:
0,188,223541,1,4,0:0:0:0:
72,136,223692,6,0,P|116:116|140:48,1,95,6|0,3:2|0:0,0:0:0:0:
316,140,224298,2,0,P|272:120|248:52,1,95,10|6,0:0|0:0,0:0:0:0:
196,156,224753,1,2,0:0:0:0:
196,156,224904,2,0,B|186:203|186:203|204:256,2,95,4|2|10,0:0|0:0|0:0,0:0:0:0:
324,284,225813,1,6,0:0:0:0:
324,284,226116,6,0,B|289:182|289:182,1,95,6|0,0:0|0:0,0:0:0:0:
376,160,226571,1,4,0:0:0:0:
448,216,226722,2,0,B|483:114|483:114,1,95,8|6,0:0|0:0,0:0:0:0:
500,304,227329,2,0,P|432:332|420:364,1,95,2|4,0:0|0:0,0:0:0:0:
336,372,227783,1,0,0:0:0:0:
324,284,227935,2,0,B|289:182|289:182,1,95,8|6,0:0|0:0,0:0:0:0:
236,124,228389,1,4,0:0:0:0:
236,124,228541,6,0,B|201:226,1,95,6|0,3:2|0:0,0:0:0:0:
96,360,229147,2,0,B|61:258|61:258,1,95,8|6,0:0|0:0,0:0:0:0:
76,180,229601,1,0,0:0:0:0:
152,128,229753,2,0,B|173:65,1,47.5,6|0,0:0|0:0,0:0:0:0:
152,232,230056,2,0,B|173:294,1,47.5,2|0,0:0|0:0,0:0:0:0:
296,348,230359,2,0,P|236:340|192:364,1,95,10|6,0:0|0:0,0:0:0:0:
272,168,230965,6,0,B|272:196|272:196|303:289,1,95,6|0,0:0|0:0,0:0:0:0:
392,308,231419,1,4,0:0:0:0:
392,308,231571,2,0,P|376:248|396:204,1,95,8|6,0:0|0:0,0:0:0:0:
424,40,232177,2,0,B|455:133,1,95,2|4,0:0|0:0,0:0:0:0:
360,112,232632,1,0,0:0:0:0:
360,112,232783,2,0,P|308:112|264:152,1,95,8|6,0:0|0:0,0:0:0:0:
216,204,233238,1,4,0:0:0:0:
152,144,233389,6,0,P|112:118|66:120,1,95,6|0,3:2|0:0,0:0:0:0:
176,272,233995,2,0,P|233:281|283:247,1,95,8|6,0:0|0:0,0:0:0:0:
380,128,234601,2,0,B|368:196|368:196|376:228,2,95,6|2|10,0:0|0:0|0:0,0:0:0:0:
428,316,235510,1,2,0:0:0:0:
428,316,235813,6,0,P|360:312|316:352,1,95,12|2,0:1|0:0,0:0:0:0:
260,364,236268,1,6,0:0:0:0:
184,320,236419,2,0,B|157:212|157:212,1,95,8|6,0:0|0:0,0:0:0:0:
256,72,237026,2,0,B|237:147|237:147,2,47.5,2|0|6,0:0|0:0|0:0,0:0:0:0:
332,120,237480,1,0,0:0:0:0:
340,212,237632,2,0,B|358:287|358:287,2,47.5,10|2|6,0:0|0:0|0:0,0:0:0:0:
428,208,238086,1,6,0:0:0:0:
428,208,238238,6,0,P|428:144|464:104,1,95,4|2,0:0|0:0,0:0:0:0:
424,32,238692,1,6,0:0:0:0:
332,36,238844,2,0,P|268:40|232:76,1,95,8|6,0:0|0:0,0:0:0:0:
264,236,239450,2,0,L|160:216,2,95,4|2|8,0:0|0:0|0:0,0:0:0:0:
400,352,240359,1,6,0:0:0:0:
452,180,240662,6,0,P|379:210|364:248,1,95,8|2,3:1|0:0,0:0:0:0:
448,272,241116,1,6,0:0:0:0:
400,352,241268,2,0,L|296:332,1,95,8|6,0:0|0:0,0:0:0:0:
228,124,241874,2,0,L|155:138,1,47.5,2|0,0:0|0:0,0:0:0:0:
128,208,242177,2,0,L|44:192,1,47.5,6|0,0:0|0:0,0:0:0:0:
200,268,242480,2,0,L|246:259,1,47.5,10|2,0:0|0:0,0:0:0:0:
344,192,242783,2,0,L|260:176,1,47.5,6|6,0:0|0:0,0:0:0:0:
364,292,243086,6,0,B|324:324|324:324|232:343,1,142.5,6|4,0:0|0:0,0:0:0:0:
148,368,243692,2,0,P|128:312|72:284,1,95,8|6,0:0|0:0,0:0:0:0:
100,80,244298,2,0,L|146:71,2,47.5,6|0|2,0:0|0:0|0:0,0:0:0:0:
140,160,244753,1,0,0:0:0:0:
64,208,244904,2,0,L|18:199,2,47.5,10|2|6,0:0|0:0|0:0,0:0:0:0:
101,291,245359,1,2,0:0:0:0:
101,291,245510,6,0,L|207:270,1,95,8|2,3:1|0:0,0:0:0:0:
260,336,245965,1,6,0:0:0:0:
268,248,246116,2,0,P|232:204|184:196,1,95,8|6,0:0|0:0,0:0:0:0:
300,48,246722,2,0,P|256:84|248:132,1,95,2|6,0:0|0:0,0:0:0:0:
336,129,247177,1,2,0:0:0:0:
384,208,247329,2,0,L|376:280,1,47.5,10|2,0:0|0:0,0:0:0:0:
408,340,247632,1,6,0:0:0:0:
408,340,247783,1,6,0:0:0:0:
408,340,247935,6,0,L|280:328,1,95,6|2,0:0|0:0,0:0:0:0:
160,236,248541,2,0,P|220:228|264:252,1,95,8|6,0:0|0:0,0:0:0:0:
380,116,249147,2,0,P|335:130|289:120,1,95,6|2,0:0|0:0,0:0:0:0:
220,64,249601,1,2,0:0:0:0:
140,104,249753,2,0,L|132:176,1,47.5,8|2,0:0|0:0,0:0:0:0:
60,200,250056,2,0,L|76:256,1,47.5,4|2,0:0|0:0,0:0:0:0:
208,312,250359,6,0,P|148:332|88:304,1,95,8|2,3:1|0:0,0:0:0:0:
28,324,250813,1,6,0:0:0:0:
73,245,250965,2,0,L|45:149,1,95,8|2,0:0|0:0,0:0:0:0:
188,44,251571,2,0,L|160:140,1,95,2|6,0:0|0:0,0:0:0:0:
244,172,252026,1,2,0:0:0:0:
256,260,252177,2,0,L|277:332,1,47.5,10|2,0:0|0:0,0:0:0:0:
348,352,252480,1,6,0:0:0:0:
348,352,252632,1,6,0:0:0:0:
348,352,252783,6,0,P|408:336|436:280,2,95,6|2|8,0:0|0:0|0:0,0:0:0:0:
168,372,253692,1,6,0:0:0:0:
84,212,253995,2,0,L|110:120,1,95,4|2,0:0|0:0,0:0:0:0:
192,84,254450,1,0,0:0:0:0:
196,172,254601,2,0,L|174:244,1,47.5,8|2,0:0|0:0,0:0:0:0:
268,320,254904,2,0,L|246:247,1,47.5,2|2,0:0|3:2,0:0:0:0:
256,192,255207,12,0,259450,0:0:0:0:
