osu file format v14

[General]
AudioFilename: audio.mp3
AudioLeadIn: 0
PreviewTime: 54451
Countdown: 0
SampleSet: Normal
StackLeniency: 0.3
Mode: 0
LetterboxInBreaks: 0
WidescreenStoryboard: 0

[Editor]
Bookmarks: 178144
DistanceSpacing: 0.8
BeatDivisor: 4
GridSize: 32
TimelineZoom: 1

[Metadata]
Title:Pepe
TitleUnicode:Pepe
Artist:CLC
ArtistUnicode:씨엘씨
Creator:Lilyanna
Version:Normal
Source:
Tags:cube entertainment 큐브 엔터테인먼트 승희 seunghee 유진 yujin 승연 seungyeon 손 sorn 예은 yeeun 엘키 elkie 은빈 eunbin 첫사랑 first love ezek marianna kpop CrystaL Clear
BeatmapID:1371624
BeatmapSetID:645032

[Difficulty]
HPDrainRate:5
CircleSize:4
OverallDifficulty:4
ApproachRate:4.5
SliderMultiplier:1.4
SliderTickRate:1

[Events]
//Background and Video events
0,0,"pepebg.png",0,0
Video,0,"CLC_Pepe.avi"
//Break Periods
//Storyboard Layer 0 (Background)
//Storyboard Layer 1 (Fail)
//Storyboard Layer 2 (Pass)
//Storyboard Layer 3 (Foreground)
//Storyboard Sound Samples

[TimingPoints]
10144,461.538461538462,4,2,1,50,1,0
22951,-100,4,2,1,5,0,0
23990,-100,4,1,1,60,0,0
39682,-100,4,1,1,70,0,1
52605,-100,4,1,1,60,0,0
54451,-100,4,1,1,70,0,1
69220,-100,4,1,1,60,0,0
98759,-100,4,1,1,70,0,1
111682,-100,4,1,1,60,0,0
113528,-100,4,1,1,70,0,1
128297,-100,4,1,1,60,0,0
144913,-100,4,1,1,70,0,1
157836,-100,4,1,1,60,0,0
159682,-100,4,1,1,70,0,1
174451,-100,4,1,1,60,0,0

[Colours]
Combo1 : 182,182,182
Combo2 : 255,108,255
Combo3 : 255,174,255
Combo4 : 255,106,106
Combo5 : 174,228,255
SliderBorder : 240,240,255
SliderTrackOverride : 40,50,70

[HitObjects]
442,38,10143,6,0,P|427:84|450:176,1,140,4|8,1:0|0:2,0:0:0:0:
473,220,10836,1,8,0:0:0:0:
473,220,11067,2,0,P|407:211|327:234,1,140,2|8,0:0|0:0,0:0:0:0:
294,265,11759,1,2,0:0:0:0:
294,265,11990,2,0,L|295:172,1,70,2|0,0:0|0:0,0:0:0:0:
243,172,12451,2,0,L|244:79,1,70,8|0,0:0|0:0,0:0:0:0:
242,45,12913,2,0,P|197:55|100:44,1,140,2|8,0:0|0:0,0:0:0:0:
40,137,13836,6,0,P|50:182|39:279,1,140,2|8,0:0|0:0,0:0:0:0:
142,321,14759,2,0,B|215:301|215:339|289:317,1,140,2|8,0:0|0:0,0:0:0:0:
387,287,15682,2,0,B|390:241|390:241|377:179|377:179|385:131,1,140,2|8,0:0|0:0,0:0:0:0:
472,82,16605,2,0,P|384:96|328:80,1,140,2|8,0:0|0:0,0:0:0:0:
225,64,17528,6,0,P|156:50|88:65,1,140,4|8,1:0|0:2,0:0:0:0:
39,91,18220,1,8,0:0:0:0:
39,91,18451,2,0,P|48:136|45:249,1,140,2|8,0:0|0:0,0:0:0:0:
132,303,19374,2,0,L|212:299,1,70,2|0,0:0|0:0,0:0:0:0:
232,252,19836,2,0,L|312:248,1,70,8|0,0:0|0:0,0:0:0:0:
351,221,20297,2,0,P|332:274|352:366,1,140,2|8,0:0|0:0,0:0:0:0:
457,356,21220,6,0,P|471:288|451:222,1,140,2|8,0:0|0:0,0:0:0:0:
375,139,22144,2,0,P|306:148|229:140,1,140,2|8,0:0|0:0,0:0:0:0:
99,47,24913,6,0,B|68:121|68:121|79:184,1,140,4|8,3:0|0:0,0:0:0:0:
64,234,25605,2,0,P|123:217|214:240,1,140,8|0,0:0|3:0,0:0:0:0:
238,270,26297,1,8,0:0:0:0:
339,319,26759,2,0,B|358:242|314:242|347:154,1,140,0|8,3:0|0:0,0:0:0:0:
382,144,27451,2,0,P|313:158|245:144,1,140,8|2,0:0|3:2,0:0:0:0:
189,134,28144,2,0,P|179:168|178:203,1,70,8|0,0:0|0:0,0:0:0:0:
209,249,28605,6,0,P|137:245|51:266,1,140,0|8,3:0|0:0,0:0:0:0:
18,277,29297,2,0,L|26:126,1,140,8|0,0:0|0:0,0:0:0:0:
34,81,29990,1,8,0:0:0:0:
145,67,30451,2,0,B|220:53|220:83|293:65,1,140,0|8,3:0|0:0,0:0:0:0:
334,42,31144,2,0,P|326:97|336:188,1,140,8|0,0:0|0:0,0:0:0:0:
376,217,31836,2,0,L|377:297,1,70,8|0,0:0|0:0,0:0:0:0:
326,310,32297,6,0,P|274:309|226:318,2,70,0|0|8,3:0|0:0|0:0,0:0:0:0:
434,336,33220,2,0,P|486:337|534:328,2,70,0|0|8,0:0|0:0|0:0,0:0:0:0:
397,229,34144,2,0,P|396:177|405:129,1,70,0|0,3:0|0:0,0:0:0:0:
367,112,34605,2,0,B|292:80|292:137|220:101,2,140,8|0|8,0:0|0:0|0:0,0:0:0:0:
441,28,35990,5,4,3:0:0:0:
413,299,37836,6,0,P|434:245|375:99,1,210,4|0,0:0|0:0,0:0:0:0:
330,107,38759,2,0,P|322:59|334:32,2,70,0|0|4,3:0|0:0|3:0,0:0:0:0:
254,17,39682,6,0,P|240:73|272:164,1,140,4|8,0:0|0:0,0:0:0:0:
232,198,40374,1,8,0:0:0:0:
232,198,40605,2,0,P|162:186|83:207,1,140,2|8,0:0|0:0,0:0:0:0:
147,300,41528,2,0,P|217:312|296:291,1,140,2|8,3:0|0:0,0:0:0:0:
342,287,42220,1,0,0:0:0:0:
342,287,42451,2,0,P|412:275|491:296,1,140,0|8,3:0|0:0,0:0:0:0:
480,178,43374,6,0,B|494:97|455:104|479:29,1,140,0|8,3:0|0:0,0:0:0:0:
422,20,44067,1,8,0:0:0:0:
422,20,44297,2,0,B|366:26|366:26|321:21|321:21|277:25,1,140,0|8,0:0|0:0,0:0:0:0:
226,26,44990,1,0,0:0:0:0:
226,26,45220,2,0,P|219:82|227:168,1,140,2|8,3:0|0:0,0:0:0:0:
264,206,45913,2,0,P|188:198|98:212,1,140,8|0,0:0|0:0,0:0:0:0:
72,223,46605,1,8,0:0:0:0:
96,332,47067,6,0,P|172:340|262:326,1,140,4|8,0:0|0:0,0:0:0:0:
290,341,47759,1,0,0:0:0:0:
290,341,47990,2,0,P|278:271|299:192,1,140,2|8,0:0|0:0,0:0:0:0:
234,108,48913,2,0,P|164:120|85:99,1,140,2|8,3:0|0:0,0:0:0:0:
63,149,49605,1,8,0:0:0:0:
63,149,49836,2,0,P|75:219|54:298,1,140,2|8,3:0|0:0,0:0:0:0:
169,309,50759,6,0,B|210:317|210:317|266:310|266:310|317:314,1,140,2|8,3:0|0:0,0:0:0:0:
356,284,51452,1,8,0:0:0:0:
356,284,51682,2,0,B|350:228|350:228|355:183|355:183|351:139,1,140,2|8,0:0|0:0,0:0:0:0:
359,89,52375,1,0,0:0:0:0:
359,89,52605,6,0,P|303:82|232:88,2,105,2|0|0,3:0|0:0|3:0,0:0:0:0:
454,148,53759,1,0,0:0:0:0:
466,202,53990,1,8,0:0:0:0:
402,294,54451,6,0,P|310:286|240:306,1,140,4|8,0:0|0:0,0:0:0:0:
207,294,55144,2,0,P|115:302|45:282,2,140,8|0|0,0:0|0:0|0:0,0:0:0:0:
263,197,56528,2,0,B|270:129|238:129|259:46,1,140,0|0,0:0|0:0,0:0:0:0:
263,3,57220,1,0,0:0:0:0:
335,88,57682,1,8,0:0:0:0:
422,157,58144,6,0,P|407:222|420:315,1,140,2|8,3:0|0:0,0:0:0:0:
358,306,58836,2,0,B|293:298|293:298|202:309,2,140,8|0|0,0:0|0:0|0:0,0:0:0:0:
455,251,60220,2,0,P|468:184|446:91,1,140,0|0,0:0|0:0,0:0:0:0:
435,61,60913,1,2,3:0:0:0:
379,158,61374,1,8,0:0:0:0:
294,83,61836,6,0,B|247:77|247:77|194:84|194:84|140:76,1,140,4|8,0:0|0:0,0:0:0:0:
105,103,62528,2,0,B|117:167|117:167|106:245,2,140,8|0|0,0:0|0:0|0:0,0:0:0:0:
209,61,63913,2,0,B|256:55|256:55|309:62|309:62|363:54,1,140
402,43,64605,1,0,0:0:0:0:
373,151,65067,1,8,0:0:0:0:
442,238,65528,6,0,P|385:263|307:241,1,140,0|8,0:0|0:0,0:0:0:0:
262,218,66220,2,0,B|187:208|187:235|114:217,1,140,8|0,0:0|0:0,0:0:0:0:
66,217,66913,1,8,0:0:0:0:
106,112,67374,2,0,P|110:65|103:0,2,105,0|0|0,0:0|0:0|0:0,0:0:0:0:
66,217,68528,1,0,0:0:0:0:
33,262,68759,1,8,0:0:0:0:
135,307,69220,6,0,P|200:292|281:309,1,140,4|8,0:2|3:0,0:0:0:0:
326,313,69913,2,0,P|391:328|472:311,1,140,0|0,0:0|0:0,0:0:0:0:
506,281,70605,1,8,0:0:0:0:
465,176,71067,2,0,P|400:161|319:178,1,140,0|8,0:0|3:0,0:0:0:0:
274,182,71760,2,0,P|209:197|128:180,1,140,0|0,0:0|0:0,0:0:0:0:
94,150,72452,1,8,0:0:0:0:
154,51,72913,6,0,P|202:44|248:51,1,70,0|0,0:0|0:0,0:0:0:0:
280,45,73374,2,0,P|265:100|279:197,1,140,8|0,3:0|0:0,0:0:0:0:
304,228,74067,1,0,0:0:0:0:
304,228,74297,2,0,P|311:276|304:322,1,70,8|0,0:0|0:0,0:0:0:0:
300,352,74759,2,0,B|380:336|380:363|458:352,1,140,0|8,0:0|3:0,0:0:0:0:
472,309,75451,2,0,P|454:245|472:172,1,140,0|0,0:0|0:0,0:0:0:0:
497,125,76144,1,8,0:0:0:0:
407,59,76605,6,0,P|332:23|342:159,1,280
363,206,77759,1,0,0:0:0:0:
363,206,77990,2,0,L|271:215,1,70,8|0,0:0|0:0,0:0:0:0:
239,196,78451,2,0,P|251:255|220:327,1,140,0|8,0:0|3:0,0:0:0:0:
178,288,79144,2,0,P|121:266|45:286,1,140,0|0,0:0|0:0,0:0:0:0:
9,327,79836,1,8,0:0:0:0:
256,192,80297,12,0,82144,0:0:0:0:
301,44,83067,6,0,L|217:41,2,70,8|0|4,0:0|0:0|3:0,0:0:0:0:
413,47,83990,6,0,B|423:91|444:121|444:121|429:151|433:179,1,140,4|8,3:0|0:0,0:0:0:0:
378,188,84682,2,0,P|319:171|228:194,1,140,8|0,0:0|3:0,0:0:0:0:
194,213,85374,1,8,0:0:0:0:
99,272,85836,2,0,B|80:195|110:195|91:107,1,140,0|8,3:0|0:0,0:0:0:0:
111,79,86528,2,0,P|174:92|252:77,1,140,8|2,3:0|3:2,0:0:0:0:
301,93,87221,2,0,L|301:172,1,70,0|0,0:0|0:0,0:0:0:0:
288,217,87682,6,0,P|360:213|446:234,1,140,4|8,3:0|0:0,0:0:0:0:
472,194,88374,2,0,L|480:345,1,140,8|0,0:0|3:0,0:0:0:0:
434,367,89067,1,8,0:0:0:0:
331,321,89528,2,0,B|256:307|256:337|183:319,1,140,0|8,3:0|0:0,0:0:0:0:
138,305,90221,2,0,P|146:250|136:159,1,140,8|0,0:0|0:0,0:0:0:0:
178,127,90913,2,0,L|258:128,1,70,8|0,0:0|0:0,0:0:0:0:
302,115,91374,6,0,L|294:15,2,70,0|0|8,3:0|0:0|0:0,0:0:0:0:
359,211,92297,2,0,L|459:203,2,70,0|0|8,3:0|0:0|0:0,0:0:0:0:
259,267,93220,2,0,L|159:259,1,70,0|0,3:0|0:0,0:0:0:0:
134,247,93682,2,0,P|171:140|150:93,2,140,8|0|8,3:0|0:0|0:0,0:0:0:0:
53,161,95067,5,4,3:0:0:0:
470,343,96913,2,0,P|474:227|389:202,1,210,4|0,0:0|0:0,0:0:0:0:
344,207,97836,1,0,3:0:0:0:
364,97,98297,1,4,3:0:0:0:
254,73,98759,6,0,P|199:90|107:55,1,140,4|8,0:0|0:0,0:0:0:0:
71,92,99451,1,8,0:0:0:0:
71,92,99682,2,0,P|83:162|62:241,1,140,2|8,0:0|0:0,0:0:0:0:
130,321,100605,2,0,P|200:309|279:330,1,140,2|8,3:0|0:0,0:0:0:0:
314,295,101297,1,0,0:0:0:0:
314,295,101528,2,0,P|384:307|463:286,1,140,0|8,3:0|0:0,0:0:0:0:
454,180,102451,6,0,P|384:168|305:189,1,140,0|8,3:0|0:0,0:0:0:0:
264,206,103144,1,8,0:0:0:0:
264,206,103374,2,0,B|208:212|208:212|163:207|163:207|119:211,1,140,0|8,0:0|0:0,0:0:0:0:
73,188,104067,1,0,0:0:0:0:
73,188,104297,2,0,P|66:244|74:330,1,140,2|8,3:0|0:0,0:0:0:0:
129,334,104990,2,0,P|205:326|295:340,1,140,8|0,0:0|0:0,0:0:0:0:
320,353,105682,1,8,0:0:0:0:
318,240,106144,6,0,P|394:248|484:234,1,140,4|8,0:0|0:0,0:0:0:0:
487,194,106836,1,0,0:0:0:0:
487,194,107067,2,0,P|475:124|496:45,1,140,2|8,0:0|0:0,0:0:0:0:
380,34,107990,2,0,P|310:46|231:25,1,140,2|8,3:0|0:0,0:0:0:0:
191,51,108682,1,8,0:0:0:0:
191,51,108913,2,0,P|203:121|182:200,1,140,0|8,0:0|0:0,0:0:0:0:
126,281,109836,6,0,B|167:289|167:289|223:282|223:282|274:286,1,140,2|8,3:0|0:0,0:0:0:0:
320,293,110529,1,8,0:0:0:0:
320,293,110759,2,0,B|314:237|314:237|319:192|319:192|315:148,1,140,2|8,0:0|0:0,0:0:0:0:
318,97,111452,1,0,0:0:0:0:
318,97,111682,6,0,P|374:90|445:96,2,105,2|0|0,3:0|0:0|3:0,0:0:0:0:
224,158,112836,1,0,0:0:0:0:
212,212,113067,1,8,0:0:0:0:
204,323,113528,6,0,P|112:315|42:335,1,140,4|8,0:0|0:0,0:0:0:0:
25,286,114221,2,0,P|17:194|37:124,2,140,8|0|0,0:0|0:0|0:0,0:0:0:0:
131,319,115605,2,0,B|199:326|282:320,1,140,0|0,0:0|0:0,0:0:0:0:
325,310,116297,1,0,0:0:0:0:
428,352,116759,1,8,0:0:0:0:
461,245,117221,6,0,P|446:180|459:87,1,140,2|8,3:0|0:0,0:0:0:0:
408,73,117913,2,0,B|366:75|343:65|343:65|314:75|252:76,2,140,8|0|0,0:0|0:0|0:0,0:0:0:0:
465,168,119297,2,0,P|478:235|456:328,1,140,0|0,0:0|0:0,0:0:0:0:
422,340,119990,1,0,0:0:0:0:
336,268,120451,1,8,0:0:0:0:
237,321,120913,6,0,B|190:315|190:315|147:331|84:318,1,140,4|8,0:0|0:0,0:0:0:0:
73,270,121605,2,0,B|85:206|85:206|74:128,2,140,8|0|0,0:0|0:0|0:0,0:0:0:0:
170,325,122990,2,0,B|217:319|217:319|267:333|324:323,1,140
359,301,123682,1,0,0:0:0:0:
461,345,124144,1,8,0:0:0:0:
457,233,124605,6,0,P|438:166|459:99,1,140,0|8,0:0|0:0,0:0:0:0:
417,62,125297,2,0,B|342:52|342:79|269:61,1,140,8|0,0:0|0:0,0:0:0:0:
221,61,125990,1,8,0:0:0:0:
256,192,126451,12,0,128297,0:0:0:0:
434,52,130144,6,0,P|445:114|434:208,1,140,4|8,0:2|0:0,0:0:0:0:
384,203,130836,2,0,P|321:195|237:208,1,140,0|0,3:0|0:0,0:0:0:0:
190,214,131528,1,8,0:0:0:0:
79,196,131990,2,0,P|68:134|79:40,1,140,0|8,3:0|0:0,0:0:0:0:
129,45,132682,2,0,P|192:53|276:40,1,140,0|0,3:0|0:0,0:0:0:0:
323,34,133374,1,8,0:0:0:0:
409,104,133836,6,0,B|403:155|380:183|380:183|409:221|403:255,1,140,0|8,3:0|0:0,0:0:0:0:
388,286,134528,2,0,P|323:270|239:291,1,140,0|0,3:0|0:0,0:0:0:0:
202,308,135220,1,8,0:0:0:0:
92,285,135682,2,0,B|105:206|75:206|95:124,1,140,0|8,3:0|0:0,0:0:0:0:
105,91,136374,2,0,P|195:100|265:84,1,140,0|0,3:0|0:0,0:0:0:0:
296,71,137067,1,8,0:0:0:0:
372,152,137528,6,0,B|361:239|361:239|391:297,1,140,4|8,2:0|0:0,0:0:0:0:
413,333,138220,2,0,P|308:322|267:332,1,140,0|0,3:0|0:0,0:0:0:0:
219,332,138913,1,8,0:0:0:0:
128,265,139374,2,0,B|139:178|139:178|109:120,1,140,0|8,3:0|0:0,0:0:0:0:
87,84,140066,2,0,P|192:95|233:85,1,140,0|0,3:0|0:0,0:0:0:0:
281,85,140759,1,8,0:0:0:0:
390,61,141220,5,0,3:0:0:0:
347,164,141682,1,8,0:0:0:0:
56,333,143067,6,0,B|77:291|130:285|130:285|59:224|93:154,1,210,4|0,2:0|0:0,0:0:0:0:
101,130,143990,2,0,L|72:62,2,70
211,108,144913,6,0,P|266:125|358:90,1,140,4|8,0:0|0:0,0:0:0:0:
390,72,145605,1,8,0:0:0:0:
390,72,145836,2,0,P|402:142|381:221,1,140,2|8,0:0|0:0,0:0:0:0:
371,319,146759,2,0,P|301:307|222:328,1,140,2|8,3:0|0:0,0:0:0:0:
185,307,147451,1,0,0:0:0:0:
185,307,147682,2,0,P|115:319|36:298,1,140,0|8,3:0|0:0,0:0:0:0:
73,194,148605,6,0,P|85:124|64:45,1,140,0|8,3:0|0:0,0:0:0:0:
119,31,149298,1,8,0:0:0:0:
119,31,149528,2,0,B|175:25|175:25|220:30|220:30|264:26,1,140,0|8,0:0|0:0,0:0:0:0:
313,36,150221,1,0,0:0:0:0:
313,36,150451,2,0,B|301:102|301:102|314:178,1,140,2|8,3:0|0:0,0:0:0:0:
324,229,151144,2,0,P|400:221|490:235,1,140,8|0,0:0|0:0,0:0:0:0:
503,267,151836,1,8,0:0:0:0:
420,343,152298,6,0,P|344:351|254:337,1,140,4|8,0:0|0:0,0:0:0:0:
250,296,152990,1,0,0:0:0:0:
250,296,153221,2,0,P|262:226|241:147,1,140,2|8,0:0|0:0,0:0:0:0:
140,192,154144,2,0,P|128:122|149:43,1,140,2|8,3:0|0:0,0:0:0:0:
197,43,154836,1,8,0:0:0:0:
197,43,155067,2,0,P|267:55|346:34,1,140,2|8,3:0|0:0,0:0:0:0:
441,70,155990,6,0,B|433:111|433:111|440:167|440:167|436:218,1,140,2|8,3:0|0:0,0:0:0:0:
396,248,156683,1,8,0:0:0:0:
396,248,156913,2,0,B|340:242|340:242|295:247|295:247|251:243,1,140,2|8,0:0|0:0,0:0:0:0:
212,212,157606,1,0,0:0:0:0:
212,212,157836,6,0,P|156:205|85:211,2,105,2|0|0,3:0|0:0|3:0,0:0:0:0:
275,119,158990,1,0,0:0:0:0:
296,67,159221,1,8,0:0:0:0:
186,46,159682,6,0,P|94:38|24:58,1,140,4|8,0:0|0:0,0:0:0:0:
29,101,160375,2,0,P|37:193|17:263,2,140,8|0|0,0:0|0:0|0:0,0:0:0:0:
140,90,161759,2,0,B|208:97|291:91,1,140,0|0,0:0|0:0,0:0:0:0:
333,76,162451,1,0,0:0:0:0:
362,184,162913,1,8,0:0:0:0:
471,158,163375,6,0,P|486:223|473:316,1,140,0|8,0:0|0:0,0:0:0:0:
423,296,164067,2,0,B|354:277|267:293,2,140,8|0|0,0:0|0:0|0:0,0:0:0:0:
474,196,165451,2,0,P|487:129|465:36,1,140,0|0,0:0|0:0,0:0:0:0:
438,16,166144,1,0,0:0:0:0:
355,92,166605,1,8,0:0:0:0:
253,44,167067,6,0,B|206:38|206:38|163:54|100:41,1,140,4|8,0:0|0:0,0:0:0:0:
81,88,167759,2,0,B|93:152|93:152|80:182|82:230,2,140,8|0|0,0:0|0:0|0:0,0:0:0:0:
183,42,169144,2,0,B|230:36|230:36|280:50|337:40,1,140
377,41,169836,1,0,0:0:0:0:
407,148,170298,1,8,0:0:0:0:
499,85,170759,6,0,P|518:152|497:219,1,140,0|8,0:0|0:0,0:0:0:0:
447,241,171451,2,0,B|372:231|372:258|299:240,1,140,8|0,0:0|0:0,0:0:0:0:
260,212,172144,1,8,0:0:0:0:
165,271,172605,1,0,0:0:0:0:
437,37,174451,6,0,P|421:87|432:188,1,140,4|8,2:0|0:0,0:0:0:0:
323,218,175374,2,0,P|328:262|319:314,2,70,0|0|8,0:0|0:0|0:0,0:0:0:0:
319,161,176067,1,0,0:0:0:0:
319,161,176297,2,0,P|269:145|168:156,1,140,0|8,0:0|0:0,0:0:0:0:
131,174,176990,1,0,0:0:0:0:
131,174,177220,2,0,L|139:96,1,70,0|0,0:0|0:0,0:0:0:0:
148,49,177682,1,0,0:0:0:0:
259,61,178144,6,0,P|309:77|410:66,1,140,0|8,0:0|0:0,0:0:0:0:
408,182,179067,2,0,P|403:226|412:278,2,70,0|0|8,0:0|0:0|0:0,0:0:0:0:
463,170,179760,1,0,0:0:0:0:
463,170,179990,2,0,P|479:120|468:19,1,140,0|8,0:0|0:0,0:0:0:0:
416,31,180683,1,0,0:0:0:0:
416,31,180913,2,0,L|338:23,1,70,0|0,0:0|0:0,0:0:0:0:
290,16,181375,1,0,0:0:0:0:
187,60,181836,6,0,P|203:110|192:211,1,140,4|8,2:0|0:0,0:0:0:0:
279,272,182759,2,0,P|274:316|283:368,2,70,0|0|8,0:0|0:0|0:0,0:0:0:0:
294,217,183452,1,0,0:0:0:0:
294,217,183682,2,0,P|344:201|445:212,1,140,0|8,0:0|0:0,0:0:0:0:
484,192,184375,1,0,0:0:0:0:
484,192,184605,2,0,L|476:114,1,70
468,66,185067,1,0,0:0:0:0:
356,59,185529,6,0,P|306:75|205:64,1,140,0|8,0:0|0:0,0:0:0:0:
182,175,186452,2,0,P|187:219|178:271,2,70,0|0|8,0:0|0:0|0:0,0:0:0:0:
130,153,187144,1,0,0:0:0:0:
130,153,187375,2,0,P|114:103|125:2,1,140,6|0,3:0|0:0,0:0:0:0:
173,32,188068,1,0,2:0:0:0:
173,32,188298,2,0,L|251:24,1,70,0|0,2:0|0:0,0:0:0:0:
298,19,188760,1,0,0:0:0:0:
358,112,189220,5,4,2:0:0:0:
