osu file format v14

[General]
AudioFilename: audio.mp3
AudioLeadIn: 0
PreviewTime: 54451
Countdown: 0
SampleSet: Normal
StackLeniency: 0.3
Mode: 0
LetterboxInBreaks: 0
WidescreenStoryboard: 0

[Editor]
DistanceSpacing: 0.8
BeatDivisor: 4
GridSize: 32
TimelineZoom: 1

[Metadata]
Title:Pepe
TitleUnicode:Pepe
Artist:CLC
ArtistUnicode:씨엘씨
Creator:Lilyanna
Version:Easy
Source:
Tags:cube entertainment 큐브 엔터테인먼트 승희 seunghee 유진 yujin 승연 seungyeon 손 sorn 예은 yeeun 엘키 elkie 은빈 eunbin 첫사랑 first love ezek marianna kpop CrystaL Clear
BeatmapID:1369984
BeatmapSetID:645032

[Difficulty]
HPDrainRate:4
CircleSize:3
OverallDifficulty:3
ApproachRate:3
SliderMultiplier:1.1
SliderTickRate:1

[Events]
//Background and Video events
0,0,"pepebg.png",0,0
Video,0,"CLC_Pepe.avi"
//Break Periods
//Storyboard Layer 0 (Background)
//Storyboard Layer 1 (Fail)
//Storyboard Layer 2 (Pass)
//Storyboard Layer 3 (Foreground)
//Storyboard Sound Samples

[TimingPoints]
10144,461.538461538462,4,2,1,50,1,0
22951,-100,4,2,1,5,0,0
23990,-100,4,1,1,60,0,0
39682,-100,4,1,1,70,0,1
52605,-100,4,1,1,60,0,0
54451,-100,4,1,1,70,0,1
69220,-100,4,1,1,60,0,0
98759,-100,4,1,1,70,0,1
111682,-100,4,1,1,60,0,0
113528,-100,4,1,1,70,0,1
128297,-100,4,1,1,60,0,0
144913,-100,4,1,1,70,0,1
157836,-100,4,1,1,60,0,0
159682,-100,4,1,1,70,0,1
174451,-100,4,1,1,60,0,0

[Colours]
Combo1 : 182,182,182
Combo2 : 255,108,255
Combo3 : 255,174,255
Combo4 : 255,106,106
Combo5 : 174,228,255
SliderBorder : 240,240,255
SliderTrackOverride : 40,50,70

[HitObjects]
420,44,10143,6,0,P|443:97|426:163,1,110,4|8,1:0|0:2,0:0:0:0:
356,106,11067,2,0,B|316:106|316:106|285:115|285:115|239:109,1,110,2|8,0:0|0:0,0:0:0:0:
183,170,11990,2,0,P|189:232|179:294,2,110,2|8|2,0:0|0:0|0:0,0:0:0:0:
136,95,13374,1,8,0:0:0:0:
87,168,13836,6,0,P|81:230|91:292,1,110,2|8,0:0|0:0,0:0:0:0:
172,300,14759,2,0,P|234:294|296:304,1,110,2|8,0:0|0:0,0:0:0:0:
364,273,15682,2,0,P|358:211|368:149,1,110,2|8,0:0|0:0,0:0:0:0:
411,89,16605,1,2,0:0:0:0:
342,33,17067,1,8,0:0:0:0:
283,98,17528,6,0,P|226:108|165:97,1,110,4|8,1:0|0:2,0:0:0:0:
91,72,18451,2,0,B|81:129|106:129|90:193,1,110,2|8,0:0|0:0,0:0:0:0:
107,267,19374,2,0,B|149:281|228:269,2,110,2|8|2,0:0|0:0|0:0,0:0:0:0:
38,212,20759,1,8,0:0:0:0:
113,166,21220,6,0,B|155:152|234:164,1,110,2|8,0:0|0:0,0:0:0:0:
284,225,22144,2,0,B|351:235|393:221,1,110,2|8,0:0|0:0,0:0:0:0:
91,70,24913,6,0,B|62:125|62:125|72:227,2,165,4|8|8,3:0|0:0|0:0,0:0:0:0:
179,72,26759,2,0,P|246:106|352:96,1,165,0|0,3:0|0:0,0:0:0:0:
462,70,28144,1,8,0:0:0:0:
445,157,28605,6,0,B|416:212|416:212|426:314,2,165,0|8|8,3:0|0:0|0:0,0:0:0:0:
391,87,30451,2,0,P|289:128|225:104,1,165,0|0,3:0|0:0,0:0:0:0:
134,33,31836,1,8,0:0:0:0:
86,108,32297,6,0,P|77:174|87:220,1,110,0|8,3:0|0:0,0:0:0:0:
145,280,33220,2,0,P|211:271|257:281,1,110,0|8,0:0|0:0,0:0:0:0:
329,323,34144,2,0,B|353:266|321:226|321:226|363:155|320:104,1,220,0|0,3:0|3:0,0:0:0:0:
291,35,35528,1,8,0:0:0:0:
204,20,35990,5,4,3:0:0:0:
261,346,37836,6,0,P|150:299|172:195,1,220,4|0,0:0|3:0,0:0:0:0:
233,261,39220,1,4,3:0:0:0:
276,184,39682,6,0,L|395:178,1,110,4|8,0:0|0:0,0:0:0:0:
391,90,40605,2,0,L|281:95,1,110,2|8,0:0|0:0,0:0:0:0:
201,133,41528,2,0,P|139:141|85:125,2,110,2|8|0,3:0|0:0|3:0,0:0:0:0:
281,94,42913,1,8,0:0:0:0:
312,176,43374,6,0,P|318:279|418:305,1,220,0|0,3:0|0:0,0:0:0:0:
388,222,44759,1,8,0:0:0:0:
399,134,45220,2,0,P|319:81|240:113,2,165,2|8|8,3:0|0:0|0:0,0:0:0:0:
458,199,47067,6,0,L|455:326,1,110,4|8,0:0|0:0,0:0:0:0:
368,323,47990,2,0,L|370:213,1,110,2|8,0:0|0:0,0:0:0:0:
316,143,48913,2,0,B|272:141|272:141|243:144|243:144|187:141,2,110,2|8|2,3:0|0:0|3:0,0:0:0:0:
390,95,50297,1,8,0:0:0:0:
391,183,50759,6,0,B|375:239|390:307|390:307|328:299|281:343,1,220,2|2,3:0|0:0,0:0:0:0:
214,348,52144,1,8,0:0:0:0:
187,264,52605,1,2,3:0:0:0:
481,69,54451,6,0,P|465:114|486:239,2,165,4|8|8,0:0|0:0|0:0,0:0:0:0:
400,33,56297,2,0,L|279:39,1,110,0|8,3:0|0:0,0:0:0:0:
203,55,57220,1,0,0:0:0:0:
252,127,57682,1,8,0:0:0:0:
187,187,58144,6,0,P|203:232|182:357,2,165,2|8|8,3:0|0:0|0:0,0:0:0:0:
252,127,59990,2,0,L|373:133,1,110,2|8,3:0|0:0,0:0:0:0:
449,149,60913,1,2,3:0:0:0:
400,221,61375,1,8,0:0:0:0:
472,271,61836,6,0,P|415:309|328:270,2,165,4|8|8,0:0|0:0|0:0,0:0:0:0:
400,221,63682,2,0,B|404:177|404:177|399:147|399:147|400:105,1,110,0|8,0:0|0:0,0:0:0:0:
397,23,64605,1,0,0:0:0:0:
308,26,65067,1,8,0:0:0:0:
256,192,65528,12,0,67374,0:0:0:0:
54,48,69220,6,0,B|37:107|37:107|42:169,1,110,4|8,0:2|3:0,0:0:0:0:
128,167,70144,2,0,B|131:215|131:215|114:274,1,110,0|8,0:0|0:0,0:0:0:0:
200,295,71067,2,0,P|269:290|324:301,1,110,0|8,0:0|3:0,0:0:0:0:
385,252,71990,2,0,B|396:202|368:202|387:129,1,110,0|8,0:0|0:0,0:0:0:0:
447,82,72913,6,0,P|402:56|325:75,2,110,0|8|0,0:0|3:0|0:0,0:0:0:0:
383,143,74297,1,8,0:0:0:0:
294,140,74759,2,0,L|173:149,1,110,0|8,0:0|3:0,0:0:0:0:
144,69,75682,2,0,L|23:78,1,110,0|8,0:0|0:0,0:0:0:0:
42,164,76605,6,0,B|76:212|65:269|65:269|119:264|168:302,1,220,0|0,0:0|0:0,0:0:0:0:
243,344,77990,1,8,0:0:0:0:
319,301,78451,2,0,B|366:263|420:268|420:268|409:211|443:163,1,220,0|0,0:0|0:0,0:0:0:0:
474,80,79836,1,8,0:0:0:0:
387,64,80297,6,0,P|331:76|267:59,1,110,0|8,0:0|3:0,0:0:0:0:
195,42,81220,2,0,P|141:31|88:43,1,110,0|8,0:0|0:0,0:0:0:0:
24,103,82144,1,0,0:0:0:0:
374,129,83990,6,0,B|415:203|384:309,2,165,4|8|8,3:0|0:0|0:0,0:0:0:0:
303,76,85836,2,0,P|227:123|136:93,1,165,0|0,3:0|0:0,0:0:0:0:
57,21,87220,1,8,0:0:0:0:
35,108,87682,6,0,B|37:140|64:165|64:165|42:201|54:265,2,165,4|8|8,3:0|0:0|0:0,0:0:0:0:
122,98,89528,2,0,P|207:118|303:104,1,165,0|0,3:0|0:0,0:0:0:0:
408,67,90913,1,8,0:0:0:0:
459,140,91374,6,0,P|450:206|460:252,1,110,0|8,3:0|0:0,0:0:0:0:
406,318,92297,2,0,P|340:309|294:319,1,110,0|8,3:0|0:0,0:0:0:0:
209,321,93221,2,0,B|245:215|165:215|217:85,1,220,0|0,3:0|3:0,0:0:0:0:
202,18,94605,1,8,0:0:0:0:
124,60,95067,5,4,3:0:0:0:
355,325,96913,6,0,B|302:317|253:338|253:338|192:315|140:331,1,220,4|0,0:0|3:0,0:0:0:0:
66,280,98297,1,4,3:0:0:0:
131,221,98759,6,0,L|125:102,1,110,4|8,0:0|0:0,0:0:0:0:
37,122,99682,2,0,L|42:232,1,110,2|8,0:0|0:0,0:0:0:0:
87,307,100605,2,0,P|149:315|203:299,2,110,2|8|0,3:0|0:0|3:0,0:0:0:0:
41,231,101990,1,8,0:0:0:0:
115,183,102451,6,0,P|153:87|73:21,1,220,0|0,3:0|0:0,0:0:0:0:
65,109,103836,1,8,0:0:0:0:
31,190,104297,2,0,B|17:273|55:273|32:362,2,165,2|8|8,3:0|0:0|0:0,0:0:0:0:
110,152,106144,6,0,L|236:149,1,110,4|8,0:0|0:0,0:0:0:0:
210,61,107067,2,0,L|320:59,1,110,2|8,0:0|0:0,0:0:0:0:
372,129,107990,2,0,B|374:173|374:173|371:202|371:202|374:258,2,110,2|8|0,3:0|0:0|0:0,0:0:0:0:
411,50,109374,1,8,0:0:0:0:
323,57,109836,6,0,B|254:47|213:64|213:64|170:81|98:58,1,220,2|2,3:0|0:0,0:0:0:0:
22,33,111221,1,8,0:0:0:0:
11,119,111682,1,2,3:0:0:0:
358,149,113528,6,0,B|348:219|348:219|363:319,2,165,4|8|8,0:0|0:0|0:0,0:0:0:0:
281,105,115374,2,0,B|223:118|223:118|157:105,1,110,0|8,3:0|0:0,0:0:0:0:
98,61,116297,1,0,0:0:0:0:
43,130,116759,1,8,0:0:0:0:
118,175,117221,6,0,P|134:220|113:345,2,165,2|8|8,3:0|0:0|0:0,0:0:0:0:
172,105,119067,2,0,L|293:111,1,110,0|8,3:0|0:0,0:0:0:0:
369,117,119990,1,0,0:0:0:0:
320,190,120452,1,8,0:0:0:0:
413,189,120913,6,0,P|451:132|412:45,2,165,4|8|8,0:0|0:0|0:0,0:0:0:0:
320,190,122759,2,0,B|276:194|276:194|246:189|246:189|204:190,1,110,0|8,0:0|0:0,0:0:0:0:
125,167,123682,1,0,0:0:0:0:
109,254,124144,1,8,0:0:0:0:
256,192,124605,12,0,128297,0:0:0:0:
296,88,130144,6,0,B|361:82|361:82|406:124|461:124,2,165,4|0|8,2:0|3:0|0:0,0:0:0:0:
300,175,131990,2,0,P|317:234|281:334,2,165,0|0|8,3:0|0:0|0:0,0:0:0:0:
225,221,133836,6,0,P|208:162|244:62,2,165,0|0|8,3:0|3:0|0:0,0:0:0:0:
188,301,135682,2,0,L|11:310,2,165,0|0|8,3:0|3:0|0:0,0:0:0:0:
276,301,137528,6,0,L|453:310,2,165,4|0|8,2:0|3:0|0:0,0:0:0:0:
218,233,139374,2,0,L|209:56,2,165,0|0|8,3:0|3:0|0:0,0:0:0:0:
238,318,141220,1,0,3:0:0:0:
149,319,141682,1,8,0:0:0:0:
342,139,143067,6,0,B|364:193|340:239|340:239|397:288|368:360,1,220,4|0,2:0|0:0,0:0:0:0:
290,314,144451,1,0,0:0:0:0:
202,321,144913,6,0,L|83:315,1,110,4|8,0:0|0:0,0:0:0:0:
129,231,145836,2,0,L|239:236,1,110,2|8,0:0|0:0,0:0:0:0:
301,174,146759,2,0,P|306:111|288:58,2,110,2|8|0,3:0|0:0|3:0,0:0:0:0:
238,235,148144,1,8,0:0:0:0:
191,160,148605,6,0,P|108:98|23:158,1,220,0|0,3:0|0:0,0:0:0:0:
107,190,149990,1,8,0:0:0:0:
72,270,150451,2,0,B|154:285|155:247|243:272,2,165,2|8|8,3:0|0:0|0:0,0:0:0:0:
29,347,152298,6,0,P|84:356|157:353,1,110,4|8,0:0|0:0,0:0:0:0:
225,344,153220,2,0,P|279:343|334:352,1,110,2|8,0:0|0:0,0:0:0:0:
386,280,154144,2,0,B|388:236|388:236|385:207|385:207|388:151,2,110,2|8|2,3:0|0:0|3:0,0:0:0:0:
334,352,155528,1,8,0:0:0:0:
290,275,155990,6,0,B|221:265|180:282|180:282|137:299|65:276,1,220,2|2,3:0|0:0,0:0:0:0:
23,206,157375,1,8,0:0:0:0:
86,144,157836,1,2,3:0:0:0:
437,150,159682,6,0,B|427:220|427:220|457:255|442:320,2,165,4|8|8,0:0|0:0|0:0,0:0:0:0:
356,114,161528,2,0,B|300:127|300:127|232:114,1,110,0|8,3:0|0:0,0:0:0:0:
173,71,162451,1,0,0:0:0:0:
94,111,162913,1,8,0:0:0:0:
168,158,163375,6,0,P|192:221|163:328,2,165,0|8|8,0:0|0:0|0:0,0:0:0:0:
86,189,165220,2,0,P|106:237|79:300,1,110,0|8,3:0|0:0,0:0:0:0:
15,240,166144,1,0,0:0:0:0:
3,152,166606,1,8,0:0:0:0:
79,108,167067,6,0,P|155:88|246:118,2,165,4|8|8,0:0|0:0|0:0,0:0:0:0:
34,184,168913,2,0,B|30:228|30:228|35:258|35:258|34:300,1,110,0|8,0:0|0:0,0:0:0:0:
79,368,169836,1,0,0:0:0:0:
146,311,170298,1,8,0:0:0:0:
256,192,170759,12,0,172605,0:0:0:0:
392,69,174451,6,0,P|424:144|380:213,2,165,4|0|8,2:0|0:0|0:0,0:0:0:0:
336,137,176297,2,0,B|259:120|258:158|152:134,2,165,0|0|0,3:0|0:0|0:0,0:0:0:0:
305,219,178144,6,0,P|292:278|374:353,2,165,0|0|8,3:0|0:0|0:0,0:0:0:0:
382,265,179990,2,0,P|395:206|313:131,2,165,0|0|0,3:0|0:0|0:0,0:0:0:0:
305,219,181836,6,0,L|137:208,2,165,4|0|8,2:0|0:0|0:0,0:0:0:0:
329,133,183682,2,0,L|497:122,2,165,0|0|0,3:0|0:0|0:0,0:0:0:0:
261,75,185528,6,0,B|205:73|165:38|165:38|141:60|104:62,2,165,0|0|8,3:0|0:0|0:0,0:0:0:0:
347,92,187374,1,6,3:0:0:0:
70,309,189220,5,4,2:0:0:0:
