osu file format v14

[General]
AudioFilename: audio.mp3
AudioLeadIn: 0
PreviewTime: 168762
Countdown: 0
SampleSet: Soft
StackLeniency: 0.5
Mode: 0
LetterboxInBreaks: 0
WidescreenStoryboard: 1

[Editor]
Bookmarks: 456,11423,21746,32069,42391,52714,73359,83681,94004,104327,114649,124972,145617,148198,168843,179165,189488,199810,210133,220778
DistanceSpacing: 0.9
BeatDivisor: 4
GridSize: 8
TimelineZoom: 1

[Metadata]
Title:No oh oh
TitleUnicode:아니야
Artist:CLC
ArtistUnicode:씨엘씨
Creator:Natsu
Version:Normal
Source:
Tags:Euny kpop k-pop 큐브엔터테인먼트 NU.CLEAR 장예은 SORN 오승희 장승연 최유진 엘키 권은빈 ELKIE 손
BeatmapID:1058534
BeatmapSetID:473049

[Difficulty]
HPDrainRate:3
CircleSize:3.5
OverallDifficulty:4
ApproachRate:5
SliderMultiplier:2.4
SliderTickRate:1

[Events]
//Background and Video events
0,0,"oh oh oh.jpg",0,0
Video,-250,"No Oh Oh MV.avi"
//Break Periods
2,81301,82481
2,169043,177965
//Storyboard Layer 0 (Background)
//Storyboard Layer 1 (Fail)
//Storyboard Layer 2 (Pass)
//Storyboard Layer 3 (Foreground)
//Storyboard Sound Samples

[TimingPoints]
-189,645.161290322581,4,1,1,40,1,0
456,-100,4,2,1,15,0,0
1101,-100,4,2,1,40,0,0
10133,-100,4,2,1,50,0,0
37230,-100,4,2,1,35,0,0
41101,-100,4,2,1,50,0,0
52714,-100,4,2,1,60,0,1
62956,-100,4,2,1,60,0,0
63036,-100,4,2,1,60,0,1
73278,-100,4,2,1,60,0,0
73359,-100,4,2,1,60,0,1
73440,-100,4,2,1,50,0,0
81101,-100,4,2,1,25,0,0
83681,-100,4,2,1,50,0,0
124972,-100,4,2,1,60,0,1
135214,-100,4,2,1,60,0,0
135294,-100,4,2,1,60,0,1
145617,-100,4,2,1,25,0,0
147552,-100,4,2,1,15,0,0
148198,-100,4,2,1,50,0,0
179165,-100,4,2,1,50,0,1
179327,-100,4,2,1,5,0,1
179488,-100,4,2,1,50,0,1
179811,-100,4,2,1,5,0,0
181746,-100,4,2,1,50,0,1
181907,-100,4,2,1,5,0,1
182069,-100,4,2,1,50,0,1
182391,-100,4,2,1,5,0,0
183198,-100,4,2,1,35,0,0
184327,-100,4,2,1,50,0,1
184488,-100,4,2,1,5,0,1
184649,-100,4,2,1,50,0,1
184972,-100,4,2,1,5,0,0
186907,-100,4,2,1,50,0,0
189488,-100,4,2,1,60,0,1
199730,-100,4,2,1,5,0,0
199811,-100,4,2,1,60,0,1
210133,-100,4,2,1,50,0,0
217875,-100,4,2,1,25,0,0
220456,-100,4,2,1,15,0,0

[Colours]
Combo1 : 125,190,255
Combo2 : 255,81,255

[HitObjects]
27,356,456,6,0,P|84:369|137:345,1,120,2|2,1:0|1:0,0:0:0:0:
207,278,1101,5,6,0:0:0:0:
305,278,1423,1,10,0:0:0:0:
374,345,1746,2,0,P|427:369|484:356,1,120,8|0,1:0|0:0,0:0:0:0:
509,262,2391,2,0,P|456:238|399:251,1,120,10|10,0:0|0:0,0:0:0:0:
305,278,3036,2,0,P|250:298|194:280,1,120,8|2,1:0|0:0,0:0:0:0:
107,236,3681,5,10,0:0:0:0:
44,308,4004,1,10,0:0:0:0:
11,217,4327,2,0,P|-8:160|10:104,1,120,8|0,1:0|0:0,0:0:0:0:
104,90,4972,2,0,L|230:90,1,120,10|2,0:0|1:0,0:0:0:0:
269,118,5456,1,2,0:0:0:0:
269,118,5617,2,0,P|246:176|270:232,1,120,10|10,1:0|0:0,0:0:0:0:
320,306,6262,6,0,L|191:306,1,120,6|10,0:0|0:0,0:0:0:0:
155,221,6907,2,0,L|27:221,1,120,8|0,1:0|0:0,0:0:0:0:
13,127,7552,2,0,P|6:97|13:67,2,60,10|10|10,0:0|0:0|0:0,0:0:0:0:
109,134,8198,2,0,L|237:134,1,120,8|2,1:0|0:0,0:0:0:0:
256,41,8843,5,10,0:0:0:0:
322,109,9165,1,10,0:0:0:0:
389,40,9488,2,0,P|445:22|502:36,1,120,8|0,1:0|0:0,0:0:0:0:
498,132,10133,2,0,L|498:252,1,120,8|2,1:0|0:0,0:0:0:0:
464,287,10617,1,8,1:0:0:0:
464,287,10778,2,0,P|405:272|346:288,1,120,2|10,0:0|0:0,0:0:0:0:
263,330,11423,6,0,P|205:344|147:329,1,120,4|4,0:0|0:0,0:0:0:0:
83,257,12069,2,0,L|83:134,1,120,8|2,1:0|0:0,0:0:0:0:
88,93,12552,1,0,0:0:0:0:
88,93,12714,2,0,P|145:113|205:86,1,120,4|4,0:0|0:0,0:0:0:0:
283,47,13359,2,0,P|339:26|394:46,1,120,8|2,1:0|0:0,0:0:0:0:
486,19,14004,6,0,L|489:152,1,120,4|4,0:0|0:0,0:0:0:0:
467,233,14649,1,8,1:0:0:0:
375,262,14972,2,0,L|299:262,1,60,2|0,0:0|0:0,0:0:0:0:
273,285,15294,2,0,P|216:302|160:282,1,120,4|0,0:0|0:0,0:0:0:0:
133,251,15778,1,4,0:0:0:0:
133,251,15940,2,0,L|133:121,1,120,8|8,1:0|1:0,0:0:0:0:
209,73,16585,6,0,P|265:89|319:66,2,120,4|10|8,0:0|0:0|1:0,0:0:0:0:
124,28,17552,2,0,B|-14:28,1,120,2|10,0:0|0:0,0:0:0:0:
47,113,18198,1,10,0:0:0:0:
109,185,18520,2,0,P|122:242|103:298,1,120,8|2,1:0|0:0,0:0:0:0:
182,353,19165,6,0,L|310:352,1,120,4|10,0:0|0:0,0:0:0:0:
380,297,19810,2,0,P|360:242|379:186,1,120,8|2,1:0|0:0,0:0:0:0:
459,132,20456,2,0,P|477:75|457:20,2,120,4|10|8,0:0|0:0|0:0,0:0:0:0:
371,92,21423,1,12,0:0:0:0:
287,139,21746,6,0,L|166:139,1,120,4|4,0:0|0:0,0:0:0:0:
73,117,22391,2,0,P|79:89|72:55,2,60,8|0|2,1:0|0:0|0:0,0:0:0:0:
13,192,23036,2,0,P|-7:247|11:303,1,120,4|4,0:0|0:0,0:0:0:0:
105,324,23681,2,0,L|106:394,2,60,8|0|2,1:0|0:0|0:0,0:0:0:0:
176,259,24327,5,4,0:0:0:0:
253,314,24649,2,0,P|316:330|372:304,1,120,4|8,0:0|1:0,0:0:0:0:
419,230,25294,2,0,L|419:167,1,60,2|0,0:0|0:0,0:0:0:0:
466,159,25617,2,0,L|466:30,1,120,4|0,0:0|0:0,0:0:0:0:
375,72,26262,2,0,P|321:94|265:75,1,120,8|8,1:0|1:0,0:0:0:0:
187,17,26907,6,0,L|187:137,1,120,4|8,0:0|1:0,0:0:0:0:
91,132,27552,1,8,1:0:0:0:
121,224,27875,2,0,B|95:283|150:283|120:345,1,120,2|10,0:0|0:0,0:0:0:0:
214,368,28520,2,0,L|346:368,2,120,8|8|2,1:0|1:0|0:0,0:0:0:0:
254,280,29488,6,0,B|348:280|348:280|331:245,1,120,4|8,0:0|1:0,0:0:0:0:
283,176,30133,2,0,P|263:114|283:60,1,120,8|2,1:0|0:0,0:0:0:0:
368,26,30778,2,0,L|508:26,2,120,4|10|8,0:0|0:0|0:0,0:0:0:0:
280,64,31746,1,12,0:0:0:0:
217,137,32069,6,0,P|195:191|216:246,1,120,4|10,0:0|0:0,0:0:0:0:
259,278,32552,1,0,0:0:0:0:
259,278,32714,2,0,L|321:278,1,60,8|0,1:0|0:0,0:0:0:0:
396,220,33198,1,2,0:0:0:0:
396,220,33359,2,0,P|417:275|387:343,2,120,4|10|8,0:0|0:0|1:0,0:0:0:0:
352,199,34165,1,0,0:0:0:0:
265,240,34488,5,2,0:0:0:0:
265,240,34649,2,0,P|204:260|145:238,1,120,4|10,0:0|0:0,0:0:0:0:
130,208,35133,1,0,0:0:0:0:
130,208,35294,2,0,L|118:145,1,60,8|0,1:0|0:0,0:0:0:0:
178,73,35778,1,2,0:0:0:0:
178,73,35940,2,0,B|235:98|290:60|290:60|345:89,2,180,4|4|4,0:0|0:0|0:0,0:0:0:0:
91,32,37230,6,0,P|37:24|29:78,1,120,10|8,0:0|1:0,0:0:0:0:
68,116,37714,1,10,0:0:0:0:
68,116,37875,2,0,P|88:169|66:231,1,120,10|8,0:0|1:0,0:0:0:0:
48,320,38520,2,0,L|110:314,1,60,10|8,0:0|1:0,0:0:0:0:
190,363,39004,2,0,L|252:357,1,60,10|8,0:0|1:0,0:0:0:0:
305,278,39488,1,10,0:0:0:0:
222,228,39810,6,0,P|199:174|222:116,1,120,10|8,0:0|1:0,0:0:0:0:
255,87,40294,2,0,L|316:87,1,60,10|10,0:0|0:0,0:0:0:0:
402,47,40778,1,10,1:0:0:0:
466,117,41101,2,0,P|473:145|466:174,1,60,12|8,1:0|1:0,0:0:0:0:
386,227,41585,1,8,1:0:0:0:
386,227,41746,2,0,L|386:296,2,60,10|10|12,0:0|0:0|0:0,0:0:0:0:
304,174,42391,6,0,P|248:157|192:175,1,120,4|10,0:0|0:0,0:0:0:0:
166,216,42875,1,0,0:0:0:0:
166,216,43036,2,0,L|161:282,1,60,8|0,1:0|0:0,0:0:0:0:
113,359,43520,1,2,0:0:0:0:
113,359,43681,2,0,P|165:374|227:344,2,120,6|10|8,0:0|0:0|1:0,0:0:0:0:
80,323,44488,1,0,0:0:0:0:
88,227,44810,5,2,0:0:0:0:
88,227,44972,2,0,P|105:169|84:112,2,120,4|10|8,0:0|0:0|1:0,0:0:0:0:
44,248,45778,1,0,0:0:0:0:
90,337,46101,1,2,0:0:0:0:
90,337,46262,2,0,B|150:370|204:334|204:334|266:368,2,180,4|10|10,0:0|0:0|0:0,0:0:0:0:
19,271,47552,5,4,0:0:0:0:
87,202,47875,2,0,P|107:147|88:91,1,120,8|8,1:0|1:0,0:0:0:0:
162,29,48520,2,0,B|282:29,1,120,2|10,0:0|0:0,0:0:0:0:
359,85,49165,1,8,1:0:0:0:
298,159,49488,2,0,P|280:214|303:268,1,120,8|2,1:0|0:0,0:0:0:0:
383,322,50133,2,0,L|513:321,1,120,4|8,0:0|1:0,0:0:0:0:
484,226,50778,5,2,1:0:0:0:
343,95,51423,1,4,0:0:0:0:
343,95,51585,2,0,P|286:113|230:97,2,120,2|8|8,0:0|1:0|1:0,0:0:0:0:
383,68,52391,1,12,0:0:0:0:
458,127,52714,6,0,B|458:268,2,120,4|10|8,0:0|0:0|1:0,0:0:0:0:
373,172,53681,2,0,L|373:236,1,60,10|0,0:0|0:0,0:0:0:0:
324,235,54004,2,0,L|324:299,1,60,10|2,0:0|0:0,0:0:0:0:
260,362,54488,1,10,0:0:0:0:
260,362,54649,2,0,P|200:342|145:360,1,120,8|2,1:0|0:0,0:0:0:0:
63,311,55294,6,0,L|31:193,2,120,4|10|8,0:0|0:0|1:0,0:0:0:0:
145,261,56262,1,10,0:0:0:0:
229,215,56585,2,0,P|285:196|341:214,1,120,4|0,0:0|0:0,0:0:0:0:
385,245,57069,1,10,0:0:0:0:
385,245,57230,2,0,L|385:111,1,120,8|10,1:0|0:0,0:0:0:0:
438,45,57875,6,0,P|382:25|327:46,1,120,4|10,0:0|0:0,0:0:0:0:
259,114,58520,2,0,P|203:134|148:115,1,120,8|10,1:0|0:0,0:0:0:0:
72,55,59165,1,10,0:0:0:0:
39,145,59488,2,0,L|39:213,1,60,2|10,0:0|0:0,0:0:0:0:
86,213,59810,2,0,L|86:347,1,120,8|2,1:0|0:0,0:0:0:0:
175,368,60456,5,4,0:0:0:0:
258,320,60778,2,0,P|313:300|369:318,1,120,10|8,0:0|1:0,0:0:0:0:
452,367,61423,1,10,0:0:0:0:
498,283,61746,2,0,B|498:163,1,120,4|10,0:0|0:0,0:0:0:0:
415,113,62391,2,0,P|359:133|303:115,1,120,8|10,1:0|0:0,0:0:0:0:
212,84,63036,6,0,P|155:66|100:86,1,120,4|10,0:0|0:0,0:0:0:0:
97,182,63681,2,0,P|115:237|98:294,1,120,8|10,1:0|0:0,0:0:0:0:
73,335,64165,2,0,L|7:341,2,60,0|10|2,0:0|0:0|0:0,0:0:0:0:
172,354,64810,1,2,0:0:0:0:
172,354,64972,2,0,L|291:342,1,120,8|2,1:0|0:0,0:0:0:0:
370,286,65617,6,0,P|390:231|371:175,1,120,4|10,0:0|0:0,0:0:0:0:
293,120,66262,2,0,P|272:175|291:231,1,120,8|10,1:0|0:0,0:0:0:0:
280,326,66907,2,0,L|143:326,1,120,4|2,0:0|0:0,0:0:0:0:
68,295,67552,2,0,P|59:324|71:362,2,60,8|0|10,1:0|0:0|0:0,0:0:0:0:
138,228,68198,5,4,0:0:0:0:
49,191,68520,1,10,0:0:0:0:
124,130,68843,2,0,P|180:114|237:129,1,120,8|10,1:0|0:0,0:0:0:0:
261,222,69488,1,4,0:0:0:0:
332,158,69810,1,10,0:0:0:0:
355,251,70133,2,0,P|376:305|358:361,1,120,8|2,1:0|0:0,0:0:0:0:
262,356,70778,6,0,L|143:357,1,120,4|8,0:0|0:0,0:0:0:0:
98,358,71262,1,2,0:0:0:0:
98,358,71423,2,0,P|120:283|96:237,1,120,8|10,1:0|0:0,0:0:0:0:
37,178,72069,2,0,P|20:121|43:67,1,120,4|10,0:0|0:0,0:0:0:0:
87,46,72552,1,2,0:0:0:0:
87,46,72714,2,0,L|219:46,1,120,8|10,1:0|0:0,0:0:0:0:
291,92,73359,6,0,P|270:147|293:201,1,120,4|10,0:0|0:0,0:0:0:0:
371,256,74004,2,0,P|393:310|373:365,1,120,8|10,1:0|0:0,0:0:0:0:
329,373,74488,1,2,0:0:0:0:
329,373,74649,2,0,L|191:373,1,120,10|10,0:0|0:0,0:0:0:0:
148,298,75294,2,0,P|127:242|150:188,1,120,8|8,1:0|1:0,0:0:0:0:
203,108,75940,6,0,L|83:108,1,120,4|10,0:0|0:0,0:0:0:0:
139,30,76585,2,0,L|259:30,1,120,8|10,1:0|0:0,0:0:0:0:
307,54,77069,1,2,0:0:0:0:
307,54,77230,2,0,P|289:108|313:173,1,120,10|10,0:0|0:0,0:0:0:0:
376,233,77875,2,0,P|394:289|376:345,1,120,8|8,1:0|1:0,0:0:0:0:
283,369,78520,6,0,L|157:370,1,120,4|10,0:0|0:0,0:0:0:0:
70,343,79165,2,0,P|90:288|67:234,1,120,8|10,1:0|0:0,0:0:0:0:
40,202,79649,1,2,0:0:0:0:
40,202,79810,2,0,P|17:147|37:92,1,120,10|10,0:0|0:0,0:0:0:0:
130,65,80456,2,0,L|266:65,1,120,8|8,1:0|1:0,0:0:0:0:
327,122,81101,5,2,1:0:0:0:
481,360,83681,6,0,B|405:360|405:360|367:336,1,120,4|4,0:0|0:0,0:0:0:0:
294,273,84327,2,0,L|294:150,1,120,8|2,1:0|0:0,0:0:0:0:
299,109,84810,1,0,0:0:0:0:
299,109,84972,2,0,P|356:129|416:102,1,120,4|4,0:0|0:0,0:0:0:0:
354,29,85617,2,0,P|297:9|237:36,1,120,8|2,1:0|0:0,0:0:0:0:
190,109,86262,6,0,L|193:242,1,120,4|4,0:0|0:0,0:0:0:0:
126,299,86907,1,8,1:0:0:0:
217,329,87230,2,0,L|277:329,1,60,2|0,0:0|0:0,0:0:0:0:
324,327,87552,2,0,P|307:270|327:214,1,120,4|0,0:0|0:0,0:0:0:0:
358,187,88036,1,4,0:0:0:0:
358,187,88198,2,0,L|488:187,1,120,8|8,1:0|1:0,0:0:0:0:
427,105,88843,6,0,L|297:105,2,120,4|8|8,0:0|1:0|1:0,0:0:0:0:
373,25,89810,2,0,B|235:25,1,120,2|10,0:0|0:0,0:0:0:0:
162,58,90456,1,8,1:0:0:0:
202,144,90778,2,0,P|215:201|196:257,1,120,8|2,1:0|0:0,0:0:0:0:
149,342,91423,6,0,L|277:341,1,120,4|8,0:0|1:0,0:0:0:0:
358,305,92068,2,0,P|378:250|359:194,1,120,8|2,1:0|0:0,0:0:0:0:
294,121,92714,2,0,P|275:64|295:9,2,120,4|10|10,0:0|0:0|0:0,0:0:0:0:
358,193,93681,1,10,0:0:0:0:
263,209,94004,6,0,L|142:209,1,120,4|4,0:0|0:0,0:0:0:0:
65,152,94649,2,0,P|59:124|66:90,2,60,8|0|2,1:0|0:0|0:0,0:0:0:0:
143,209,95294,2,0,P|163:264|144:320,1,120,4|4,0:0|0:0,0:0:0:0:
65,266,95939,2,0,L|3:266,2,60,8|0|2,1:0|0:0|0:0,0:0:0:0:
33,175,96585,5,4,0:0:0:0:
125,149,96907,2,0,P|141:86|115:30,1,120,4|8,0:0|1:0,0:0:0:0:
217,31,97552,2,0,L|280:31,1,60,2|0,0:0|0:0,0:0:0:0:
281,79,97875,2,0,L|410:79,1,120,4|0,0:0|0:0,0:0:0:0:
449,103,98359,1,4,0:0:0:0:
449,103,98520,2,0,P|427:157|446:213,1,120,8|8,1:0|1:0,0:0:0:0:
491,297,99165,6,0,L|367:297,1,120,4|8,0:0|1:0,0:0:0:0:
303,365,99810,1,8,1:0:0:0:
234,297,100133,2,0,P|215:240|230:183,1,120,2|6,0:0|0:0,0:0:0:0:
312,133,100778,2,0,L|444:133,2,120,8|8|2,1:0|1:0|0:0,0:0:0:0:
230,183,101746,6,0,P|172:202|115:186,1,120,4|8,0:0|1:0,0:0:0:0:
29,146,102391,2,0,L|29:278,1,120,8|2,1:0|0:0,0:0:0:0:
101,329,103036,2,0,P|153:310|227:331,2,120,4|10|10,0:0|0:0|0:0,0:0:0:0:
10,359,104004,1,12,0:0:0:0:
26,264,104327,6,0,P|48:210|27:155,1,120,4|10,0:0|0:0,0:0:0:0:
63,124,104810,1,0,0:0:0:0:
63,124,104972,2,0,L|125:124,1,60,8|0,1:0|0:0,0:0:0:0:
202,187,105456,1,2,0:0:0:0:
202,187,105617,2,0,P|181:242|211:310,2,120,4|10|8,0:0|0:0|1:0,0:0:0:0:
246,166,106423,1,0,0:0:0:0:
335,214,106746,5,0,0:0:0:0:
335,214,106907,2,0,P|396:234|455:212,1,120,4|10,0:0|0:0,0:0:0:0:
470,182,107391,1,0,0:0:0:0:
470,182,107552,2,0,L|482:119,1,60,8|0,1:0|0:0,0:0:0:0:
389,117,108036,1,0,0:0:0:0:
389,117,108198,2,0,B|270:118|270:118|219:153,2,180,4|4|4,0:0|0:0|0:0,0:0:0:0:
389,20,109488,6,0,B|263:20,1,120,10|8,0:0|1:0,0:0:0:0:
174,34,110133,2,0,L|144:94,1,60,8|8,1:0|1:0,0:0:0:0:
101,172,110617,1,8,1:0:0:0:
73,264,110940,2,0,P|102:270|135:262,1,60,8|8,1:0|1:0,0:0:0:0:
213,214,111423,2,0,P|269:195|326:209,1,120,8|10,1:0|0:0,0:0:0:0:
408,259,112068,6,0,P|387:314|410:367,1,120,8|8,1:0|1:0,0:0:0:0:
488,310,112714,2,0,P|501:278|497:241,1,60,8|8,1:0|1:0,0:0:0:0:
454,175,113198,1,8,1:0:0:0:
454,175,113359,2,0,L|454:111,1,60,8|10,1:0|0:0,0:0:0:0:
365,92,113843,1,8,1:0:0:0:
365,92,114004,2,0,L|365:23,2,60,10|10|10,0:0|0:0|0:0,0:0:0:0:
319,176,114649,6,0,P|263:193|207:175,1,120,4|10,0:0|0:0,0:0:0:0:
184,138,115133,1,0,0:0:0:0:
184,138,115294,2,0,L|179:72,1,60,8|0,1:0|0:0,0:0:0:0:
88,108,115778,1,2,0:0:0:0:
88,108,115939,2,0,B|79:31|79:31|35:20,2,120,4|10|8,0:0|0:0|1:0,0:0:0:0:
58,146,116746,2,0,L|66:219,1,60,0|0,0:0|0:0,0:0:0:0:
148,252,117230,6,0,L|164:378,2,120,4|10|8,0:0|0:0|1:0,0:0:0:0:
181,217,118036,1,0,0:0:0:0:
272,261,118359,1,0,0:0:0:0:
272,261,118520,2,0,P|358:298|437:247,2,180,4|4|12,0:0|0:0|0:0,0:0:0:0:
256,166,119810,5,4,0:0:0:0:
174,113,120133,2,0,P|157:169|179:224,1,120,8|8,1:0|1:0,0:0:0:0:
217,312,120778,2,0,B|97:312,1,120,2|10,0:0|0:0,0:0:0:0:
9,351,121423,1,8,1:0:0:0:
23,255,121746,2,0,P|0:201|17:145,1,120,8|2,1:0|0:0,0:0:0:0:
106,109,122391,2,0,L|236:108,1,120,8|8,1:0|1:0,0:0:0:0:
299,46,123036,5,2,1:0:0:0:
451,162,123681,1,4,0:0:0:0:
451,162,123843,2,0,P|469:105|453:49,2,120,8|8|10,1:0|1:0|0:0,0:0:0:0:
424,202,124649,1,12,0:0:0:0:
348,261,124972,6,0,P|330:314|358:382,2,120,4|10|8,0:0|0:0|1:0,0:0:0:0:
281,192,125939,2,0,L|215:192,1,60,10|0,0:0|0:0,0:0:0:0:
215,239,126262,2,0,L|149:239,1,60,4|2,0:0|0:0,0:0:0:0:
79,179,126746,1,10,0:0:0:0:
79,179,126907,2,0,P|59:239|77:294,1,120,8|10,1:0|0:0,0:0:0:0:
157,341,127552,6,0,L|296:339,2,120,4|10|8,0:0|0:0|1:0,0:0:0:0:
198,254,128520,1,10,0:0:0:0:
263,183,128843,2,0,P|282:127|264:71,1,120,4|0,0:0|0:0,0:0:0:0:
291,31,129327,1,10,0:0:0:0:
291,31,129488,2,0,L|425:31,1,120,8|10,1:0|0:0,0:0:0:0:
456,115,130133,6,0,L|336:116,1,120,4|10,0:0|0:0,0:0:0:0:
276,191,130778,2,0,P|296:247|277:302,1,120,8|10,1:0|0:0,0:0:0:0:
201,361,131423,1,4,0:0:0:0:
114,320,131746,2,0,L|88:267,1,60,10|2,0:0|0:0,0:0:0:0:
63,224,132068,2,0,P|82:163|63:111,1,120,8|2,1:0|0:0,0:0:0:0:
13,29,132714,5,4,0:0:0:0:
108,27,133036,2,0,L|235:27,1,120,10|8,0:0|1:0,0:0:0:0:
286,103,133681,1,10,0:0:0:0:
369,55,134004,2,0,P|382:112|359:166,1,120,4|10,0:0|0:0,0:0:0:0:
279,220,134649,2,0,P|255:274|269:331,1,120,8|10,1:0|0:0,0:0:0:0:
179,365,135294,6,0,L|49:365,1,120,4|10,0:0|0:0,0:0:0:0:
15,279,135939,2,0,P|-2:222|15:166,1,120,8|10,1:0|0:0,0:0:0:0:
52,135,136423,2,0,L|53:76,2,60,0|4|2,0:0|0:0|0:0,0:0:0:0:
123,207,137068,1,2,0:0:0:0:
123,207,137230,2,0,P|182:226|236:208,1,120,8|10,1:0|0:0,0:0:0:0:
328,187,137875,6,0,P|308:242|327:298,1,120,4|10,0:0|0:0,0:0:0:0:
405,242,138520,2,0,P|425:187|406:131,1,120,8|10,1:0|0:0,0:0:0:0:
318,90,139165,2,0,L|181:90,1,120,4|10,0:0|0:0,0:0:0:0:
103,73,139810,2,0,P|112:44|100:6,2,60,8|0|10,1:0|0:0|0:0,0:0:0:0:
33,140,140456,5,4,0:0:0:0:
124,168,140778,1,10,0:0:0:0:
56,235,141101,2,0,P|40:291|55:348,1,120,8|10,1:0|0:0,0:0:0:0:
146,381,141746,1,6,0:0:0:0:
218,318,142068,1,10,0:0:0:0:
296,261,142391,2,0,P|317:315|299:371,1,120,8|2,1:0|0:0,0:0:0:0:
218,318,143036,6,0,L|99:319,1,120,4|10,0:0|0:0,0:0:0:0:
87,277,143520,1,2,0:0:0:0:
87,277,143681,2,0,P|109:202|85:156,1,120,8|10,1:0|0:0,0:0:0:0:
33,91,144327,2,0,L|163:75,1,120,4|10,0:0|0:0,0:0:0:0:
203,86,144810,1,2,0:0:0:0:
203,86,144972,2,0,P|186:142|209:196,1,120,8|10,1:0|0:0,0:0:0:0:
296,224,145617,5,6,1:0:0:0:
472,44,147552,6,0,P|490:100|471:155,1,120,2|2,1:0|1:0,0:0:0:0:
381,192,148198,6,0,L|381:330,2,120,4|10|8,0:0|0:0|1:0,0:0:0:0:
332,197,149004,2,0,P|277:217|221:199,1,120,0|2,0:0|0:0,0:0:0:0:
186,166,149488,2,0,P|129:148|74:168,2,120,10|10|8,0:0|0:0|1:0,0:0:0:0:
132,245,150456,2,0,L|132:317,1,60,2|2,0:0|0:0,0:0:0:0:
136,352,150778,6,0,P|189:333|252:354,1,120,4|10,0:0|0:0,0:0:0:0:
344,351,151423,2,0,L|479:351,2,120,8|2|10,1:0|0:0|0:0,0:0:0:0:
321,308,152230,2,0,P|298:253|317:198,1,120,0|10,0:0|0:0,0:0:0:0:
356,170,152714,2,0,P|375:114|352:60,1,120,8|10,1:0|0:0,0:0:0:0:
260,35,153359,6,0,L|129:35,2,120,4|4|8,0:0|0:0|1:0,0:0:0:0:
217,121,154327,2,0,L|94:121,1,120,2|10,0:0|0:0,0:0:0:0:
37,197,154972,2,0,P|13:249|34:317,2,120,10|8|2,0:0|1:0|0:0,0:0:0:0:
109,260,155940,6,0,L|243:260,1,120,10|10,0:0|0:0,0:0:0:0:
316,299,156585,2,0,L|334:355,2,60,8|0|2,1:0|0:0|0:0,0:0:0:0:
300,204,157230,2,0,P|283:147|306:93,1,120,4|10,0:0|0:0,0:0:0:0:
339,58,157714,1,8,1:0:0:0:
339,58,157875,2,0,L|217:58,1,120,10|10,0:0|0:0,0:0:0:0:
192,98,158359,2,0,L|128:98,1,60,10|4,0:0|0:0,0:0:0:0:
35,94,158843,6,0,L|19:22,2,60,4|0|8,1:0|0:0|1:0,0:0:0:0:
93,170,159488,2,0,P|114:224|94:280,1,120,2|10,0:0|0:0,0:0:0:0:
48,364,160133,2,0,L|-26:372,2,60,8|0|8,1:0|0:0|1:0,0:0:0:0:
143,349,160778,2,0,P|199:332|257:347,1,120,2|10,0:0|0:0,0:0:0:0:
349,374,161423,6,0,L|348:246,1,120,10|8,0:0|1:0,0:0:0:0:
393,238,161907,2,0,L|393:169,1,60,0|2,0:0|0:0,0:0:0:0:
318,116,162391,2,0,P|262:134|205:121,1,120,10|10,0:0|0:0,0:0:0:0:
110,104,163036,2,0,L|110:178,1,60,8|0,1:0|0:0,0:0:0:0:
68,187,163359,2,0,L|68:323,1,120,10|4,0:0|0:0,0:0:0:0:
157,343,164004,6,0,P|188:337|224:342,1,60,4|0,0:0|0:0,0:0:0:0:
260,359,164327,2,0,L|259:235,1,120,8|2,1:0|0:0,0:0:0:0:
199,163,164972,2,0,P|247:141|321:167,1,120,10|10,0:0|0:0,0:0:0:0:
378,224,165617,2,0,B|347:285|403:285|381:341,2,120,8|2|10,1:0|0:0|0:0,0:0:0:0:
399,130,166585,6,0,L|399:7,1,120,10|8,0:0|1:0,0:0:0:0:
351,19,167069,1,0,0:0:0:0:
275,77,167391,1,2,0:0:0:0:
275,77,167552,2,0,P|217:95|157:75,1,120,4|10,0:0|0:0,0:0:0:0:
118,75,168036,1,8,1:0:0:0:
118,75,168198,2,0,L|117:198,1,120,10|10,0:0|0:0,0:0:0:0:
58,270,168843,5,0,0:0:0:0:
32,35,179165,6,0,L|37:118,1,60,4|0,0:0|0:0,0:0:0:0:
43,141,179488,2,0,P|100:128|150:157,1,120,4|0,0:0|0:0,0:0:0:0:
480,349,181746,6,0,L|475:266,1,60,4|0,0:0|0:0,0:0:0:0:
468,242,182069,2,0,P|410:255|360:226,1,120,4|0,0:0|0:0,0:0:0:0:
145,117,183198,6,0,B|87:139|87:90|28:115,2,120,10|10|10,0:0|0:0|0:0,0:0:0:0:
186,93,184004,1,10,0:0:0:0:
271,48,184327,6,0,L|276:131,1,60,4|0,0:0|0:0,0:0:0:0:
283,155,184650,2,0,P|340:141|390:170,1,120,4|0,0:0|0:0,0:0:0:0:
475,350,186907,6,0,L|354:349,1,120,4|10,0:0|0:0,0:0:0:0:
269,305,187552,2,0,P|286:249|261:193,1,120,10|10,0:0|0:0,0:0:0:0:
223,166,188036,1,10,0:0:0:0:
223,166,188198,2,0,L|151:166,1,60,4|10,1:0|0:0,0:0:0:0:
84,221,188681,1,10,0:0:0:0:
84,221,188843,2,0,P|101:277|77:340,1,120,10|10,0:0|0:0,0:0:0:0:
174,359,189488,6,0,L|303:358,1,120,4|10,0:0|0:0,0:0:0:0:
375,306,190133,2,0,P|390:242|371:194,1,120,8|10,1:0|0:0,0:0:0:0:
283,152,190778,2,0,P|263:96|278:39,1,120,10|10,0:0|0:0,0:0:0:0:
238,22,191262,1,2,0:0:0:0:
238,22,191423,2,0,L|112:22,1,120,8|10,1:0|0:0,0:0:0:0:
36,74,192069,6,0,B|60:130|2:130|32:195,1,120,4|10,0:0|0:0,0:0:0:0:
67,227,192552,1,0,0:0:0:0:
67,227,192714,2,0,P|123:207|183:224,1,120,8|10,1:0|0:0,0:0:0:0:
271,250,193359,2,0,L|271:127,1,120,10|10,0:0|0:0,0:0:0:0:
282,86,193843,1,2,0:0:0:0:
282,86,194004,2,0,P|347:103|403:80,1,120,8|10,1:0|0:0,0:0:0:0:
473,30,194649,1,10,0:0:0:0:
491,124,194972,6,0,L|490:252,2,120,10|8|10,0:0|1:0|0:0,0:0:0:0:
410,177,195940,2,0,B|350:184,1,60,10|2,0:0|0:0,0:0:0:0:
321,275,196423,2,0,B|261:282,1,60,2|8,0:0|1:0,0:0:0:0:
187,343,196907,1,10,0:0:0:0:
169,248,197230,1,4,0:0:0:0:
241,184,197552,6,0,P|254:129|235:69,2,120,10|8|10,0:0|1:0|0:0,0:0:0:0:
169,248,198520,2,0,L|36:249,1,120,12|12,0:0|0:0,0:0:0:0:
23,208,199004,1,12,0:0:0:0:
23,208,199165,2,0,P|28:172|20:142,1,60,12|4,1:0|0:0,0:0:0:0:
6,104,199488,1,4,0:0:0:0:
83,47,199810,6,0,L|209:46,1,120,4|10,0:0|0:0,0:0:0:0:
281,101,200455,2,0,P|299:156|282:213,1,120,8|10,1:0|0:0,0:0:0:0:
241,240,200939,2,0,L|242:300,2,60,0|4|2,0:0|0:0|0:0,0:0:0:0:
155,195,201584,1,10,0:0:0:0:
155,195,201746,2,0,P|95:212|33:195,1,120,8|2,1:0|0:0,0:0:0:0:
41,102,202391,6,0,P|101:85|163:102,1,120,4|10,0:0|0:0,0:0:0:0:
239,144,203036,2,0,P|296:156|353:140,1,120,8|10,1:0|0:0,0:0:0:0:
437,92,203681,2,0,L|437:211,1,120,4|10,0:0|0:0,0:0:0:0:
437,308,204326,2,0,L|466:360,2,60,8|0|10,1:0|0:0|0:0,0:0:0:0:
353,259,204972,5,4,0:0:0:0:
289,330,205294,1,10,0:0:0:0:
254,240,205617,2,0,P|196:224|139:240,1,120,8|10,1:0|0:0,0:0:0:0:
64,300,206262,1,4,0:0:0:0:
152,337,206584,1,10,0:0:0:0:
139,240,206907,2,0,L|139:115,1,120,8|2,1:0|0:0,0:0:0:0:
224,75,207552,6,0,P|280:95|343:74,1,120,4|10,0:0|0:0,0:0:0:0:
377,53,208036,1,2,0:0:0:0:
377,53,208197,2,0,P|355:128|379:174,1,120,8|10,1:0|0:0,0:0:0:0:
433,236,208843,2,0,P|449:292|426:346,1,120,4|10,0:0|0:0,0:0:0:0:
383,361,209326,1,2,0:0:0:0:
383,361,209488,2,0,L|251:361,1,120,8|10,1:0|0:0,0:0:0:0:
184,305,210133,6,0,P|161:250|182:196,1,120,4|10,0:0|0:0,0:0:0:0:
278,191,210778,2,0,P|298:135|276:81,1,120,8|10,1:0|0:0,0:0:0:0:
231,62,211262,1,2,0:0:0:0:
231,62,211423,2,0,L|93:62,1,120,10|10,0:0|0:0,0:0:0:0:
66,147,212068,2,0,P|88:201|67:256,1,120,8|8,1:0|1:0,0:0:0:0:
143,315,212714,6,0,L|263:315,1,120,4|10,0:0|0:0,0:0:0:0:
352,280,213359,2,0,P|327:226|345:170,1,120,8|10,1:0|0:0,0:0:0:0:
388,147,213843,1,2,0:0:0:0:
388,147,214004,2,0,L|260:148,1,120,10|10,0:0|0:0,0:0:0:0:
172,138,214649,2,0,P|190:81|172:25,1,120,8|8,1:0|1:0,0:0:0:0:
76,25,215294,6,0,P|58:81|76:137,1,120,4|10,0:0|0:0,0:0:0:0:
127,218,215939,2,0,P|150:271|130:327,1,120,8|10,1:0|0:0,0:0:0:0:
173,347,216423,1,2,0:0:0:0:
173,347,216584,2,0,L|313:347,1,120,10|10,0:0|0:0,0:0:0:0:
369,287,217230,2,0,P|383:227|364:168,1,120,8|8,1:0|1:0,0:0:0:0:
297,105,217875,5,2,1:0:0:0:
223,167,218198,2,0,P|169:191|112:177,2,120,2|2|2,1:0|1:0|1:0,0:0:0:0:
297,105,219165,1,2,1:0:0:0:
371,167,219488,2,0,P|424:191|481:177,2,120,2|2|2,1:0|1:0|1:0,0:0:0:0:
297,105,220456,5,2,1:0:0:0:
