osu file format v14

[General]
AudioFilename: audio.mp3
AudioLeadIn: 0
PreviewTime: 168762
Countdown: 0
SampleSet: Soft
StackLeniency: 0.5
Mode: 0
LetterboxInBreaks: 0
WidescreenStoryboard: 1

[Editor]
Bookmarks: 456,11423,21746,32069,42391,52714,73359,83681,94004,104327,114649,124972,145617,148198,168843,179165,189488,199810,210133,220778
DistanceSpacing: 0.8
BeatDivisor: 8
GridSize: 8
TimelineZoom: 1

[Metadata]
Title:No oh oh
TitleUnicode:아니야
Artist:CLC
ArtistUnicode:씨엘씨
Creator:Natsu
Version:No! No!
Source:
Tags:Euny kpop k-pop 큐브엔터테인먼트 NU.CLEAR 장예은 SORN 오승희 장승연 최유진 엘키 권은빈 ELKIE 손
BeatmapID:1010809
BeatmapSetID:473049

[Difficulty]
HPDrainRate:6
CircleSize:4.2
OverallDifficulty:9
ApproachRate:9.3
SliderMultiplier:1.85
SliderTickRate:1

[Events]
//Background and Video events
0,0,"oh oh oh.jpg",0,0
Video,-250,"No Oh Oh MV.avi"
//Break Periods
2,169043,178611
2,180010,181192
2,185172,186353
//Storyboard Layer 0 (Background)
//Storyboard Layer 1 (Fail)
//Storyboard Layer 2 (Pass)
//Storyboard Layer 3 (Foreground)
//Storyboard Sound Samples

[TimingPoints]
-189,645.161290322581,4,1,1,40,1,0
456,-66.6666666666667,4,2,1,15,0,0
698,-66.6666666666667,4,2,1,5,0,0
778,-66.6666666666667,4,2,1,15,0,0
1020,-66.6666666666667,4,2,1,5,0,0
1101,-50,4,2,1,40,0,0
2552,-50,4,2,1,5,0,0
2714,-50,4,2,1,40,0,0
2875,-50,4,2,1,5,0,0
3036,-50,4,2,1,40,0,0
3198,-50,4,2,1,5,0,0
3359,-50,4,2,1,40,0,0
3843,-50,4,2,1,5,0,0
4004,-50,4,2,1,40,0,0
4165,-50,4,2,1,5,0,0
4327,-50,4,2,1,40,0,0
5133,-50,4,2,1,5,0,0
5294,-50,4,2,1,40,0,0
5859,-50,4,2,1,5,0,0
5940,-50,4,2,1,40,0,0
6101,-50,4,2,1,5,0,0
6262,-50,4,2,1,40,0,0
8036,-50,4,2,1,5,0,0
8198,-50,4,2,1,40,0,0
8359,-50,4,2,1,5,0,0
8520,-50,4,2,1,40,0,0
9004,-50,4,2,1,5,0,0
9165,-50,4,2,1,40,0,0
9327,-50,4,2,1,5,0,0
9488,-50,4,2,1,40,0,0
10133,-50,4,2,1,50,0,0
11585,-50,4,2,1,5,0,0
11746,-50,4,2,1,50,0,0
11907,-50,4,2,1,5,0,0
12069,-50,4,2,1,50,0,0
12875,-50,4,2,1,5,0,0
13036,-50,4,2,1,50,0,0
13198,-50,4,2,1,5,0,0
13359,-50,4,2,1,50,0,0
14165,-50,4,2,1,5,0,0
14327,-50,4,2,1,50,0,0
14488,-50,4,2,1,5,0,0
14649,-50,4,2,1,50,0,0
14810,-50,4,2,1,5,0,0
14972,-50,4,2,1,50,0,0
15940,-27.7777777777778,4,2,1,50,0,0
16181,-27.7777777777778,4,2,1,5,0,0
16262,-27.7777777777778,4,2,1,50,0,0
16504,-27.7777777777778,4,2,1,5,0,0
16585,-50,4,2,1,50,0,0
19004,-50,4,2,1,5,0,0
19165,-50,4,2,1,50,0,0
20294,-50,4,2,1,5,0,0
20456,-27.7777777777778,4,2,1,50,0,0
20698,-27.7777777777778,4,2,1,5,0,0
20778,-27.7777777777778,4,2,1,50,0,0
21746,-50,4,2,1,50,0,0
21907,-50,4,2,1,5,0,0
22069,-50,4,2,1,50,0,0
22230,-50,4,2,1,5,0,0
22391,-50,4,2,1,50,0,0
23198,-50,4,2,1,5,0,0
23359,-50,4,2,1,50,0,0
23520,-50,4,2,1,5,0,0
23681,-50,4,2,1,50,0,0
24488,-50,4,2,1,5,0,0
24649,-50,4,2,1,50,0,0
24810,-50,4,2,1,5,0,0
24972,-50,4,2,1,50,0,0
25133,-50,4,2,1,5,0,0
25294,-50,4,2,1,50,0,0
26262,-27.7777777777778,4,2,1,50,0,0
26504,-27.7777777777778,4,2,1,5,0,0
26585,-27.7777777777778,4,2,1,50,0,0
26827,-27.7777777777778,4,2,1,5,0,0
26907,-50,4,2,1,50,0,0
29327,-50,4,2,1,5,0,0
29488,-50,4,2,1,50,0,0
30617,-50,4,2,1,5,0,0
30778,-27.7777777777778,4,2,1,50,0,0
30940,-27.7777777777778,4,2,1,5,0,0
31101,-27.7777777777778,4,2,1,50,0,0
32069,-50,4,2,1,50,0,0
32310,-50,4,2,1,5,0,0
32391,-50,4,2,1,50,0,0
34891,-50,4,2,1,5,0,0
34972,-50,4,2,1,50,0,0
37230,-55.5555555555556,4,2,1,35,0,0
37472,-55.5555555555556,4,2,1,5,0,0
37552,-55.5555555555556,4,2,1,35,0,0
38117,-55.5555555555556,4,2,1,5,0,0
38198,-55.5555555555556,4,2,1,35,0,0
38440,-55.5555555555556,4,2,1,5,0,0
38520,-55.5555555555556,4,2,1,35,0,0
38923,-55.5555555555556,4,2,1,5,0,0
39004,-55.5555555555556,4,2,1,35,0,0
39327,-55.5555555555556,4,2,1,5,0,0
39488,-55.5555555555556,4,2,1,35,0,0
39649,-55.5555555555556,4,2,1,5,0,0
39810,-55.5555555555556,4,2,1,35,0,0
39972,-55.5555555555556,4,2,1,5,0,0
40133,-55.5555555555556,4,2,1,35,0,0
40617,-55.5555555555556,4,2,1,5,0,0
40778,-55.5555555555556,4,2,1,35,0,0
41020,-55.5555555555556,4,2,1,5,0,0
41101,-55.5555555555556,4,2,1,50,0,0
41423,-55.5555555555556,4,2,1,5,0,0
41585,-55.5555555555556,4,2,1,50,0,0
42391,-50,4,2,1,50,0,0
42633,-50,4,2,1,5,0,0
42714,-50,4,2,1,50,0,0
43198,-50,4,2,1,5,0,0
43359,-50,4,2,1,50,0,0
45214,-50,4,2,1,5,0,0
45294,-50,4,2,1,50,0,0
49972,-50,4,2,1,5,0,0
50133,-50,4,2,1,50,0,0
50778,-200,4,2,1,50,0,0
50940,-200,4,2,1,5,0,0
51423,-50,4,2,1,50,0,0
52714,-45.4545454545455,4,2,1,60,0,1
52956,-45.4545454545455,4,2,1,5,0,1
53036,-45.4545454545455,4,2,1,60,0,1
55536,-45.4545454545455,4,2,1,5,0,1
55617,-45.4545454545455,4,2,1,60,0,1
58117,-45.4545454545455,4,2,1,5,0,1
58198,-45.4545454545455,4,2,1,60,0,1
58762,-45.4545454545455,4,2,1,5,0,1
58843,-45.4545454545455,4,2,1,60,0,1
61988,-45.4545454545455,4,2,1,5,0,1
62069,-45.4545454545455,4,2,1,60,0,1
62956,-45.4545454545455,4,2,1,60,0,0
63036,-45.4545454545455,4,2,1,60,0,1
63278,-45.4545454545455,4,2,1,5,0,1
63359,-45.4545454545455,4,2,1,60,0,1
65859,-45.4545454545455,4,2,1,5,0,1
65940,-45.4545454545455,4,2,1,60,0,1
73278,-45.4545454545455,4,2,1,60,0,0
73359,-50,4,2,1,60,0,1
73440,-50,4,2,1,50,0,0
75294,-27.7777777777778,4,2,1,50,0,0
75536,-27.7777777777778,4,2,1,5,0,0
75617,-27.7777777777778,4,2,1,50,0,0
75859,-27.7777777777778,4,2,1,5,0,0
75940,-50,4,2,1,50,0,0
77875,-27.7777777777778,4,2,1,50,0,0
78117,-27.7777777777778,4,2,1,5,0,0
78198,-27.7777777777778,4,2,1,50,0,0
78440,-27.7777777777778,4,2,1,5,0,0
78520,-50,4,2,1,50,0,0
80456,-27.7777777777778,4,2,1,50,0,0
80698,-27.7777777777778,4,2,1,5,0,0
80778,-27.7777777777778,4,2,1,50,0,0
81020,-27.7777777777778,4,2,1,5,0,0
81101,-66.6666666666667,4,2,1,25,0,0
82230,-66.6666666666667,4,2,1,5,0,0
82391,-66.6666666666667,4,2,1,25,0,0
82552,-66.6666666666667,4,2,1,5,0,0
82714,-66.6666666666667,4,2,1,25,0,0
83520,-66.6666666666667,4,2,1,5,0,0
83681,-50,4,2,1,50,0,0
83843,-50,4,2,1,5,0,0
84004,-50,4,2,1,50,0,0
84165,-50,4,2,1,5,0,0
84327,-50,4,2,1,50,0,0
85133,-50,4,2,1,5,0,0
85294,-50,4,2,1,50,0,0
85456,-50,4,2,1,5,0,0
85617,-50,4,2,1,50,0,0
86423,-50,4,2,1,5,0,0
86585,-50,4,2,1,50,0,0
86746,-50,4,2,1,5,0,0
86907,-50,4,2,1,50,0,0
87069,-50,4,2,1,5,0,0
87230,-50,4,2,1,50,0,0
88198,-27.7777777777778,4,2,1,50,0,0
88440,-27.7777777777778,4,2,1,5,0,0
88520,-27.7777777777778,4,2,1,50,0,0
88762,-27.7777777777778,4,2,1,5,0,0
88843,-50,4,2,1,50,0,0
91262,-50,4,2,1,5,0,0
91423,-50,4,2,1,50,0,0
92552,-50,4,2,1,5,0,0
92714,-27.7777777777778,4,2,1,50,0,0
94004,-50,4,2,1,50,0,0
94165,-50,4,2,1,5,0,0
94327,-50,4,2,1,50,0,0
94488,-50,4,2,1,5,0,0
94649,-50,4,2,1,50,0,0
95456,-50,4,2,1,5,0,0
95617,-50,4,2,1,50,0,0
95778,-50,4,2,1,5,0,0
95940,-50,4,2,1,50,0,0
96746,-50,4,2,1,5,0,0
96907,-50,4,2,1,50,0,0
97069,-50,4,2,1,5,0,0
97230,-50,4,2,1,50,0,0
97391,-50,4,2,1,5,0,0
97552,-50,4,2,1,50,0,0
98520,-27.7777777777778,4,2,1,50,0,0
98762,-27.7777777777778,4,2,1,5,0,0
98843,-27.7777777777778,4,2,1,50,0,0
99085,-27.7777777777778,4,2,1,5,0,0
99165,-50,4,2,1,50,0,0
101585,-50,4,2,1,5,0,0
101746,-50,4,2,1,50,0,0
102875,-50,4,2,1,5,0,0
103036,-27.7777777777778,4,2,1,50,0,0
103278,-27.7777777777778,4,2,1,5,0,0
103359,-27.7777777777778,4,2,1,50,0,0
104327,-50,4,2,1,50,0,0
104569,-50,4,2,1,5,0,0
104649,-50,4,2,1,50,0,0
107149,-50,4,2,1,5,0,0
107230,-50,4,2,1,50,0,0
109327,-50,4,2,1,5,0,0
109488,-50,4,2,1,50,0,0
109730,-50,4,2,1,5,0,0
109810,-50,4,2,1,50,0,0
110456,-50,4,2,1,5,0,0
110617,-50,4,2,1,50,0,0
111585,-50,4,2,1,5,0,0
111746,-50,4,2,1,50,0,0
111907,-50,4,2,1,5,0,0
112069,-50,4,2,1,50,0,0
112230,-50,4,2,1,5,0,0
112391,-50,4,2,1,50,0,0
113036,-50,4,2,1,5,0,0
113198,-50,4,2,1,50,0,0
114891,-50,4,2,1,5,0,0
114972,-50,4,2,1,50,0,0
117472,-50,4,2,1,5,0,0
117552,-50,4,2,1,50,0,0
119649,-50,4,2,1,5,0,0
119810,-50,4,2,1,50,0,0
122230,-50,4,2,1,5,0,0
122391,-50,4,2,1,50,0,0
123036,-200,4,2,1,50,0,0
123198,-200,4,2,1,5,0,0
123681,-50,4,2,1,50,0,0
124972,-45.4545454545455,4,2,1,60,0,1
125214,-45.4545454545455,4,2,1,5,0,1
125294,-45.4545454545455,4,2,1,60,0,1
127794,-45.4545454545455,4,2,1,5,0,1
127875,-45.4545454545455,4,2,1,60,0,1
130375,-45.4545454545455,4,2,1,5,0,1
130456,-45.4545454545455,4,2,1,60,0,1
131020,-45.4545454545455,4,2,1,5,0,1
131101,-45.4545454545455,4,2,1,60,0,1
134246,-45.4545454545455,4,2,1,5,0,1
134327,-45.4545454545455,4,2,1,60,0,1
135214,-45.4545454545455,4,2,1,60,0,0
135294,-45.4545454545455,4,2,1,60,0,1
135536,-45.4545454545455,4,2,1,5,0,1
135617,-45.4545454545455,4,2,1,60,0,1
138117,-45.4545454545455,4,2,1,5,0,1
138198,-45.4545454545455,4,2,1,60,0,1
145617,-200,4,2,1,25,0,0
145778,-200,4,2,1,10,0,0
146907,-200,4,2,1,5,0,0
147552,-66.6666666666667,4,2,1,15,0,0
147794,-66.6666666666667,4,2,1,5,0,0
147875,-66.6666666666667,4,2,1,15,0,0
148117,-66.6666666666667,4,2,1,5,0,0
148198,-50,4,2,1,50,0,0
151020,-50,4,2,1,5,0,0
151101,-50,4,2,1,50,0,0
151343,-50,4,2,1,5,0,0
151423,-50,4,2,1,50,0,0
151665,-50,4,2,1,5,0,0
151746,-50,4,2,1,50,0,0
165778,-50,4,2,1,5,0,0
165940,-50,4,2,1,50,0,0
166101,-50,4,2,1,5,0,0
166262,-50,4,2,1,50,0,0
166423,-50,4,2,1,5,0,0
166585,-50,4,2,1,50,0,0
179165,-35.7142857142857,4,2,1,50,0,1
179327,-35.7142857142857,4,2,1,5,0,1
179488,-33.3333333333333,4,2,1,50,0,1
179811,-33.3333333333333,4,2,1,5,0,0
181746,-35.7142857142857,4,2,1,50,0,1
181907,-35.7142857142857,4,2,1,5,0,1
182069,-33.3333333333333,4,2,1,50,0,1
182391,-33.3333333333333,4,2,1,5,0,0
183198,-50,4,2,1,35,0,0
184327,-35.7142857142857,4,2,1,50,0,1
184488,-35.7142857142857,4,2,1,5,0,1
184649,-33.3333333333333,4,2,1,50,0,1
184972,-33.3333333333333,4,2,1,5,0,0
186907,-50,4,2,1,50,0,0
187069,-50,4,2,1,5,0,0
187230,-50,4,2,1,50,0,0
189488,-45.4545454545455,4,2,1,60,0,1
198520,-45.4545454545455,4,2,1,60,0,1
199730,-45.4545454545455,4,2,1,5,0,0
199811,-45.4545454545455,4,2,1,60,0,1
200052,-45.4545454545455,4,2,1,5,0,1
200133,-45.4545454545455,4,2,1,60,0,1
202633,-45.4545454545455,4,2,1,5,0,1
202714,-45.4545454545455,4,2,1,60,0,1
210133,-50,4,2,1,50,0,0
212068,-27.7777777777778,4,2,1,50,0,0
212310,-27.7777777777778,4,2,1,5,0,0
212391,-27.7777777777778,4,2,1,50,0,0
212633,-27.7777777777778,4,2,1,5,0,0
212714,-50,4,2,1,50,0,0
214649,-27.7777777777778,4,2,1,50,0,0
214891,-27.7777777777778,4,2,1,5,0,0
214972,-27.7777777777778,4,2,1,50,0,0
215214,-27.7777777777778,4,2,1,5,0,0
215294,-50,4,2,1,50,0,0
217230,-27.7777777777778,4,2,1,50,0,0
217472,-27.7777777777778,4,2,1,5,0,0
217552,-27.7777777777778,4,2,1,50,0,0
217794,-27.7777777777778,4,2,1,5,0,0
217875,-66.6666666666667,4,2,1,25,0,0
219004,-66.6666666666667,4,2,1,5,0,0
219165,-66.6666666666667,4,2,1,25,0,0
219327,-66.6666666666667,4,2,1,5,0,0
219488,-66.6666666666667,4,2,1,25,0,0
220294,-66.6666666666667,4,2,1,5,0,0
220456,-66.6666666666667,4,2,1,15,0,0
220778,-66.6666666666667,4,2,1,5,0,0

[Colours]
Combo1 : 125,190,255
Combo2 : 255,81,255

[HitObjects]
16,360,456,6,0,P|0:312|17:264,1,104.06250396967,2|0,1:0|0:0,0:0:0:0:
92,242,778,2,0,P|140:258|188:241,1,104.06250396967,2|0,1:0|0:0,0:0:0:0:
139,181,1101,5,6,0:0:0:0:
286,291,1262,1,2,0:0:0:0:
403,82,1423,1,10,0:0:0:0:
256,192,1584,1,2,0:0:0:0:
439,288,1746,1,8,1:0:0:0:
439,288,1907,2,0,P|452:329|442:377,2,92.5
189,193,2391,6,0,B|148:211|110:192|110:192|118:185,1,92.5,10|0,0:0|0:0,0:0:0:0:
323,191,2714,2,0,B|364:173|402:192|402:192|393:198,1,92.5,10|0,0:0|0:0,0:0:0:0:
256,341,3036,2,0,L|256:237,1,92.5,8|0,1:0|0:0,0:0:0:0:
260,92,3359,1,2,0:0:0:0:
260,92,3520,1,2,0:0:0:0:
394,199,3681,6,0,P|405:243|394:288,1,92.5,10|0,0:0|0:0,0:0:0:0:
117,287,4004,2,0,P|106:243|118:199,1,92.5,10|0,0:0|0:0,0:0:0:0:
256,58,4327,1,8,1:0:0:0:
256,58,4488,2,0,L|256:150,2,92.5
332,201,4972,6,0,P|298:233|253:241,1,92.5,10|0,0:0|0:0,0:0:0:0:
95,218,5294,2,0,P|65:242|102:252,1,92.5,2|2,1:0|0:0,0:0:0:0:
256,150,5617,2,0,B|291:80|237:80|261:16,1,138.75,10|0,1:0|0:0,0:0:0:0:
336,45,5940,2,0,B|414:40|414:40|393:69,1,92.5,10|0,0:0|0:0,0:0:0:0:
185,109,6262,5,6,0:0:0:0:
369,192,6423,1,2,0:0:0:0:
102,293,6585,1,10,0:0:0:0:
286,376,6746,1,2,0:0:0:0:
189,112,6907,1,8,1:0:0:0:
189,112,7069,2,0,P|141:100|98:116,2,92.5
286,376,7552,5,10,0:0:0:0:
416,192,7714,1,10,0:0:0:0:
286,376,7875,2,0,P|270:333|283:289,1,92.5,10|0,0:0|0:0,0:0:0:0:
413,105,8198,2,0,P|429:148|416:192,1,92.5,8|0,1:0|0:0,0:0:0:0:
286,294,8520,1,2,0:0:0:0:
286,294,8681,1,2,0:0:0:0:
413,106,8843,6,0,P|456:92|500:105,1,92.5,10|0,0:0|0:0,0:0:0:0:
374,293,9165,2,0,P|330:306|287:294,1,92.5,10|0,0:0|0:0,0:0:0:0:
157,192,9488,1,8,1:0:0:0:
157,192,9649,2,0,L|56:192,2,92.5
412,313,10133,5,8,1:0:0:0:
238,127,10294,1,2,0:0:0:0:
165,371,10456,1,2,0:0:0:0:
512,201,10617,5,8,1:0:0:0:
338,15,10778,1,2,0:0:0:0:
265,259,10940,1,2,0:0:0:0:
474,47,11101,5,10,0:0:0:0:
227,105,11262,1,10,0:0:0:0:
400,290,11423,6,0,P|444:302|488:288,1,92.5,4|0,0:0|0:0,0:0:0:0:
314,102,11746,2,0,P|270:90|226:104,1,92.5,4|0,0:0|0:0,0:0:0:0:
183,333,12069,5,8,1:0:0:0:
273,166,12230,1,0,0:0:0:0:
59,155,12391,1,2,0:0:0:0:
226,245,12552,1,0,0:0:0:0:
69,68,12714,6,0,P|50:110|59:155,1,92.5,4|0,0:0|0:0,0:0:0:0:
217,331,13036,2,0,P|236:289|226:245,1,92.5,4|0,0:0|0:0,0:0:0:0:
127,120,13359,5,8,1:0:0:0:
162,280,13520,1,0,0:0:0:0:
283,170,13681,1,2,0:0:0:0:
127,120,13843,1,0,0:0:0:0:
351,214,14004,6,0,P|364:169|351:125,1,92.5,4|0,0:0|0:0,0:0:0:0:
127,120,14327,2,0,P|111:163|121:207,1,92.5,4|0,0:0|0:0,0:0:0:0:
283,170,14649,2,0,L|190:170,1,92.5,8|0,1:0|0:0,0:0:0:0:
23,223,14972,5,2,0:0:0:0:
110,374,15133,1,0,0:0:0:0:
256,88,15294,1,4,0:0:0:0:
489,223,15456,5,2,0:0:0:0:
402,374,15617,1,0,0:0:0:0:
256,88,15778,1,4,0:0:0:0:
110,374,15940,6,0,B|134:301|134:301|196:364|196:364|214:282,1,249.749992378235,8|0,1:0|0:0,0:0:0:0:
343,282,16262,2,0,P|374:367|309:305,1,249.749992378235,8|0,1:0|0:0,0:0:0:0:
331,192,16585,5,4,0:0:0:0:
507,289,16746,1,0,0:0:0:0:
371,117,16907,1,10,0:0:0:0:
507,289,17068,1,0,0:0:0:0:
436,59,17230,1,8,1:0:0:0:
507,289,17391,1,0,0:0:0:0:
271,236,17552,2,0,B|181:196|181:280|93:233,1,185,2|10,0:0|0:0,0:0:0:0:
94,233,18198,5,10,0:0:0:0:
73,50,18359,1,0,0:0:0:0:
193,185,18520,1,8,1:0:0:0:
17,147,18681,1,0,0:0:0:0:
182,75,18843,2,0,B|225:57|259:71|259:71|252:82,1,92.5,2|0,0:0|0:0,0:0:0:0:
14,297,19165,5,4,0:0:0:0:
123,165,19327,1,0,0:0:0:0:
263,259,19488,1,10,0:0:0:0:
94,233,19649,1,0,0:0:0:0:
113,60,19810,1,8,1:0:0:0:
168,224,19972,1,0,0:0:0:0:
27,71,20133,2,0,P|67:51|112:59,1,92.5,2|0,0:0|0:0,0:0:0:0:
256,258,20456,6,0,B|280:185|280:185|342:248|342:248|367:166,1,249.749992378235,4|0,0:0|0:0,0:0:0:0:
479,212,20778,2,0,P|467:275|433:220,1,166.499994918823,10|8,0:0|1:0,0:0:0:0:
428,63,21101,2,0,P|393:8|382:71,1,166.499994918823,8|2,0:0|0:0,0:0:0:0:
479,212,21423,1,12,0:0:0:0:
208,139,21746,6,0,L|116:150,1,92.5,4|0,0:0|0:0,0:0:0:0:
304,245,22069,2,0,L|396:234,1,92.5,4|0,0:0|0:0,0:0:0:0:
208,139,22391,5,8,1:0:0:0:
102,235,22552,1,0,0:0:0:0:
198,341,22714,1,2,0:0:0:0:
304,245,22875,1,0,0:0:0:0:
102,235,23036,6,0,B|26:243|26:243|36:255,1,92.5,4|0,0:0|0:0,0:0:0:0:
304,245,23359,2,0,B|380:237|380:237|369:224,1,92.5,4|0,0:0|0:0,0:0:0:0:
215,43,23681,5,8,1:0:0:0:
109,139,23842,1,0,0:0:0:0:
205,245,24004,1,2,0:0:0:0:
311,149,24165,1,0,0:0:0:0:
109,139,24327,6,0,B|68:123|31:150|31:150|41:154,1,92.5,4|0,0:0|0:0,0:0:0:0:
311,149,24649,2,0,B|351:164|388:137|388:137|378:133,1,92.5,4|0,0:0|0:0,0:0:0:0:
215,43,24972,2,0,B|215:149,1,92.5,8|0,1:0|0:0,0:0:0:0:
135,264,25294,5,2,0:0:0:0:
311,149,25456,1,0,0:0:0:0:
12,17,25617,1,4,0:0:0:0:
130,337,25778,5,2,0:0:0:0:
306,222,25940,1,0,0:0:0:0:
7,90,26101,1,4,0:0:0:0:
130,337,26262,6,0,B|154:264|154:264|216:327|216:327|240:246,1,249.749992378235,8|0,1:0|0:0,0:0:0:0:
367,260,26585,2,0,P|374:350|328:273,1,249.749992378235,8|0,1:0|0:0,0:0:0:0:
330,164,26907,5,4,0:0:0:0:
494,191,27069,1,0,0:0:0:0:
248,150,27230,1,8,1:0:0:0:
412,177,27392,1,0,0:0:0:0:
166,137,27552,1,8,1:0:0:0:
330,164,27714,1,0,0:0:0:0:
136,206,27875,2,0,P|90:132|144:63,1,185,2|10,0:0|0:0,0:0:0:0:
282,313,28520,5,8,1:0:0:0:
136,206,28681,1,0,0:0:0:0:
316,207,28842,1,8,1:0:0:0:
171,315,29003,1,0,0:0:0:0:
224,142,29165,2,0,L|237:36,1,92.5,2|0,0:0|0:0,0:0:0:0:
228,238,29488,5,4,0:0:0:0:
36,299,29649,1,2,0:0:0:0:
70,79,29810,1,8,1:0:0:0:
131,271,29971,1,2,0:0:0:0:
293,113,30133,1,8,1:0:0:0:
101,174,30294,1,2,0:0:0:0:
257,35,30456,2,0,P|289:67|293:113,1,92.5,2|0,0:0|0:0,0:0:0:0:
200,327,30778,6,0,B|224:254|224:254|286:317|286:317|311:235,1,249.749992378235,4|0,0:0|0:0,0:0:0:0:
431,263,31101,2,0,P|420:326|386:272,1,166.499994918823,10|8,0:0|1:0,0:0:0:0:
444,67,31423,2,0,P|412:11|401:75,1,166.499994918823,8|2,0:0|0:0,0:0:0:0:
480,195,31746,1,12,0:0:0:0:
480,195,32069,6,0,L|492:351,1,138.75,4|0,0:0|0:0,0:0:0:0:
423,371,32391,1,10,0:0:0:0:
285,293,32552,2,0,P|240:281|196:294,1,92.5,0|8,0:0|1:0,0:0:0:0:
356,337,32875,2,0,P|367:292|354:248,1,92.5
218,100,33198,5,2,0:0:0:0:
70,266,33359,1,4,0:0:0:0:
217,194,33520,1,0,0:0:0:0:
51,46,33681,1,10,0:0:0:0:
217,194,33843,2,0,P|260:206|304:192,1,92.5,0|8,0:0|1:0,0:0:0:0:
138,44,34165,2,0,P|94:32|51:46,1,92.5
108,235,34488,5,2,0:0:0:0:
108,235,34649,2,0,P|129:171|96:112,1,138.75,4|0,0:0|0:0,0:0:0:0:
49,179,34972,1,10,0:0:0:0:
224,223,35133,2,0,P|269:235|312:221,1,92.5,0|8,0:0|1:0,0:0:0:0:
476,137,35456,2,0,P|431:125|388:139,1,92.5
293,308,35778,5,2,0:0:0:0:
434,206,35940,1,4,0:0:0:0:
307,101,36101,2,0,P|298:145|314:188,1,92.5
406,314,36423,1,4,0:0:0:0:
226,190,36585,1,8,1:0:0:0:
135,309,36746,1,0,0:0:0:0:
13,96,36907,1,4,0:0:0:0:
106,209,37069,1,0,0:0:0:0:
106,209,37230,6,0,B|186:209|186:209|233:188,1,124.874996189118,10|0,0:0|0:0,0:0:0:0:
298,152,37552,1,8,1:0:0:0:
348,261,37714,1,10,0:0:0:0:
230,114,37875,2,0,P|278:76|345:90,1,124.874996189118,10|0,0:0|0:0,0:0:0:0:
389,148,38198,2,0,L|389:0,1,124.874996189118,8|0,1:0|0:0,0:0:0:0:
460,62,38520,5,10,0:0:0:0:
298,152,38681,2,0,L|298:280,1,124.874996189118,8|0,1:0|0:0,0:0:0:0:
227,238,39004,1,10,0:0:0:0:
372,192,39165,2,0,P|412:179|451:191,1,83.2499974594117,8|0,1:0|0:0,0:0:0:0:
227,238,39488,2,0,P|187:250|148:238,1,83.2499974594117,10|0,0:0|0:0,0:0:0:0:
190,70,39810,6,0,L|190:153,1,83.2499974594117,10|0,0:0|0:0,0:0:0:0:
188,325,40133,1,8,1:0:0:0:
297,242,40294,1,10,0:0:0:0:
148,238,40456,2,0,P|108:251|68:240,1,83.2499974594117,10|0,0:0|0:0,0:0:0:0:
79,35,40778,2,0,L|103:158,1,124.874996189118,10|0,1:0|0:0,0:0:0:0:
148,238,41101,5,12,1:0:0:0:
256,125,41262,2,0,P|297:115|337:123,1,83.2499974594117,8|0,1:0|0:0,0:0:0:0:
256,290,41585,1,8,1:0:0:0:
129,68,41746,1,10,0:0:0:0:
14,284,41907,1,10,0:0:0:0:
256,125,42069,1,12,0:0:0:0:
256,125,42391,6,0,P|230:185|268:244,1,138.75,4|0,0:0|0:0,0:0:0:0:
305,181,42714,1,10,0:0:0:0:
177,260,42875,1,0,0:0:0:0:
372,223,43036,2,0,P|383:179|368:135,1,92.5,8|0,1:0|0:0,0:0:0:0:
252,22,43359,1,0,0:0:0:0:
305,181,43520,5,2,0:0:0:0:
452,84,43681,1,6,0:0:0:0:
256,110,43843,1,0,0:0:0:0:
376,267,44004,1,10,0:0:0:0:
348,53,44165,1,0,0:0:0:0:
207,191,44327,2,0,P|165:206|121:193,2,92.5,8|0|0,1:0|0:0|0:0,0:0:0:0:
351,57,44810,5,2,0:0:0:0:
351,57,44972,2,0,P|320:117|350:184,1,138.75,4|0,0:0|0:0,0:0:0:0:
400,120,45294,1,10,0:0:0:0:
249,44,45456,2,0,P|204:32|161:44,1,92.5,0|8,0:0|1:0,0:0:0:0:
7,130,45778,2,0,P|51:142|95:129,1,92.5
253,47,46101,5,2,0:0:0:0:
253,47,46262,2,0,B|277:112|220:152|220:152|295:136,1,185,4|0,0:0|0:0,0:0:0:0:
412,109,46746,1,10,0:0:0:0:
181,81,46907,1,8,1:0:0:0:
274,295,47069,1,0,0:0:0:0:
302,62,47230,1,10,0:0:0:0:
164,248,47391,1,0,0:0:0:0:
395,276,47553,5,4,0:0:0:0:
302,62,47714,1,0,0:0:0:0:
274,318,47875,1,8,1:0:0:0:
302,62,48036,1,0,0:0:0:0:
135,291,48198,1,8,1:0:0:0:
302,62,48359,1,0,0:0:0:0:
17,187,48520,2,0,B|-9:160|-9:160|55:108|6:29,1,185,2|10,0:0|0:0,0:0:0:0:
330,130,49165,5,8,1:0:0:0:
160,192,49326,1,0,0:0:0:0:
334,239,49487,1,8,1:0:0:0:
220,98,49648,1,0,0:0:0:0:
228,279,49810,2,0,L|215:380,1,92.5,2|0,0:0|0:0,0:0:0:0:
109,237,50133,5,4,0:0:0:0:
334,239,50294,1,0,0:0:0:0:
202,74,50456,1,8,1:0:0:0:
427,76,50617,1,0,0:0:0:0:
109,237,50778,6,0,L|102:269,1,23.125,2|0,1:0|0:0,0:0:0:0:
109,237,51423,5,4,0:0:0:0:
316,336,51585,2,0,P|359:350|402:336,1,92.5,2|0,0:0|0:0,0:0:0:0:
195,237,51907,2,0,P|152:223|109:237,1,92.5,8|0,1:0|0:0,0:0:0:0:
256,373,52230,1,8,1:0:0:0:
488,192,52391,1,12,0:0:0:0:
15,363,52714,6,0,B|-18:289|49:289|17:217,1,152.625004657746,4|0,0:0|0:0,0:0:0:0:
3,105,53036,2,0,P|50:124|98:110,1,101.750003105164,10|0,0:0|0:0,0:0:0:0:
269,72,53359,2,0,P|222:53|174:67,1,101.750003105164,8|0,1:0|0:0,0:0:0:0:
16,216,53681,5,10,0:0:0:0:
136,280,53843,1,0,0:0:0:0:
174,66,54004,1,10,0:0:0:0:
256,211,54165,2,0,P|305:226|353:211,1,101.750003105164,2|0,0:0|0:0,0:0:0:0:
174,66,54488,5,10,0:0:0:0:
136,280,54649,1,8,1:0:0:0:
256,211,54810,1,0,0:0:0:0:
69,237,54972,2,0,P|54:284|74:330,1,101.750003105164,2|0,0:0|0:0,0:0:0:0:
259,298,55294,6,0,B|268:280|268:280|135:280,1,152.625004657746,4|0,0:0|0:0,0:0:0:0:
296,358,55617,2,0,B|317:344|317:344|341:293|341:293|341:272,1,101.750003105164,10|0,0:0|0:0,0:0:0:0:
345,118,55940,2,0,P|391:133|444:112,1,101.750003105164,8|0,1:0|0:0,0:0:0:0:
256,23,56262,6,0,P|210:8|157:29,1,101.750003105164,10|0,0:0|0:0,0:0:0:0:
155,196,56585,2,0,B|192:185|230:151|211:87|211:87|259:146,1,203.500006210327,4|0,0:0|0:0,0:0:0:0:
298,275,57069,5,10,0:0:0:0:
76,337,57230,1,8,1:0:0:0:
136,117,57391,1,0,0:0:0:0:
203,277,57552,2,0,P|251:292|298:275,1,101.750003105164,10|0,0:0|0:0,0:0:0:0:
375,113,57875,6,0,P|351:173|416:173,1,152.625004657746,4|0,0:0|0:0,0:0:0:0:
444,71,58198,2,0,P|405:39|355:35,1,101.750003105164,10|0,0:0|0:0,0:0:0:0:
194,213,58520,2,0,P|259:213|236:153,1,152.625004657746,8|0,1:0|0:0,0:0:0:0:
139,152,58843,2,0,P|113:195|118:245,1,101.750003105164,10|0,0:0|0:0,0:0:0:0:
260,352,59165,1,10,0:0:0:0:
260,352,59327,1,2,0:0:0:0:
9,191,59488,5,2,0:0:0:0:
235,152,59649,1,10,0:0:0:0:
156,370,59810,1,8,1:0:0:0:
9,191,59972,2,0,P|-5:143|9:95,1,101.750003105164,0|2,0:0|0:0,0:0:0:0:
303,265,60456,6,0,P|317:313|303:361,1,101.750003105164,4|0,0:0|0:0,0:0:0:0:
156,370,60778,1,10,0:0:0:0:
303,265,60940,1,2,0:0:0:0:
335,250,61020,1,2,0:0:0:0:
367,236,61101,1,8,1:0:0:0:
511,340,61262,1,2,0:0:0:0:
367,236,61423,2,0,P|352:188|368:140,1,101.750003105164,10|0,0:0|0:0,0:0:0:0:
496,29,61746,6,0,B|421:65|421:-3|349:27,1,152.625004657746,4|0,0:0|0:0,0:0:0:0:
293,92,62069,1,10,0:0:0:0:
147,21,62230,1,2,0:0:0:0:
194,194,62391,2,0,P|210:146|196:98,1,101.750003105164,8|0,1:0|0:0,0:0:0:0:
31,177,62714,2,0,P|14:224|28:272,1,101.750003105164,10|0,0:0|0:0,0:0:0:0:
256,351,63036,6,0,P|328:376|400:344,1,152.625004657746,4|0,0:0|0:0,0:0:0:0:
405,270,63359,2,0,P|391:222|405:174,1,101.750003105164,10|0,0:0|0:0,0:0:0:0:
477,27,63681,2,0,P|491:75|477:123,1,101.750003105164,8|0,1:0|0:0,0:0:0:0:
319,193,64004,1,10,0:0:0:0:
411,75,64165,5,0,0:0:0:0:
256,122,64327,1,10,0:0:0:0:
405,173,64488,2,0,P|422:219|406:266,1,101.750003105164,2|0,0:0|0:0,0:0:0:0:
255,348,64810,5,2,0:0:0:0:
346,222,64972,1,8,1:0:0:0:
411,362,65133,1,0,0:0:0:0:
287,270,65294,2,0,P|269:223|285:176,1,101.750003105164,2|0,0:0|0:0,0:0:0:0:
482,208,65617,6,0,P|417:243|346:222,1,152.625004657746,4|0,0:0|0:0,0:0:0:0:
284,176,65940,2,0,P|237:162|187:177,1,101.750003105164,10|0,0:0|0:0,0:0:0:0:
237,339,66262,2,0,P|251:291|237:243,1,101.750003105164,8|0,1:0|0:0,0:0:0:0:
73,292,66585,2,0,P|121:306|170:292,1,101.750003105164,10|0,0:0|0:0,0:0:0:0:
410,207,66907,6,0,P|362:193|313:207,1,101.750003105164,4|0,0:0|0:0,0:0:0:0:
237,339,67230,2,0,P|251:291|237:242,1,101.750003105164,2|2,0:0|0:0,0:0:0:0:
68,303,67552,5,8,1:0:0:0:
205,62,67714,1,0,0:0:0:0:
237,339,67875,1,10,0:0:0:0:
48,129,68036,1,0,0:0:0:0:
316,188,68198,6,0,P|366:198|414:183,1,101.750003105164,4|0,0:0|0:0,0:0:0:0:
205,62,68520,2,0,P|155:52|107:67,1,101.750003105164,10|0,0:0|0:0,0:0:0:0:
96,305,68843,1,8,1:0:0:0:
316,188,69004,1,2,0:0:0:0:
16,31,69165,5,10,0:0:0:0:
103,223,69327,1,0,0:0:0:0:
272,100,69488,2,0,B|355:98|355:98|341:122,1,101.750003105164,4|0,0:0|0:0,0:0:0:0:
96,305,69810,6,0,B|13:307|13:307|27:283,1,101.750003105164,10|0,0:0|0:0,0:0:0:0:
227,186,70133,1,8,1:0:0:0:
113,378,70294,2,0,P|76:347|96:304,1,101.750003105164,0|2,0:0|0:0,0:0:0:0:
495,193,70778,5,4,0:0:0:0:
255,307,70940,1,10,0:0:0:0:
270,44,71101,1,8,0:0:0:0:
396,294,71262,1,2,0:0:0:0:
396,294,71343,1,2,0:0:0:0:
396,294,71423,1,8,1:0:0:0:
99,164,71585,5,10,0:0:0:0:
270,44,71746,1,10,0:0:0:0:
284,250,71908,1,10,0:0:0:0:
37,197,72069,5,4,0:0:0:0:
285,322,72231,1,10,0:0:0:0:
270,44,72392,1,10,0:0:0:0:
144,294,72553,1,2,0:0:0:0:
144,294,72634,1,2,0:0:0:0:
144,294,72714,1,8,1:0:0:0:
440,163,72875,5,10,0:0:0:0:
270,44,73036,1,10,0:0:0:0:
256,250,73198,1,10,0:0:0:0:
502,202,73359,6,0,B|533:136|475:97|475:97|513:46,1,185,4|10,0:0|0:0,0:0:0:0:
440,163,73843,1,2,0:0:0:0:
438,166,74004,2,0,B|349:203|348:134|258:163,1,185,8|10,1:0|0:0,0:0:0:0:
116,208,74488,5,2,0:0:0:0:
260,250,74649,2,0,P|272:203|257:160,1,92.5,10|0,0:0|0:0,0:0:0:0:
114,120,74972,2,0,P|102:167|117:210,1,92.5,10|0,0:0|0:0,0:0:0:0:
237,323,75294,6,0,B|261:250|261:250|323:313|323:313|348:231,1,249.749992378235,8|0,1:0|0:0,0:0:0:0:
436,243,75617,2,0,P|479:313|466:221,1,249.749992378235,8|0,1:0|0:0,0:0:0:0:
415,166,75940,6,0,P|381:80|450:19,1,185,4|10,0:0|0:0,0:0:0:0:
419,170,76424,1,2,0:0:0:0:
419,170,76585,2,0,B|274:169|274:169|324:134,1,185,8|10,1:0|0:0,0:0:0:0:
457,100,77069,5,2,0:0:0:0:
382,243,77230,2,0,P|366:286|381:330,1,92.5,10|0,0:0|0:0,0:0:0:0:
222,367,77553,2,0,L|117:367,1,92.5,10|0,0:0|0:0,0:0:0:0:
11,223,77875,6,0,B|35:150|35:150|97:213|97:213|122:131,1,249.749992378235,8|0,1:0|0:0,0:0:0:0:
225,153,78198,2,0,P|256:238|190:175,1,249.749992378235,8|0,1:0|0:0,0:0:0:0:
209,85,78520,6,0,P|297:103|345:179,1,185,4|10,0:0|0:0,0:0:0:0:
367,296,79004,1,2,0:0:0:0:
252,316,79165,2,0,P|269:227|345:179,1,185,8|10,1:0|0:0,0:0:0:0:
367,296,79649,5,2,0:0:0:0:
252,316,79810,2,0,L|159:315,1,92.5,10|0,0:0|0:0,0:0:0:0:
20,247,80133,2,0,L|113:248,1,92.5,10|0,0:0|0:0,0:0:0:0:
224,149,80456,6,0,B|248:76|248:76|310:139|310:139|335:57,1,249.749992378235,8|0,1:0|0:0,0:0:0:0:
409,102,80778,2,0,P|475:39|444:125,1,249.749992378235,8|0,1:0|0:0,0:0:0:0:
378,175,81101,5,2,1:0:0:0:
378,175,81423,1,2,1:0:0:0:
354,247,81585,1,2,1:0:0:0:
305,151,81746,1,2,1:0:0:0:
282,224,81907,1,2,1:0:0:0:
378,175,82069,6,0,L|459:170,1,69.3750026464463,2|0,1:0|0:0,0:0:0:0:
282,224,82391,2,0,L|201:229,1,69.3750026464463,2|0,1:0|0:0,0:0:0:0:
61,219,82714,5,2,1:0:0:0:
84,146,82876,1,2,1:0:0:0:
133,242,83037,1,2,1:0:0:0:
157,170,83198,1,2,1:0:0:0:
61,219,83359,2,0,L|-14:231,1,69.3750026464463,2|0,1:0|0:0,0:0:0:0:
223,201,83681,6,0,P|229:156|207:115,1,92.5,4|0,0:0|0:0,0:0:0:0:
14,22,84004,2,0,P|8:67|29:107,1,92.5,4|0,0:0|0:0,0:0:0:0:
223,201,84327,5,8,1:0:0:0:
87,53,84488,1,0,0:0:0:0:
28,245,84649,1,2,0:0:0:0:
196,94,84810,1,0,0:0:0:0:
28,245,84972,6,0,P|19:289|38:331,1,92.5,4|0,0:0|0:0,0:0:0:0:
206,180,85294,2,0,P|215:136|196:94,1,92.5,4|0,0:0|0:0,0:0:0:0:
16,29,85617,5,8,1:0:0:0:
141,144,85778,1,0,0:0:0:0:
7,39,85940,1,2,0:0:0:0:
149,133,86101,1,0,0:0:0:0:
1,51,86262,6,0,P|-7:98|13:139,1,92.5,4|0,0:0|0:0,0:0:0:0:
216,169,86585,2,0,P|224:122|204:81,1,92.5,4|0,0:0|0:0,0:0:0:0:
181,244,86907,2,0,P|228:252|269:232,1,92.5,8|0,1:0|0:0,0:0:0:0:
149,133,87230,5,2,0:0:0:0:
128,356,87391,1,0,0:0:0:0:
479,191,87552,1,4,0:0:0:0:
160,25,87714,5,2,0:0:0:0:
139,248,87875,1,0,0:0:0:0:
490,83,88036,1,4,0:0:0:0:
139,248,88198,6,0,B|128:171|128:171|211:201|211:201|198:116,1,249.749992378235,8|0,1:0|0:0,0:0:0:0:
306,108,88520,2,0,P|372:170|286:144,1,249.749992378235,8|0,1:0|0:0,0:0:0:0:
256,32,88843,5,4,0:0:0:0:
421,45,89004,1,0,0:0:0:0:
174,25,89165,1,8,1:0:0:0:
339,38,89326,1,0,0:0:0:0:
91,19,89488,1,8,1:0:0:0:
256,32,89649,1,0,0:0:0:0:
15,17,89810,2,0,B|-1:71|-1:71|49:129|6:197,1,185,2|10,0:0|0:0,0:0:0:0:
10,189,90456,5,8,1:0:0:0:
194,190,90617,1,0,0:0:0:0:
45,293,90778,1,8,1:0:0:0:
104,123,90939,1,0,0:0:0:0:
156,295,91101,2,0,B|168:339|150:371|150:371|140:363,1,92.5,2|0,0:0|0:0,0:0:0:0:
104,123,91423,5,4,0:0:0:0:
222,260,91585,1,0,0:0:0:0:
45,293,91746,1,8,1:0:0:0:
144,108,91907,1,0,0:0:0:0:
214,302,92069,1,8,1:0:0:0:
12,265,92230,1,0,0:0:0:0:
226,169,92391,2,0,B|267:154|303:165|303:165|295:177,1,92.5,2|0,0:0|0:0,0:0:0:0:
133,255,92714,6,0,P|94:302|151:279,1,166.499994918823,4|0,0:0|0:0,0:0:0:0:
275,76,93036,2,0,P|255:15|235:76,1,166.499994918823,10|8,0:0|1:0,0:0:0:0:
378,255,93359,2,0,P|417:302|360:279,1,166.499994918823,10|2,0:0|0:0,0:0:0:0:
256,153,93681,1,10,0:0:0:0:
254,325,93843,1,2,0:0:0:0:
145,158,94004,6,0,B|106:142|67:167|67:167|76:171,1,92.5,4|0,0:0|0:0,0:0:0:0:
367,158,94327,2,0,B|406:174|445:149|445:149|436:145,1,92.5,4|0,0:0|0:0,0:0:0:0:
231,103,94649,5,8,1:0:0:0:
174,239,94810,1,0,0:0:0:0:
311,294,94972,1,2,0:0:0:0:
367,158,95133,1,0,0:0:0:0:
174,239,95294,6,0,P|173:285|198:324,1,92.5,4|0,0:0|0:0,0:0:0:0:
367,158,95617,2,0,P|368:112|343:73,1,92.5,4|0,0:0|0:0,0:0:0:0:
76,130,95940,5,8,1:0:0:0:
174,239,96101,1,0,0:0:0:0:
283,140,96263,1,2,0:0:0:0:
184,30,96424,1,0,0:0:0:0:
174,239,96585,6,0,B|172:317|172:317|193:300,1,92.5,4|0,0:0|0:0,0:0:0:0:
370,137,96907,2,0,P|326:125|283:140,1,92.5,4|0,0:0|0:0,0:0:0:0:
95,311,97230,2,0,P|139:322|182:308,1,92.5,8|0,1:0|0:0,0:0:0:0:
370,137,97552,5,2,0:0:0:0:
256,334,97714,1,0,0:0:0:0:
146,18,97875,1,4,0:0:0:0:
296,181,98036,5,2,0:0:0:0:
182,378,98198,1,0,0:0:0:0:
72,62,98359,1,4,0:0:0:0:
256,334,98520,6,0,B|273:259|273:259|340:316|340:316|357:233,1,249.749992378235,8|0,1:0|0:0,0:0:0:0:
474,236,98843,2,0,P|481:326|435:249,1,249.749992378235,8|0,1:0|0:0,0:0:0:0:
466,100,99165,5,4,0:0:0:0:
312,173,99327,1,0,0:0:0:0:
367,337,99488,1,8,1:0:0:0:
386,164,99649,1,0,0:0:0:0:
217,138,99810,1,8,1:0:0:0:
357,232,99972,1,0,0:0:0:0:
466,100,100133,2,0,P|485:49|403:78,1,185,2|6,0:0|0:0,0:0:0:0:
400,66,100778,5,8,1:0:0:0:
254,173,100939,1,0,0:0:0:0:
434,172,101100,1,8,1:0:0:0:
289,64,101261,1,0,0:0:0:0:
342,237,101423,2,0,L|355:343,1,92.5,2|0,0:0|0:0,0:0:0:0:
255,186,101746,5,4,0:0:0:0:
434,172,101907,1,0,0:0:0:0:
215,113,102069,1,8,1:0:0:0:
395,99,102230,1,0,0:0:0:0:
180,38,102391,1,8,1:0:0:0:
360,24,102552,1,0,0:0:0:0:
255,186,102714,2,0,P|212:197|163:176,1,92.5,2|0,0:0|0:0,0:0:0:0:
0,105,103036,6,0,B|24:32|24:32|86:95|86:95|111:13,1,249.749992378235,4|0,0:0|0:0,0:0:0:0:
242,67,103359,2,0,P|210:120|209:58,1,166.499994918823,10|8,0:0|1:0,0:0:0:0:
399,151,103681,2,0,P|367:204|366:142,1,166.499994918823,10|2,0:0|0:0,0:0:0:0:
495,20,104004,1,12,0:0:0:0:
495,20,104327,6,0,L|502:158,1,138.75,4|0,0:0|0:0,0:0:0:0:
457,235,104649,1,10,0:0:0:0:
354,125,104810,2,0,P|310:113|267:127,1,92.5,0|8,0:0|1:0,0:0:0:0:
157,258,105133,2,0,P|201:270|244:256,1,92.5
354,125,105456,5,2,0:0:0:0:
440,336,105617,1,4,0:0:0:0:
244,255,105778,1,0,0:0:0:0:
464,175,105939,1,10,0:0:0:0:
264,339,106101,2,0,P|240:299|244:254,1,92.5,0|8,0:0|1:0,0:0:0:0:
354,125,106423,2,0,P|357:79|333:40,2,92.5
114,192,106907,6,0,B|9:192|9:192|37:165,1,138.75,4|0,0:0|0:0,0:0:0:0:
95,115,107230,1,10,0:0:0:0:
186,240,107391,2,0,P|197:285|184:329,1,92.5,0|8,0:0|1:0,0:0:0:0:
95,115,107714,2,0,P|84:70|97:26,2,92.5
256,192,108198,6,0,L|359:192,1,92.5,4|0,0:0|0:0,0:0:0:0:
385,313,108520,1,0,0:0:0:0:
189,235,108681,2,0,P|175:191|188:147,1,92.5,4|8,0:0|2:0,0:0:0:0:
293,97,109004,1,0,0:0:0:0:
189,235,109165,2,0,L|85:235,1,92.5,4|0,0:0|0:0,0:0:0:0:
256,192,109488,6,0,B|361:192|361:192|339:162,1,138.75,10|0,0:0|0:0,0:0:0:0:
293,97,109810,1,8,1:0:0:0:
219,287,109972,1,10,0:0:0:0:
418,256,110133,1,8,1:0:0:0:
293,97,110294,2,0,P|283:142|310:191,1,92.5,8|0,1:0|0:0,0:0:0:0:
489,254,110617,1,8,1:0:0:0:
362,134,110778,5,10,0:0:0:0:
323,305,110940,1,8,1:0:0:0:
489,254,111101,1,8,1:0:0:0:
301,182,111263,1,10,0:0:0:0:
391,340,111423,2,0,P|401:295|382:254,1,92.5,8|0,1:0|0:0,0:0:0:0:
230,144,111746,2,0,P|219:188|238:229,1,92.5,10|0,0:0|0:0,0:0:0:0:
393,182,112069,6,0,L|295:182,1,92.5,8|0,1:0|0:0,0:0:0:0:
177,284,112391,1,8,1:0:0:0:
150,127,112552,1,10,0:0:0:0:
300,182,112714,1,8,1:0:0:0:
112,215,112875,2,0,B|72:228|32:211|32:211|41:206,1,92.5,8|0,1:0|0:0,0:0:0:0:
150,127,113198,1,8,1:0:0:0:
252,370,113359,5,8,1:0:0:0:
0,333,113520,1,10,0:0:0:0:
150,127,113681,1,10,0:0:0:0:
406,311,113843,5,8,1:0:0:0:
136,271,114004,1,10,0:0:0:0:
296,50,114165,1,10,0:0:0:0:
252,370,114327,1,10,0:0:0:0:
252,370,114649,6,0,P|226:310|264:251,1,138.75,4|0,0:0|0:0,0:0:0:0:
301,314,114972,1,10,0:0:0:0:
160,383,115133,2,0,B|81:383|81:383|90:373,1,92.5,0|8,0:0|1:0,0:0:0:0:
301,314,115456,2,0,B|380:314|380:314|371:324,1,92.5
160,383,115778,5,2,0:0:0:0:
256,155,115939,1,4,0:0:0:0:
370,324,116101,1,0,0:0:0:0:
97,324,116262,1,10,0:0:0:0:
256,155,116423,2,0,P|301:143|345:153,1,92.5,0|8,0:0|1:0,0:0:0:0:
478,285,116746,2,0,L|478:377,2,92.5
300,291,117230,6,0,B|233:324|233:276|166:297,1,138.75,4|0,0:0|0:0,0:0:0:0:
106,351,117552,1,10,0:0:0:0:
257,226,117714,2,0,P|272:182|257:139,1,92.5,0|8,0:0|1:0,0:0:0:0:
117,34,118036,2,0,P|102:77|117:120,1,92.5
261,230,118359,1,0,0:0:0:0:
261,230,118520,1,4,0:0:0:0:
106,351,118681,6,0,B|65:369|25:350|25:350|43:337,1,92.5
158,193,119004,1,4,0:0:0:0:
256,379,119165,1,8,1:0:0:0:
344,255,119327,1,0,0:0:0:0:
101,255,119488,2,0,P|76:217|79:166,1,92.5,12|0,0:0|0:0,0:0:0:0:
272,33,119810,5,4,0:0:0:0:
158,193,119972,1,0,0:0:0:0:
366,132,120133,1,8,1:0:0:0:
158,193,120295,1,0,0:0:0:0:
380,281,120456,1,8,1:0:0:0:
158,193,120618,1,0,0:0:0:0:
348,49,120778,2,0,P|431:76|445:162,1,185,2|10,0:0|0:0,0:0:0:0:
158,193,121423,5,8,1:0:0:0:
366,132,121585,1,0,0:0:0:0:
324,365,121746,1,8,1:0:0:0:
263,157,121908,1,0,0:0:0:0:
487,227,122068,2,0,P|445:241|397:227,1,92.5,2|0,0:0|0:0,0:0:0:0:
256,74,122391,5,8,1:0:0:0:
106,193,122552,1,0,0:0:0:0:
399,228,122714,1,8,1:0:0:0:
256,376,122875,1,0,0:0:0:0:
256,74,123036,6,0,L|225:67,1,23.125,2|0,1:0|0:0,0:0:0:0:
256,74,123681,5,4,0:0:0:0:
316,336,123843,2,0,P|359:350|402:336,1,92.5,8|0,1:0|0:0,0:0:0:0:
195,237,124165,2,0,P|152:223|109:237,1,92.5,8|0,1:0|0:0,0:0:0:0:
16,368,124488,1,10,0:0:0:0:
112,144,124649,1,12,0:0:0:0:
455,362,124972,6,0,B|492:378|492:378|469:314|493:268,1,152.625004657746,4|0,0:0|0:0,0:0:0:0:
497,179,125294,2,0,P|450:198|402:184,1,101.750003105164,10|0,0:0|0:0,0:0:0:0:
231,146,125617,2,0,P|278:127|326:141,1,101.750003105164,8|0,1:0|0:0,0:0:0:0:
500,353,125939,5,10,0:0:0:0:
346,309,126101,1,0,0:0:0:0:
497,179,126262,1,4,0:0:0:0:
346,309,126423,2,0,P|297:324|249:309,1,101.750003105164,2|0,0:0|0:0,0:0:0:0:
214,101,126746,5,10,0:0:0:0:
176,315,126907,1,8,1:0:0:0:
296,246,127068,1,0,0:0:0:0:
109,272,127230,2,0,P|94:319|114:365,1,101.750003105164,10|0,0:0|0:0,0:0:0:0:
296,246,127552,6,0,P|319:175|278:115,1,152.625004657746,4|0,0:0|0:0,0:0:0:0:
319,33,127875,2,0,B|401:32|401:32|378:61,1,101.750003105164,10|0,0:0|0:0,0:0:0:0:
240,187,128198,2,0,L|135:187,1,101.750003105164,8|0,1:0|0:0,0:0:0:0:
316,232,128520,6,0,P|331:186|310:133,1,101.750003105164,10|0,0:0|0:0,0:0:0:0:
119,96,128843,1,4,0:0:0:0:
316,232,129004,2,0,L|429:232,1,101.750003105164,2|0,0:0|0:0,0:0:0:0:
500,373,129327,5,10,0:0:0:0:
391,160,129488,1,8,1:0:0:0:
337,308,129649,1,0,0:0:0:0:
436,99,129810,2,0,P|388:84|341:101,1,101.750003105164,10|0,0:0|0:0,0:0:0:0:
204,246,130133,6,0,P|225:292|257:231,1,152.625004657746,4|0,0:0|0:0,0:0:0:0:
210,168,130456,2,0,P|192:121|209:73,1,101.750003105164,10|0,0:0|0:0,0:0:0:0:
445,129,130778,2,0,P|491:108|430:76,1,152.625004657746,8|0,1:0|0:0,0:0:0:0:
367,123,131101,2,0,P|320:140|272:123,1,101.750003105164,10|0,0:0|0:0,0:0:0:0:
161,19,131423,1,4,0:0:0:0:
161,19,131585,1,2,0:0:0:0:
0,226,131746,5,10,0:0:0:0:
203,186,131907,1,2,0:0:0:0:
137,384,132068,1,8,1:0:0:0:
154,126,132230,2,0,P|202:110|250:126,1,101.750003105164,0|2,0:0|0:0,0:0:0:0:
497,364,132714,6,0,P|449:380|401:364,1,101.750003105164,4|0,0:0|0:0,0:0:0:0:
275,249,133036,1,10,0:0:0:0:
452,195,133198,1,2,0:0:0:0:
467,242,133278,1,2,0:0:0:0:
452,290,133359,1,8,1:0:0:0:
275,249,133520,1,10,0:0:0:0:
400,123,133681,2,0,P|448:104|503:125,1,101.750003105164,10|0,0:0|0:0,0:0:0:0:
492,352,134004,6,0,B|417:388|417:320|345:350,1,152.625004657746,4|0,0:0|0:0,0:0:0:0:
269,377,134327,1,10,0:0:0:0:
452,290,134488,1,0,0:0:0:0:
285,177,134649,2,0,P|268:129|282:81,1,101.750003105164,8|0,1:0|0:0,0:0:0:0:
448,194,134972,2,0,P|465:242|451:290,1,101.750003105164,10|0,0:0|0:0,0:0:0:0:
170,309,135294,6,0,B|54:309|54:309|88:278,1,152.625004657746,4|0,0:0|0:0,0:0:0:0:
227,262,135617,2,0,P|245:312|227:358,1,101.750003105164,10|0,0:0|0:0,0:0:0:0:
87,192,135940,2,0,P|69:142|87:96,1,101.750003105164,8|0,1:0|0:0,0:0:0:0:
256,22,136262,1,10,0:0:0:0:
145,142,136423,5,0,0:0:0:0:
25,19,136585,1,4,0:0:0:0:
204,98,136746,2,0,P|221:145|203:192,1,101.750003105164,2|0,0:0|0:0,0:0:0:0:
7,283,137068,5,2,0:0:0:0:
145,142,137230,1,8,1:0:0:0:
199,330,137391,1,0,0:0:0:0:
7,283,137552,2,0,P|-11:236|5:189,1,101.750003105164,10|0,0:0|0:0,0:0:0:0:
212,226,137875,6,0,P|147:261|76:240,1,152.625004657746,4|0,0:0|0:0,0:0:0:0:
4,189,138198,2,0,L|-1:70,1,101.750003105164,10|0,0:0|0:0,0:0:0:0:
195,75,138520,2,0,P|243:89|291:74,1,101.750003105164,8|0,1:0|0:0,0:0:0:0:
491,35,138843,2,0,P|442:20|394:35,1,101.750003105164,10|0,0:0|0:0,0:0:0:0:
255,172,139165,6,0,L|237:276,1,101.750003105164,4|2,0:0|0:0,0:0:0:0:
342,135,139488,1,10,0:0:0:0:
163,192,139649,1,2,0:0:0:0:
353,351,139810,5,8,1:0:0:0:
255,101,139972,1,0,0:0:0:0:
52,332,140133,1,10,0:0:0:0:
302,234,140295,1,0,0:0:0:0:
98,165,140456,6,0,P|84:116|103:69,1,101.750003105164,4|0,0:0|0:0,0:0:0:0:
307,138,140778,2,0,P|320:186|301:233,1,101.750003105164,10|0,0:0|0:0,0:0:0:0:
116,300,141101,1,8,1:0:0:0:
247,181,141262,1,0,0:0:0:0:
6,59,141423,5,10,0:0:0:0:
50,263,141585,1,0,0:0:0:0:
202,117,141746,2,0,P|251:105|298:123,1,101.750003105164,6|2,0:0|0:0,0:0:0:0:
415,312,142069,6,0,P|366:324|319:306,1,101.750003105164,10|2,0:0|0:0,0:0:0:0:
247,181,142391,1,8,1:0:0:0:
466,259,142552,2,0,P|488:303|476:352,1,101.750003105164,0|2,0:0|0:0,0:0:0:0:
144,362,143036,5,4,0:0:0:0:
364,192,143198,1,10,0:0:0:0:
110,90,143359,1,10,0:0:0:0:
334,265,143520,1,2,0:0:0:0:
383,269,143600,1,2,0:0:0:0:
425,242,143681,1,8,1:0:0:0:
443,2,143843,5,10,0:0:0:0:
364,192,144003,1,10,0:0:0:0:
236,34,144165,1,10,0:0:0:0:
509,106,144327,5,4,0:0:0:0:
255,208,144488,1,10,0:0:0:0:
475,378,144649,1,10,0:0:0:0:
317,157,144811,1,2,0:0:0:0:
275,130,144892,1,2,0:0:0:0:
226,134,144972,1,8,1:0:0:0:
37,217,145133,5,10,0:0:0:0:
200,339,145295,1,10,0:0:0:0:
226,134,145457,1,10,0:0:0:0:
37,217,145617,6,0,B|14:258|14:258|37:278|37:278|-4:322|31:377,1,185,6|0,1:0|0:0,0:0:0:0:
30,375,147552,6,0,P|76:353|127:358,1,104.06250396967,2|0,1:0|0:0,0:0:0:0:
200,380,147875,2,0,L|200:263,1,104.06250396967,2|0,1:0|0:0,0:0:0:0:
149,188,148198,5,4,0:0:0:0:
309,332,148359,1,0,0:0:0:0:
344,115,148520,1,10,0:0:0:0:
200,275,148681,2,0,P|161:291|108:280,1,92.5,0|8,0:0|1:0,0:0:0:0:
141,100,149004,2,0,P|157:139|146:192,1,92.5,0|2,0:0|0:0,0:0:0:0:
26,346,149327,1,2,0:0:0:0:
74,149,149488,5,10,0:0:0:0:
257,172,149649,1,0,0:0:0:0:
26,346,149810,1,10,0:0:0:0:
205,365,149972,2,0,P|250:377|294:365,1,92.5,0|8,0:0|1:0,0:0:0:0:
386,204,150294,5,0,0:0:0:0:
250,125,150456,1,2,0:0:0:0:
250,283,150617,1,2,0:0:0:0:
378,121,150778,6,0,P|441:144|464:207,1,138.75,4|0,0:0|0:0,0:0:0:0:
411,279,151101,2,0,B|411:381|411:381|366:345,1,138.75,10|0,0:0|0:0,0:0:0:0:
310,304,151423,2,0,B|242:337|242:281|175:310,1,138.75,8|0,1:0|0:0,0:0:0:0:
209,383,151746,1,2,0:0:0:0:
273,235,151907,2,0,P|286:192|271:149,1,92.5,2|10,0:0|0:0,0:0:0:0:
189,8,152230,5,0,0:0:0:0:
189,194,152391,1,2,0:0:0:0:
349,101,152552,1,10,0:0:0:0:
141,104,152714,5,8,1:0:0:0:
141,290,152875,1,0,0:0:0:0:
301,197,153036,2,0,P|345:183|395:196,2,92.5,10|0|4,0:0|0:0|0:0,0:0:0:0:
90,197,153520,5,0,0:0:0:0:
90,383,153681,1,4,0:0:0:0:
250,290,153842,1,0,0:0:0:0:
75,53,154004,5,8,1:0:0:0:
44,259,154165,1,0,0:0:0:0:
281,84,154327,1,2,0:0:0:0:
250,290,154488,2,0,L|259:393,1,92.5,2|10,0:0|0:0,0:0:0:0:
133,146,154810,5,2,0:0:0:0:
332,271,154972,1,10,0:0:0:0:
295,109,155133,1,0,0:0:0:0:
170,308,155294,1,8,1:0:0:0:
133,146,155456,1,0,0:0:0:0:
332,271,155617,2,0,B|394:276|437:218|437:218|365:218,1,185,2|10,0:0|0:0,0:0:0:0:
150,224,156101,5,0,0:0:0:0:
256,377,156262,1,10,0:0:0:0:
332,271,156423,1,0,0:0:0:0:
150,224,156585,1,8,1:0:0:0:
264,88,156746,2,0,P|276:132|266:177,1,92.5,0|2,0:0|0:0,0:0:0:0:
165,297,157069,1,2,0:0:0:0:
362,358,157230,5,4,0:0:0:0:
266,176,157391,1,10,0:0:0:0:
66,373,157552,1,10,0:0:0:0:
375,244,157714,1,8,1:0:0:0:
98,58,157875,5,10,0:0:0:0:
66,373,158036,1,10,0:0:0:0:
375,244,158198,1,10,0:0:0:0:
76,210,158359,2,0,B|31:192|-3:216|-3:216|4:221,1,92.5,10|4,0:0|0:0,0:0:0:0:
472,351,158843,5,4,1:0:0:0:
372,165,159004,1,0,0:0:0:0:
342,372,159165,1,8,1:0:0:0:
489,222,159327,1,0,0:0:0:0:
278,258,159488,2,0,B|211:249|137:265|137:302|174:331|206:317|203:297,1,185,2|10,0:0|0:0,0:0:0:0:
35,27,160133,5,8,1:0:0:0:
135,213,160294,1,0,0:0:0:0:
165,6,160455,1,8,1:0:0:0:
18,156,160617,1,0,0:0:0:0:
229,120,160778,2,0,B|296:129|370:113|370:76|333:47|301:61|304:81,1,185,2|10,0:0|0:0,0:0:0:0:
205,232,161262,5,0,0:0:0:0:
393,241,161423,1,10,0:0:0:0:
305,73,161585,1,0,0:0:0:0:
287,325,161746,1,8,1:0:0:0:
300,150,161907,1,0,0:0:0:0:
194,324,162069,5,2,0:0:0:0:
396,327,162230,1,2,0:0:0:0:
300,150,162391,1,10,0:0:0:0:
194,324,162553,5,0,0:0:0:0:
379,255,162714,1,10,0:0:0:0:
194,324,162875,1,10,0:0:0:0:
300,150,163036,1,8,1:0:0:0:
194,324,163198,1,0,0:0:0:0:
154,117,163359,2,0,P|111:71|138:136,1,185,10|4,0:0|0:0,0:0:0:0:
452,192,164004,5,4,0:0:0:0:
256,262,164165,1,0,0:0:0:0:
280,31,164327,1,8,1:0:0:0:
349,226,164488,2,0,P|358:271|344:315,1,92.5,0|2,0:0|0:0,0:0:0:0:
212,365,164810,5,2,0:0:0:0:
428,310,164972,1,10,0:0:0:0:
256,262,165133,1,2,0:0:0:0:
472,207,165295,1,10,0:0:0:0:
318,58,165456,1,0,0:0:0:0:
256,262,165617,6,0,P|215:276|168:264,1,92.5,8|0,1:0|0:0,0:0:0:0:
21,165,165940,2,0,P|61:150|109:163,1,92.5,2|0,0:0|0:0,0:0:0:0:
256,262,166262,2,0,B|268:338|268:338|300:317,1,92.5,10|0,0:0|0:0,0:0:0:0:
339,199,166585,5,10,0:0:0:0:
167,311,166746,1,0,0:0:0:0:
428,150,166907,1,8,1:0:0:0:
243,175,167069,2,0,P|236:220|256:262,1,92.5,0|2,0:0|0:0,0:0:0:0:
440,354,167391,5,2,0:0:0:0:
428,150,167552,1,4,0:0:0:0:
256,262,167714,1,10,0:0:0:0:
508,302,167875,1,10,0:0:0:0:
418,63,168036,1,8,1:0:0:0:
256,262,168198,5,10,0:0:0:0:
512,155,168359,1,10,0:0:0:0:
269,16,168520,2,0,P|259:62|283:108,1,92.5,10|0,0:0|0:0,0:0:0:0:
512,155,168843,5,0,0:0:0:0:
81,111,179165,6,0,L|112:253,1,129.499996047974,4|0,0:0|0:0,0:0:0:0:
16,146,179488,6,0,P|15:80|154:126,1,277.500010585785,4|0,0:0|0:0,0:0:0:0:
430,272,181746,6,0,L|400:131,1,129.499996047974,4|0,0:0|0:0,0:0:0:0:
496,238,182069,6,0,P|497:304|358:258,1,277.500010585785,4|0,0:0|0:0,0:0:0:0:
256,193,183198,6,0,B|219:106|296:106|257:14,2,185,10|10|10,0:0|0:0|0:0,0:0:0:0:
360,252,184004,1,10,0:0:0:0:
360,252,184327,6,0,L|501:221,1,129.499996047974,4|0,0:0|0:0,0:0:0:0:
394,317,184650,6,0,P|328:318|374:179,1,277.500010585785,4|0,0:0|0:0,0:0:0:0:
39,32,186907,6,0,L|68:139,1,92.5,4|0,0:0|0:0,0:0:0:0:
114,251,187230,1,10,0:0:0:0:
265,110,187391,1,2,0:0:0:0:
265,110,187472,1,2,0:0:0:0:
265,110,187552,2,0,P|212:104|173:127,1,92.5,10|10,0:0|0:0,0:0:0:0:
118,255,187875,1,10,0:0:0:0:
118,255,188036,1,10,0:0:0:0:
394,129,188198,5,4,1:0:0:0:
256,191,188359,2,0,P|249:237|266:280,1,92.5,10|0,0:0|0:0,0:0:0:0:
394,129,188681,2,0,P|400:83|383:40,1,92.5,10|10,0:0|0:0,0:0:0:0:
211,92,189004,1,2,0:0:0:0:
359,209,189165,1,10,0:0:0:0:
404,214,189245,1,2,0:0:0:0:
447,198,189326,1,2,0:0:0:0:
211,92,189488,6,0,B|136:71|78:114|78:114|113:61,1,203.500006210327,4|10,0:0|0:0,0:0:0:0:
256,24,189972,1,2,0:0:0:0:
398,61,190133,2,0,B|434:114|434:114|376:71|301:92,1,203.500006210327,8|10,1:0|0:0,0:0:0:0:
141,161,190617,1,0,0:0:0:0:
371,223,190778,5,10,0:0:0:0:
225,307,190940,1,10,0:0:0:0:
141,161,191102,1,10,0:0:0:0:
287,77,191262,1,2,0:0:0:0:
225,307,191423,2,0,B|212:346|226:381|226:381|255:366,1,101.750003105164,8|0,1:0|0:0,0:0:0:0:
371,223,191746,1,10,0:0:0:0:
148,168,191907,5,2,0:0:0:0:
148,168,191988,1,2,0:0:0:0:
148,168,192069,2,0,B|81:191|21:157|21:157|60:227,1,203.500006210327,4|10,0:0|0:0,0:0:0:0:
164,337,192552,1,0,0:0:0:0:
256,208,192714,2,0,B|288:160|256:112|256:112|224:64|256:16,1,203.500006210327,8|10,1:0|0:0,0:0:0:0:
361,66,193197,1,0,0:0:0:0:
154,160,193359,5,10,0:0:0:0:
338,293,193520,1,2,0:0:0:0:
361,66,193681,1,10,0:0:0:0:
240,237,193843,1,2,0:0:0:0:
361,66,194004,6,0,P|312:50|263:67,1,101.750003105164,8|0,1:0|0:0,0:0:0:0:
154,160,194327,1,10,0:0:0:0:
318,287,194488,1,2,0:0:0:0:
318,287,194569,1,2,0:0:0:0:
318,287,194649,2,0,P|334:238|317:189,1,101.750003105164,10|0,0:0|0:0,0:0:0:0:
155,64,194972,6,0,P|139:112|154:160,1,101.750003105164,10|0,0:0|0:0,0:0:0:0:
319,192,195294,2,0,B|399:192|399:192|386:173,1,101.750003105164,8|0,1:0|0:0,0:0:0:0:
222,46,195617,2,0,B|142:46|142:46|155:64,1,101.750003105164,10|0,0:0|0:0,0:0:0:0:
392,269,195940,2,0,P|404:221|386:173,1,101.750003105164,10|2,0:0|0:0,0:0:0:0:
226,50,196262,1,10,0:0:0:0:
226,50,196423,6,0,P|214:98|232:146,1,101.750003105164,2|8,0:0|1:0,0:0:0:0:
390,177,196746,1,0,0:0:0:0:
390,177,196907,2,0,L|505:177,1,101.750003105164,10|2,0:0|0:0,0:0:0:0:
486,258,197149,1,2,0:0:0:0:
486,258,197230,2,0,P|469:306|495:366,1,101.750003105164,4|0,0:0|0:0,0:0:0:0:
294,346,197552,5,10,0:0:0:0:
193,174,197714,1,10,0:0:0:0:
370,81,197875,1,8,1:0:0:0:
271,254,198036,1,10,0:0:0:0:
102,147,198198,1,10,0:0:0:0:
302,146,198359,1,10,0:0:0:0:
294,346,198520,5,12,0:0:0:0:
102,147,198681,1,12,0:0:0:0:
370,81,198843,1,12,0:0:0:0:
114,342,199004,5,12,0:0:0:0:
140,17,199165,1,12,1:0:0:0:
407,203,199327,1,4,0:0:0:0:
114,342,199488,2,0,P|65:355|99:296,1,152.625004657746,4|0,0:0|0:0,0:0:0:0:
187,296,199810,6,0,B|301:296|301:296|272:258,1,152.625004657746,4|0,0:0|0:0,0:0:0:0:
204,198,200133,2,0,P|186:148|204:102,1,101.750003105164,10|0,0:0|0:0,0:0:0:0:
377,154,200456,2,0,P|327:172|281:154,1,101.750003105164,8|0,1:0|0:0,0:0:0:0:
167,20,200778,1,10,0:0:0:0:
329,91,200939,5,0,0:0:0:0:
186,198,201101,1,4,0:0:0:0:
281,29,201262,2,0,P|331:11|377:29,1,101.750003105164,2|0,0:0|0:0,0:0:0:0:
505,177,201584,5,10,0:0:0:0:
343,286,201746,1,8,1:0:0:0:
329,91,201907,1,0,0:0:0:0:
428,237,202068,2,0,P|446:284|430:331,1,101.750003105164,2|0,0:0|0:0,0:0:0:0:
206,299,202391,6,0,P|271:264|342:285,1,152.625004657746,4|0,0:0|0:0,0:0:0:0:
428,237,202714,2,0,P|415:186|439:134,1,101.750003105164,10|0,0:0|0:0,0:0:0:0:
499,17,203036,2,0,P|450:32|402:17,1,101.750003105164,8|0,1:0|0:0,0:0:0:0:
247,13,203359,2,0,P|260:64|236:116,1,101.750003105164,10|0,0:0|0:0,0:0:0:0:
48,257,203681,6,0,P|35:206|59:154,1,101.750003105164,4|0,0:0|0:0,0:0:0:0:
183,58,204004,1,10,0:0:0:0:
112,214,204165,1,2,0:0:0:0:
382,350,204326,5,8,1:0:0:0:
389,81,204488,1,0,0:0:0:0:
112,214,204649,1,10,0:0:0:0:
380,222,204811,1,0,0:0:0:0:
204,81,204972,6,0,P|190:130|209:177,1,101.750003105164,4|0,0:0|0:0,0:0:0:0:
383,316,205294,2,0,P|397:268|380:222,1,101.750003105164,10|0,0:0|0:0,0:0:0:0:
207,175,205617,1,8,1:0:0:0:
255,348,205778,1,0,0:0:0:0:
379,221,205939,5,10,0:0:0:0:
120,168,206101,1,0,0:0:0:0:
255,348,206262,2,0,P|267:299|249:252,1,101.750003105164,4|0,0:0|0:0,0:0:0:0:
114,72,206585,6,0,P|101:120|119:167,1,101.750003105164,10|2,0:0|0:0,0:0:0:0:
303,192,206907,1,8,1:0:0:0:
303,192,207068,2,0,B|385:192|385:192|361:163,1,101.750003105164,0|2,0:0|0:0,0:0:0:0:
41,12,207552,5,4,0:0:0:0:
75,284,207714,1,10,0:0:0:0:
295,114,207875,1,10,0:0:0:0:
4,254,208036,1,2,0:0:0:0:
0,303,208116,1,2,0:0:0:0:
27,345,208197,1,8,1:0:0:0:
289,319,208359,5,10,0:0:0:0:
295,114,208519,1,10,0:0:0:0:
113,218,208681,1,10,0:0:0:0:
471,372,208843,5,4,0:0:0:0:
437,100,209005,1,10,0:0:0:0:
217,270,209166,1,10,0:0:0:0:
508,130,209327,1,2,0:0:0:0:
512,81,209407,1,2,0:0:0:0:
485,39,209488,1,8,1:0:0:0:
223,65,209650,5,10,0:0:0:0:
217,270,209810,1,10,0:0:0:0:
399,166,209972,1,10,0:0:0:0:
223,65,210133,6,0,B|169:87|101:57|101:57|134:119,1,185,4|10,0:0|0:0,0:0:0:0:
260,193,210617,1,2,0:0:0:0:
260,193,210778,2,0,B|223:282|290:282|256:376,1,185,8|10,1:0|0:0,0:0:0:0:
349,243,211262,5,2,0:0:0:0:
163,327,211423,2,0,P|116:339|73:324,1,92.5,10|0,0:0|0:0,0:0:0:0:
122,162,211746,2,0,P|134:209|119:252,1,92.5,10|0,0:0|0:0,0:0:0:0:
0,109,212069,6,0,B|24:36|24:36|86:99|86:99|114:9,1,249.749992378235,8|0,1:0|0:0,0:0:0:0:
231,68,212391,2,0,P|214:157|190:70,1,249.749992378235,8|0,1:0|0:0,0:0:0:0:
296,20,212714,6,0,P|335:104|307:190,1,185,4|10,0:0|0:0,0:0:0:0:
126,262,213198,1,2,0:0:0:0:
126,262,213359,2,0,B|7:262|7:262|61:225,1,185,8|10,1:0|0:0,0:0:0:0:
233,192,213843,5,2,0:0:0:0:
347,311,214004,2,0,P|390:324|432:308,1,92.5,10|0,0:0|0:0,0:0:0:0:
275,127,214327,2,0,P|231:113|189:129,1,92.5,10|0,0:0|0:0,0:0:0:0:
115,320,214649,6,0,B|139:247|139:247|201:310|201:310|226:228,1,249.749992378235,8|0,1:0|0:0,0:0:0:0:
336,255,214972,2,0,P|367:340|301:277,1,249.749992378235,8|0,1:0|0:0,0:0:0:0:
322,185,215294,6,0,P|410:203|458:279,1,185,4|10,0:0|0:0,0:0:0:0:
230,233,215778,1,2,0:0:0:0:
230,233,215940,2,0,P|184:155|208:69,1,185,8|10,1:0|0:0,0:0:0:0:
369,44,216423,5,2,0:0:0:0:
369,44,216584,2,0,B|415:59|447:38|447:38|423:22,1,92.5,10|0,0:0|0:0,0:0:0:0:
208,68,216907,2,0,B|162:53|130:74|130:74|154:90,1,92.5,10|0,0:0|0:0,0:0:0:0:
228,319,217230,6,0,B|252:246|252:246|314:309|314:309|339:227,1,249.749992378235,8|0,1:0|0:0,0:0:0:0:
449,254,217553,2,0,P|480:339|414:276,1,249.749992378235,8|0,1:0|0:0,0:0:0:0:
404,153,217875,5,2,1:0:0:0:
404,153,218197,1,2,1:0:0:0:
380,81,218359,1,2,1:0:0:0:
331,177,218520,1,2,1:0:0:0:
308,104,218681,1,2,1:0:0:0:
404,153,218843,6,0,L|485:158,1,69.3750026464463,2|0,1:0|0:0,0:0:0:0:
308,104,219165,2,0,L|227:99,1,69.3750026464463,2|0,1:0|0:0,0:0:0:0:
87,109,219488,5,2,1:0:0:0:
110,182,219650,1,2,1:0:0:0:
159,86,219811,1,2,1:0:0:0:
183,158,219972,1,2,1:0:0:0:
87,109,220133,6,0,L|12:97,1,69.3750026464463,2|0,1:0|0:0,0:0:0:0:
183,158,220456,2,0,L|342:184,1,138.750005292893,2|0,1:0|0:0,0:0:0:0:
