osu file format v14

[General]
AudioFilename: audio.mp3
AudioLeadIn: 0
PreviewTime: 168762
Countdown: 0
SampleSet: Soft
StackLeniency: 0.5
Mode: 0
LetterboxInBreaks: 0
WidescreenStoryboard: 1

[Editor]
Bookmarks: 456,11423,21746,32069,42391,52714,73359,83681,94004,104327,114649,124972,145617,148198,168843,179165,189488,199810,210133,220778
DistanceSpacing: 1.2
BeatDivisor: 4
GridSize: 8
TimelineZoom: 1

[Metadata]
Title:No oh oh
TitleUnicode:아니야
Artist:CLC
ArtistUnicode:씨엘씨
Creator:Natsu
Version:Hard
Source:
Tags:Euny kpop k-pop 큐브엔터테인먼트 NU.CLEAR 장예은 SORN 오승희 장승연 최유진 엘키 권은빈 ELKIE 손
BeatmapID:1058510
BeatmapSetID:473049

[Difficulty]
HPDrainRate:4
CircleSize:4
OverallDifficulty:6
ApproachRate:7.5
SliderMultiplier:2.8
SliderTickRate:1

[Events]
//Background and Video events
0,0,"oh oh oh.jpg",0,0
Video,-250,"No Oh Oh MV.avi"
//Break Periods
2,81301,82856
2,169042,178265
2,180010,180846
2,185172,186007
//Storyboard Layer 0 (Background)
//Storyboard Layer 1 (Fail)
//Storyboard Layer 2 (Pass)
//Storyboard Layer 3 (Foreground)
//Storyboard Sound Samples

[TimingPoints]
-189,645.161290322581,4,1,1,40,1,0
456,-133.333333333333,4,2,1,15,0,0
1101,-100,4,2,1,40,0,0
10133,-100,4,2,1,50,0,0
15940,-83.3333333333333,4,2,1,50,0,0
16585,-100,4,2,1,50,0,0
20456,-83.3333333333333,4,2,1,50,0,0
21746,-100,4,2,1,50,0,0
26262,-83.3333333333333,4,2,1,50,0,0
26907,-100,4,2,1,50,0,0
30778,-83.3333333333333,4,2,1,50,0,0
32069,-100,4,2,1,50,0,0
37230,-111.111111111111,4,2,1,35,0,0
41101,-111.111111111111,4,2,1,50,0,0
42391,-99.9999999999999,4,2,1,50,0,0
50778,-133.333333333333,4,2,1,50,0,0
50940,-133.333333333333,4,2,1,5,0,0
51423,-100,4,2,1,50,0,0
52714,-90.9090909090909,4,2,1,60,0,1
62956,-90.9090909090909,4,2,1,60,0,0
63036,-90.9090909090909,4,2,1,60,0,1
73278,-90.9090909090909,4,2,1,60,0,0
73359,-100,4,2,1,60,0,1
73440,-100,4,2,1,50,0,0
75294,-83.3333333333333,4,2,1,50,0,0
75940,-100,4,2,1,50,0,0
77875,-83.3333333333333,4,2,1,50,0,0
78520,-100,4,2,1,50,0,0
80456,-83.3333333333333,4,2,1,50,0,0
81101,-133.333333333333,4,2,1,25,0,0
83681,-100,4,2,1,50,0,0
88198,-83.3333333333333,4,2,1,50,0,0
88843,-100,4,2,1,50,0,0
92714,-83.3333333333333,4,2,1,50,0,0
94004,-100,4,2,1,50,0,0
97552,-100,4,2,1,50,0,0
98520,-83.3333333333333,4,2,1,50,0,0
99165,-100,4,2,1,50,0,0
103036,-83.3333333333333,4,2,1,50,0,0
104327,-100,4,2,1,50,0,0
123036,-133.333333333333,4,2,1,50,0,0
123198,-133.333333333333,4,2,1,5,0,0
123681,-100,4,2,1,50,0,0
124972,-90.9090909090909,4,2,1,60,0,1
135214,-90.9090909090909,4,2,1,60,0,0
135294,-90.9090909090909,4,2,1,60,0,1
145617,-200,4,2,1,25,0,0
145778,-200,4,2,1,10,0,0
146907,-200,4,2,1,5,0,0
147552,-133.333333333333,4,2,1,15,0,0
148198,-100,4,2,1,50,0,0
179165,-76.9230769230769,4,2,1,50,0,1
179327,-76.9230769230769,4,2,1,5,0,1
179488,-71.4285714285714,4,2,1,50,0,1
179811,-71.4285714285714,4,2,1,5,0,0
181746,-76.9230769230769,4,2,1,50,0,1
181907,-76.9230769230769,4,2,1,5,0,1
182069,-71.4285714285714,4,2,1,50,0,1
182391,-71.4285714285714,4,2,1,5,0,0
183198,-100,4,2,1,35,0,0
184327,-76.9230769230769,4,2,1,50,0,1
184488,-76.9230769230769,4,2,1,5,0,1
184649,-71.4285714285714,4,2,1,50,0,1
184972,-71.4285714285714,4,2,1,5,0,0
186907,-100,4,2,1,50,0,0
189488,-90.9090909090909,4,2,1,60,0,1
199730,-90.9090909090909,4,2,1,5,0,0
199811,-90.9090909090909,4,2,1,60,0,1
210133,-100,4,2,1,50,0,0
212068,-83.3333333333333,4,2,1,50,0,0
212714,-100,4,2,1,50,0,0
214649,-83.3333333333333,4,2,1,50,0,0
215294,-100,4,2,1,50,0,0
217230,-83.3333333333333,4,2,1,50,0,0
217875,-133.333333333333,4,2,1,25,0,0
220456,-133.333333333333,4,2,1,15,0,0

[Colours]
Combo1 : 125,190,255
Combo2 : 255,81,255

[HitObjects]
154,288,456,6,0,P|171:240|155:191,1,105.000004005432,2|2,1:0|1:0,0:0:0:0:
155,191,1101,6,0,L|224:191,1,70,6|2,0:0|0:0,0:0:0:0:
275,250,1423,2,0,L|344:250,1,70,10|2,0:0|0:0,0:0:0:0:
401,198,1746,2,0,P|423:262|378:320,1,140,8|0,1:0|0:0,0:0:0:0:
171,365,2391,5,10,0:0:0:0:
51,267,2714,1,10,0:0:0:0:
192,208,3036,2,0,P|217:144|196:79,1,140,8|2,1:0|0:0,0:0:0:0:
341,19,3681,5,10,0:0:0:0:
461,117,4004,1,10,0:0:0:0:
320,176,4327,2,0,P|294:239|315:304,1,140,8|0,1:0|0:0,0:0:0:0:
481,384,4972,6,0,P|506:320|485:255,1,140,10|2,0:0|1:0,0:0:0:0:
421,218,5456,1,2,0:0:0:0:
421,218,5617,2,0,P|395:154|416:89,1,140,10|10,1:0|0:0,0:0:0:0:
259,179,6262,6,0,L|189:179,1,70,6|2,0:0|0:0,0:0:0:0:
139,238,6584,2,0,L|69:238,1,70,10|2,0:0|0:0,0:0:0:0:
13,186,6907,2,0,P|-9:250|36:308,1,140,8|0,1:0|0:0,0:0:0:0:
182,298,7552,5,10,0:0:0:0:
256,274,7714,1,10,0:0:0:0:
334,302,7875,1,10,0:0:0:0:
334,302,8198,2,0,L|370:162,1,140,8|2,1:0|0:0,0:0:0:0:
257,59,8843,5,10,0:0:0:0:
215,207,9165,1,10,0:0:0:0:
368,166,9488,2,0,P|434:141|509:171,1,140,8|0,1:0|0:0,0:0:0:0:
382,327,10133,6,0,P|348:337|314:330,1,70,8|2,1:0|0:0,0:0:0:0:
281,260,10456,2,0,P|246:253|213:262,1,70,2|8,0:0|1:0,0:0:0:0:
172,328,10778,2,0,P|138:337|104:330,1,70,2|2,0:0|0:0,0:0:0:0:
71,260,11101,2,0,P|36:253|3:262,1,70,10|10,0:0|0:0,0:0:0:0:
28,151,11423,6,0,L|8:8,1,140,4|4,0:0|0:0,0:0:0:0:
181,103,12069,2,0,L|231:47,1,70,8|0,1:0|0:0,0:0:0:0:
298,21,12391,1,2,0:0:0:0:
290,97,12552,1,0,0:0:0:0:
362,68,12714,2,0,B|423:86|474:62|474:62|467:86,1,140,4|4,0:0|0:0,0:0:0:0:
346,232,13359,6,0,P|337:266|347:299,1,70,8|0,1:0|0:0,0:0:0:0:
417,330,13681,1,2,0:0:0:0:
356,378,13843,1,0,0:0:0:0:
285,348,14004,1,4,0:0:0:0:
217,209,14327,1,4,0:0:0:0:
131,336,14649,1,8,1:0:0:0:
293,261,14972,6,0,P|327:256|361:261,1,70,2|0,0:0|0:0,0:0:0:0:
414,317,15294,1,4,0:0:0:0:
436,242,15456,2,0,L|446:153,1,70,2|0,0:0|0:0,0:0:0:0:
451,95,15778,1,4,0:0:0:0:
351,155,15940,6,0,L|267:155,1,83.9999974365235,8|0,1:0|0:0,0:0:0:0:
177,131,16262,2,0,L|199:211,1,83.9999974365235,8|0,1:0|0:0,0:0:0:0:
281,283,16585,6,0,P|316:290|350:282,1,70,4|0,0:0|0:0,0:0:0:0:
410,234,16907,2,0,P|443:226|478:232,1,70,10|0,0:0|0:0,0:0:0:0:
506,160,17230,2,0,L|506:88,1,70,8|0,1:0|0:0,0:0:0:0:
448,39,17552,2,0,B|376:70|376:4|308:41,1,140,2|10,0:0|0:0,0:0:0:0:
196,191,18198,6,0,P|186:225|193:259,1,70,10|0,0:0|0:0,0:0:0:0:
145,318,18520,2,0,L|75:318,1,70,8|0,1:0|0:0,0:0:0:0:
18,371,18843,1,2,0:0:0:0:
59,207,19165,6,0,P|70:173|61:140,1,70,4|0,0:0|0:0,0:0:0:0:
6,85,19488,2,0,P|-2:51|7:18,1,70,10|0,0:0|0:0,0:0:0:0:
75,54,19810,2,0,L|160:54,1,70,8|0,1:0|0:0,0:0:0:0:
214,18,20133,1,2,0:0:0:0:
321,192,20456,6,0,L|345:279,1,83.9999974365235,4|0,0:0|0:0,0:0:0:0:
253,251,20778,2,0,L|165:250,1,83.9999974365235,10|8,0:0|1:0,0:0:0:0:
77,269,21101,2,0,P|39:320|99:299,1,167.999994873047,8|12,0:0|0:0,0:0:0:0:
190,135,21746,6,0,P|220:75|195:12,1,140,4|4,0:0|0:0,0:0:0:0:
342,60,22391,2,0,L|419:60,1,70,8|0,1:0|0:0,0:0:0:0:
478,21,22713,1,2,0:0:0:0:
477,97,22874,1,0,0:0:0:0:
411,138,23036,2,0,P|388:202|412:267,1,140,4|4,0:0|0:0,0:0:0:0:
256,369,23681,6,0,L|183:369,1,70,8|0,1:0|0:0,0:0:0:0:
109,381,24004,1,2,0:0:0:0:
139,310,24165,1,0,0:0:0:0:
63,324,24327,1,4,0:0:0:0:
113,178,24649,1,4,0:0:0:0:
216,292,24972,1,8,1:0:0:0:
63,324,25294,6,0,L|-9:339,1,70,2|0,0:0|0:0,0:0:0:0:
5,261,25617,1,4,0:0:0:0:
5,261,25778,2,0,L|80:245,1,70,2|0,0:0|0:0,0:0:0:0:
128,192,26101,1,4,0:0:0:0:
208,253,26262,6,0,L|208:337,1,83.9999974365235,8|0,1:0|0:0,0:0:0:0:
288,291,26584,2,0,L|372:268,1,83.9999974365235,8|0,1:0|0:0,0:0:0:0:
457,192,26907,6,0,P|447:158|454:125,1,70,4|0,0:0|0:0,0:0:0:0:
472,49,27230,2,0,L|389:49,1,70,8|0,1:0|0:0,0:0:0:0:
368,118,27552,2,0,L|285:118,1,70,8|0,1:0|0:0,0:0:0:0:
237,166,27875,2,0,B|265:231|205:231|238:300,1,140,2|10,0:0|0:0,0:0:0:0:
70,354,28520,6,0,L|0:354,1,70,8|0,1:0|0:0,0:0:0:0:
18,278,28843,2,0,P|29:239|18:203,1,70,8|0,1:0|0:0,0:0:0:0:
18,134,29165,1,2,0:0:0:0:
194,192,29488,6,0,L|264:192,1,70,4|2,0:0|0:0,0:0:0:0:
312,250,29810,2,0,P|302:284|312:317,1,70,8|2,1:0|0:0,0:0:0:0:
385,344,30133,2,0,L|455:344,1,70,8|2,1:0|0:0,0:0:0:0:
510,290,30456,1,2,0:0:0:0:
403,147,30778,6,0,L|386:58,1,83.9999974365235,4|0,0:0|0:0,0:0:0:0:
311,118,31101,2,0,L|228:118,1,83.9999974365235,10|8,0:0|1:0,0:0:0:0:
159,180,31423,2,0,P|138:239|187:200,1,167.999994873047,8|12,0:0|0:0,0:0:0:0:
256,37,32069,6,0,L|406:37,1,140,4|10,0:0|0:0,0:0:0:0:
465,68,32552,1,0,0:0:0:0:
401,114,32714,2,0,P|394:147|404:181,1,70,8|0,1:0|0:0,0:0:0:0:
496,335,33198,6,0,P|503:301|493:267,1,70,2|4,0:0|0:0,0:0:0:0:
424,302,33520,2,0,L|346:302,1,70,0|10,0:0|0:0,0:0:0:0:
287,342,33843,1,0,0:0:0:0:
254,272,34004,2,0,P|246:237|256:206,1,70,8|0,1:0|0:0,0:0:0:0:
391,127,34488,5,2,0:0:0:0:
391,127,34649,2,0,P|422:69|372:11,1,140,4|10,0:0|0:0,0:0:0:0:
307,33,35133,1,0,0:0:0:0:
235,61,35294,2,0,P|201:70|167:62,1,70,8|0,1:0|0:0,0:0:0:0:
16,178,35778,6,0,L|16:248,1,70,2|4,0:0|0:0,0:0:0:0:
70,302,36101,2,0,P|134:278|199:297,1,140,0|4,0:0|0:0,0:0:0:0:
261,345,36585,2,0,P|294:353|337:340,2,70,8|0|4,1:0|0:0|0:0,0:0:0:0:
274,268,37069,1,0,0:0:0:0:
200,193,37230,6,0,P|178:134|192:74,1,125.999996154785,10|8,0:0|1:0,0:0:0:0:
256,32,37714,1,10,0:0:0:0:
319,74,37875,2,0,P|333:134|311:193,1,125.999996154785,10|8,0:0|1:0,0:0:0:0:
139,262,38520,6,0,L|76:272,1,62.9999980773926,10|8,0:0|1:0,0:0:0:0:
239,371,39004,2,0,L|301:360,1,62.9999980773926,10|8,0:0|1:0,0:0:0:0:
449,332,39488,1,10,0:0:0:0:
310,246,39810,6,0,P|285:190|310:134,1,125.999996154785,10|8,0:0|1:0,0:0:0:0:
386,124,40294,1,10,0:0:0:0:
340,63,40456,1,10,0:0:0:0:
206,132,40778,2,0,P|176:142|146:135,1,62.9999980773926,10|0,1:0|0:0,0:0:0:0:
52,86,41101,5,12,1:0:0:0:
19,154,41262,1,8,1:0:0:0:
104,279,41585,1,8,1:0:0:0:
104,279,41746,2,0,P|134:286|175:272,1,62.9999980773926,10|10,0:0|0:0,0:0:0:0:
226,235,42068,1,12,0:0:0:0:
411,178,42391,6,0,P|434:242|412:307,1,140,4|10,0:0|0:0,0:0:0:0:
351,355,42875,1,0,0:0:0:0:
275,339,43036,2,0,P|237:330|207:338,1,70,8|0,1:0|0:0,0:0:0:0:
44,359,43520,6,0,P|33:326|39:292,1,70,2|6,0:0|0:0,0:0:0:0:
102,247,43843,2,0,P|108:212|97:180,1,70,0|10,0:0|0:0,0:0:0:0:
48,120,44165,1,0,0:0:0:0:
124,105,44327,2,0,L|206:97,1,70,8|0,1:0|0:0,0:0:0:0:
367,81,44810,5,2,0:0:0:0:
320,142,44972,2,0,P|298:203|328:270,1,140,4|10,0:0|0:0,0:0:0:0:
388,314,45456,1,0,0:0:0:0:
318,345,45617,2,0,L|245:345,1,70,8|0,1:0|0:0,0:0:0:0:
64,344,46101,5,2,0:0:0:0:
126,299,46262,2,0,P|151:235|126:171,1,140,4|0,0:0|0:0,0:0:0:0:
72,115,46746,1,10,0:0:0:0:
126,171,46907,2,0,L|269:171,1,140,8|10,1:0|0:0,0:0:0:0:
315,111,47391,1,0,0:0:0:0:
402,193,47552,6,0,L|425:265,1,70,4|0,0:0|0:0,0:0:0:0:
345,257,47875,2,0,L|336:337,1,70,8|0,1:0|0:0,0:0:0:0:
268,290,48198,2,0,L|234:360,1,70,8|0,1:0|0:0,0:0:0:0:
180,301,48520,2,0,P|116:276|51:297,1,140,2|10,0:0|0:0,0:0:0:0:
20,91,49165,6,0,P|54:81|87:88,1,70,8|0,1:0|0:0,0:0:0:0:
151,132,49488,2,0,P|184:139|217:129,1,70,8|0,1:0|0:0,0:0:0:0:
256,63,49810,1,2,0:0:0:0:
408,149,50133,6,0,L|408:221,1,70,4|0,0:0|0:0,0:0:0:0:
463,272,50456,1,8,1:0:0:0:
390,296,50617,1,0,0:0:0:0:
336,245,50778,6,0,L|279:258,1,52.5000020027161,2|0,1:0|0:0,0:0:0:0:
284,256,51423,5,4,0:0:0:0:
218,214,51585,2,0,P|192:150|223:87,2,140,2|8|8,0:0|1:0|1:0,0:0:0:0:
284,256,52391,1,12,0:0:0:0:
487,192,52714,6,0,B|521:111|458:111|484:30,2,154.000004699707,4|10|8,0:0|0:0|1:0,0:0:0:0:
361,327,53681,1,10,0:0:0:0:
274,292,53843,1,0,0:0:0:0:
347,235,54004,2,0,P|356:198|343:158,1,77.0000023498536,10|2,0:0|0:0,0:0:0:0:
164,60,54488,6,0,L|86:60,1,77.0000023498536,10|8,0:0|1:0,0:0:0:0:
42,141,54810,2,0,P|52:178|39:222,1,77.0000023498536,0|2,0:0|0:0,0:0:0:0:
212,319,55294,2,0,P|283:297|362:327,2,154.000004699707,4|10|8,0:0|0:0|1:0,0:0:0:0:
25,370,56262,5,10,0:0:0:0:
50,186,56585,1,4,0:0:0:0:
119,246,56746,2,0,P|154:256|198:244,1,77.0000023498536,0|0,0:0|0:0,0:0:0:0:
256,179,57069,1,10,0:0:0:0:
327,121,57230,2,0,P|345:194|303:257,1,154.000004699707,8|10,1:0|0:0,0:0:0:0:
151,152,57875,6,0,P|133:79|175:16,1,154.000004699707,4|10,0:0|0:0,0:0:0:0:
357,120,58520,2,0,P|284:137|221:95,1,154.000004699707,8|10,1:0|0:0,0:0:0:0:
396,35,59165,1,10,0:0:0:0:
351,214,59488,5,2,0:0:0:0:
283,276,59649,2,0,P|271:312|280:349,1,77.0000023498536,10|8,0:0|1:0,0:0:0:0:
372,359,59972,2,0,B|452:359,1,77.0000023498536,0|2,0:0|0:0,0:0:0:0:
498,180,60456,5,4,0:0:0:0:
326,107,60778,2,0,P|315:71|325:34,1,77.0000023498536,10|2,0:0|0:0,0:0:0:0:
418,36,61101,2,0,P|427:72|416:109,1,77.0000023498536,8|2,1:0|0:0,0:0:0:0:
368,187,61423,1,10,0:0:0:0:
197,82,61746,6,0,B|79:83|79:83|110:57,1,154.000004699707,4|10,0:0|0:0,0:0:0:0:
287,23,62391,2,0,L|378:23,1,77.0000023498536,8|0,1:0|0:0,0:0:0:0:
430,88,62714,1,10,0:0:0:0:
295,214,63036,6,0,P|269:285|296:355,1,154.000004699707,4|10,0:0|0:0,0:0:0:0:
476,313,63681,2,0,P|501:241|474:171,1,154.000004699707,8|10,1:0|0:0,0:0:0:0:
414,99,64165,5,0,0:0:0:0:
325,125,64327,2,0,P|288:135|250:127,1,77.0000023498536,10|2,0:0|0:0,0:0:0:0:
82,51,64810,2,0,P|118:41|156:49,1,77.0000023498536,2|8,0:0|1:0,0:0:0:0:
171,140,65133,2,0,L|171:219,1,77.0000023498536,0|2,0:0|0:0,0:0:0:0:
341,339,65617,6,0,B|401:364|450:331|450:331|417:308,1,154.000004699707,4|10,0:0|0:0,0:0:0:0:
247,186,66262,2,0,B|187:161|138:194|138:194|170:216,1,154.000004699707,8|10,1:0|0:0,0:0:0:0:
355,223,66907,6,0,P|364:187|351:151,1,77.0000023498536,4|0,0:0|0:0,0:0:0:0:
278,94,67230,2,0,P|265:58|274:21,1,77.0000023498536,2|2,0:0|0:0,0:0:0:0:
359,57,67552,1,8,1:0:0:0:
351,151,67714,1,0,0:0:0:0:
262,178,67875,2,0,L|181:178,1,77.0000023498536,10|0,0:0|0:0,0:0:0:0:
119,112,68198,5,4,0:0:0:0:
116,296,68520,1,10,0:0:0:0:
262,178,68843,2,0,L|350:177,1,77.0000023498536,8|2,1:0|0:0,0:0:0:0:
405,240,69165,2,0,P|397:277|407:313,1,77.0000023498536,10|0,0:0|0:0,0:0:0:0:
486,362,69488,1,4,0:0:0:0:
301,302,69810,6,0,L|224:302,1,77.0000023498536,10|0,0:0|0:0,0:0:0:0:
140,341,70133,1,8,1:0:0:0:
91,262,70294,2,0,P|80:225|91:188,1,77.0000023498536,0|2,0:0|0:0,0:0:0:0:
255,102,70778,6,0,L|336:102,1,77.0000023498536,4|10,0:0|0:0,0:0:0:0:
320,194,71101,2,0,L|401:194,1,77.0000023498536,8|2,0:0|0:0,0:0:0:0:
473,142,71423,2,0,P|486:215|441:275,1,154.000004699707,8|10,1:0|0:0,0:0:0:0:
255,344,72069,6,0,L|175:344,1,77.0000023498536,4|10,0:0|0:0,0:0:0:0:
122,268,72392,2,0,P|132:230|122:193,1,77.0000023498536,10|2,0:0|0:0,0:0:0:0:
68,118,72714,2,0,P|140:102|201:146,1,154.000004699707,8|10,1:0|0:0,0:0:0:0:
288,313,73359,6,0,B|406:313|406:313|383:287,1,140,4|10,0:0|0:0,0:0:0:0:
256,221,74004,2,0,L|106:222,1,140,8|10,1:0|0:0,0:0:0:0:
60,275,74488,1,2,0:0:0:0:
60,275,74649,2,0,P|39:215|82:153,1,140,10|10,0:0|0:0,0:0:0:0:
252,94,75294,6,0,L|344:94,1,83.9999974365235,8|0,1:0|0:0,0:0:0:0:
319,185,75617,2,0,L|411:185,1,83.9999974365235,8|0,1:0|0:0,0:0:0:0:
450,124,75940,6,0,P|479:186|447:246,1,140,4|10,0:0|0:0,0:0:0:0:
306,308,76585,2,0,B|197:307|197:307|217:283,1,140,8|10,1:0|0:0,0:0:0:0:
270,227,77069,1,2,0:0:0:0:
270,227,77230,2,0,P|298:156|266:97,1,140,10|10,0:0|0:0,0:0:0:0:
103,26,77875,6,0,L|19:26,1,83.9999974365235,8|0,1:0|0:0,0:0:0:0:
60,109,78198,2,0,L|144:109,1,83.9999974365235,8|0,1:0|0:0,0:0:0:0:
170,180,78520,6,0,P|148:244|173:308,1,140,4|10,0:0|0:0,0:0:0:0:
341,203,79165,2,0,P|363:139|338:75,1,140,8|10,1:0|0:0,0:0:0:0:
271,37,79649,1,2,0:0:0:0:
271,37,79810,2,0,B|199:66|199:20|130:45,1,140,10|10,0:0|0:0,0:0:0:0:
23,192,80456,6,0,L|24:282,1,83.9999974365235,8|0,1:0|0:0,0:0:0:0:
93,335,80778,2,0,P|133:322|173:332,1,83.9999974365235,8|0,1:0|0:0,0:0:0:0:
255,369,81101,5,2,1:0:0:0:
255,369,83681,6,0,L|281:232,1,140,4|4,0:0|0:0,0:0:0:0:
308,79,84327,2,0,P|341:86|377:79,1,70,8|0,1:0|0:0,0:0:0:0:
438,34,84649,1,2,0:0:0:0:
450,109,84810,1,0,0:0:0:0:
388,157,84972,2,0,P|365:220|393:283,1,140,4|4,0:0|0:0,0:0:0:0:
259,359,85617,6,0,L|180:359,1,70,8|0,1:0|0:0,0:0:0:0:
112,367,85939,1,2,0:0:0:0:
144,296,86101,1,0,0:0:0:0:
67,303,86262,1,4,0:0:0:0:
131,163,86585,1,4,0:0:0:0:
221,287,86907,1,8,1:0:0:0:
67,303,87230,6,0,P|60:262|72:227,1,70,2|0,0:0|0:0,0:0:0:0:
136,268,87552,1,4,0:0:0:0:
189,213,87714,2,0,P|223:204|257:213,1,70,2|0,0:0|0:0,0:0:0:0:
318,260,88036,1,4,0:0:0:0:
397,171,88198,6,0,L|397:82,1,83.9999974365235,8|0,1:0|0:0,0:0:0:0:
320,34,88520,2,0,P|280:47|241:35,1,83.9999974365235,8|0,1:0|0:0,0:0:0:0:
152,62,88843,6,0,L|142:131,1,70,4|0,0:0|0:0,0:0:0:0:
219,124,89165,2,0,L|209:193,1,70,8|0,1:0|0:0,0:0:0:0:
286,185,89488,2,0,L|276:254,1,70,8|0,1:0|0:0,0:0:0:0:
208,289,89810,2,0,P|257:331|328:309,1,140,2|10,0:0|0:0,0:0:0:0:
467,192,90456,6,0,L|467:115,1,70,8|0,1:0|0:0,0:0:0:0:
400,81,90778,2,0,P|366:88|332:81,1,70,8|0,1:0|0:0,0:0:0:0:
256,68,91101,1,2,0:0:0:0:
137,192,91423,6,0,L|125:261,1,70,4|0,0:0|0:0,0:0:0:0:
177,317,91746,2,0,P|211:309|244:318,1,70,8|0,1:0|0:0,0:0:0:0:
311,356,92069,2,0,P|344:365|378:357,1,70,8|0,1:0|0:0,0:0:0:0:
449,327,92391,1,2,0:0:0:0:
502,128,92714,6,0,L|503:41,1,83.9999974365235,4|0,0:0|0:0,0:0:0:0:
410,53,93036,2,0,P|371:65|331:53,1,83.9999974365235,10|8,0:0|1:0,0:0:0:0:
240,34,93359,2,0,B|266:105|203:105|244:196,1,167.999994873047,10|10,0:0|0:0,0:0:0:0:
374,310,94004,6,0,P|429:312|392:269,1,140,4|4,0:0|0:0,0:0:0:0:
239,279,94649,2,0,L|169:279,1,70,8|0,1:0|0:0,0:0:0:0:
122,340,94971,1,2,0:0:0:0:
89,270,95132,1,0,0:0:0:0:
135,207,95294,2,0,P|158:143|134:78,1,140,4|4,0:0|0:0,0:0:0:0:
305,28,95939,6,0,L|375:28,1,70,8|0,1:0|0:0,0:0:0:0:
451,19,96262,1,2,0:0:0:0:
421,90,96423,1,0,0:0:0:0:
497,76,96585,1,4,0:0:0:0:
388,184,96907,1,4,0:0:0:0:
375,28,97230,1,8,1:0:0:0:
460,156,97552,6,0,P|465:190|456:223,1,70,2|0,0:0|0:0,0:0:0:0:
391,265,97875,1,4,0:0:0:0:
391,265,98036,2,0,L|316:281,1,70,2|0,0:0|0:0,0:0:0:0:
270,336,98359,1,4,0:0:0:0:
229,235,98520,6,0,L|229:151,1,83.9999974365235,8|0,1:0|0:0,0:0:0:0:
321,160,98843,2,0,L|321:76,1,83.9999974365235,8|0,1:0|0:0,0:0:0:0:
233,24,99165,6,0,P|199:34|166:27,1,70,4|0,0:0|0:0,0:0:0:0:
90,42,99488,2,0,L|90:125,1,70,8|0,1:0|0:0,0:0:0:0:
159,146,99810,2,0,L|159:229,1,70,8|0,1:0|0:0,0:0:0:0:
207,277,100133,2,0,B|272:249|272:309|341:276,1,140,2|6,0:0|0:0,0:0:0:0:
481,133,100778,6,0,L|486:63,1,70,8|0,1:0|0:0,0:0:0:0:
408,64,101101,2,0,P|369:75|333:64,1,70,8|0,1:0|0:0,0:0:0:0:
273,31,101423,1,2,0:0:0:0:
130,139,101746,6,0,P|123:173|136:214,1,70,4|0,0:0|0:0,0:0:0:0:
205,228,102068,2,0,P|239:218|272:228,1,70,8|0,1:0|0:0,0:0:0:0:
324,283,102391,2,0,L|324:353,1,70,8|0,1:0|0:0,0:0:0:0:
398,374,102714,1,2,0:0:0:0:
493,215,103036,6,0,P|502:175|488:136,1,83.9999974365235,4|0,0:0|0:0,0:0:0:0:
409,88,103359,2,0,L|326:88,1,83.9999974365235,10|8,0:0|1:0,0:0:0:0:
250,142,103681,2,0,P|229:201|278:162,1,167.999994873047,10|12,0:0|0:0,0:0:0:0:
125,138,104327,6,0,P|115:205|154:262,1,140,4|10,0:0|0:0,0:0:0:0:
221,299,104810,1,0,0:0:0:0:
289,264,104972,2,0,P|323:255|357:260,1,70,8|0,1:0|0:0,0:0:0:0:
478,136,105456,6,0,L|485:66,1,70,2|4,0:0|0:0,0:0:0:0:
408,73,105778,2,0,P|374:83|341:74,1,70,0|10,0:0|0:0,0:0:0:0:
280,25,106101,1,0,0:0:0:0:
272,101,106262,2,0,B|268:202|268:202|222:165,1,140,8|0,1:0|0:0,0:0:0:0:
150,37,106907,6,0,P|83:27|37:76,1,140,4|10,0:0|0:0,0:0:0:0:
65,148,107391,1,0,0:0:0:0:
116,205,107552,2,0,P|134:271|110:335,1,140,8|0,1:0|0:0,0:0:0:0:
289,333,108198,6,0,B|395:332|395:332|374:295,1,140,4|0,0:0|0:0,0:0:0:0:
325,246,108681,1,4,0:0:0:0:
378,190,108843,2,0,P|385:155|372:118,2,70,8|0|4,2:0|0:0|0:0,0:0:0:0:
224,286,109488,5,10,0:0:0:0:
101,193,109810,2,0,P|92:156|103:120,1,70,8|10,1:0|0:0,0:0:0:0:
139,59,110133,1,8,1:0:0:0:
176,126,110294,1,8,1:0:0:0:
301,36,110617,6,0,L|372:36,1,70,8|10,1:0|0:0,0:0:0:0:
448,35,110940,1,8,1:0:0:0:
410,101,111101,2,0,P|402:134|410:168,1,70,8|10,1:0|0:0,0:0:0:0:
468,218,111423,2,0,L|326:219,1,140,8|10,1:0|0:0,0:0:0:0:
255,355,112069,5,8,1:0:0:0:
137,255,112391,2,0,P|127:221|136:188,1,70,8|10,1:0|0:0,0:0:0:0:
198,142,112714,1,8,1:0:0:0:
127,110,112875,1,8,1:0:0:0:
276,70,113198,1,8,1:0:0:0:
305,141,113359,5,8,1:0:0:0:
357,84,113520,1,10,0:0:0:0:
378,157,113681,2,0,P|387:190|380:223,1,70,10|8,0:0|1:0,0:0:0:0:
309,254,114004,2,0,L|230:254,1,70,10|10,0:0|0:0,0:0:0:0:
184,307,114326,1,10,0:0:0:0:
82,191,114649,6,0,P|59:127|81:62,1,140,4|10,0:0|0:0,0:0:0:0:
151,29,115133,1,0,0:0:0:0:
203,85,115294,2,0,L|280:86,1,70,8|0,1:0|0:0,0:0:0:0:
436,98,115778,6,0,P|447:131|441:165,1,70,2|4,0:0|0:0,0:0:0:0:
378,210,116101,2,0,P|372:245|383:277,1,70,0|10,0:0|0:0,0:0:0:0:
432,337,116423,1,0,0:0:0:0:
356,352,116585,2,0,L|199:352,1,140,8|0,1:0|0:0,0:0:0:0:
80,278,117230,6,0,P|51:215|73:151,1,140,4|10,0:0|0:0,0:0:0:0:
146,125,117714,1,0,0:0:0:0:
210,166,117875,2,0,P|240:171|280:166,1,70,8|0,1:0|0:0,0:0:0:0:
435,97,118359,5,0,0:0:0:0:
387,157,118520,2,0,P|362:221|387:285,1,140,4|0,0:0|0:0,0:0:0:0:
447,331,119004,1,4,0:0:0:0:
376,361,119165,2,0,L|236:361,1,140,8|12,1:0|0:0,0:0:0:0:
90,311,119810,6,0,P|72:281|68:244,1,70,4|0,0:0|0:0,0:0:0:0:
145,255,120133,2,0,P|147:220|165:188,1,70,8|0,1:0|0:0,0:0:0:0:
221,242,120456,2,0,P|243:214|276:199,1,70,8|0,1:0|0:0,0:0:0:0:
291,274,120778,2,0,L|443:274,1,140,2|10,0:0|0:0,0:0:0:0:
427,94,121423,6,0,P|417:60|424:27,1,70,8|0,1:0|0:0,0:0:0:0:
346,26,121746,2,0,L|271:26,1,70,8|0,1:0|0:0,0:0:0:0:
203,50,122068,1,2,0:0:0:0:
319,169,122391,6,0,P|327:202|320:236,1,70,8|0,1:0|0:0,0:0:0:0:
282,304,122714,1,8,1:0:0:0:
245,236,122875,1,0,0:0:0:0:
204,302,123036,6,0,L|143:302,1,52.5000020027161,2|0,1:0|0:0,0:0:0:0:
151,302,123681,5,4,0:0:0:0:
86,258,123843,2,0,P|60:194|91:131,2,140,8|8|10,1:0|1:0|0:0,0:0:0:0:
151,302,124649,1,12,0:0:0:0:
309,193,124972,6,0,B|390:159|390:222|461:190,2,154.000004699707,4|10|8,0:0|0:0|1:0,0:0:0:0:
163,307,125940,1,10,0:0:0:0:
80,347,126101,1,0,0:0:0:0:
93,255,126262,2,0,P|102:218|89:178,1,77.0000023498536,4|2,0:0|0:0,0:0:0:0:
231,30,126746,6,0,L|309:30,1,77.0000023498536,10|8,0:0|1:0,0:0:0:0:
369,98,127068,2,0,P|359:134|367:171,1,77.0000023498536,0|10,0:0|0:0,0:0:0:0:
256,319,127552,2,0,B|134:319|134:319|110:296,2,154.000004699707,4|10|8,0:0|0:0|1:0,0:0:0:0:
457,316,128520,5,10,0:0:0:0:
314,197,128843,1,4,0:0:0:0:
398,233,129004,2,0,P|408:198|396:154,1,77.0000023498536,2|0,0:0|0:0,0:0:0:0:
323,104,129327,1,10,0:0:0:0:
314,197,129488,2,0,P|246:230|176:204,1,154.000004699707,8|10,1:0|0:0,0:0:0:0:
34,54,130133,6,0,P|101:20|171:46,1,154.000004699707,4|10,0:0|0:0,0:0:0:0:
338,123,130778,2,0,P|411:142|482:116,1,154.000004699707,8|10,1:0|0:0,0:0:0:0:
321,25,131423,1,4,0:0:0:0:
256,198,131746,5,10,0:0:0:0:
200,271,131907,2,0,P|191:307|202:344,1,77.0000023498536,2|8,0:0|1:0,0:0:0:0:
292,369,132230,2,0,B|372:369,1,77.0000023498536,0|2,0:0|0:0,0:0:0:0:
496,234,132714,5,4,0:0:0:0:
317,187,133036,2,0,P|306:151|316:114,1,77.0000023498536,10|2,0:0|0:0,0:0:0:0:
402,78,133359,2,0,P|411:114|400:151,1,77.0000023498536,8|10,1:0|0:0,0:0:0:0:
384,242,133681,1,10,0:0:0:0:
206,190,134004,6,0,B|151:162|100:190|100:190|77:152,1,154.000004699707,4|10,0:0|0:0,0:0:0:0:
233,34,134649,2,0,P|270:42|307:33,1,77.0000023498536,8|0,1:0|0:0,0:0:0:0:
399,19,134972,1,10,0:0:0:0:
330,192,135294,6,0,P|304:263|331:333,1,154.000004699707,4|10,0:0|0:0,0:0:0:0:
150,376,135940,2,0,P|176:305|149:235,1,154.000004699707,8|10,1:0|0:0,0:0:0:0:
76,177,136423,5,0,0:0:0:0:
161,140,136585,2,0,L|248:140,1,77.0000023498536,4|2,0:0|0:0,0:0:0:0:
400,229,137069,2,0,L|313:229,1,77.0000023498536,2|8,0:0|1:0,0:0:0:0:
250,285,137391,2,0,P|258:322|249:359,1,77.0000023498536,0|10,0:0|0:0,0:0:0:0:
71,309,137875,6,0,P|37:241|56:168,1,154.000004699707,4|10,0:0|0:0,0:0:0:0:
202,55,138520,2,0,P|235:122|216:195,1,154.000004699707,8|10,1:0|0:0,0:0:0:0:
345,352,139165,6,0,L|431:352,1,77.0000023498536,4|2,0:0|0:0,0:0:0:0:
470,273,139488,2,0,P|457:237|466:200,1,77.0000023498536,10|2,0:0|0:0,0:0:0:0:
507,118,139810,1,8,1:0:0:0:
414,120,139972,1,0,0:0:0:0:
360,195,140133,2,0,P|323:206|279:195,1,77.0000023498536,10|0,0:0|0:0,0:0:0:0:
216,137,140456,5,4,0:0:0:0:
276,311,140778,1,10,0:0:0:0:
320,131,141101,2,0,P|357:120|401:131,1,77.0000023498536,8|0,1:0|0:0,0:0:0:0:
458,192,141423,2,0,L|458:280,1,77.0000023498536,10|0,0:0|0:0,0:0:0:0:
505,348,141746,5,6,0:0:0:0:
328,291,142068,2,0,P|291:284|255:295,1,77.0000023498536,10|2,0:0|0:0,0:0:0:0:
172,336,142391,1,8,1:0:0:0:
100,278,142552,2,0,P|89:241|100:204,1,77.0000023498536,0|2,0:0|0:0,0:0:0:0:
256,107,143036,6,0,L|337:107,1,77.0000023498536,4|10,0:0|0:0,0:0:0:0:
329,199,143359,2,0,L|252:199,1,77.0000023498536,10|2,0:0|0:0,0:0:0:0:
174,148,143681,2,0,P|161:221|206:281,1,154.000004699707,8|10,1:0|0:0,0:0:0:0:
401,338,144327,6,0,L|478:338,1,77.0000023498536,4|10,0:0|0:0,0:0:0:0:
482,245,144650,2,0,P|472:207|482:170,1,77.0000023498536,10|2,0:0|0:0,0:0:0:0:
441,87,144972,2,0,P|372:115|300:93,1,154.000004699707,8|10,1:0|0:0,0:0:0:0:
134,21,145617,6,0,B|117:88|117:88|180:159|97:249|34:210,1,280,6|0,1:0|0:0,0:0:0:0:
34,210,147552,6,0,P|16:260|32:316,1,105.000004005432,2|2,1:0|1:0,0:0:0:0:
177,346,148198,6,0,P|210:335|245:339,1,70,4|0,0:0|0:0,0:0:0:0:
315,368,148520,1,10,0:0:0:0:
304,291,148681,2,0,L|304:218,1,70,0|8,0:0|1:0,0:0:0:0:
354,162,149004,2,0,P|417:187|480:161,1,140,0|2,0:0|0:0,0:0:0:0:
493,84,149488,6,0,L|493:8,1,70,10|0,0:0|0:0,0:0:0:0:
419,37,149810,1,10,0:0:0:0:
347,69,149972,2,0,P|314:76|279:71,1,70,0|8,0:0|1:0,0:0:0:0:
213,32,150294,1,0,0:0:0:0:
212,109,150456,2,0,L|212:184,1,70,2|2,0:0|0:0,0:0:0:0:
154,229,150778,6,0,P|215:255|274:222,1,140,4|10,0:0|0:0,0:0:0:0:
372,103,151423,2,0,P|430:69|492:96,2,140,8|2|10,1:0|0:0|0:0,0:0:0:0:
353,185,152230,6,0,L|353:260,1,70,0|2,0:0|0:0,0:0:0:0:
353,331,152552,1,10,0:0:0:0:
286,292,152714,2,0,P|250:286|215:295,1,70,8|0,1:0|0:0,0:0:0:0:
153,335,153036,1,10,0:0:0:0:
92,193,153359,1,4,0:0:0:0:
123,122,153520,5,0,0:0:0:0:
165,184,153681,2,0,P|200:191|233:183,1,70,4|0,0:0|0:0,0:0:0:0:
301,146,154004,2,0,P|334:137|368:144,1,70,8|0,1:0|0:0,0:0:0:0:
428,193,154327,1,2,0:0:0:0:
395,261,154488,2,0,P|389:296|397:330,1,70,2|10,0:0|0:0,0:0:0:0:
316,378,154810,5,2,0:0:0:0:
263,320,154972,2,0,P|228:312|195:321,1,70,10|0,0:0|0:0,0:0:0:0:
118,326,155294,2,0,L|101:252,1,70,8|0,1:0|0:0,0:0:0:0:
27,237,155617,1,2,0:0:0:0:
181,240,155940,1,10,0:0:0:0:
131,181,156101,5,0,0:0:0:0:
187,128,156262,2,0,P|196:91|183:54,1,70,10|0,0:0|0:0,0:0:0:0:
256,27,156584,1,8,1:0:0:0:
331,42,156746,2,0,B|434:42|434:42|409:69,1,140,0|2,0:0|0:0,0:0:0:0:
340,132,157230,6,0,P|331:166|340:200,1,70,4|10,0:0|0:0,0:0:0:0:
387,261,157552,2,0,P|395:294|387:328,1,70,10|8,0:0|1:0,0:0:0:0:
318,362,157875,2,0,L|248:362,1,70,10|10,0:0|0:0,0:0:0:0:
181,321,158198,1,10,0:0:0:0:
226,259,158359,2,0,P|233:224|223:191,1,70,10|4,0:0|0:0,0:0:0:0:
77,81,158843,5,4,1:0:0:0:
86,157,159004,1,0,0:0:0:0:
149,112,159165,2,0,L|231:93,1,70,8|0,1:0|0:0,0:0:0:0:
254,28,159488,2,0,P|295:83|275:147,1,140,2|10,0:0|0:0,0:0:0:0:
116,231,160133,5,8,1:0:0:0:
178,274,160294,1,0,0:0:0:0:
109,310,160456,2,0,P|101:342|116:384,1,70,8|0,1:0|0:0,0:0:0:0:
189,371,160778,2,0,B|333:371,1,140,2|10,0:0|0:0,0:0:0:0:
411,310,161262,5,0,0:0:0:0:
361,250,161423,2,0,P|351:216|356:182,1,70,10|0,0:0|0:0,0:0:0:0:
418,135,161746,2,0,P|423:100|413:67,1,70,8|0,1:0|0:0,0:0:0:0:
347,26,162069,2,0,L|276:26,1,70,2|2,0:0|0:0,0:0:0:0:
200,23,162391,5,10,0:0:0:0:
238,89,162553,1,0,0:0:0:0:
179,137,162714,2,0,P|172:172|180:205,1,70,10|10,0:0|0:0,0:0:0:0:
249,240,163036,2,0,L|319:240,1,70,8|0,1:0|0:0,0:0:0:0:
363,176,163359,2,0,P|395:235|370:298,1,140,10|4,0:0|0:0,0:0:0:0:
213,360,164004,5,4,0:0:0:0:
154,310,164165,1,0,0:0:0:0:
226,284,164327,2,0,P|235:250|227:216,1,70,8|0,1:0|0:0,0:0:0:0:
94,115,164810,5,2,0:0:0:0:
151,64,164972,2,0,P|185:55|219:60,1,70,10|2,0:0|0:0,0:0:0:0:
273,115,165294,2,0,P|307:120|340:111,1,70,10|0,0:0|0:0,0:0:0:0:
413,138,165617,2,0,B|375:214|445:214|417:283,2,140,8|2|10,1:0|0:0|0:0,0:0:0:0:
507,16,166585,5,10,0:0:0:0:
466,81,166746,1,0,0:0:0:0:
405,34,166907,2,0,P|371:25|338:35,1,70,8|0,1:0|0:0,0:0:0:0:
256,184,167391,5,2,0:0:0:0:
307,241,167552,2,0,P|316:274|307:308,1,70,4|10,0:0|0:0,0:0:0:0:
257,366,167875,1,10,0:0:0:0:
203,311,168036,1,8,1:0:0:0:
140,356,168198,2,0,P|106:364|72:357,1,70,10|10,0:0|0:0,0:0:0:0:
33,290,168520,2,0,P|57:225|29:163,1,140,10|0,0:0|0:0,0:0:0:0:
69,31,179165,6,0,P|83:73|73:117,1,90.9999958343508,4|0,0:0|0:0,0:0:0:0:
13,207,179488,6,0,B|74:246|132:208|132:208|102:270,1,195.999994018555,4|0,0:0|0:0,0:0:0:0:
443,353,181746,6,0,P|428:310|438:266,1,90.9999958343508,4|0,0:0|0:0,0:0:0:0:
499,177,182069,6,0,B|438:138|380:176|380:176|409:113,1,195.999994018555,4|0,0:0|0:0,0:0:0:0:
179,192,183198,6,0,B|112:218|112:161|44:190,2,140,10|10|10,0:0|0:0|0:0,0:0:0:0:
232,135,184004,1,10,0:0:0:0:
373,277,184327,6,0,P|387:234|377:190,1,90.9999958343508,4|0,0:0|0:0,0:0:0:0:
317,101,184650,6,0,B|378:62|436:100|436:100|406:37,1,195.999994018555,4|0,0:0|0:0,0:0:0:0:
30,26,186907,5,4,0:0:0:0:
133,138,187230,2,0,P|144:171|138:205,1,70,10|2,0:0|0:0,0:0:0:0:
79,255,187552,2,0,L|219:255,1,140,10|10,0:0|0:0,0:0:0:0:
284,296,188036,1,10,0:0:0:0:
323,229,188198,6,0,P|331:195|321:161,1,70,4|10,1:0|0:0,0:0:0:0:
197,70,188681,2,0,L|116:70,1,70,10|10,0:0|0:0,0:0:0:0:
57,103,189004,2,0,P|48:67|61:27,2,70,2|10|2,0:0|0:0|0:0,0:0:0:0:
135,170,189488,6,0,P|162:240|133:309,1,154.000004699707,4|10,0:0|0:0,0:0:0:0:
307,373,190133,2,0,B|428:371|428:371|406:343,1,154.000004699707,8|10,1:0|0:0,0:0:0:0:
340,282,190617,1,0,0:0:0:0:
406,218,190778,6,0,P|424:145|384:81,1,154.000004699707,10|10,0:0|0:0,0:0:0:0:
301,40,191262,1,2,0:0:0:0:
232,101,191423,2,0,P|195:111|158:101,1,77.0000023498536,8|0,1:0|0:0,0:0:0:0:
92,35,191746,1,10,0:0:0:0:
22,206,192069,6,0,B|52:275|-18:275|18:353,1,154.000004699707,4|10,0:0|0:0,0:0:0:0:
108,370,192552,1,0,0:0:0:0:
169,300,192714,2,0,P|239:274|312:299,1,154.000004699707,8|10,1:0|0:0,0:0:0:0:
374,366,193198,1,0,0:0:0:0:
436,297,193359,6,0,P|443:258|428:213,1,77.0000023498536,10|2,0:0|0:0,0:0:0:0:
451,132,193681,1,10,0:0:0:0:
360,143,193843,1,2,0:0:0:0:
329,230,194004,2,0,P|261:258|187:231,1,154.000004699707,8|10,1:0|0:0,0:0:0:0:
68,91,194649,1,10,0:0:0:0:
9,266,194972,6,0,L|9:351,1,77.0000023498536,10|0,0:0|0:0,0:0:0:0:
101,337,195294,2,0,P|138:329|173:342,1,77.0000023498536,8|0,1:0|0:0,0:0:0:0:
265,357,195617,2,0,P|302:364|337:351,1,77.0000023498536,10|0,0:0|0:0,0:0:0:0:
405,288,195940,6,0,B|405:208,1,77.0000023498536,10|2,0:0|0:0,0:0:0:0:
256,102,196423,2,0,B|256:182,1,77.0000023498536,2|8,0:0|1:0,0:0:0:0:
107,288,196907,2,0,B|107:208,1,77.0000023498536,10|2,0:0|0:0,0:0:0:0:
63,128,197230,1,4,0:0:0:0:
217,27,197552,6,0,P|254:17|291:26,1,77.0000023498536,10|10,0:0|0:0,0:0:0:0:
362,85,197875,2,0,P|350:121|359:158,1,77.0000023498536,8|10,1:0|0:0,0:0:0:0:
429,219,198198,2,0,P|437:256|426:292,1,77.0000023498536,10|10,0:0|0:0,0:0:0:0:
349,342,198520,5,12,0:0:0:0:
260,367,198681,1,12,0:0:0:0:
209,290,198843,1,12,0:0:0:0:
265,217,199004,1,12,0:0:0:0:
351,248,199165,2,0,P|389:258|425:247,1,77.0000023498536,12|4,1:0|0:0,0:0:0:0:
489,180,199488,1,4,0:0:0:0:
362,45,199810,6,0,P|288:24|217:50,1,154.000004699707,4|10,0:0|0:0,0:0:0:0:
143,220,200456,2,0,P|216:240|287:214,1,154.000004699707,8|10,1:0|0:0,0:0:0:0:
351,147,200939,5,0,0:0:0:0:
377,235,201101,2,0,L|377:329,1,77.0000023498536,4|2,0:0|0:0,0:0:0:0:
495,169,201585,2,0,L|495:75,1,77.0000023498536,10|8,0:0|1:0,0:0:0:0:
416,42,201907,2,0,P|378:51|341:43,1,77.0000023498536,0|2,0:0|0:0,0:0:0:0:
163,95,202391,6,0,P|128:160|155:230,1,154.000004699707,4|10,0:0|0:0,0:0:0:0:
311,329,203036,2,0,P|345:263|318:193,1,154.000004699707,8|10,1:0|0:0,0:0:0:0:
163,95,203681,6,0,L|81:95,1,77.0000023498536,4|0,0:0|0:0,0:0:0:0:
24,164,204004,2,0,P|33:200|23:237,1,77.0000023498536,10|2,0:0|0:0,0:0:0:0:
7,328,204326,1,8,1:0:0:0:
89,285,204488,1,0,0:0:0:0:
143,359,204649,2,0,P|179:368|216:357,1,77.0000023498536,10|0,0:0|0:0,0:0:0:0:
256,274,204972,5,4,0:0:0:0:
415,365,205294,1,10,0:0:0:0:
412,179,205617,2,0,P|400:142|410:105,1,77.0000023498536,8|0,1:0|0:0,0:0:0:0:
456,25,205940,2,0,L|374:25,1,77.0000023498536,10|0,0:0|0:0,0:0:0:0:
311,89,206262,5,4,0:0:0:0:
137,24,206584,2,0,P|128:61|137:98,1,77.0000023498536,10|2,0:0|0:0,0:0:0:0:
200,167,206907,1,8,1:0:0:0:
109,186,207068,2,0,L|24:186,1,77.0000023498536,0|2,0:0|0:0,0:0:0:0:
184,290,207552,6,0,L|265:290,1,77.0000023498536,4|10,0:0|0:0,0:0:0:0:
335,233,207875,2,0,P|345:197|335:161,1,77.0000023498536,10|2,0:0|0:0,0:0:0:0:
274,90,208197,2,0,P|344:66|408:104,1,154.000004699707,8|10,1:0|0:0,0:0:0:0:
420,289,208843,6,0,L|420:373,1,77.0000023498536,4|10,0:0|0:0,0:0:0:0:
327,358,209166,2,0,P|289:349|253:358,1,77.0000023498536,10|2,0:0|0:0,0:0:0:0:
163,382,209488,2,0,L|134:230,1,154.000004699707,8|10,1:0|0:0,0:0:0:0:
103,64,210133,6,0,P|168:89|233:69,1,140,4|10,0:0|0:0,0:0:0:0:
395,21,210778,2,0,L|395:161,1,140,8|10,1:0|0:0,0:0:0:0:
395,245,211262,1,2,0:0:0:0:
322,203,211423,2,0,P|255:183|190:205,1,140,10|10,0:0|0:0,0:0:0:0:
6,288,212068,6,0,L|7:184,1,83.9999974365235,8|0,1:0|0:0,0:0:0:0:
107,193,212391,2,0,L|108:89,1,83.9999974365235,8|0,1:0|0:0,0:0:0:0:
176,60,212714,6,0,P|242:85|312:57,1,140,4|10,0:0|0:0,0:0:0:0:
443,131,213359,2,0,B|443:237|443:237|412:217,1,140,8|10,1:0|0:0,0:0:0:0:
354,176,213843,1,2,0:0:0:0:
354,176,214004,2,0,B|284:201|284:155|203:186,1,140,10|10,0:0|0:0,0:0:0:0:
39,320,214649,6,0,P|28:280|38:240,1,83.9999974365235,8|0,1:0|0:0,0:0:0:0:
104,175,214972,2,0,P|113:134|102:94,1,83.9999974365235,8|0,1:0|0:0,0:0:0:0:
170,34,215294,6,0,L|318:34,1,140,4|10,0:0|0:0,0:0:0:0:
417,144,215939,2,0,P|391:207|413:272,1,140,8|10,1:0|0:0,0:0:0:0:
475,327,216423,1,2,0:0:0:0:
475,327,216584,2,0,B|328:327,1,140,10|10,0:0|0:0,0:0:0:0:
155,373,217230,6,0,P|145:332|155:291,1,83.9999974365235,8|0,1:0|0:0,0:0:0:0:
223,229,217552,2,0,P|232:188|223:147,1,83.9999974365235,8|0,1:0|0:0,0:0:0:0:
171,82,217875,5,2,1:0:0:0:
308,28,218197,2,0,P|333:22|359:25,2,52.5000020027161,2|2|2,1:0|1:0|1:0,0:0:0:0:
343,100,218681,1,2,1:0:0:0:
343,100,218843,2,0,P|357:148|337:200,1,105.000004005432,2|2,1:0|1:0,0:0:0:0:
180,246,219488,6,0,L|123:246,1,52.5000020027161,2|2,1:0|1:0,0:0:0:0:
86,176,219810,2,0,L|29:176,1,52.5000020027161,2|2,1:0|1:0,0:0:0:0:
23,259,220133,2,0,P|34:311|15:359,1,105.000004005432,2|2,1:0|1:0,0:0:0:0:
