osu file format v14

[General]
AudioFilename: audio.mp3
AudioLeadIn: 0
PreviewTime: 40728
Countdown: 0
SampleSet: Normal
StackLeniency: 0.7
Mode: 1
LetterboxInBreaks: 0
WidescreenStoryboard: 0

[Editor]
Bookmarks: 10567,41535,62180,93148,113793,134438
DistanceSpacing: 0.2
BeatDivisor: 8
GridSize: 16
TimelineZoom: 1.3

[Metadata]
Title:love nwantiti (ah ah ah)
TitleUnicode:love nwantiti (ah ah ah)
Artist:CKay
ArtistUnicode:CKay
Creator:0gg
Version:obsessed
Source:
Tags:english pop igbo afrobeats afrobeat the first joeboy kuami eugene kwami marfo joseph akinwale akinfenwa-donus akinfenwa donus chukwuka ekweani -jordan- jory ogg nwantinti nigeria nigerian ghana ghanaian pidgin
BeatmapID:3293710
BeatmapSetID:1613238

[Difficulty]
HPDrainRate:7
CircleSize:5.2
OverallDifficulty:5
ApproachRate:5.8
SliderMultiplier:2.8
SliderTickRate:1

[Events]
//Background and Video events
0,0,"bg.jpg",0,-60
//Break Periods
//Storyboard Layer 0 (Background)
//Storyboard Layer 1 (Fail)
//Storyboard Layer 2 (Pass)
//Storyboard Layer 3 (Foreground)
//Storyboard Layer 4 (Overlay)
//Storyboard Sound Samples

[TimingPoints]
250,645.161290322581,4,1,0,50,1,0
250,-200,4,1,0,50,0,0
9443,-195.121951219512,4,1,0,50,0,0
9524,-192.771084337349,4,1,0,50,0,0
9604,-190.47619047619,4,1,0,55,0,0
9766,-186.046511627907,4,1,0,55,0,0
9927,-181.818181818182,4,1,0,60,0,0
10250,-173.913043478261,4,1,0,65,0,0
10572,-166.666666666667,4,1,0,70,0,0
19766,-163.265306122449,4,1,0,70,0,0
19846,-161.616161616162,4,1,0,70,0,0
19927,-160,4,1,0,75,0,0
20088,-156.862745098039,4,1,0,75,0,0
20250,-153.846153846154,4,1,0,80,0,0
20572,-148.148148148148,4,1,0,85,0,0
20733,-145.454545454545,4,1,0,85,0,0
20895,-142.857142857143,4,1,0,90,0,0
30088,-140.350877192982,4,1,0,90,0,0
30250,-137.931034482759,4,1,0,90,0,0
30411,-135.593220338983,4,1,0,90,0,0
30572,-133.333333333333,4,1,0,90,0,0
30733,-131.147540983607,4,1,0,90,0,0
30814,-130.081300813008,4,1,0,90,0,0
30895,-129.032258064516,4,1,0,90,0,0
31056,-126.984126984127,4,1,0,90,0,0
31217,-125,4,1,0,90,0,0
39685,-123.720115406124,4,1,0,90,0,0
39766,-122.466174842509,4,1,0,90,0,0
39846,-121.237397372543,4,1,0,90,0,0
39927,-120.03317717017,4,1,0,90,0,0
40088,-117.694829077684,4,1,0,90,0,0
40169,-116.559490215414,4,1,0,90,0,0
40250,-115.445846085289,4,1,0,90,0,0
40411,-113.281201324484,4,1,0,90,0,0
40491,-112.229162972457,4,1,0,90,0,0
40572,-111.196361655047,4,1,0,90,0,0
40733,-109.186755209846,4,1,0,90,0,0
40895,-107.248496912316,4,1,0,90,0,0
41056,-105.377853368825,4,1,0,90,0,0
41137,-104.466900185011,4,1,0,90,0,0
41217,-103.571454464292,4,1,0,90,0,0
41379,-101.825839121284,4,1,0,90,0,0
41540,-100.138090426698,4,1,0,90,0,1
42024,-125.215840805588,4,1,0,90,0,1
42185,-119.047619047619,4,1,0,90,0,1
42266,-121.951219512195,4,1,0,90,0,1
42346,-125,4,1,0,90,0,1
42508,-119.047619047619,4,1,0,90,0,1
42588,-121.951219512195,4,1,0,90,0,1
42669,-125,4,1,0,90,0,1
44120,-111.111111111111,4,1,0,90,0,1
44443,-106.382978723404,4,1,0,90,0,1
44524,-108.695652173913,4,1,0,90,0,1
44604,-111.111111111111,4,1,0,90,0,1
46056,-106.382978723404,4,1,0,90,0,1
46137,-108.695652173913,4,1,0,90,0,1
46217,-111.111111111111,4,1,0,90,0,1
46379,-116.279069767442,4,1,0,90,0,1
46540,-121.951219512195,4,1,0,90,0,1
46701,-125,4,1,0,90,0,1
47346,-119.047619047619,4,1,0,90,0,1
47427,-121.951219512195,4,1,0,90,0,1
47508,-125,4,1,0,90,0,1
47669,-119.047619047619,4,1,0,90,0,1
47750,-121.951219512195,4,1,0,90,0,1
47830,-125,4,1,0,90,0,1
49282,-111.111111111111,4,1,0,90,0,1
49604,-106.382978723404,4,1,0,90,0,1
49685,-108.695652173913,4,1,0,90,0,1
49766,-111.111111111111,4,1,0,90,0,1
51217,-106.382978723404,4,1,0,90,0,1
51298,-108.695652173913,4,1,0,90,0,1
51379,-111.111111111111,4,1,0,90,0,1
51540,-116.279069767442,4,1,0,90,0,1
51701,-121.951219512195,4,1,0,90,0,1
51862,-125,4,1,0,90,0,1
52508,-119.047619047619,4,1,0,90,0,1
52588,-121.951219512195,4,1,0,90,0,1
52669,-125,4,1,0,90,0,1
52830,-119.047619047619,4,1,0,90,0,1
52911,-121.951219512195,4,1,0,90,0,1
52991,-125,4,1,0,90,0,1
54443,-111.111111111111,4,1,0,90,0,1
54766,-106.382978723404,4,1,0,90,0,1
54846,-108.695652173913,4,1,0,90,0,1
54927,-111.111111111111,4,1,0,90,0,1
56217,-106.382978723404,4,1,0,90,0,1
56298,-108.695652173913,4,1,0,90,0,1
56379,-111.111111111111,4,1,0,90,0,1
56540,-106.382978723404,4,1,0,90,0,1
56620,-108.695652173913,4,1,0,90,0,1
56701,-111.111111111111,4,1,0,90,0,1
56862,-117.647058823529,4,1,0,90,0,1
57024,-125,4,1,0,90,0,1
57669,-119.047619047619,4,1,0,90,0,1
57750,-121.951219512195,4,1,0,90,0,1
57830,-125,4,1,0,90,0,1
57991,-119.047619047619,4,1,0,90,0,1
58072,-121.951219512195,4,1,0,90,0,1
58153,-125,4,1,0,90,0,1
59604,-111.111111111111,4,1,0,90,0,1
59927,-106.382978723404,4,1,0,90,0,1
60008,-108.695652173913,4,1,0,90,0,1
60088,-111.111111111111,4,1,0,90,0,1
61540,-106.382978723404,4,1,0,90,0,1
61620,-108.695652173913,4,1,0,90,0,1
61701,-111.111111111111,4,1,0,90,0,1
61862,-116.279069767442,4,1,0,90,0,1
62024,-121.951219512195,4,1,0,90,0,1
62185,-125,4,1,0,90,0,0
62830,-200,4,1,0,70,0,0
64766,-166.666666666667,4,1,0,70,0,0
71540,-160,4,1,0,75,0,0
71701,-156.862745098039,4,1,0,75,0,0
71862,-153.846153846154,4,1,0,80,0,0
72024,-150.943396226415,4,1,0,80,0,0
72185,-148.148148148148,4,1,0,85,0,0
72508,-142.857142857143,4,1,0,90,0,0
81701,-140.350877192982,4,1,0,90,0,0
81862,-137.931034482759,4,1,0,90,0,0
82024,-135.593220338983,4,1,0,90,0,0
82185,-133.333333333333,4,1,0,90,0,0
82346,-131.147540983607,4,1,0,90,0,0
82427,-130.081300813008,4,1,0,90,0,0
82508,-129.032258064516,4,1,0,90,0,0
82669,-126.984126984127,4,1,0,90,0,0
82830,-125,4,1,0,90,0,0
91298,-123.720115406124,4,1,0,90,0,0
91379,-122.466174842509,4,1,0,90,0,0
91459,-121.237397372543,4,1,0,90,0,0
91540,-120.03317717017,4,1,0,90,0,0
91701,-117.694829077684,4,1,0,90,0,0
91782,-116.559490215414,4,1,0,90,0,0
91862,-115.445846085289,4,1,0,90,0,0
92024,-113.281201324484,4,1,0,90,0,0
92104,-112.229162972457,4,1,0,90,0,0
92185,-111.196361655047,4,1,0,90,0,0
92346,-109.186755209846,4,1,0,90,0,0
92508,-107.248496912316,4,1,0,90,0,0
92669,-105.377853368825,4,1,0,90,0,0
92750,-104.466900185011,4,1,0,90,0,0
92830,-103.571454464292,4,1,0,90,0,0
92991,-101.825839121284,4,1,0,90,0,0
93153,-100.138090426698,4,1,0,90,0,1
93637,-125.215840805588,4,1,0,90,0,1
93798,-119.047619047619,4,1,0,90,0,1
93879,-121.951219512195,4,1,0,90,0,1
93959,-125.215840805588,4,1,0,90,0,1
94120,-119.047619047619,4,1,0,90,0,1
94201,-121.951219512195,4,1,0,90,0,1
94282,-125.215840805588,4,1,0,90,0,1
95733,-111.281619281098,4,1,0,90,0,1
96056,-106.382978723404,4,1,0,90,0,1
96137,-108.695652173913,4,1,0,90,0,1
96217,-111.281619281098,4,1,0,90,0,1
97669,-106.382978723404,4,1,0,90,0,1
97750,-108.695652173913,4,1,0,90,0,1
97830,-111.281619281098,4,1,0,90,0,1
97991,-116.279069767442,4,1,0,90,0,1
98153,-121.951219512195,4,1,0,90,0,1
98314,-125,4,1,0,90,0,1
98959,-119.047619047619,4,1,0,90,0,1
99040,-121.951219512195,4,1,0,90,0,1
99120,-125,4,1,0,90,0,1
99282,-119.047619047619,4,1,0,90,0,1
99362,-121.951219512195,4,1,0,90,0,1
99443,-125,4,1,0,90,0,1
100895,-111.111111111111,4,1,0,90,0,1
101217,-106.382978723404,4,1,0,90,0,1
101298,-108.695652173913,4,1,0,90,0,1
101379,-111.111111111111,4,1,0,90,0,1
102830,-106.382978723404,4,1,0,90,0,1
102911,-108.695652173913,4,1,0,90,0,1
102991,-111.111111111111,4,1,0,90,0,1
103153,-116.279069767442,4,1,0,90,0,1
103314,-121.951219512195,4,1,0,90,0,1
103475,-125,4,1,0,90,0,1
104120,-119.047619047619,4,1,0,90,0,1
104201,-121.951219512195,4,1,0,90,0,1
104282,-125,4,1,0,90,0,1
104443,-119.047619047619,4,1,0,90,0,1
104524,-121.951219512195,4,1,0,90,0,1
104604,-125,4,1,0,90,0,1
106056,-111.111111111111,4,1,0,90,0,1
106379,-106.382978723404,4,1,0,90,0,1
106459,-108.695652173913,4,1,0,90,0,1
106540,-111.111111111111,4,1,0,90,0,1
107830,-106.382978723404,4,1,0,90,0,1
107911,-108.695652173913,4,1,0,90,0,1
107991,-111.111111111111,4,1,0,90,0,1
108153,-106.382978723404,4,1,0,90,0,1
108233,-108.695652173913,4,1,0,90,0,1
108314,-111.111111111111,4,1,0,90,0,1
108475,-117.647058823529,4,1,0,90,0,1
108637,-125,4,1,0,90,0,1
109282,-119.047619047619,4,1,0,90,0,1
109362,-121.951219512195,4,1,0,90,0,1
109443,-125,4,1,0,90,0,1
109604,-119.047619047619,4,1,0,90,0,1
109685,-121.951219512195,4,1,0,90,0,1
109766,-125,4,1,0,90,0,1
111217,-111.111111111111,4,1,0,90,0,1
111540,-106.382978723404,4,1,0,90,0,1
111620,-108.695652173913,4,1,0,90,0,1
111701,-111.111111111111,4,1,0,90,0,1
112669,-106.382978723404,4,1,0,90,0,1
112750,-108.695652173913,4,1,0,90,0,1
112830,-111.111111111111,4,1,0,90,0,1
113314,-106.382978723404,4,1,0,90,0,1
113395,-108.695652173913,4,1,0,90,0,1
113475,-111.111111111111,4,1,0,90,0,1
113637,-117.647058823529,4,1,0,90,0,1
113798,-125,4,1,0,90,0,0
114040,-166.666666666667,4,1,0,70,0,0
124120,-142.857142857143,4,1,0,70,0,0
133314,-140.350877192982,4,1,0,70,0,0
133395,-139.130434782609,4,1,0,70,0,0
133475,-137.931034482759,4,1,0,70,0,0
133637,-135.593220338983,4,1,0,70,0,0
133798,-133.333333333333,4,1,0,70,0,0
133959,-131.147540983607,4,1,0,70,0,0
134120,-129.032258064516,4,1,0,70,0,0
134443,-166.666666666667,4,1,0,70,0,0

[HitObjects]
193,263,250,5,0,0:0:0:0:
194,244,733,1,8,0:0:0:0:
215,195,1540,1,0,0:0:0:0:
215,195,2024,1,8,0:0:0:0:
205,190,2830,1,0,0:0:0:0:
205,190,3314,1,8,0:0:0:0:
205,190,4120,1,0,0:0:0:0:
156,134,4443,1,0,0:0:0:0:
205,190,4604,1,8,0:0:0:0:
114,154,5088,1,0,0:0:0:0:
182,156,5411,1,0,0:0:0:0:
215,203,5895,1,8,0:0:0:0:
246,150,6701,1,0,0:0:0:0:
246,150,7185,1,8,0:0:0:0:
207,146,7991,1,0,0:0:0:0:
207,146,8475,1,8,0:0:0:0:
201,138,9282,1,0,0:0:0:0:
187,156,9443,1,0,0:0:0:0:
175,170,9524,1,0,0:0:0:0:
124,157,9604,1,0,0:0:0:0:
153,162,9766,1,8,0:0:0:0:
176,139,9927,1,0,0:0:0:0:
211,184,10250,1,8,0:0:0:0:
211,184,10572,1,0,0:0:0:0:
273,206,11056,1,8,0:0:0:0:
214,150,11540,1,0,0:0:0:0:
273,206,11862,1,0,0:0:0:0:
159,158,12185,1,8,0:0:0:0:
159,158,12346,1,0,0:0:0:0:
169,191,12830,1,8,0:0:0:0:
197,214,12991,1,8,0:0:0:0:
169,191,13153,1,0,0:0:0:0:
225,167,13637,1,8,0:0:0:0:
227,148,14120,1,8,0:0:0:0:
220,177,14443,1,0,0:0:0:0:
196,164,14927,1,8,0:0:0:0:
215,163,15411,1,8,0:0:0:0:
224,97,15572,1,0,0:0:0:0:
224,97,15733,1,0,0:0:0:0:
145,159,16217,1,8,0:0:0:0:
145,159,16701,1,0,0:0:0:0:
145,159,17024,1,0,0:0:0:0:
168,184,17346,1,0,0:0:0:0:
145,159,17508,1,8,0:0:0:0:
184,190,17991,1,0,0:0:0:0:
198,187,18314,1,0,0:0:0:0:
242,135,18798,1,8,0:0:0:0:
226,139,19282,1,0,0:0:0:0:
182,151,19604,1,8,0:0:0:0:
160,126,19766,1,0,0:0:0:0:
152,190,19846,1,0,0:0:0:0:
147,97,19927,1,0,0:0:0:0:
207,128,20088,1,8,0:0:0:0:
228,121,20250,1,0,0:0:0:0:
161,142,20572,1,8,0:0:0:0:
187,176,20733,1,8,0:0:0:0:
210,78,20895,1,0,0:0:0:0:
134,110,21379,1,8,0:0:0:0:
166,103,21540,1,0,0:0:0:0:
218,121,21862,1,8,0:0:0:0:
218,121,22185,1,0,0:0:0:0:
160,167,22508,1,0,0:0:0:0:
159,142,22669,1,8,0:0:0:0:
165,99,22830,1,0,0:0:0:0:
236,176,23153,1,8,0:0:0:0:
208,154,23475,1,0,0:0:0:0:
203,193,23959,1,8,0:0:0:0:
203,193,24120,1,0,0:0:0:0:
187,135,24443,1,8,0:0:0:0:
123,123,24766,1,0,0:0:0:0:
144,186,25088,1,0,0:0:0:0:
160,172,25250,1,8,0:0:0:0:
166,153,25411,1,0,0:0:0:0:
125,67,25572,1,0,0:0:0:0:
201,139,25733,1,8,0:0:0:0:
216,152,26056,1,0,0:0:0:0:
221,157,26540,1,8,0:0:0:0:
221,157,26701,1,0,0:0:0:0:
182,134,27024,1,8,0:0:0:0:
247,148,27346,1,0,0:0:0:0:
193,149,27669,1,0,0:0:0:0:
169,174,27830,1,8,0:0:0:0:
176,161,27991,1,0,0:0:0:0:
166,108,28314,1,8,0:0:0:0:
253,126,28637,1,0,0:0:0:0:
203,179,29120,1,8,0:0:0:0:
236,177,29282,1,0,0:0:0:0:
145,120,29604,1,8,0:0:0:0:
180,138,29766,1,8,0:0:0:0:
108,189,29927,1,0,0:0:0:0:
191,172,30088,1,8,0:0:0:0:
248,165,30250,1,0,0:0:0:0:
298,156,30411,1,8,0:0:0:0:
307,138,30572,1,0,0:0:0:0:
89,95,30733,1,0,0:0:0:0:
203,87,30814,1,0,0:0:0:0:
203,98,30895,1,0,0:0:0:0:
228,182,31056,1,8,0:0:0:0:
229,152,31217,1,8,0:0:0:0:
56,119,31701,1,8,0:0:0:0:
160,144,31862,1,0,0:0:0:0:
196,201,32185,1,8,0:0:0:0:
231,166,32508,1,0,0:0:0:0:
162,57,32830,1,8,0:0:0:0:
121,136,32991,1,8,0:0:0:0:
190,135,33153,1,0,0:0:0:0:
174,198,33475,1,0,0:0:0:0:
197,162,33637,1,8,0:0:0:0:
206,156,33798,1,0,0:0:0:0:
184,145,34282,1,8,0:0:0:0:
174,198,34443,1,0,0:0:0:0:
180,205,34766,1,8,0:0:0:0:
181,201,35088,1,0,0:0:0:0:
130,135,35572,1,8,0:0:0:0:
146,131,35733,1,0,0:0:0:0:
200,159,35895,1,0,0:0:0:0:
200,159,36056,1,8,0:0:0:0:
255,156,36379,1,0,0:0:0:0:
125,133,36862,1,8,0:0:0:0:
225,175,37024,1,0,0:0:0:0:
226,203,37346,1,8,0:0:0:0:
225,205,37669,1,0,0:0:0:0:
177,187,37991,1,0,0:0:0:0:
177,187,38153,1,8,0:0:0:0:
177,187,38314,1,0,0:0:0:0:
240,153,38637,1,8,0:0:0:0:
240,153,38959,1,0,0:0:0:0:
99,151,39443,1,8,0:0:0:0:
189,175,39604,1,8,0:0:0:0:
223,111,39685,1,8,0:0:0:0:
125,139,39766,1,8,0:0:0:0:
184,157,39846,1,8,0:0:0:0:
192,157,39927,1,8,0:0:0:0:
181,158,40088,1,8,0:0:0:0:
359,157,40169,1,8,0:0:0:0:
189,150,40250,1,0,0:0:0:0:
128,177,40411,1,0,0:0:0:0:
139,172,40491,1,0,0:0:0:0:
146,170,40572,1,0,0:0:0:0:
148,170,40733,1,8,0:0:0:0:
271,170,40895,1,0,0:0:0:0:
191,202,41056,1,0,0:0:0:0:
200,184,41137,1,0,0:0:0:0:
198,169,41217,1,8,0:0:0:0:
201,167,41379,1,8,0:0:0:0:
0,0,41540,1,4,0:0:0:0:
176,94,42024,1,8,0:0:0:0:
263,134,42185,1,0,0:0:0:0:
129,177,42266,1,0,0:0:0:0:
151,171,42346,1,0,0:0:0:0:
184,166,42508,1,8,0:0:0:0:
197,170,42588,1,0,0:0:0:0:
183,164,42669,1,0,0:0:0:0:
216,182,42830,1,0,0:0:0:0:
216,182,43153,1,0,0:0:0:0:
232,170,43314,1,8,0:0:0:0:
236,184,43475,1,0,0:0:0:0:
231,197,43798,1,8,0:0:0:0:
252,225,44120,1,8,0:0:0:0:
127,118,44443,1,8,0:0:0:0:
180,158,44524,1,0,0:0:0:0:
221,155,44604,1,0,0:0:0:0:
179,133,44766,1,8,0:0:0:0:
202,138,45088,1,8,0:0:0:0:
143,137,45411,1,0,0:0:0:0:
181,160,45733,1,0,0:0:0:0:
219,144,45895,1,8,0:0:0:0:
183,100,46056,1,0,0:0:0:0:
134,154,46137,1,8,0:0:0:0:
151,147,46217,1,8,0:0:0:0:
166,137,46379,1,0,0:0:0:0:
200,105,46540,1,8,0:0:0:0:
225,151,46701,1,0,0:0:0:0:
219,216,47185,1,8,0:0:0:0:
241,182,47346,1,0,0:0:0:0:
162,191,47427,1,0,0:0:0:0:
159,176,47508,1,0,0:0:0:0:
182,115,47669,1,8,0:0:0:0:
174,88,47750,1,8,0:0:0:0:
179,88,47830,1,8,0:0:0:0:
222,142,47991,1,0,0:0:0:0:
222,142,48314,1,0,0:0:0:0:
216,152,48475,1,8,0:0:0:0:
222,142,48637,1,0,0:0:0:0:
240,165,48959,1,8,0:0:0:0:
286,189,49282,1,8,0:0:0:0:
227,106,49604,1,8,0:0:0:0:
189,132,49685,1,8,0:0:0:0:
189,132,49766,1,0,0:0:0:0:
207,155,49927,1,8,0:0:0:0:
240,120,50250,1,8,0:0:0:0:
240,121,50572,1,0,0:0:0:0:
55,104,50895,1,0,0:0:0:0:
220,162,51056,1,8,0:0:0:0:
216,124,51217,1,0,0:0:0:0:
144,129,51298,1,0,0:0:0:0:
156,118,51379,1,8,0:0:0:0:
236,169,51540,1,0,0:0:0:0:
233,153,51701,1,8,0:0:0:0:
257,188,51862,1,0,0:0:0:0:
205,178,52346,1,8,0:0:0:0:
204,176,52508,1,0,0:0:0:0:
56,127,52588,1,0,0:0:0:0:
143,105,52669,1,0,0:0:0:0:
186,98,52830,1,8,0:0:0:0:
209,102,52911,1,0,0:0:0:0:
217,95,52991,1,0,0:0:0:0:
278,137,53153,1,0,0:0:0:0:
278,137,53475,1,0,0:0:0:0:
232,173,53637,1,8,0:0:0:0:
278,137,53798,1,0,0:0:0:0:
286,174,54120,1,8,0:0:0:0:
259,206,54443,1,8,0:0:0:0:
194,114,54766,1,8,0:0:0:0:
158,103,54846,1,8,0:0:0:0:
163,102,54927,1,0,0:0:0:0:
208,162,55088,1,8,0:0:0:0:
203,160,55411,1,8,0:0:0:0:
228,157,55733,1,0,0:0:0:0:
227,126,55895,1,8,0:0:0:0:
228,157,56056,1,0,0:0:0:0:
156,110,56217,1,8,0:0:0:0:
153,102,56298,1,8,0:0:0:0:
148,97,56379,1,0,0:0:0:0:
187,125,56540,1,0,0:0:0:0:
360,182,56620,1,0,0:0:0:0:
188,122,56701,1,0,0:0:0:0:
193,122,56862,1,8,0:0:0:0:
194,116,57024,1,0,0:0:0:0:
245,197,57508,1,8,0:0:0:0:
245,197,57669,1,0,0:0:0:0:
199,144,57750,1,0,0:0:0:0:
192,113,57830,1,0,0:0:0:0:
201,41,57991,1,8,0:0:0:0:
240,54,58072,1,8,0:0:0:0:
255,57,58153,1,8,0:0:0:0:
287,167,58314,1,0,0:0:0:0:
287,167,58637,1,0,0:0:0:0:
287,167,58798,1,8,0:0:0:0:
287,167,58959,1,0,0:0:0:0:
201,147,59282,1,8,0:0:0:0:
98,162,59604,1,8,0:0:0:0:
165,195,59927,1,8,0:0:0:0:
240,118,60008,1,0,0:0:0:0:
234,102,60088,1,0,0:0:0:0:
236,102,60250,1,8,0:0:0:0:
260,127,60572,1,8,0:0:0:0:
259,130,60895,1,0,0:0:0:0:
255,132,61217,1,0,0:0:0:0:
227,205,61379,1,8,0:0:0:0:
207,182,61540,1,0,0:0:0:0:
161,121,61620,1,0,0:0:0:0:
153,113,61701,1,8,0:0:0:0:
215,162,61862,1,8,0:0:0:0:
219,142,62024,1,0,0:0:0:0:
212,117,62185,1,0,0:0:0:0:
312,152,63475,1,0,0:0:0:0:
287,162,64766,1,0,0:0:0:0:
225,158,65250,1,8,0:0:0:0:
213,167,65733,1,0,0:0:0:0:
186,149,66056,1,0,0:0:0:0:
256,179,66540,1,8,0:0:0:0:
249,183,67024,1,8,0:0:0:0:
256,179,67346,1,0,0:0:0:0:
208,145,67830,1,8,0:0:0:0:
208,145,68314,1,0,0:0:0:0:
215,152,68637,1,0,0:0:0:0:
216,163,69120,1,8,0:0:0:0:
218,162,69604,1,0,0:0:0:0:
179,159,69927,1,0,0:0:0:0:
211,198,70411,1,8,0:0:0:0:
211,198,70895,1,0,0:0:0:0:
204,178,71217,1,0,0:0:0:0:
141,111,71540,1,0,0:0:0:0:
161,102,71701,1,8,0:0:0:0:
168,100,71862,1,0,0:0:0:0:
226,133,72024,1,0,0:0:0:0:
226,133,72185,1,8,0:0:0:0:
253,199,72508,1,0,0:0:0:0:
261,182,72991,1,8,0:0:0:0:
242,139,73153,1,0,0:0:0:0:
262,180,73475,1,8,0:0:0:0:
246,176,73798,1,0,0:0:0:0:
178,179,74120,1,0,0:0:0:0:
183,164,74282,1,8,0:0:0:0:
185,154,74443,1,0,0:0:0:0:
188,149,74766,1,8,0:0:0:0:
188,144,75088,1,0,0:0:0:0:
237,196,75572,1,8,0:0:0:0:
237,196,75733,1,0,0:0:0:0:
204,159,76056,1,8,0:0:0:0:
225,168,76379,1,0,0:0:0:0:
215,156,76862,1,8,0:0:0:0:
131,126,77024,1,0,0:0:0:0:
132,108,77185,1,0,0:0:0:0:
136,102,77346,1,8,0:0:0:0:
252,135,77669,1,0,0:0:0:0:
255,162,78153,1,8,0:0:0:0:
251,185,78314,1,0,0:0:0:0:
194,132,78637,1,8,0:0:0:0:
279,165,78959,1,0,0:0:0:0:
209,209,79282,1,0,0:0:0:0:
197,176,79443,1,8,0:0:0:0:
186,163,79604,1,0,0:0:0:0:
216,173,79927,1,8,0:0:0:0:
184,108,80088,1,8,0:0:0:0:
198,119,80250,1,0,0:0:0:0:
250,159,80733,1,8,0:0:0:0:
250,162,80895,1,0,0:0:0:0:
288,183,81217,1,8,0:0:0:0:
281,187,81540,1,0,0:0:0:0:
142,120,81701,1,8,0:0:0:0:
211,117,81862,1,8,0:0:0:0:
235,125,82024,1,0,0:0:0:0:
203,165,82185,1,8,0:0:0:0:
179,135,82346,1,0,0:0:0:0:
193,86,82427,1,0,0:0:0:0:
177,108,82508,1,0,0:0:0:0:
264,171,82669,1,8,0:0:0:0:
279,174,82830,1,0,0:0:0:0:
239,187,83314,1,8,0:0:0:0:
240,188,83475,1,0,0:0:0:0:
254,168,83798,1,8,0:0:0:0:
253,168,84120,1,0,0:0:0:0:
194,130,84443,1,8,0:0:0:0:
194,130,84604,1,8,0:0:0:0:
194,130,84766,1,0,0:0:0:0:
206,140,85088,1,0,0:0:0:0:
221,104,85411,1,8,0:0:0:0:
271,142,85895,1,8,0:0:0:0:
271,142,86056,1,0,0:0:0:0:
276,138,86379,1,8,0:0:0:0:
276,138,86701,1,0,0:0:0:0:
168,115,87185,1,8,0:0:0:0:
175,100,87346,1,0,0:0:0:0:
101,145,87508,1,0,0:0:0:0:
161,133,87669,1,8,0:0:0:0:
252,186,87991,1,0,0:0:0:0:
204,207,88475,1,8,0:0:0:0:
204,207,88637,1,0,0:0:0:0:
222,136,88959,1,8,0:0:0:0:
222,136,89282,1,0,0:0:0:0:
222,136,89604,1,0,0:0:0:0:
218,142,89766,1,8,0:0:0:0:
217,145,89927,1,0,0:0:0:0:
222,136,90250,1,8,0:0:0:0:
246,162,90572,1,0,0:0:0:0:
222,136,91056,1,8,0:0:0:0:
113,138,91217,1,8,0:0:0:0:
154,125,91298,1,8,0:0:0:0:
211,132,91379,1,8,0:0:0:0:
212,148,91459,1,8,0:0:0:0:
209,139,91540,1,8,0:0:0:0:
216,187,91701,1,8,0:0:0:0:
201,170,91782,1,8,0:0:0:0:
168,143,91862,1,0,0:0:0:0:
59,165,92024,1,0,0:0:0:0:
124,167,92104,1,0,0:0:0:0:
142,168,92185,1,8,0:0:0:0:
155,165,92346,1,0,0:0:0:0:
226,196,92508,1,8,0:0:0:0:
186,117,92669,1,8,0:0:0:0:
192,163,92750,1,8,0:0:0:0:
195,96,92830,1,0,0:0:0:0:
316,179,92991,1,8,0:0:0:0:
0,0,93153,1,4,0:0:0:0:
221,183,93637,1,8,0:0:0:0:
212,110,93798,1,0,0:0:0:0:
149,85,93879,1,0,0:0:0:0:
141,79,93959,1,0,0:0:0:0:
167,84,94120,1,8,0:0:0:0:
184,98,94201,1,0,0:0:0:0:
176,89,94282,1,0,0:0:0:0:
255,160,94443,1,0,0:0:0:0:
255,160,94766,1,0,0:0:0:0:
195,166,94927,1,8,0:0:0:0:
255,160,95088,1,0,0:0:0:0:
251,252,95411,1,8,0:0:0:0:
251,252,95733,1,8,0:0:0:0:
145,199,96056,1,8,0:0:0:0:
136,135,96137,1,8,0:0:0:0:
148,132,96217,1,0,0:0:0:0:
24,200,96379,1,8,0:0:0:0:
175,198,96701,1,8,0:0:0:0:
198,237,97024,1,0,0:0:0:0:
185,200,97346,1,0,0:0:0:0:
176,157,97508,1,8,0:0:0:0:
170,142,97669,1,0,0:0:0:0:
264,162,97750,1,8,0:0:0:0:
258,187,97830,1,8,0:0:0:0:
263,149,97991,1,8,0:0:0:0:
118,126,98153,1,0,0:0:0:0:
224,131,98314,1,0,0:0:0:0:
218,161,98798,1,8,0:0:0:0:
206,198,98959,1,0,0:0:0:0:
118,126,99040,1,0,0:0:0:0:
118,126,99120,1,0,0:0:0:0:
129,120,99282,1,8,0:0:0:0:
168,120,99362,1,8,0:0:0:0:
168,120,99443,1,8,0:0:0:0:
181,181,99604,1,0,0:0:0:0:
179,183,99927,1,0,0:0:0:0:
181,181,100088,1,8,0:0:0:0:
181,181,100250,1,0,0:0:0:0:
219,157,100572,1,8,0:0:0:0:
246,170,100895,1,8,0:0:0:0:
137,132,101217,1,8,0:0:0:0:
137,132,101298,1,0,0:0:0:0:
143,119,101379,1,0,0:0:0:0:
215,136,101540,1,8,0:0:0:0:
215,136,101862,1,8,0:0:0:0:
215,136,102185,1,0,0:0:0:0:
215,136,102508,1,0,0:0:0:0:
259,169,102669,1,8,0:0:0:0:
259,169,102830,1,8,0:0:0:0:
170,140,102911,1,8,0:0:0:0:
148,113,102991,1,0,0:0:0:0:
201,144,103153,1,0,0:0:0:0:
288,123,103314,1,8,0:0:0:0:
286,91,103475,1,0,0:0:0:0:
216,106,103959,1,8,0:0:0:0:
225,114,104120,1,0,0:0:0:0:
216,106,104201,1,0,0:0:0:0:
223,117,104282,1,0,0:0:0:0:
220,122,104443,1,8,0:0:0:0:
218,122,104524,1,0,0:0:0:0:
216,121,104604,1,0,0:0:0:0:
216,119,104766,1,0,0:0:0:0:
216,115,105088,1,0,0:0:0:0:
223,117,105250,1,8,0:0:0:0:
225,106,105411,1,0,0:0:0:0:
221,107,105733,1,8,0:0:0:0:
221,107,106056,1,8,0:0:0:0:
163,133,106379,1,8,0:0:0:0:
197,141,106459,1,8,0:0:0:0:
208,139,106540,1,0,0:0:0:0:
208,178,106701,1,8,0:0:0:0:
208,178,107024,1,8,0:0:0:0:
200,176,107346,1,0,0:0:0:0:
188,125,107508,1,8,0:0:0:0:
259,117,107669,1,0,0:0:0:0:
274,172,107830,1,8,0:0:0:0:
127,96,107911,1,8,0:0:0:0:
269,134,107991,1,0,0:0:0:0:
148,151,108153,1,0,0:0:0:0:
251,108,108233,1,0,0:0:0:0:
146,160,108314,1,0,0:0:0:0:
216,177,108475,1,8,0:0:0:0:
239,168,108637,1,0,0:0:0:0:
225,166,109120,1,8,0:0:0:0:
261,154,109282,1,0,0:0:0:0:
259,154,109362,1,0,0:0:0:0:
258,152,109443,1,0,0:0:0:0:
256,151,109604,1,8,0:0:0:0:
255,151,109685,1,8,0:0:0:0:
257,150,109766,1,8,0:0:0:0:
176,139,109927,1,0,0:0:0:0:
176,139,110250,1,0,0:0:0:0:
176,139,110411,1,8,0:0:0:0:
176,139,110572,1,0,0:0:0:0:
233,194,110895,1,8,0:0:0:0:
224,187,111217,1,8,0:0:0:0:
116,106,111540,1,8,0:0:0:0:
141,98,111620,1,0,0:0:0:0:
134,89,111701,1,0,0:0:0:0:
234,113,111862,1,8,0:0:0:0:
234,113,112185,1,8,0:0:0:0:
212,176,112508,1,0,0:0:0:0:
208,146,112669,1,8,0:0:0:0:
180,150,112750,1,8,0:0:0:0:
162,103,112830,1,8,0:0:0:0:
143,167,112991,1,0,0:0:0:0:
292,206,113153,1,8,0:0:0:0:
210,207,113314,1,8,0:0:0:0:
218,192,113395,1,8,0:0:0:0:
212,176,113475,1,0,0:0:0:0:
258,117,113637,1,8,0:0:0:0:
240,92,113798,1,0,0:0:0:0:
229,225,114282,1,8,0:0:0:0:
230,210,114766,1,0,0:0:0:0:
227,211,115088,1,0,0:0:0:0:
215,189,115572,1,8,0:0:0:0:
215,189,116056,1,0,0:0:0:0:
215,189,116379,1,0,0:0:0:0:
196,167,116862,1,8,0:0:0:0:
243,159,117346,1,0,0:0:0:0:
243,159,117669,1,0,0:0:0:0:
231,167,117991,1,0,0:0:0:0:
226,166,118153,1,8,0:0:0:0:
240,185,118314,1,0,0:0:0:0:
269,172,118637,1,8,0:0:0:0:
247,185,118959,1,0,0:0:0:0:
225,178,119443,1,8,0:0:0:0:
227,150,119927,1,0,0:0:0:0:
224,150,120250,1,0,0:0:0:0:
181,171,120572,1,0,0:0:0:0:
182,163,120733,1,8,0:0:0:0:
224,150,121217,1,0,0:0:0:0:
224,150,121540,1,0,0:0:0:0:
224,150,122024,1,8,0:0:0:0:
237,157,122508,1,0,0:0:0:0:
231,152,122830,1,8,0:0:0:0:
139,148,123153,1,0,0:0:0:0:
124,124,123314,1,8,0:0:0:0:
274,131,123798,1,0,0:0:0:0:
274,131,124120,1,0,0:0:0:0:
226,157,124604,1,8,0:0:0:0:
178,123,124766,1,0,0:0:0:0:
255,122,125088,1,8,0:0:0:0:
255,122,125411,1,0,0:0:0:0:
187,175,125733,1,0,0:0:0:0:
188,163,125895,1,8,0:0:0:0:
191,157,126056,1,0,0:0:0:0:
209,148,126379,1,8,0:0:0:0:
211,149,126701,1,0,0:0:0:0:
213,154,127185,1,8,0:0:0:0:
213,156,127346,1,0,0:0:0:0:
217,152,127669,1,8,0:0:0:0:
213,154,127991,1,0,0:0:0:0:
262,135,128475,1,8,0:0:0:0:
262,135,128637,1,0,0:0:0:0:
262,135,128798,1,0,0:0:0:0:
266,139,128959,1,8,0:0:0:0:
269,137,129282,1,0,0:0:0:0:
269,142,129766,1,8,0:0:0:0:
266,139,129927,1,0,0:0:0:0:
235,172,130250,1,8,0:0:0:0:
235,172,130572,1,0,0:0:0:0:
180,136,130895,1,0,0:0:0:0:
176,126,131056,1,8,0:0:0:0:
171,115,131217,1,0,0:0:0:0:
190,116,131540,1,8,0:0:0:0:
243,108,131701,1,8,0:0:0:0:
246,149,131862,1,0,0:0:0:0:
235,113,132346,1,8,0:0:0:0:
235,114,132508,1,0,0:0:0:0:
227,96,132830,1,8,0:0:0:0:
227,96,133153,1,0,0:0:0:0:
211,159,133314,1,0,0:0:0:0:
357,151,133395,1,0,0:0:0:0:
158,121,133475,1,0,0:0:0:0:
186,125,133637,1,8,0:0:0:0:
184,126,133798,1,0,0:0:0:0:
91,152,133959,1,0,0:0:0:0:
175,145,134120,1,8,0:0:0:0:
