osu file format v14

[General]
AudioFilename: audio.mp3
AudioLeadIn: 0
PreviewTime: 40728
Countdown: 0
SampleSet: Normal
StackLeniency: 0.7
Mode: 1
LetterboxInBreaks: 0
WidescreenStoryboard: 1

[Editor]
Bookmarks: 10567,41535,62180,93148,113793,134438
DistanceSpacing: 0.2
BeatDivisor: 4
GridSize: 16
TimelineZoom: 0.8999992

[Metadata]
Title:love nwantiti (ah ah ah)
TitleUnicode:love nwantiti (ah ah ah)
Artist:CKay
ArtistUnicode:CKay
Creator:0gg
Version:futsuu
Source:
Tags:english pop igbo afrobeats afrobeat the first joeboy kuami eugene kwami marfo joseph akinwale akinfenwa-donus akinfenwa donus chukwuka ekweani -jordan- jory ogg nwantinti nigeria nigerian ghana ghanaian pidgin
BeatmapID:3591664
BeatmapSetID:1613238

[Difficulty]
HPDrainRate:8
CircleSize:5.4
OverallDifficulty:4
ApproachRate:5.5
SliderMultiplier:2.8
SliderTickRate:1

[Events]
//Background and Video events
0,0,"bg.jpg",0,-60
//Break Periods
//Storyboard Layer 0 (Background)
//Storyboard Layer 1 (Fail)
//Storyboard Layer 2 (Pass)
//Storyboard Layer 3 (Foreground)
//Storyboard Layer 4 (Overlay)
//Storyboard Sound Samples

[TimingPoints]
250,645.161290322581,4,1,0,50,1,0
250,-125,4,1,0,50,0,0
10411,-125,4,1,0,70,0,0
20733,-125,4,1,0,90,0,0
41540,-125,4,1,0,90,0,1
62185,-125,4,1,0,90,0,0
62830,-125,4,1,0,70,0,0
72346,-125,4,1,0,90,0,0
93153,-125,4,1,0,90,0,1
113798,-125,4,1,0,90,0,0
114040,-125,4,1,0,70,0,0

[HitObjects]
174,172,250,5,0,0:0:0:0:
244,231,1540,1,0,0:0:0:0:
170,117,2830,1,8,0:0:0:0:
170,117,4120,1,8,0:0:0:0:
277,165,5411,1,0,0:0:0:0:
226,101,6701,1,0,0:0:0:0:
210,146,7991,1,8,0:0:0:0:
212,119,9282,1,0,0:0:0:0:
212,119,9766,1,8,0:0:0:0:
212,119,9927,1,0,0:0:0:0:
212,119,10250,1,8,0:0:0:0:
249,123,10572,1,0,0:0:0:0:
199,127,11217,1,8,0:0:0:0:
243,77,11540,1,8,0:0:0:0:
239,78,11862,1,0,0:0:0:0:
267,103,12185,1,8,0:0:0:0:
247,58,12346,1,0,0:0:0:0:
247,58,12830,1,0,0:0:0:0:
205,74,13153,1,8,0:0:0:0:
223,91,13798,1,8,0:0:0:0:
214,73,14120,1,0,0:0:0:0:
213,76,14282,1,8,0:0:0:0:
226,64,14443,1,0,0:0:0:0:
225,65,14766,1,0,0:0:0:0:
230,70,15088,1,8,0:0:0:0:
229,72,15411,1,8,0:0:0:0:
211,93,15733,1,0,0:0:0:0:
255,65,16217,1,8,0:0:0:0:
256,79,16379,1,0,0:0:0:0:
256,79,16701,1,8,0:0:0:0:
256,79,17024,1,0,0:0:0:0:
256,79,17346,1,0,0:0:0:0:
285,70,17508,1,8,0:0:0:0:
253,62,17991,1,0,0:0:0:0:
254,67,18314,1,8,0:0:0:0:
272,96,18959,1,8,0:0:0:0:
272,96,19282,1,8,0:0:0:0:
272,96,19604,1,0,0:0:0:0:
272,96,19927,1,0,0:0:0:0:
154,114,20088,1,8,0:0:0:0:
154,114,20250,1,8,0:0:0:0:
249,61,20572,1,8,0:0:0:0:
247,50,20733,1,8,0:0:0:0:
247,50,20895,1,0,0:0:0:0:
254,79,21379,1,8,0:0:0:0:
253,80,21540,1,0,0:0:0:0:
250,83,21862,1,8,0:0:0:0:
254,79,22185,1,0,0:0:0:0:
244,52,22830,1,8,0:0:0:0:
244,52,23475,1,0,0:0:0:0:
256,68,23637,1,8,0:0:0:0:
256,68,23959,1,8,0:0:0:0:
251,59,24443,1,8,0:0:0:0:
228,107,24766,1,0,0:0:0:0:
228,107,25088,1,0,0:0:0:0:
228,107,25411,1,8,0:0:0:0:
211,90,25572,1,0,0:0:0:0:
211,90,25733,1,8,0:0:0:0:
213,90,26056,1,0,0:0:0:0:
269,136,26540,1,8,0:0:0:0:
269,136,27024,1,8,0:0:0:0:
267,93,27346,1,0,0:0:0:0:
231,104,27991,1,8,0:0:0:0:
242,98,28637,1,0,0:0:0:0:
222,53,28798,1,0,0:0:0:0:
260,81,29120,1,8,0:0:0:0:
231,80,29604,1,0,0:0:0:0:
230,80,29927,1,8,0:0:0:0:
272,114,30250,1,0,0:0:0:0:
272,114,30411,1,8,0:0:0:0:
183,113,30572,1,8,0:0:0:0:
245,103,30733,1,0,0:0:0:0:
245,104,30895,1,8,0:0:0:0:
245,104,31217,1,8,0:0:0:0:
240,109,31862,1,0,0:0:0:0:
265,62,32024,1,8,0:0:0:0:
240,109,32185,1,0,0:0:0:0:
240,109,32508,1,0,0:0:0:0:
280,91,32669,1,8,0:0:0:0:
247,69,32830,1,8,0:0:0:0:
247,69,33153,1,0,0:0:0:0:
247,69,33475,1,0,0:0:0:0:
247,69,33798,1,8,0:0:0:0:
223,79,34443,1,8,0:0:0:0:
222,83,34766,1,0,0:0:0:0:
223,79,35088,1,0,0:0:0:0:
223,79,35411,1,8,0:0:0:0:
222,83,35733,1,0,0:0:0:0:
223,79,36056,1,8,0:0:0:0:
223,79,36379,1,8,0:0:0:0:
254,73,36540,1,0,0:0:0:0:
282,83,37024,1,8,0:0:0:0:
228,84,37185,1,8,0:0:0:0:
279,85,37346,1,8,0:0:0:0:
246,105,37669,1,0,0:0:0:0:
199,98,37991,1,0,0:0:0:0:
199,98,38314,1,0,0:0:0:0:
320,100,38959,1,0,0:0:0:0:
303,111,39282,1,8,0:0:0:0:
253,97,39443,1,8,0:0:0:0:
190,134,39604,1,0,0:0:0:0:
198,133,39927,1,8,0:0:0:0:
198,133,40250,1,0,0:0:0:0:
246,103,40572,1,0,0:0:0:0:
270,64,40733,1,8,0:0:0:0:
258,93,40895,1,8,0:0:0:0:
249,70,41056,1,0,0:0:0:0:
200,40,41217,1,8,0:0:0:0:
0,0,41540,1,4,0:0:0:0:
228,104,42185,1,8,0:0:0:0:
228,104,42508,1,8,0:0:0:0:
228,104,42830,1,0,0:0:0:0:
228,104,43153,1,0,0:0:0:0:
228,104,43475,1,0,0:0:0:0:
228,104,44120,1,0,0:0:0:0:
228,104,44443,1,8,0:0:0:0:
254,97,44604,1,0,0:0:0:0:
250,100,44766,1,8,0:0:0:0:
249,102,45088,1,8,0:0:0:0:
248,103,45411,1,8,0:0:0:0:
250,100,45733,1,0,0:0:0:0:
249,102,46056,1,8,0:0:0:0:
242,74,46217,1,8,0:0:0:0:
242,78,46379,1,0,0:0:0:0:
247,80,46540,1,8,0:0:0:0:
247,80,46701,1,0,0:0:0:0:
267,103,47346,1,8,0:0:0:0:
267,103,47669,1,8,0:0:0:0:
267,103,47991,1,0,0:0:0:0:
267,103,48314,1,8,0:0:0:0:
267,103,48637,1,0,0:0:0:0:
248,99,49282,1,0,0:0:0:0:
248,99,49604,1,8,0:0:0:0:
248,82,49766,1,8,0:0:0:0:
247,84,49927,1,0,0:0:0:0:
247,84,50250,1,8,0:0:0:0:
247,84,50572,1,8,0:0:0:0:
247,84,50895,1,0,0:0:0:0:
247,84,51217,1,8,0:0:0:0:
247,84,51379,1,8,0:0:0:0:
247,84,51540,1,8,0:0:0:0:
247,84,51701,1,0,0:0:0:0:
247,84,51862,1,0,0:0:0:0:
211,114,52508,1,8,0:0:0:0:
211,114,52830,1,0,0:0:0:0:
211,114,53153,1,8,0:0:0:0:
211,114,53475,1,8,0:0:0:0:
211,114,53798,1,0,0:0:0:0:
198,104,54443,1,0,0:0:0:0:
212,88,54766,1,8,0:0:0:0:
210,84,54927,1,0,0:0:0:0:
210,84,55088,1,8,0:0:0:0:
208,77,55411,1,8,0:0:0:0:
212,76,55733,1,8,0:0:0:0:
212,76,55895,1,0,0:0:0:0:
212,76,56056,1,0,0:0:0:0:
208,77,56379,1,8,0:0:0:0:
212,76,56540,1,8,0:0:0:0:
212,76,56701,1,0,0:0:0:0:
212,76,56862,1,0,0:0:0:0:
212,76,57024,1,0,0:0:0:0:
251,85,57669,1,8,0:0:0:0:
251,85,57991,1,8,0:0:0:0:
251,85,58314,1,0,0:0:0:0:
247,93,58637,1,0,0:0:0:0:
247,93,58959,1,0,0:0:0:0:
238,98,59604,1,0,0:0:0:0:
237,86,59927,1,8,0:0:0:0:
237,86,60088,1,8,0:0:0:0:
237,86,60250,1,8,0:0:0:0:
232,86,60572,1,0,0:0:0:0:
237,86,60895,1,8,0:0:0:0:
244,89,61217,1,0,0:0:0:0:
245,92,61379,1,8,0:0:0:0:
245,92,61540,1,8,0:0:0:0:
255,87,61701,1,0,0:0:0:0:
253,88,61862,1,8,0:0:0:0:
296,102,63475,1,0,0:0:0:0:
247,80,64766,1,8,0:0:0:0:
231,88,65088,1,8,0:0:0:0:
231,88,65411,1,0,0:0:0:0:
231,88,66056,1,0,0:0:0:0:
231,88,67024,1,8,0:0:0:0:
231,88,67185,1,0,0:0:0:0:
231,88,67346,1,8,0:0:0:0:
231,88,67669,1,8,0:0:0:0:
281,99,67991,1,0,0:0:0:0:
281,99,68637,1,0,0:0:0:0:
220,98,69282,1,8,0:0:0:0:
220,98,69604,1,0,0:0:0:0:
283,86,69766,1,8,0:0:0:0:
260,85,69927,1,0,0:0:0:0:
259,88,70250,1,0,0:0:0:0:
258,89,70572,1,8,0:0:0:0:
216,98,71217,1,0,0:0:0:0:
265,87,71540,1,0,0:0:0:0:
265,87,71862,1,8,0:0:0:0:
228,80,72024,1,8,0:0:0:0:
228,81,72185,1,8,0:0:0:0:
243,70,72508,1,0,0:0:0:0:
206,120,73153,1,8,0:0:0:0:
206,120,73475,1,0,0:0:0:0:
206,120,73798,1,0,0:0:0:0:
243,86,73959,1,0,0:0:0:0:
206,120,74120,1,8,0:0:0:0:
206,120,74443,1,8,0:0:0:0:
206,120,74766,1,0,0:0:0:0:
206,120,75088,1,0,0:0:0:0:
227,108,75733,1,8,0:0:0:0:
226,110,76056,1,0,0:0:0:0:
227,108,76379,1,8,0:0:0:0:
271,73,76540,1,8,0:0:0:0:
227,108,76701,1,8,0:0:0:0:
226,110,77024,1,0,0:0:0:0:
226,119,77346,1,0,0:0:0:0:
226,120,77669,1,8,0:0:0:0:
226,119,78314,1,0,0:0:0:0:
226,120,78637,1,8,0:0:0:0:
226,119,78959,1,0,0:0:0:0:
245,66,79120,1,8,0:0:0:0:
226,119,79282,1,0,0:0:0:0:
226,120,79604,1,8,0:0:0:0:
226,119,79927,1,8,0:0:0:0:
226,119,80250,1,0,0:0:0:0:
219,112,80895,1,8,0:0:0:0:
217,114,81217,1,0,0:0:0:0:
251,104,81862,1,0,0:0:0:0:
251,104,82024,1,0,0:0:0:0:
250,104,82185,1,8,0:0:0:0:
273,85,82346,1,0,0:0:0:0:
274,87,82508,1,8,0:0:0:0:
273,88,82830,1,8,0:0:0:0:
254,93,83475,1,0,0:0:0:0:
264,78,83637,1,8,0:0:0:0:
253,95,83798,1,8,0:0:0:0:
254,93,84120,1,8,0:0:0:0:
261,82,84282,1,0,0:0:0:0:
254,93,84443,1,8,0:0:0:0:
253,95,84766,1,0,0:0:0:0:
251,100,85088,1,8,0:0:0:0:
251,100,85411,1,8,0:0:0:0:
244,95,86056,1,8,0:0:0:0:
243,98,86379,1,0,0:0:0:0:
183,119,86701,1,0,0:0:0:0:
228,125,87024,1,8,0:0:0:0:
227,126,87346,1,0,0:0:0:0:
228,125,87669,1,8,0:0:0:0:
228,125,87991,1,8,0:0:0:0:
269,61,88637,1,8,0:0:0:0:
201,68,88798,1,0,0:0:0:0:
209,73,88959,1,0,0:0:0:0:
209,73,89282,1,8,0:0:0:0:
209,73,89604,1,0,0:0:0:0:
209,73,89927,1,0,0:0:0:0:
178,56,90572,1,8,0:0:0:0:
202,70,90895,1,8,0:0:0:0:
225,106,91056,1,0,0:0:0:0:
225,106,91217,1,8,0:0:0:0:
225,106,91540,1,8,0:0:0:0:
225,106,91862,1,0,0:0:0:0:
233,92,92185,1,0,0:0:0:0:
246,57,92346,1,8,0:0:0:0:
252,73,92508,1,8,0:0:0:0:
266,49,92669,1,0,0:0:0:0:
248,84,92830,1,0,0:0:0:0:
0,0,93153,1,4,0:0:0:0:
216,101,93798,1,8,0:0:0:0:
216,101,94120,1,8,0:0:0:0:
216,101,94443,1,0,0:0:0:0:
216,101,94766,1,0,0:0:0:0:
216,101,95088,1,0,0:0:0:0:
216,101,95733,1,8,0:0:0:0:
213,62,96056,1,8,0:0:0:0:
213,62,96217,1,0,0:0:0:0:
244,84,96379,1,8,0:0:0:0:
244,84,96701,1,8,0:0:0:0:
244,84,97024,1,8,0:0:0:0:
244,84,97346,1,0,0:0:0:0:
238,88,97669,1,8,0:0:0:0:
270,93,97830,1,8,0:0:0:0:
238,88,97991,1,0,0:0:0:0:
208,68,98153,1,0,0:0:0:0:
237,89,98314,1,0,0:0:0:0:
241,82,98959,1,8,0:0:0:0:
237,89,99282,1,0,0:0:0:0:
241,82,99604,1,0,0:0:0:0:
235,87,99927,1,8,0:0:0:0:
237,89,100250,1,0,0:0:0:0:
229,111,100895,1,0,0:0:0:0:
226,113,101217,1,8,0:0:0:0:
258,80,101379,1,8,0:0:0:0:
258,80,101540,1,0,0:0:0:0:
258,80,101862,1,8,0:0:0:0:
258,80,102185,1,8,0:0:0:0:
258,80,102508,1,0,0:0:0:0:
269,79,102830,1,8,0:0:0:0:
266,84,102991,1,8,0:0:0:0:
257,96,103153,1,0,0:0:0:0:
257,98,103314,1,8,0:0:0:0:
256,98,103475,1,0,0:0:0:0:
248,99,104120,1,8,0:0:0:0:
248,99,104443,1,8,0:0:0:0:
248,99,104766,1,0,0:0:0:0:
248,99,105088,1,0,0:0:0:0:
248,99,105411,1,8,0:0:0:0:
229,107,106056,1,0,0:0:0:0:
228,109,106379,1,8,0:0:0:0:
251,80,106540,1,8,0:0:0:0:
251,82,106701,1,8,0:0:0:0:
138,115,107024,1,0,0:0:0:0:
173,113,107346,1,8,0:0:0:0:
266,85,107508,1,0,0:0:0:0:
268,89,107669,1,8,0:0:0:0:
265,93,107991,1,8,0:0:0:0:
266,85,108153,1,0,0:0:0:0:
262,95,108314,1,0,0:0:0:0:
266,85,108475,1,8,0:0:0:0:
263,66,108637,1,0,0:0:0:0:
291,83,109282,1,8,0:0:0:0:
281,88,109604,1,8,0:0:0:0:
197,52,109927,1,0,0:0:0:0:
197,52,110250,1,0,0:0:0:0:
197,52,110572,1,0,0:0:0:0:
259,81,111217,1,0,0:0:0:0:
259,81,111540,1,0,0:0:0:0:
259,81,111701,1,8,0:0:0:0:
259,81,111862,1,8,0:0:0:0:
259,81,112185,1,0,0:0:0:0:
259,81,112508,1,8,0:0:0:0:
238,78,112830,1,0,0:0:0:0:
251,43,112991,1,8,0:0:0:0:
231,78,113153,1,8,0:0:0:0:
231,80,113314,1,0,0:0:0:0:
230,82,113475,1,8,0:0:0:0:
237,50,114443,1,0,0:0:0:0:
237,50,114766,1,8,0:0:0:0:
195,95,115411,1,0,0:0:0:0:
208,95,115733,1,0,0:0:0:0:
238,178,116379,1,8,0:0:0:0:
238,178,116701,1,8,0:0:0:0:
238,178,117024,1,0,0:0:0:0:
238,178,117346,1,8,0:0:0:0:
238,178,117991,1,8,0:0:0:0:
238,178,118314,1,0,0:0:0:0:
331,152,118959,1,8,0:0:0:0:
318,161,119443,1,8,0:0:0:0:
315,162,119927,1,8,0:0:0:0:
248,169,120895,1,0,0:0:0:0:
248,169,121056,1,0,0:0:0:0:
254,143,121540,1,8,0:0:0:0:
254,143,122024,1,8,0:0:0:0:
254,143,122508,1,8,0:0:0:0:
264,137,123153,1,0,0:0:0:0:
263,140,123475,1,8,0:0:0:0:
162,120,123637,1,0,0:0:0:0:
212,144,123798,1,0,0:0:0:0:
233,117,124120,1,0,0:0:0:0:
266,120,124443,1,8,0:0:0:0:
265,122,124604,1,0,0:0:0:0:
248,124,125088,1,0,0:0:0:0:
245,130,125411,1,8,0:0:0:0:
248,124,125733,1,0,0:0:0:0:
272,115,125895,1,8,0:0:0:0:
272,118,126056,1,0,0:0:0:0:
271,118,126379,1,8,0:0:0:0:
233,77,126540,1,0,0:0:0:0:
224,81,127024,1,8,0:0:0:0:
222,83,127185,1,0,0:0:0:0:
203,89,127669,1,0,0:0:0:0:
203,91,127991,1,8,0:0:0:0:
226,103,128314,1,8,0:0:0:0:
228,105,128475,1,8,0:0:0:0:
229,106,128637,1,8,0:0:0:0:
226,112,128959,1,8,0:0:0:0:
226,112,129120,1,0,0:0:0:0:
236,127,129604,1,8,0:0:0:0:
236,127,130250,1,8,0:0:0:0:
236,127,130411,1,0,0:0:0:0:
240,105,130895,1,8,0:0:0:0:
240,109,131217,1,0,0:0:0:0:
252,113,131540,1,8,0:0:0:0:
251,115,131701,1,0,0:0:0:0:
233,91,132185,1,8,0:0:0:0:
234,89,132830,1,8,0:0:0:0:
225,79,133153,1,8,0:0:0:0:
197,93,133475,1,0,0:0:0:0:
262,94,133637,1,8,0:0:0:0:
261,98,133798,1,8,0:0:0:0:
262,94,133959,1,0,0:0:0:0:
262,94,134120,1,8,0:0:0:0:
