osu file format v14

[General]
AudioFilename: audio.mp3
AudioLeadIn: 0
PreviewTime: 40728
Countdown: 0
SampleSet: Normal
StackLeniency: 0.7
Mode: 1
LetterboxInBreaks: 0
WidescreenStoryboard: 1

[Editor]
Bookmarks: 10567,41535,62180,93148,113793,134438
DistanceSpacing: 0.2
BeatDivisor: 4
GridSize: 16
TimelineZoom: 1.3

[Metadata]
Title:love nwantiti (ah ah ah)
TitleUnicode:love nwantiti (ah ah ah)
Artist:CKay
ArtistUnicode:CKay
Creator:0gg
Version:-jordan-'s muzukashii
Source:
Tags:english pop igbo afrobeats afrobeat the first joeboy kuami eugene kwami marfo joseph akinwale akinfenwa-donus akinfenwa donus chukwuka ekweani -jordan- jory ogg nwantinti nigeria nigerian ghana ghanaian pidgin
BeatmapID:3322770
BeatmapSetID:1613238

[Difficulty]
HPDrainRate:7.5
CircleSize:5.4
OverallDifficulty:4.5
ApproachRate:5.7
SliderMultiplier:2.8
SliderTickRate:1

[Events]
//Background and Video events
0,0,"bg.jpg",0,-60
//Break Periods
//Storyboard Layer 0 (Background)
//Storyboard Layer 1 (Fail)
//Storyboard Layer 2 (Pass)
//Storyboard Layer 3 (Foreground)
//Storyboard Layer 4 (Overlay)
//Storyboard Sound Samples

[TimingPoints]
250,645.161290322581,4,1,0,50,1,0
250,-200,4,1,0,50,0,0
9443,-195.121951219512,4,1,0,50,0,0
9524,-192.752505782575,4,1,0,50,0,0
9604,-190.47619047619,4,1,0,55,0,0
9766,-186.046511627907,4,1,0,55,0,0
9927,-181.818181818182,4,1,0,60,0,0
10250,-173.913043478261,4,1,0,65,0,0
10572,-166.666666666667,4,1,0,70,0,0
19766,-163.265306122449,4,1,0,70,0,0
19846,-161.629222563439,4,1,0,70,0,0
19927,-160,4,1,0,75,0,0
20088,-156.862745098039,4,1,0,75,0,0
20250,-153.846153846154,4,1,0,80,0,0
20572,-148.148148148148,4,1,0,85,0,0
20733,-145.454545454545,4,1,0,85,0,0
20895,-142.857142857143,4,1,0,90,0,0
30034,-141.183114499506,4,1,0,90,0,0
30142,-139.528394028185,4,1,0,90,0,0
30250,-137.931034482759,4,1,0,90,0,0
30411,-135.593220338983,4,1,0,90,0,0
30572,-133.333333333333,4,1,0,90,0,0
30733,-131.147540983607,4,1,0,90,0,0
30814,-130.072840790843,4,1,0,90,0,0
30895,-129.032258064516,4,1,0,90,0,0
31056,-126.984126984127,4,1,0,90,0,0
31217,-125,4,1,0,90,0,0
39685,-123.716441915131,4,1,0,90,0,0
39766,-122.458976242959,4,1,0,90,0,0
39846,-121.241513094083,4,1,0,90,0,0
39927,-120.033609410635,4,1,0,90,0,0
40088,-117.68859597505,4,1,0,90,0,0
40169,-116.563702063178,4,1,0,90,0,0
40250,-115.446779034865,4,1,0,90,0,0
40411,-113.275940190304,4,1,0,90,0,0
40491,-112.233445566779,4,1,0,90,0,0
40572,-111.19759813188,4,1,0,90,0,0
40733,-109.186755209846,4,1,0,90,0,0
40895,-107.250107250107,4,1,0,90,0,0
41056,-105.374077976818,4,1,0,90,0,0
41137,-104.471374843293,4,1,0,90,0,0
41217,-103.573278094252,4,1,0,90,0,0
41379,-101.822624987272,4,1,0,90,0,0
41540,-100.140196274785,4,1,0,90,0,1
61379,-102.040816326531,4,1,0,90,0,1
61540,-104.166666666667,4,1,0,90,0,1
61701,-106.382978723404,4,1,0,90,0,1
61862,-108.695652173913,4,1,0,90,0,1
62025,-111.111111111111,4,1,0,90,0,1
62185,-113.636363636364,4,1,0,90,0,0
64766,-166.666666666667,4,1,0,70,0,0
71540,-160,4,1,0,75,0,0
71701,-156.862745098039,4,1,0,75,0,0
71862,-153.846153846154,4,1,0,80,0,0
72024,-150.943396226415,4,1,0,80,0,0
72185,-148.148148148148,4,1,0,85,0,0
72508,-142.857142857143,4,1,0,90,0,0
81701,-140.350877192982,4,1,0,90,0,0
81862,-137.931034482759,4,1,0,90,0,0
82024,-135.593220338983,4,1,0,90,0,0
82185,-133.333333333333,4,1,0,90,0,0
82346,-131.147540983607,4,1,0,90,0,0
82427,-130.072840790843,4,1,0,90,0,0
82508,-129.032258064516,4,1,0,90,0,0
82669,-126.984126984127,4,1,0,90,0,0
82830,-125,4,1,0,90,0,0
91298,-123.716441915131,4,1,0,90,0,0
91379,-122.458976242959,4,1,0,90,0,0
91459,-121.241513094083,4,1,0,90,0,0
91540,-120.033609410635,4,1,0,90,0,0
91701,-117.68859597505,4,1,0,90,0,0
91782,-116.563702063178,4,1,0,90,0,0
91862,-115.446779034865,4,1,0,90,0,0
92024,-113.275940190304,4,1,0,90,0,0
92104,-112.233445566779,4,1,0,90,0,0
92185,-111.19759813188,4,1,0,90,0,0
92346,-109.182225133748,4,1,0,90,0,0
92508,-107.250107250107,4,1,0,90,0,0
92669,-105.374077976818,4,1,0,90,0,0
92750,-104.471374843293,4,1,0,90,0,0
92830,-103.573278094252,4,1,0,90,0,0
92991,-101.822624987272,4,1,0,90,0,0
93153,-100.140196274785,4,1,0,90,0,1
112991,-102.040816326531,4,1,0,90,0,1
113153,-104.166666666667,4,1,0,90,0,1
113314,-106.382978723404,4,1,0,90,0,1
113475,-108.695652173913,4,1,0,90,0,1
113637,-111.111111111111,4,1,0,90,0,1
113798,-113.636363636364,4,1,0,90,0,0
114040,-142.857142857143,4,1,0,70,0,0
124120,-142.857142857143,4,1,0,70,0,0
133314,-140.350877192982,4,1,0,70,0,0
133395,-139.140114094894,4,1,0,70,0,0
133475,-137.931034482759,4,1,0,70,0,0
133637,-135.593220338983,4,1,0,70,0,0
133798,-133.333333333333,4,1,0,70,0,0
133959,-131.147540983607,4,1,0,70,0,0
134120,-129.032258064516,4,1,0,70,0,0
134443,-166.666666666667,4,1,0,70,0,0

[HitObjects]
236,177,250,5,0,0:0:0:0:
212,183,733,1,8,0:0:0:0:
198,197,1540,1,0,0:0:0:0:
219,208,2024,1,8,0:0:0:0:
236,177,2830,1,0,0:0:0:0:
212,183,3314,1,8,0:0:0:0:
231,202,3798,1,8,0:0:0:0:
198,197,4120,1,0,0:0:0:0:
219,208,4604,1,8,0:0:0:0:
236,177,5411,1,0,0:0:0:0:
212,183,5895,1,8,0:0:0:0:
198,197,6701,1,0,0:0:0:0:
214,198,7185,1,8,0:0:0:0:
236,177,7991,1,0,0:0:0:0:
212,183,8475,1,8,0:0:0:0:
236,195,8959,1,8,0:0:0:0:
198,197,9282,1,0,0:0:0:0:
276,207,9604,1,0,0:0:0:0:
245,207,9766,1,8,0:0:0:0:
276,207,9927,1,8,0:0:0:0:
258,212,10250,1,8,0:0:0:0:
258,212,10572,1,0,0:0:0:0:
258,212,11056,1,0,0:0:0:0:
258,212,11217,1,8,0:0:0:0:
258,212,11540,1,8,0:0:0:0:
258,212,11862,1,0,0:0:0:0:
250,213,12185,1,8,0:0:0:0:
234,206,12346,1,0,0:0:0:0:
250,213,13153,1,0,0:0:0:0:
246,204,13798,1,8,0:0:0:0:
250,213,14120,1,8,0:0:0:0:
250,213,14443,1,0,0:0:0:0:
250,213,14766,1,8,0:0:0:0:
280,225,14927,1,0,0:0:0:0:
250,213,15088,1,8,0:0:0:0:
250,213,15411,1,8,0:0:0:0:
231,210,15572,1,8,0:0:0:0:
250,213,15733,1,0,0:0:0:0:
250,213,16217,1,8,0:0:0:0:
293,219,16379,1,8,0:0:0:0:
250,213,16701,1,8,0:0:0:0:
250,213,17024,1,0,0:0:0:0:
250,213,17346,1,8,0:0:0:0:
250,213,17508,1,0,0:0:0:0:
257,232,17991,1,0,0:0:0:0:
257,232,18314,1,8,0:0:0:0:
257,232,18959,1,8,0:0:0:0:
257,232,19120,1,0,0:0:0:0:
257,232,19282,1,8,0:0:0:0:
257,232,19604,1,0,0:0:0:0:
246,243,19927,1,0,0:0:0:0:
246,243,20088,1,8,0:0:0:0:
246,243,20250,1,8,0:0:0:0:
249,243,20572,1,8,0:0:0:0:
246,243,20733,1,8,0:0:0:0:
246,243,20895,1,0,0:0:0:0:
228,216,21379,1,8,0:0:0:0:
228,216,21540,1,0,0:0:0:0:
228,216,21862,1,8,0:0:0:0:
228,216,22185,1,0,0:0:0:0:
215,224,22508,1,0,0:0:0:0:
217,222,22830,1,8,0:0:0:0:
241,224,23475,1,0,0:0:0:0:
241,224,23637,1,8,0:0:0:0:
241,224,23959,1,8,0:0:0:0:
241,224,24282,1,0,0:0:0:0:
244,242,24443,1,8,0:0:0:0:
244,240,24766,1,0,0:0:0:0:
244,240,25088,1,0,0:0:0:0:
244,242,25411,1,8,0:0:0:0:
250,253,25572,1,0,0:0:0:0:
244,240,25733,1,0,0:0:0:0:
246,243,26056,1,8,0:0:0:0:
228,216,26540,1,8,0:0:0:0:
228,216,26701,1,0,0:0:0:0:
228,216,27024,1,8,0:0:0:0:
228,216,27346,1,0,0:0:0:0:
215,224,27669,1,0,0:0:0:0:
217,222,27991,1,8,0:0:0:0:
241,224,28637,1,0,0:0:0:0:
241,224,28798,1,8,0:0:0:0:
241,224,29120,1,8,0:0:0:0:
244,242,29443,1,0,0:0:0:0:
241,224,29604,1,8,0:0:0:0:
244,240,29927,1,0,0:0:0:0:
244,240,30250,1,0,0:0:0:0:
245,229,30411,1,8,0:0:0:0:
244,242,30572,1,8,0:0:0:0:
244,240,30895,1,8,0:0:0:0:
238,225,31056,1,0,0:0:0:0:
238,225,31217,1,8,0:0:0:0:
236,230,31862,1,8,0:0:0:0:
238,225,32185,1,8,0:0:0:0:
237,230,32346,1,0,0:0:0:0:
237,230,32508,1,8,0:0:0:0:
237,230,32669,1,8,0:0:0:0:
236,230,32830,1,0,0:0:0:0:
238,225,33153,1,0,0:0:0:0:
220,233,33475,1,8,0:0:0:0:
220,233,33637,1,0,0:0:0:0:
220,233,33798,1,8,0:0:0:0:
216,220,34443,1,8,0:0:0:0:
216,220,34604,1,8,0:0:0:0:
216,220,34766,1,0,0:0:0:0:
216,220,35088,1,8,0:0:0:0:
216,220,35411,1,0,0:0:0:0:
216,220,35733,1,0,0:0:0:0:
227,226,35895,1,0,0:0:0:0:
216,220,36056,1,8,0:0:0:0:
216,220,36379,1,0,0:0:0:0:
198,214,37024,1,8,0:0:0:0:
198,214,37185,1,8,0:0:0:0:
198,214,37346,1,0,0:0:0:0:
198,214,37669,1,8,0:0:0:0:
198,214,37991,1,8,0:0:0:0:
198,214,38314,1,0,0:0:0:0:
194,227,38959,1,0,0:0:0:0:
194,227,39120,1,8,0:0:0:0:
194,227,39282,1,0,0:0:0:0:
194,227,39604,1,8,0:0:0:0:
194,227,39927,1,8,0:0:0:0:
194,227,40250,1,0,0:0:0:0:
194,227,40572,1,0,0:0:0:0:
194,227,40733,1,8,0:0:0:0:
194,227,40895,1,8,0:0:0:0:
220,229,41217,1,8,0:0:0:0:
190,261,41379,1,8,0:0:0:0:
512,0,41540,1,4,0:0:0:0:
220,229,42185,1,0,0:0:0:0:
220,229,42266,1,0,0:0:0:0:
220,229,42346,1,0,0:0:0:0:
209,245,42508,1,8,0:0:0:0:
209,245,42669,1,0,0:0:0:0:
209,245,42830,1,8,0:0:0:0:
209,245,43153,1,8,0:0:0:0:
209,245,43475,1,8,0:0:0:0:
207,235,44120,1,8,0:0:0:0:
205,253,44443,1,8,0:0:0:0:
205,253,44524,1,8,0:0:0:0:
205,253,44604,1,8,0:0:0:0:
205,253,44766,1,0,0:0:0:0:
203,242,45088,1,8,0:0:0:0:
204,241,45411,1,8,0:0:0:0:
204,241,45733,1,0,0:0:0:0:
196,237,46056,1,8,0:0:0:0:
196,237,46137,1,8,0:0:0:0:
196,237,46217,1,8,0:0:0:0:
196,237,46379,1,0,0:0:0:0:
196,237,46540,1,0,0:0:0:0:
196,237,46701,1,8,0:0:0:0:
209,236,47346,1,0,0:0:0:0:
203,249,47427,1,0,0:0:0:0:
209,236,47508,1,0,0:0:0:0:
196,237,47669,1,8,0:0:0:0:
200,238,47830,1,0,0:0:0:0:
200,238,47991,1,8,0:0:0:0:
209,236,48314,1,8,0:0:0:0:
209,240,48637,1,8,0:0:0:0:
209,236,49282,1,8,0:0:0:0:
209,240,49604,1,8,0:0:0:0:
209,236,49685,1,8,0:0:0:0:
209,236,49766,1,8,0:0:0:0:
209,236,49927,1,0,0:0:0:0:
209,236,50250,1,8,0:0:0:0:
209,240,50572,1,8,0:0:0:0:
209,236,50895,1,0,0:0:0:0:
209,236,51217,1,0,0:0:0:0:
209,240,51379,1,0,0:0:0:0:
209,240,51540,1,8,0:0:0:0:
206,244,51701,1,0,0:0:0:0:
220,229,51862,1,8,0:0:0:0:
220,229,52508,1,0,0:0:0:0:
220,229,52588,1,0,0:0:0:0:
220,229,52669,1,0,0:0:0:0:
209,245,52830,1,8,0:0:0:0:
209,245,52991,1,0,0:0:0:0:
209,245,53153,1,8,0:0:0:0:
209,245,53475,1,8,0:0:0:0:
209,245,53798,1,8,0:0:0:0:
207,235,54443,1,8,0:0:0:0:
205,253,54766,1,8,0:0:0:0:
205,253,54846,1,8,0:0:0:0:
205,253,54927,1,8,0:0:0:0:
205,253,55088,1,0,0:0:0:0:
203,242,55411,1,8,0:0:0:0:
204,241,55733,1,0,0:0:0:0:
205,253,55895,1,8,0:0:0:0:
204,241,56056,1,0,0:0:0:0:
196,237,56379,1,8,0:0:0:0:
196,237,56459,1,8,0:0:0:0:
196,237,56540,1,8,0:0:0:0:
196,237,56701,1,0,0:0:0:0:
196,237,56862,1,0,0:0:0:0:
196,237,57024,1,8,0:0:0:0:
209,236,57669,1,0,0:0:0:0:
203,249,57750,1,0,0:0:0:0:
209,236,57830,1,0,0:0:0:0:
196,237,57991,1,8,0:0:0:0:
200,238,58153,1,0,0:0:0:0:
200,238,58314,1,8,0:0:0:0:
209,236,58637,1,8,0:0:0:0:
209,240,58959,1,8,0:0:0:0:
209,236,59604,1,8,0:0:0:0:
209,240,59927,1,8,0:0:0:0:
209,236,60008,1,8,0:0:0:0:
209,236,60088,1,8,0:0:0:0:
209,236,60250,1,0,0:0:0:0:
209,236,60572,1,8,0:0:0:0:
209,240,60895,1,8,0:0:0:0:
212,257,61056,1,8,0:0:0:0:
209,236,61217,1,0,0:0:0:0:
234,251,61379,1,0,0:0:0:0:
209,236,61540,1,8,0:0:0:0:
209,240,61701,1,0,0:0:0:0:
209,240,61862,1,8,0:0:0:0:
206,244,62185,1,0,0:0:0:0:
181,254,64766,1,8,0:0:0:0:
232,247,65088,1,8,0:0:0:0:
211,257,65250,1,0,0:0:0:0:
232,247,65411,1,0,0:0:0:0:
225,258,65733,1,0,0:0:0:0:
230,255,66056,1,8,0:0:0:0:
232,261,66540,1,0,0:0:0:0:
230,255,67024,1,8,0:0:0:0:
230,255,67185,1,0,0:0:0:0:
230,255,67346,1,8,0:0:0:0:
230,255,67669,1,8,0:0:0:0:
230,255,67991,1,8,0:0:0:0:
236,253,68153,1,0,0:0:0:0:
236,253,68314,1,0,0:0:0:0:
236,253,68637,1,0,0:0:0:0:
236,253,69282,1,8,0:0:0:0:
236,253,69443,1,8,0:0:0:0:
236,253,69604,1,0,0:0:0:0:
236,253,69927,1,8,0:0:0:0:
236,253,70250,1,0,0:0:0:0:
236,253,70572,1,8,0:0:0:0:
238,267,70733,1,0,0:0:0:0:
236,253,70895,1,0,0:0:0:0:
236,253,71217,1,0,0:0:0:0:
236,253,71540,1,8,0:0:0:0:
236,253,71862,1,0,0:0:0:0:
236,253,72024,1,0,0:0:0:0:
236,253,72185,1,8,0:0:0:0:
236,253,72508,1,0,0:0:0:0:
219,258,72991,1,8,0:0:0:0:
219,258,73153,1,8,0:0:0:0:
219,258,73475,1,0,0:0:0:0:
219,258,73798,1,0,0:0:0:0:
228,258,73959,1,0,0:0:0:0:
228,258,74120,1,8,0:0:0:0:
228,258,74443,1,8,0:0:0:0:
228,258,74766,1,0,0:0:0:0:
228,258,75088,1,8,0:0:0:0:
228,258,75572,1,8,0:0:0:0:
228,258,75733,1,8,0:0:0:0:
228,258,76056,1,0,0:0:0:0:
228,258,76379,1,0,0:0:0:0:
228,258,76540,1,0,0:0:0:0:
228,258,76701,1,8,0:0:0:0:
228,258,77024,1,0,0:0:0:0:
240,264,77185,1,8,0:0:0:0:
228,258,77346,1,0,0:0:0:0:
228,258,77669,1,0,0:0:0:0:
228,258,78153,1,8,0:0:0:0:
228,258,78314,1,8,0:0:0:0:
228,258,78637,1,0,0:0:0:0:
228,258,78959,1,0,0:0:0:0:
228,258,79120,1,0,0:0:0:0:
228,258,79282,1,8,0:0:0:0:
228,258,79604,1,0,0:0:0:0:
228,258,79927,1,8,0:0:0:0:
228,258,80250,1,8,0:0:0:0:
228,258,80733,1,8,0:0:0:0:
228,258,80895,1,8,0:0:0:0:
228,258,81217,1,0,0:0:0:0:
228,258,81540,1,0,0:0:0:0:
228,258,81701,1,8,0:0:0:0:
235,267,82024,1,8,0:0:0:0:
235,267,82185,1,0,0:0:0:0:
244,240,82508,1,0,0:0:0:0:
238,225,82669,1,8,0:0:0:0:
238,225,82830,1,0,0:0:0:0:
236,230,83475,1,8,0:0:0:0:
238,225,83798,1,8,0:0:0:0:
237,230,83959,1,0,0:0:0:0:
237,230,84120,1,8,0:0:0:0:
237,230,84282,1,8,0:0:0:0:
236,230,84443,1,0,0:0:0:0:
238,225,84766,1,0,0:0:0:0:
220,233,85088,1,0,0:0:0:0:
220,233,85250,1,0,0:0:0:0:
220,233,85411,1,8,0:0:0:0:
216,220,86056,1,8,0:0:0:0:
216,220,86217,1,8,0:0:0:0:
216,220,86379,1,0,0:0:0:0:
216,220,86701,1,8,0:0:0:0:
216,220,87024,1,0,0:0:0:0:
216,220,87346,1,0,0:0:0:0:
227,226,87508,1,0,0:0:0:0:
216,220,87669,1,8,0:0:0:0:
216,220,87991,1,0,0:0:0:0:
198,214,88637,1,8,0:0:0:0:
198,214,88798,1,8,0:0:0:0:
198,214,88959,1,0,0:0:0:0:
198,214,89282,1,8,0:0:0:0:
198,214,89604,1,8,0:0:0:0:
198,214,89927,1,0,0:0:0:0:
194,227,90572,1,0,0:0:0:0:
194,227,90733,1,8,0:0:0:0:
194,227,90895,1,0,0:0:0:0:
194,227,91217,1,8,0:0:0:0:
194,227,91540,1,8,0:0:0:0:
194,227,91862,1,0,0:0:0:0:
194,227,92185,1,0,0:0:0:0:
194,227,92346,1,8,0:0:0:0:
194,227,92508,1,8,0:0:0:0:
220,229,92830,1,8,0:0:0:0:
190,261,92991,1,8,0:0:0:0:
512,0,93153,1,4,0:0:0:0:
220,229,93798,1,0,0:0:0:0:
220,229,93879,1,0,0:0:0:0:
220,229,93959,1,0,0:0:0:0:
209,245,94120,1,8,0:0:0:0:
209,245,94282,1,0,0:0:0:0:
209,245,94443,1,8,0:0:0:0:
209,245,94766,1,8,0:0:0:0:
209,245,95088,1,0,0:0:0:0:
207,235,95733,1,8,0:0:0:0:
205,253,96056,1,8,0:0:0:0:
205,253,96137,1,8,0:0:0:0:
205,253,96217,1,8,0:0:0:0:
205,253,96379,1,0,0:0:0:0:
203,242,96701,1,8,0:0:0:0:
204,241,97024,1,0,0:0:0:0:
204,241,97346,1,8,0:0:0:0:
196,237,97669,1,8,0:0:0:0:
196,237,97750,1,8,0:0:0:0:
196,237,97830,1,8,0:0:0:0:
196,237,97991,1,0,0:0:0:0:
196,237,98153,1,0,0:0:0:0:
196,237,98314,1,8,0:0:0:0:
209,236,98959,1,0,0:0:0:0:
203,249,99040,1,0,0:0:0:0:
209,236,99120,1,0,0:0:0:0:
196,237,99282,1,8,0:0:0:0:
200,238,99443,1,0,0:0:0:0:
200,238,99604,1,8,0:0:0:0:
209,236,99927,1,8,0:0:0:0:
209,240,100250,1,0,0:0:0:0:
209,236,100895,1,8,0:0:0:0:
209,240,101217,1,8,0:0:0:0:
209,236,101298,1,8,0:0:0:0:
209,236,101379,1,8,0:0:0:0:
209,236,101540,1,0,0:0:0:0:
209,236,101862,1,8,0:0:0:0:
209,240,102185,1,8,0:0:0:0:
234,241,102346,1,8,0:0:0:0:
209,236,102508,1,0,0:0:0:0:
209,236,102830,1,0,0:0:0:0:
209,240,102991,1,0,0:0:0:0:
209,240,103153,1,8,0:0:0:0:
206,244,103314,1,0,0:0:0:0:
220,229,103475,1,8,0:0:0:0:
220,229,104120,1,0,0:0:0:0:
220,229,104201,1,0,0:0:0:0:
220,229,104282,1,0,0:0:0:0:
209,245,104443,1,8,0:0:0:0:
209,245,104604,1,0,0:0:0:0:
209,245,104766,1,8,0:0:0:0:
209,245,105088,1,8,0:0:0:0:
209,245,105411,1,0,0:0:0:0:
207,235,106056,1,8,0:0:0:0:
205,253,106379,1,8,0:0:0:0:
205,253,106459,1,8,0:0:0:0:
205,253,106540,1,8,0:0:0:0:
205,253,106701,1,0,0:0:0:0:
203,242,107024,1,8,0:0:0:0:
204,241,107346,1,0,0:0:0:0:
205,253,107508,1,8,0:0:0:0:
204,241,107669,1,0,0:0:0:0:
196,237,107991,1,8,0:0:0:0:
196,237,108072,1,8,0:0:0:0:
196,237,108153,1,8,0:0:0:0:
196,237,108314,1,0,0:0:0:0:
196,237,108475,1,0,0:0:0:0:
196,237,108637,1,8,0:0:0:0:
209,236,109282,1,0,0:0:0:0:
203,249,109362,1,0,0:0:0:0:
209,236,109443,1,0,0:0:0:0:
196,237,109604,1,8,0:0:0:0:
200,238,109766,1,0,0:0:0:0:
200,238,109927,1,8,0:0:0:0:
209,236,110250,1,8,0:0:0:0:
209,240,110572,1,0,0:0:0:0:
209,236,111217,1,8,0:0:0:0:
209,240,111540,1,8,0:0:0:0:
209,236,111620,1,8,0:0:0:0:
209,236,111701,1,8,0:0:0:0:
209,236,111862,1,0,0:0:0:0:
209,236,112185,1,8,0:0:0:0:
209,240,112508,1,0,0:0:0:0:
209,236,112830,1,8,0:0:0:0:
234,251,112991,1,0,0:0:0:0:
209,236,113153,1,8,0:0:0:0:
209,240,113314,1,0,0:0:0:0:
209,240,113475,1,8,0:0:0:0:
224,236,113637,1,8,0:0:0:0:
206,244,113798,1,0,0:0:0:0:
209,240,114443,1,0,0:0:0:0:
206,244,114766,1,8,0:0:0:0:
209,240,115411,1,8,0:0:0:0:
206,244,115733,1,0,0:0:0:0:
209,240,116379,1,8,0:0:0:0:
228,248,116701,1,8,0:0:0:0:
209,240,117024,1,0,0:0:0:0:
209,240,117346,1,8,0:0:0:0:
219,239,117991,1,8,0:0:0:0:
219,239,118314,1,8,0:0:0:0:
219,239,118959,1,0,0:0:0:0:
219,239,119443,1,8,0:0:0:0:
219,239,119927,1,0,0:0:0:0:
219,239,120733,1,8,0:0:0:0:
219,239,120895,1,8,0:0:0:0:
219,239,121056,1,0,0:0:0:0:
237,241,121540,1,0,0:0:0:0:
237,241,121862,1,8,0:0:0:0:
237,241,122024,1,0,0:0:0:0:
219,244,122346,1,8,0:0:0:0:
219,244,122508,1,0,0:0:0:0:
234,245,122991,1,8,0:0:0:0:
234,245,123153,1,8,0:0:0:0:
251,257,123314,1,0,0:0:0:0:
234,245,123475,1,8,0:0:0:0:
226,251,123798,1,0,0:0:0:0:
283,265,124120,1,0,0:0:0:0:
235,267,124443,1,0,0:0:0:0:
235,267,124604,1,8,0:0:0:0:
235,267,125088,1,0,0:0:0:0:
235,267,125411,1,0,0:0:0:0:
235,267,125572,1,8,0:0:0:0:
235,267,125733,1,8,0:0:0:0:
235,267,126056,1,8,0:0:0:0:
235,267,126379,1,0,0:0:0:0:
223,262,126701,1,0,0:0:0:0:
223,262,127024,1,8,0:0:0:0:
222,268,127185,1,8,0:0:0:0:
212,276,127669,1,0,0:0:0:0:
212,276,127991,1,8,0:0:0:0:
212,276,128153,1,0,0:0:0:0:
212,276,128314,1,8,0:0:0:0:
212,276,128637,1,8,0:0:0:0:
212,276,128798,1,8,0:0:0:0:
212,276,128959,1,0,0:0:0:0:
217,268,129282,1,0,0:0:0:0:
217,268,129604,1,8,0:0:0:0:
217,268,129766,1,0,0:0:0:0:
217,268,130250,1,8,0:0:0:0:
217,268,130411,1,0,0:0:0:0:
206,258,130733,1,0,0:0:0:0:
206,258,130895,1,0,0:0:0:0:
206,258,131056,1,8,0:0:0:0:
206,258,131217,1,0,0:0:0:0:
213,258,131540,1,8,0:0:0:0:
213,258,131701,1,0,0:0:0:0:
206,265,132024,1,0,0:0:0:0:
206,265,132185,1,8,0:0:0:0:
206,265,132346,1,0,0:0:0:0:
206,265,132669,1,0,0:0:0:0:
206,265,132830,1,8,0:0:0:0:
206,265,132991,1,0,0:0:0:0:
214,264,133475,1,0,0:0:0:0:
214,264,133637,1,8,0:0:0:0:
214,264,133798,1,8,0:0:0:0:
197,274,134120,1,8,0:0:0:0:
